  0
SECTION
  2
HEADER
  9
$ACADVER
  1
AC1009
  9
$INSBASE
 10
0.0
 20
0.0
 30
0.0
  9
$EXTMIN
 10
-37.422179346231466
 20
-13.54980383015913
 30
-0.0000000000112498
  9
$EXTMAX
 10
28.152466376955321
 20
20.004273008094511
 30
0.0000000000002956
  9
$LIMMIN
 10
-150.0
 20
-150.0
  9
$LIMMAX
 10
150.0
 20
150.0
  9
$ORTHOMODE
 70
     0
  9
$REGENMODE
 70
     1
  9
$FILLMODE
 70
     1
  9
$QTEXTMODE
 70
     0
  9
$MIRRTEXT
 70
     0
  9
$DRAGMODE
 70
     2
  9
$LTSCALE
 40
3.0
  9
$OSMODE
 70
   111
  9
$ATTMODE
 70
     1
  9
$TEXTSIZE
 40
3.5
  9
$TRACEWID
 40
1.0
  9
$TEXTSTYLE
  7
BESCHLAG
  9
$CLAYER
  8
0
  9
$CELTYPE
  6
BYLAYER
  9
$CECOLOR
 62
   256
  9
$DIMSCALE
 40
1.0
  9
$DIMASZ
 40
2.0
  9
$DIMEXO
 40
2.0
  9
$DIMDLI
 40
0.0
  9
$DIMRND
 40
0.0
  9
$DIMDLE
 40
1.0
  9
$DIMEXE
 40
1.0
  9
$DIMTP
 40
0.0
  9
$DIMTM
 40
0.0
  9
$DIMTXT
 40
3.5
  9
$DIMCEN
 40
0.0
  9
$DIMTSZ
 40
0.0
  9
$DIMTOL
 70
     0
  9
$DIMLIM
 70
     0
  9
$DIMTIH
 70
     0
  9
$DIMTOH
 70
     0
  9
$DIMSE1
 70
     0
  9
$DIMSE2
 70
     0
  9
$DIMTAD
 70
     1
  9
$DIMZIN
 70
     8
  9
$DIMBLK
  1

  9
$DIMASO
 70
     1
  9
$DIMSHO
 70
     1
  9
$DIMPOST
  1

  9
$DIMAPOST
  1

  9
$DIMALT
 70
     0
  9
$DIMALTD
 70
     2
  9
$DIMALTF
 40
0.039370078740157
  9
$DIMLFAC
 40
1.0
  9
$DIMTOFL
 70
     1
  9
$DIMTVP
 40
0.0
  9
$DIMTIX
 70
     1
  9
$DIMSOXD
 70
     0
  9
$DIMSAH
 70
     1
  9
$DIMBLK1
  1
OBLIQUE
  9
$DIMBLK2
  1
OBLIQUE
  9
$DIMSTYLE
  2
OPO-SSTRICH
  9
$DIMCLRD
 70
   256
  9
$DIMCLRE
 70
   256
  9
$DIMCLRT
 70
   256
  9
$DIMTFAC
 40
0.7114285714285716
  9
$DIMGAP
 40
1.0
  9
$LUNITS
 70
     2
  9
$LUPREC
 70
     1
  9
$SKETCHINC
 40
1.0
  9
$FILLETRAD
 40
0.0
  9
$AUNITS
 70
     0
  9
$AUPREC
 70
     1
  9
$MENU
  1
D:\ACL_CGWG\CGTAB13
  9
$ELEVATION
 40
0.0
  9
$PELEVATION
 40
0.0
  9
$THICKNESS
 40
0.0
  9
$LIMCHECK
 70
     0
  9
$BLIPMODE
 70
     0
  9
$CHAMFERA
 40
1.0
  9
$CHAMFERB
 40
1.0
  9
$SKPOLY
 70
     0
  9
$TDCREATE
 40
2451739.8637794671
  9
$TDUPDATE
 40
2452086.7443509721
  9
$TDINDWG
 40
0.0009429514
  9
$TDUSRTIMER
 40
0.0009429514
  9
$USRTIMER
 70
     1
  9
$ANGBASE
 50
0.0
  9
$ANGDIR
 70
     0
  9
$PDMODE
 70
    35
  9
$PDSIZE
 40
5.0
  9
$PLINEWID
 40
0.0
  9
$COORDS
 70
     1
  9
$SPLFRAME
 70
     0
  9
$SPLINETYPE
 70
     6
  9
$SPLINESEGS
 70
     8
  9
$ATTDIA
 70
     1
  9
$ATTREQ
 70
     1
  9
$HANDLING
 70
-16383
  9
$HANDSEED
  5
495
  9
$SURFTAB1
 70
    12
  9
$SURFTAB2
 70
    12
  9
$SURFTYPE
 70
     6
  9
$SURFU
 70
    12
  9
$SURFV
 70
    12
  9
$UCSNAME
  2

  9
$UCSORG
 10
0.0
 20
0.0
 30
0.0
  9
$UCSXDIR
 10
1.0
 20
0.0
 30
0.0
  9
$UCSYDIR
 10
0.0
 20
1.0
 30
0.0
  9
$PUCSNAME
  2

  9
$PUCSORG
 10
0.0
 20
0.0
 30
0.0
  9
$PUCSXDIR
 10
1.0
 20
0.0
 30
0.0
  9
$PUCSYDIR
 10
0.0
 20
1.0
 30
0.0
  9
$USERI1
 70
     0
  9
$USERI2
 70
     0
  9
$USERI3
 70
     0
  9
$USERI4
 70
     0
  9
$USERI5
 70
     0
  9
$USERR1
 40
0.0
  9
$USERR2
 40
0.0
  9
$USERR3
 40
0.0
  9
$USERR4
 40
0.0
  9
$USERR5
 40
0.0
  9
$WORLDVIEW
 70
     1
  9
$SHADEDGE
 70
     3
  9
$SHADEDIF
 70
    70
  9
$TILEMODE
 70
     1
  9
$MAXACTVP
 70
    48
  9
$PLIMCHECK
 70
     0
  9
$PEXTMIN
 10
1.0000000000000000E+020
 20
1.0000000000000000E+020
 30
1.0000000000000000E+020
  9
$PEXTMAX
 10
-1.0000000000000000E+020
 20
-1.0000000000000000E+020
 30
-1.0000000000000000E+020
  9
$PLIMMIN
 10
0.0
 20
0.0
  9
$PLIMMAX
 10
420.0
 20
297.0
  9
$UNITMODE
 70
     0
  9
$VISRETAIN
 70
     1
  9
$PLINEGEN
 70
     0
  9
$PSLTSCALE
 70
     1
  0
ENDSEC
  0
SECTION
  2
TABLES
  0
TABLE
  2
VPORT
 70
     2
  0
VPORT
  2
*ACTIVE
 70
     0
 10
0.0
 20
0.0
 11
1.0
 21
1.0
 12
-4.6348564846380782
 22
3.2272345889676881
 13
0.0
 23
0.0
 14
0.5
 24
0.5
 15
10.0
 25
10.0
 16
0.0
 26
0.0
 36
1.0
 17
0.0
 27
0.0
 37
0.0
 40
41.01061045860785
 41
1.6070460704607039
 42
50.0
 43
0.0
 44
0.0
 50
0.0
 51
0.0
 71
     0
 72
   800
 73
     1
 74
     1
 75
     0
 76
     0
 77
     0
 78
     0
  0
ENDTAB
  0
TABLE
  2
LTYPE
 70
     2
  0
LTYPE
  2
CONTINUOUS
 70
     0
  3
_______________________________________________
 72
    65
 73
     2
 40
1.0
 49
1.0
 49
0.0
  0
LTYPE
  2
STRICHPUNKT
 70
     0
  3
__ . __ . __ . __ . __ . __ . __ . __ . __ . __
 72
    65
 73
     4
 40
1.0
 49
0.5
 49
-0.25
 49
0.0
 49
-0.25
  0
ENDTAB
  0
TABLE
  2
LAYER
 70
     7
  0
LAYER
  2
0
 70
     0
 62
    30
  6
CONTINUOUS
  0
LAYER
  2
1
 70
     0
 62
     2
  6
CONTINUOUS
  0
LAYER
  2
2
 70
     0
 62
     9
  6
CONTINUOUS
  0
LAYER
  2
4
 70
     1
 62
     4
  6
CONTINUOUS
  0
LAYER
  2
5
 70
     0
 62
     1
  6
CONTINUOUS
  0
LAYER
  2
6
 70
     0
 62
     3
  6
CONTINUOUS
  0
LAYER
  2
DEFPOINTS
 70
     0
 62
     7
  6
CONTINUOUS
  0
ENDTAB
  0
TABLE
  2
STYLE
 70
     2
  0
STYLE
  2
STANDARD
 70
     0
 40
0.0
 41
1.0
 50
0.0
 71
     0
 42
2.5
  3
txt
  4

  0
STYLE
  2
BESCHLAG
 70
     0
 40
0.0
 41
1.0
 50
0.0
 71
     0
 42
3.5
  3
txt
  4

  0
ENDTAB
  0
TABLE
  2
VIEW
 70
     0
  0
ENDTAB
  0
TABLE
  2
UCS
 70
     0
  0
ENDTAB
  0
TABLE
  2
APPID
 70
     1
  0
APPID
  2
ACAD
 70
     0
  0
ENDTAB
  0
TABLE
  2
DIMSTYLE
 70
     1
  0
DIMSTYLE
  2
OPO-SSTRICH
 70
     0
  3

  4

  5

  6
OBLIQUE
  7
OBLIQUE
 40
1.0
 41
2.0
 42
2.0
 43
0.0
 44
1.0
 45
0.0
 46
1.0
 47
0.0
 48
0.0
140
3.5
141
0.0
142
0.0
143
0.039370078740157
144
1.0
145
0.0
146
0.7114285714285716
147
1.0
 71
     0
 72
     0
 73
     0
 74
     0
 75
     0
 76
     0
 77
     1
 78
     8
170
     0
171
     2
172
     1
173
     1
174
     1
175
     0
176
   256
177
   256
178
   256
  0
ENDTAB
  0
ENDSEC
  0
SECTION
  2
BLOCKS
  0
BLOCK
  8
0
  2
$MODEL_SPACE
 70
     0
 10
0.0
 20
0.0
 30
0.0
  3
$MODEL_SPACE
  1

  0
ENDBLK
  5
1C
  8
0
  0
BLOCK
 67
     1
  8
0
  2
$PAPER_SPACE
 70
     0
 10
0.0
 20
0.0
 30
0.0
  3
$PAPER_SPACE
  1

  0
ENDBLK
  5
19
 67
     1
  8
0
  0
BLOCK
  8
0
  2
_OBLIQUE
 70
     0
 10
0.0
 20
0.0
 30
0.0
  3
_OBLIQUE
  1

  0
LINE
  5
204
  8
0
 62
     0
 10
-0.5
 20
-0.5
 30
0.0
 11
0.5
 21
0.5
 31
0.0
  0
ENDBLK
  5
206
  8
0
  0
BLOCK
  8
0
  2
NULLPUNKT
 70
     0
 10
0.0
 20
0.0
 30
0.0
  3
NULLPUNKT
  1

  0
SOLID
  5
254
  8
5
 10
0.0
 20
0.0
 30
0.0
 11
2.0
 21
0.0
 31
0.0
 12
0.0
 22
-2.0
 32
0.0
 13
0.0
 23
-2.0
 33
0.0
  0
SOLID
  5
255
  8
5
 10
0.0
 20
0.0
 30
0.0
 11
-2.0
 21
0.0
 31
0.0
 12
0.0
 22
2.0
 32
0.0
 13
0.0
 23
2.0
 33
0.0
  0
POLYLINE
  5
256
  8
5
 66
     1
 10
0.0
 20
0.0
 30
0.0
  0
VERTEX
  5
42D
  8
5
 10
0.0
 20
2.0
 30
0.0
  0
VERTEX
  5
42E
  8
5
 10
0.0
 20
-2.0
 30
0.0
  0
SEQEND
  5
42F
  8
5
  0
POLYLINE
  5
257
  8
5
 66
     1
 10
0.0
 20
0.0
 30
0.0
  0
VERTEX
  5
430
  8
5
 10
-2.0
 20
0.0
 30
0.0
  0
VERTEX
  5
431
  8
5
 10
2.0
 20
0.0
 30
0.0
  0
SEQEND
  5
432
  8
5
  0
CIRCLE
  5
258
  8
5
 10
0.0
 20
0.0
 30
0.0
 40
2.0
  0
ENDBLK
  5
25A
  8
0
  0
BLOCK
  8
0
  2
*X2
 70
     1
 10
0.0
 20
0.0
 30
0.0
  3
*X2
  1

  0
LINE
  5
26C
  8
0
 62
     0
 10
550.95960142612955
 20
-464.44573635775259
 30
0.0
 11
553.45960142612955
 21
-461.94573635775259
 31
0.0
  0
LINE
  5
26D
  8
0
 62
     0
 10
558.68601953413065
 20
-456.7193182497515
 30
0.0
 11
560.95960142612955
 21
-454.44573635775259
 31
0.0
  0
LINE
  5
26E
  8
0
 62
     0
 10
558.68601953413065
 20
-455.30510468737839
 30
0.0
 11
559.54538786375645
 21
-454.44573635775259
 31
0.0
  0
LINE
  5
26F
  8
0
 62
     0
 10
550.83601953413017
 20
-463.15510468737881
 30
0.0
 11
552.04538786375656
 21
-461.94573635775259
 31
0.0
  0
LINE
  5
270
  8
0
 62
     0
 10
545.30274717663724
 20
-464.44573635775259
 30
0.0
 11
546.53601953412999
 21
-463.21246400025967
 31
0.0
  0
LINE
  5
271
  8
0
 62
     0
 10
543.88853361426413
 20
-464.44573635775259
 30
0.0
 11
546.38853361426413
 21
-461.94573635775259
 31
0.0
  0
LINE
  5
272
  8
0
 62
     0
 10
542.47432005189103
 20
-464.44573635775259
 30
0.0
 11
544.97432005189103
 21
-461.94573635775259
 31
0.0
  0
LINE
  5
273
  8
0
 62
     0
 10
541.06010648951792
 20
-464.44573635775259
 30
0.0
 11
543.56010648951803
 21
-461.94573635775259
 31
0.0
  0
LINE
  5
274
  8
0
 62
     0
 10
539.64589292714481
 20
-464.44573635775259
 30
0.0
 11
542.14589292714493
 21
-461.94573635775259
 31
0.0
  0
LINE
  5
275
  8
0
 62
     0
 10
538.68601953413065
 20
-463.99139618839359
 30
0.0
 11
540.73167936477182
 21
-461.94573635775259
 31
0.0
  0
LINE
  5
276
  8
0
 62
     0
 10
538.68601953413065
 20
-462.5771826260206
 30
0.0
 11
539.31746580239871
 21
-461.94573635775259
 31
0.0
  0
LINE
  5
277
  8
0
 62
     0
 10
552.37381498850255
 20
-464.44573635775259
 30
0.0
 11
554.87381498850277
 21
-461.94573635775259
 31
0.0
  0
LINE
  5
278
  8
0
 62
     0
 10
560.87381498850255
 20
-455.94573635775259
 30
0.0
 11
562.17013612691096
 21
-454.64941521934412
 31
0.0
  0
LINE
  5
279
  8
0
 62
     0
 10
558.68601953413065
 20
-458.13353181212449
 30
0.0
 11
560.18601953413065
 21
-456.6335318121246
 31
0.0
  0
LINE
  5
27A
  8
0
 62
     0
 10
553.78802855087565
 20
-464.44573635775259
 30
0.0
 11
556.28802855087577
 21
-461.94573635775259
 31
0.0
  0
LINE
  5
27B
  8
0
 62
     0
 10
558.68601953413065
 20
-459.54774537449771
 30
0.0
 11
560.18601953413065
 21
-458.04774537449759
 31
0.0
  0
LINE
  5
27C
  8
0
 62
     0
 10
555.20224211324876
 20
-464.44573635775259
 30
0.0
 11
557.70224211324899
 21
-461.94573635775259
 31
0.0
  0
LINE
  5
27D
  8
0
 62
     0
 10
558.68601953413065
 20
-460.9619589368707
 30
0.0
 11
561.20224211324876
 21
-458.44573635775248
 31
0.0
  0
LINE
  5
27E
  8
0
 62
     0
 10
556.61645567562186
 20
-464.44573635775259
 30
0.0
 11
562.61645567562186
 21
-458.44573635775248
 31
0.0
  0
LINE
  5
27F
  8
0
 62
     0
 10
558.03066923799497
 20
-464.44573635775259
 30
0.0
 11
561.18601953413065
 21
-461.29038606161691
 31
0.0
  0
LINE
  5
280
  8
0
 62
     0
 10
562.53066923799497
 20
-459.94573635775248
 30
0.0
 11
564.03066923799497
 21
-458.44573635775248
 31
0.0
  0
LINE
  5
281
  8
0
 62
     0
 10
559.44488280036819
 20
-464.44573635775259
 30
0.0
 11
561.19091386785601
 21
-462.69970529026472
 31
0.0
  0
LINE
  5
282
  8
0
 62
     0
 10
563.94488280036819
 20
-459.94573635775248
 30
0.0
 11
565.44488280036808
 21
-458.44573635775248
 31
0.0
  0
LINE
  5
283
  8
0
 62
     0
 10
560.85909636274118
 20
-464.44573635775259
 30
0.0
 11
562.3590963627413
 21
-462.94573635775248
 31
0.0
  0
LINE
  5
284
  8
0
 62
     0
 10
570.18601953413065
 20
-455.11881318636313
 30
0.0
 11
570.85909636274107
 21
-454.44573635775248
 31
0.0
  0
LINE
  5
285
  8
0
 62
     0
 10
565.35909636274118
 20
-459.94573635775248
 30
0.0
 11
566.8590963627413
 21
-458.44573635775248
 31
0.0
  0
LINE
  5
286
  8
0
 62
     0
 10
562.2733099251144
 20
-464.44573635775259
 30
0.0
 11
563.7733099251144
 21
-462.94573635775248
 31
0.0
  0
LINE
  5
287
  8
0
 62
     0
 10
570.77330992511418
 20
-455.94573635775259
 30
0.0
 11
572.27090608985702
 21
-454.44814019300992
 31
0.0
  0
LINE
  5
288
  8
0
 62
     0
 10
566.7733099251144
 20
-459.94573635775248
 30
0.0
 11
568.27330992511429
 21
-458.44573635775248
 31
0.0
  0
LINE
  5
289
  8
0
 62
     0
 10
563.6875234874874
 20
-464.44573635775259
 30
0.0
 11
565.18752348748751
 21
-462.94573635775248
 31
0.0
  0
LINE
  5
28A
  8
0
 62
     0
 10
572.18601953413065
 20
-455.9472403111094
 30
0.0
 11
573.24743141602301
 21
-454.88582842921699
 31
0.0
  0
LINE
  5
28B
  8
0
 62
     0
 10
568.1875234874874
 20
-459.94573635775248
 30
0.0
 11
569.68752348748728
 21
-458.44573635775248
 31
0.0
  0
LINE
  5
28C
  8
0
 62
     0
 10
565.1017370498605
 20
-464.44573635775259
 30
0.0
 11
566.60173704986062
 21
-462.94573635775248
 31
0.0
  0
LINE
  5
28D
  8
0
 62
     0
 10
572.18601953413065
 20
-457.36145387348239
 30
0.0
 11
573.68377447435842
 21
-455.86369893325468
 31
0.0
  0
LINE
  5
28E
  8
0
 62
     0
 10
569.60173704986062
 20
-459.94573635775248
 30
0.0
 11
571.1017370498605
 21
-458.44573635775248
 31
0.0
  0
LINE
  5
28F
  8
0
 62
     0
 10
566.51595061223361
 20
-464.44573635775259
 30
0.0
 11
568.0159506122335
 21
-462.94573635775248
 31
0.0
  0
LINE
  5
290
  8
0
 62
     0
 10
571.01595061223361
 20
-459.94573635775248
 30
0.0
 11
573.68601953413065
 21
-457.27566743585561
 31
0.0
  0
LINE
  5
291
  8
0
 62
     0
 10
567.93016417460672
 20
-464.44573635775259
 30
0.0
 11
569.43016417460672
 21
-462.94573635775248
 31
0.0
  0
LINE
  5
292
  8
0
 62
     0
 10
572.18158061094982
 20
-460.19431992140949
 30
0.0
 11
573.68601953413065
 21
-458.68988099822872
 31
0.0
  0
LINE
  5
293
  8
0
 62
     0
 10
569.34437773697982
 20
-464.44573635775259
 30
0.0
 11
570.84437773697982
 21
-462.94573635775248
 31
0.0
  0
LINE
  5
294
  8
0
 62
     0
 10
572.18601953413065
 20
-461.60409456060171
 30
0.0
 11
573.68601953413065
 21
-460.10409456060171
 31
0.0
  0
LINE
  5
295
  8
0
 62
     0
 10
570.75859129935293
 20
-464.44573635775259
 30
0.0
 11
573.68601953413065
 21
-461.51830812297487
 31
0.0
  0
LINE
  5
296
  8
0
 62
     0
 10
572.17280486172604
 20
-464.44573635775259
 30
0.0
 11
573.68601953413065
 21
-462.93252168534792
 31
0.0
  0
ENDBLK
  5
298
  8
0
  0
BLOCK
  8
0
  2
*D3
 70
     1
 10
0.0
 20
0.0
 30
0.0
  3
*D3
  1

  0
LINE
  5
33F
  8
1
 10
17.0
 20
-0.0000000000000006
 30
0.0
 11
28.13244600245525
 21
-0.0000000000000037
 31
0.0
  0
LINE
  5
340
  8
1
 10
17.0
 20
10.0
 30
0.0
 11
28.13244600245525
 21
9.9999999999999964
 31
0.0
  0
LINE
  5
341
  8
1
 10
27.13244600245525
 20
-1.0000000000000031
 30
0.0
 11
27.13244600245525
 21
10.999999999999989
 31
0.0
  0
INSERT
  5
342
  8
1
  2
_OBLIQUE
 10
27.13244600245525
 20
-0.0000000000000034
 30
0.0
 41
2.0
 42
2.0
 43
2.0
 50
270.0
  0
INSERT
  5
343
  8
1
  2
_OBLIQUE
 10
27.13244600245525
 20
9.9999999999999982
 30
0.0
 41
2.0
 42
2.0
 43
2.0
 50
90.0
  0
TEXT
  5
344
  8
0
 10
26.065597434924548
 20
2.1314802182810371
 30
0.0
 40
3.5
  1
10
 50
90.0
  7
BESCHLAG
  0
POINT
  5
345
  8
DEFPOINTS
 62
     0
 10
15.0
 20
0.0
 30
0.0
  0
POINT
  5
346
  8
DEFPOINTS
 62
     0
 10
15.0
 20
10.0
 30
0.0
  0
POINT
  5
347
  8
DEFPOINTS
 62
     0
 10
27.13244600245525
 20
9.9999999999999982
 30
0.0
  0
ENDBLK
  5
30A
  8
0
  0
BLOCK
  8
0
  2
*D4
 70
     1
 10
0.0
 20
0.0
 30
0.0
  3
*D4
  1

  0
LINE
  5
348
  8
1
 10
17.0
 20
10.0
 30
0.0
 11
28.13244600245525
 21
9.9999999999999964
 31
0.0
  0
LINE
  5
349
  8
1
 10
17.0
 20
13.0
 30
0.0
 11
28.13244600245525
 21
12.999999999999989
 31
0.0
  0
LINE
  5
34A
  8
1
 10
27.13244600245525
 20
9.9999999999999982
 30
0.0
 11
27.13244600245525
 21
7.9999999999999973
 31
0.0
  0
LINE
  5
34B
  8
1
 10
27.13244600245525
 20
12.999999999999989
 30
0.0
 11
27.13244600245525
 21
15.0
 31
0.0
  0
LINE
  5
34C
  8
1
 10
27.13244600245525
 20
9.9999999999999982
 30
0.0
 11
27.13244600245525
 21
12.999999999999989
 31
0.0
  0
INSERT
  5
34D
  8
1
  2
_OBLIQUE
 10
27.13244600245525
 20
9.9999999999999982
 30
0.0
 41
2.0
 42
2.0
 43
2.0
 50
90.0
  0
INSERT
  5
34E
  8
1
  2
_OBLIQUE
 10
27.13244600245525
 20
12.999999999999989
 30
0.0
 41
2.0
 42
2.0
 43
2.0
 50
270.0
  0
TEXT
  5
34F
  8
0
 10
26.063209986084171
 20
10.148703956343789
 30
0.0
 40
3.5
  1
3
 50
90.0
  7
BESCHLAG
  0
POINT
  5
350
  8
DEFPOINTS
 62
     0
 10
15.0
 20
10.0
 30
0.0
  0
POINT
  5
351
  8
DEFPOINTS
 62
     0
 10
15.0
 20
13.0
 30
0.0
  0
POINT
  5
352
  8
DEFPOINTS
 62
     0
 10
27.13244600245525
 20
12.999999999999989
 30
0.0
  0
ENDBLK
  5
318
  8
0
  0
BLOCK
  8
0
  2
*D5
 70
     1
 10
0.0
 20
0.0
 30
0.0
  3
*D5
  1

  0
LINE
  5
353
  8
1
 10
-21.0
 20
-2.0
 30
0.0
 11
-21.0
 21
-13.532113042514419
 31
0.0
  0
LINE
  5
354
  8
1
 10
-0.0000000000000001
 20
-2.0
 30
0.0
 11
-0.0000000000000008
 21
-13.532113042514419
 31
0.0
  0
LINE
  5
355
  8
1
 10
-22.0
 20
-12.532113042514419
 30
0.0
 11
0.9999999999999992
 21
-12.532113042514419
 31
0.0
  0
INSERT
  5
356
  8
1
  2
_OBLIQUE
 10
-21.0
 20
-12.532113042514419
 30
0.0
 41
2.0
 42
2.0
 43
2.0
 50
180.0
  0
INSERT
  5
357
  8
1
  2
_OBLIQUE
 10
-0.0000000000000008
 20
-12.532113042514419
 30
0.0
 41
2.0
 42
2.0
 43
2.0
  0
TEXT
  5
358
  8
0
 10
-12.84208731241473
 20
-11.524950695993271
 30
0.0
 40
3.5
  1
21
  7
BESCHLAG
  0
POINT
  5
359
  8
DEFPOINTS
 62
     0
 10
-21.0
 20
0.0
 30
0.0
  0
POINT
  5
35A
  8
DEFPOINTS
 62
     0
 10
0.0
 20
0.0
 30
0.0
  0
POINT
  5
35B
  8
DEFPOINTS
 62
     0
 10
-0.0000000000000008
 20
-12.532113042514419
 30
0.0
  0
ENDBLK
  5
324
  8
0
  0
BLOCK
  8
0
  2
*D6
 70
     1
 10
0.0
 20
0.0
 30
0.0
  3
*D6
  1

  0
LINE
  5
35C
  8
1
 10
-0.0000000000000001
 20
0.5
 30
0.0
 11
-0.000000000000001
 21
-13.532113042514419
 31
0.0
  0
LINE
  5
35D
  8
1
 10
15.0
 20
-2.0
 30
0.0
 11
15.0
 21
-13.532113042514419
 31
0.0
  0
LINE
  5
35E
  8
1
 10
-1.0
 20
-12.532113042514419
 30
0.0
 11
16.0
 21
-12.532113042514419
 31
0.0
  0
INSERT
  5
35F
  8
1
  2
_OBLIQUE
 10
-0.0000000000000009
 20
-12.532113042514419
 30
0.0
 41
2.0
 42
2.0
 43
2.0
 50
180.0
  0
INSERT
  5
360
  8
1
  2
_OBLIQUE
 10
15.0
 20
-12.532113042514419
 30
0.0
 41
2.0
 42
2.0
 43
2.0
  0
TEXT
  5
361
  8
0
 10
4.6123806275579788
 20
-11.465264474983719
 30
0.0
 40
3.5
  1
15
  7
BESCHLAG
  0
POINT
  5
362
  8
DEFPOINTS
 62
     0
 10
0.0
 20
2.5
 30
0.0
  0
POINT
  5
363
  8
DEFPOINTS
 62
     0
 10
15.0
 20
0.0
 30
0.0
  0
POINT
  5
364
  8
DEFPOINTS
 62
     0
 10
15.0
 20
-12.532113042514419
 30
0.0
  0
ENDBLK
  5
330
  8
0
  0
BLOCK
  8
0
  2
*D7
 70
     1
 10
0.0
 20
0.0
 30
0.0
  3
*D7
  1

  0
LINE
  5
365
  8
1
 10
-23.0
 20
0.0000000000000006
 30
0.0
 11
-32.907350705437231
 21
0.0000000000000034
 31
0.0
  0
LINE
  5
366
  8
1
 10
-23.0
 20
2.5
 30
0.0
 11
-32.907350705437231
 21
2.5000000000000031
 31
0.0
  0
LINE
  5
367
  8
1
 10
-31.907350705437231
 20
0.0000000000000031
 30
0.0
 11
-31.907350705437231
 21
-1.999999999999996
 31
0.0
  0
LINE
  5
368
  8
1
 10
-31.907350705437231
 20
2.5000000000000031
 30
0.0
 11
-31.907350705437231
 21
4.5000000000000027
 31
0.0
  0
LINE
  5
369
  8
1
 10
-31.907350705437231
 20
0.0000000000000031
 30
0.0
 11
-31.907350705437231
 21
2.5000000000000031
 31
0.0
  0
INSERT
  5
36A
  8
1
  2
_OBLIQUE
 10
-31.907350705437231
 20
0.0000000000000031
 30
0.0
 41
2.0
 42
2.0
 43
2.0
 50
90.0
  0
INSERT
  5
36B
  8
1
  2
_OBLIQUE
 10
-31.907350705437231
 20
2.5000000000000031
 30
0.0
 41
2.0
 42
2.0
 43
2.0
 50
270.0
  0
TEXT
  5
36C
  8
0
 10
-32.97419927296793
 20
-2.1222714870395651
 30
0.0
 40
3.5
  1
2.5
 50
90.0
  7
BESCHLAG
  0
POINT
  5
36D
  8
DEFPOINTS
 62
     0
 10
-21.0
 20
0.0
 30
0.0
  0
POINT
  5
36E
  8
DEFPOINTS
 62
     0
 10
-21.0
 20
2.5
 30
0.0
  0
POINT
  5
36F
  8
DEFPOINTS
 62
     0
 10
-31.907350705437231
 20
2.5000000000000031
 30
0.0
  0
ENDBLK
  5
33E
  8
0
  0
ENDSEC
  0
SECTION
  2
ENTITIES
  0
INSERT
  5
25B
  8
5
  2
NULLPUNKT
 10
0.0
 20
0.0
 30
0.0
  0
INSERT
  5
2EF
  8
2
  2
*X2
 10
-558.68601953413076
 20
464.44573635775259
 30
0.0
1001
ACAD
1000
HATCH
1002
{
1070
    16
1000
_U,I
1040
1.0
1040
0.7853981633974483
1070
     0
1002
}
  0
POLYLINE
  5
2F0
  8
6
 66
     1
 10
0.0
 20
0.0
 30
0.0
  0
VERTEX
  5
433
  8
6
 10
7.5047641654609833
 20
11.026056266155249
 30
0.0
 42
0.0523662851020724
  0
VERTEX
  5
434
  8
6
 10
10.51054978608863
 20
11.43819433216219
 30
0.0
 42
-0.1698680870516715
  0
VERTEX
  5
435
  8
6
 10
11.1092044010993
 20
11.45150466166433
 30
0.0
 42
-0.3581952709156561
  0
VERTEX
  5
436
  8
6
 10
11.304817305722279
 20
10.47048203472422
 30
0.0
  0
VERTEX
  5
437
  8
6
 10
10.29137789216565
 20
8.9613863209480087
 30
0.0
 42
-0.162990172482064
  0
VERTEX
  5
438
  8
6
 10
9.1172428760910407
 20
8.3875231808279977
 30
0.0
 42
-0.0297520103796801
  0
VERTEX
  5
439
  8
6
 10
7.5
 20
8.2959590395053056
 30
0.0
 42
-0.0297520103796801
  0
VERTEX
  5
43A
  8
6
 10
5.8867153329974817
 20
8.4414619448319854
 30
0.0
 42
-0.162990172482064
  0
VERTEX
  5
43B
  8
6
 10
4.7323925391547164
 20
9.0542023688094542
 30
0.0
  0
VERTEX
  5
43C
  8
6
 10
3.769897445242349
 20
11.04892567442095
 30
0.0
 42
-0.5496470159714418
  0
VERTEX
  5
43D
  8
6
 10
3.98525886849984
 20
11.63688883953238
 30
0.0
 42
-0.0587952726232103
  0
VERTEX
  5
43E
  8
6
 10
4.5809174674595852
 20
11.53719891701666
 30
0.0
 42
0.0523662851020724
  0
VERTEX
  5
43F
  8
6
 10
7.5712689171232341
 20
11.024945864198569
 30
0.0
  0
SEQEND
  5
440
  8
6
  0
POLYLINE
  5
2F1
  8
5
 66
     1
 10
0.0
 20
0.0
 30
0.0
  0
VERTEX
  5
441
  8
5
 10
4.0
 20
19.346098434951038
 30
0.0
  0
VERTEX
  5
442
  8
5
 10
4.0
 20
13.0
 30
0.0
  0
VERTEX
  5
443
  8
5
 10
21.260920495754359
 20
13.0
 30
0.0
  0
SEQEND
  5
444
  8
5
  0
DIMENSION
  5
2F2
  8
1
  2
*D3
 10
27.13244600245525
 20
9.9999999999999982
 30
0.0
 11
24.34544054542933
 21
5.0
 31
0.0
 70
     0
 13
15.0
 23
0.0
 33
0.0
 14
15.0
 24
10.0
 34
0.0
 50
90.0
  0
DIMENSION
  5
2F3
  8
1
  2
*D4
 10
27.13244600245525
 20
12.999999999999989
 30
0.0
 11
24.344246821009129
 21
11.5
 31
0.0
 70
     0
 13
15.0
 23
10.0
 33
0.0
 14
15.0
 24
13.0
 34
0.0
 50
90.0
  0
TEXT
  5
2F4
  8
1
 10
-32.712728039509777
 20
9.0610860143880245
 30
0.0
 40
2.5
  1
Hebgo 135/520
  0
POLYLINE
  5
2F5
  8
5
 66
     1
 10
0.0
 20
0.0
 30
0.0
  0
VERTEX
  5
445
  8
5
 10
-26.0
 20
0.0
 30
0.0
  0
VERTEX
  5
446
  8
5
 10
-21.0
 20
0.0
 30
0.0
  0
VERTEX
  5
447
  8
5
 10
-21.0
 20
2.5
 30
0.0
  0
VERTEX
  5
448
  8
5
 10
0.0
 20
2.5
 30
0.0
  0
VERTEX
  5
449
  8
5
 10
0.0
 20
19.346098434951038
 30
0.0
  0
SEQEND
  5
44A
  8
5
  0
DIMENSION
  5
2F6
  8
1
  2
*D5
 10
-0.0000000000000008
 20
-12.532113042514419
 30
0.0
 11
-10.5
 21
-9.7749506959932795
 31
0.0
 70
     0
 13
-21.0
 23
0.0
 33
0.0
 14
0.0
 24
0.0
 34
0.0
  0
POLYLINE
  5
2F7
  8
6
 66
     1
 10
0.0
 20
0.0
 30
0.0
 70
     1
  0
VERTEX
  5
44B
  8
6
 10
7.5
 20
12.999999999999879
 30
0.0
 42
-0.3348758971066976
  0
VERTEX
  5
44C
  8
6
 10
8.7243600000001607
 20
12.24925778086844
 30
0.0
  0
VERTEX
  5
44D
  8
6
 10
10.86684112783586
 20
12.213336731360179
 30
0.0
 42
-0.4158738464929489
  0
VERTEX
  5
44E
  8
6
 10
11.986559934489369
 20
10.100440744899631
 30
0.0
  0
VERTEX
  5
44F
  8
6
 10
11.1554707336345
 20
8.9089499129130445
 30
0.0
 42
0.9647680298900043
  0
VERTEX
  5
450
  8
6
 10
11.692684910880409
 20
8.1356367005239463
 30
0.0
  0
VERTEX
  5
451
  8
6
 10
12.48905367390034
 20
8.4338271769543098
 30
0.0
 42
-0.5980964025893237
  0
VERTEX
  5
452
  8
6
 10
12.99161635303607
 20
8.1615909527952226
 30
0.0
  0
VERTEX
  5
453
  8
6
 10
12.559039563579971
 20
6.1685118222181918
 30
0.0
 42
-0.2464814616015845
  0
VERTEX
  5
454
  8
6
 10
12.25925455112155
 20
5.9994795409448889
 30
0.0
 42
-0.0150420667643324
  0
VERTEX
  5
455
  8
6
 10
11.977327331756889
 20
5.9994795409448889
 30
0.0
 42
-0.2063969197888626
  0
VERTEX
  5
456
  8
6
 10
11.60889236045932
 20
6.1716547591933022
 30
0.0
  0
VERTEX
  5
457
  8
6
 10
11.17597237046629
 20
6.5023588450573007
 30
0.0
 42
0.0984306399189399
  0
VERTEX
  5
458
  8
6
 10
10.527832911664509
 20
6.820339496737688
 30
0.0
  0
VERTEX
  5
459
  8
6
 10
7.5
 20
6.820339496737688
 30
0.0
  0
VERTEX
  5
45A
  8
6
 10
4.4721670883354809
 20
6.820339496737688
 30
0.0
 42
0.0984306399189399
  0
VERTEX
  5
45B
  8
6
 10
3.8240276295327931
 20
6.5023588450573007
 30
0.0
  0
VERTEX
  5
45C
  8
6
 10
3.3911076395406781
 20
6.1716547591933022
 30
0.0
 42
-0.2063969197888626
  0
VERTEX
  5
45D
  8
6
 10
3.022672668242194
 20
5.9994795409448889
 30
0.0
 42
-0.0150420667643324
  0
VERTEX
  5
45E
  8
6
 10
2.740745448877532
 20
5.9994795409448889
 30
0.0
 42
-0.2464814616015845
  0
VERTEX
  5
45F
  8
6
 10
2.4409604364200268
 20
6.1685118222181918
 30
0.0
  0
VERTEX
  5
460
  8
6
 10
2.0269275255104731
 20
8.0920800248749174
 30
0.0
 42
-0.718875318723906
  0
VERTEX
  5
461
  8
6
 10
2.521816174773448
 20
8.436666697417877
 30
0.0
  0
VERTEX
  5
462
  8
6
 10
3.2812943604212701
 20
8.1463368727914922
 30
0.0
 42
0.9846311026449575
  0
VERTEX
  5
463
  8
6
 10
3.8445292663654982
 20
8.9089499129130445
 30
0.0
  0
VERTEX
  5
464
  8
6
 10
3.013440065510621
 20
10.100440744899631
 30
0.0
 42
-0.4158738464929489
  0
VERTEX
  5
465
  8
6
 10
4.1331588721632206
 20
12.213336731360179
 30
0.0
  0
VERTEX
  5
466
  8
6
 10
6.2756399999998393
 20
12.24925778086844
 30
0.0
 42
-0.3348758971066882
  0
SEQEND
  5
467
  8
6
  0
POLYLINE
  5
2F8
  8
6
 66
     1
 10
0.0
 20
0.0
 30
0.0
 70
     1
  0
VERTEX
  5
468
  8
6
 10
2.5
 20
1.800000000000068
 30
0.0
  0
VERTEX
  5
469
  8
6
 10
2.5
 20
4.2000000000000446
 30
0.0
 42
-0.4142135623730951
  0
VERTEX
  5
46A
  8
6
 10
2.800000000000181
 20
4.5
 30
0.0
  0
VERTEX
  5
46B
  8
6
 10
13.199999999999809
 20
4.5
 30
0.0
 42
-0.4142135623730951
  0
VERTEX
  5
46C
  8
6
 10
13.5
 20
4.2000000000000446
 30
0.0
  0
VERTEX
  5
46D
  8
6
 10
13.5
 20
1.800000000000068
 30
0.0
 42
-0.4142135623730951
  0
VERTEX
  5
46E
  8
6
 10
13.199999999999809
 20
1.5
 30
0.0
  0
VERTEX
  5
46F
  8
6
 10
2.800000000000181
 20
1.5
 30
0.0
 42
-0.4142135623730959
  0
SEQEND
  5
470
  8
6
  0
POLYLINE
  5
2F9
  8
4
 66
     1
 10
0.0
 20
0.0
 30
0.0
 70
     1
  0
VERTEX
  5
471
  8
4
 10
15.0
 20
0.0
 30
0.0
  0
VERTEX
  5
472
  8
4
 10
-20.0
 20
0.0
 30
0.0
  0
VERTEX
  5
473
  8
4
 10
-20.0
 20
2.5
 30
0.0
  0
VERTEX
  5
474
  8
4
 10
0.0
 20
2.5
 30
0.0
  0
VERTEX
  5
475
  8
4
 10
0.0
 20
10.0
 30
0.0
  0
VERTEX
  5
476
  8
4
 10
15.0
 20
10.0
 30
0.0
  0
SEQEND
  5
477
  8
4
  0
POLYLINE
  5
2FA
  8
6
 66
     1
 10
0.0
 20
0.0
 30
0.0
 70
     1
  0
VERTEX
  5
478
  8
6
 10
0.0
 20
2.5
 30
0.0
  0
VERTEX
  5
479
  8
6
 10
-19.699999999999811
 20
2.5
 30
0.0
 42
0.4142135623730951
  0
VERTEX
  5
47A
  8
6
 10
-20.0
 20
2.200000000000045
 30
0.0
  0
VERTEX
  5
47B
  8
6
 10
-20.0
 20
0.3000000000000682
 30
0.0
 42
0.4142135623730951
  0
VERTEX
  5
47C
  8
6
 10
-19.699999999999811
 20
0.0
 30
0.0
  0
VERTEX
  5
47D
  8
6
 10
13.5
 20
0.0
 30
0.0
 42
0.4142135623730951
  0
VERTEX
  5
47E
  8
6
 10
15.0
 20
1.5
 30
0.0
  0
VERTEX
  5
47F
  8
6
 10
15.0
 20
8.5
 30
0.0
 42
0.4142135623730953
  0
VERTEX
  5
480
  8
6
 10
13.5
 20
10.0
 30
0.0
  0
VERTEX
  5
481
  8
6
 10
11.80000000000018
 20
10.0
 30
0.0
 42
0.4142135623730951
  0
VERTEX
  5
482
  8
6
 10
11.5
 20
9.7000000000000455
 30
0.0
  0
VERTEX
  5
483
  8
6
 10
11.5
 20
8.8000000000000682
 30
0.0
 42
0.4142135623730951
  0
VERTEX
  5
484
  8
6
 10
11.80000000000018
 20
8.5
 30
0.0
  0
VERTEX
  5
485
  8
6
 10
13.5
 20
8.5
 30
0.0
  0
VERTEX
  5
486
  8
6
 10
13.5
 20
6.0
 30
0.0
  0
VERTEX
  5
487
  8
6
 10
1.5
 20
6.0
 30
0.0
  0
VERTEX
  5
488
  8
6
 10
1.5
 20
8.5
 30
0.0
  0
VERTEX
  5
489
  8
6
 10
3.1999999999998181
 20
8.5
 30
0.0
 42
0.4142135623730951
  0
VERTEX
  5
48A
  8
6
 10
3.5
 20
8.8000000000000682
 30
0.0
  0
VERTEX
  5
48B
  8
6
 10
3.5
 20
9.7000000000000455
 30
0.0
 42
0.4142135623730951
  0
VERTEX
  5
48C
  8
6
 10
3.1999999999998181
 20
10.0
 30
0.0
  0
VERTEX
  5
48D
  8
6
 10
0.3000000000001819
 20
10.0
 30
0.0
 42
0.4142135623730951
  0
VERTEX
  5
48E
  8
6
 10
0.0
 20
9.7000000000000455
 30
0.0
  0
SEQEND
  5
48F
  8
6
  0
DIMENSION
  5
2FB
  8
1
  2
*D6
 10
15.0
 20
-12.532113042514419
 30
0.0
 11
7.4999999999999991
 21
-9.7451075854885048
 31
0.0
 70
     0
 13
0.0
 23
2.5
 33
0.0
 14
15.0
 24
0.0
 34
0.0
  0
POLYLINE
  5
2FC
  8
6
 66
     1
 10
0.0
 20
0.0
 30
0.0
 70
     1
  0
VERTEX
  5
490
  8
6
 10
-7.8500000000003629
 20
0.0
 30
0.0
  0
VERTEX
  5
491
  8
6
 10
-7.8500000000003629
 20
2.5
 30
0.0
  0
VERTEX
  5
492
  8
6
 10
-12.15000000000054
 20
2.5
 30
0.0
  0
VERTEX
  5
493
  8
6
 10
-12.15000000000054
 20
0.0
 30
0.0
  0
SEQEND
  5
494
  8
6
  0
LINE
  5
2FD
  8
6
  6
STRICHPUNKT
 10
-10.0
 20
-1.742074484378008
 30
0.0
 11
-10.0
 21
20.0
 31
0.0
  0
DIMENSION
  5
2FE
  8
1
  2
*D7
 10
-31.907350705437231
 20
2.5000000000000031
 30
0.0
 11
-34.694356162463158
 21
1.249999999999998
 31
0.0
 70
     0
 13
-21.0
 23
0.0
 33
0.0
 14
-21.0
 24
2.5
 34
0.0
 50
90.0
  0
VIEWPORT
  5
22
 67
     1
  8
0
 10
210.0
 20
170.2366863905325
 30
0.0
 40
420.0
 41
340.47337278106511
 68
     1
 69
     1
1001
ACAD
1000
MVIEW
1002
{
1070
    16
1010
0.0
1020
0.0
1030
0.0
1010
0.0
1020
0.0
1030
1.0
1040
0.0
1040
340.47337278106511
1040
210.0
1040
170.2366863905325
1040
50.0
1040
0.0
1040
0.0
1070
     0
1070
   100
1070
     1
1070
     1
1070
     0
1070
     0
1070
     0
1070
     0
1040
0.0
1040
0.0
1040
0.0
1040
5.0
1040
5.0
1040
10.0
1040
10.0
1070
     0
1002
{
1002
}
1002
}
  0
ENDSEC
  0
EOF
