  0
SECTION
  2
HEADER
  9
$ACADVER
  1
AC1009
  9
$INSBASE
 10
0.0
 20
0.0
 30
0.0
  9
$EXTMIN
 10
-28.953551406685161
 20
-12.95471105602882
 30
-0.0000000000112498
  9
$EXTMAX
 10
18.585205623630031
 20
16.43371636331289
 30
0.0000000000002956
  9
$LIMMIN
 10
-150.0
 20
-150.0
  9
$LIMMAX
 10
150.0
 20
150.0
  9
$ORTHOMODE
 70
     0
  9
$REGENMODE
 70
     1
  9
$FILLMODE
 70
     1
  9
$QTEXTMODE
 70
     0
  9
$MIRRTEXT
 70
     0
  9
$DRAGMODE
 70
     2
  9
$LTSCALE
 40
2.0
  9
$OSMODE
 70
   111
  9
$ATTMODE
 70
     1
  9
$TEXTSIZE
 40
3.5
  9
$TRACEWID
 40
1.0
  9
$TEXTSTYLE
  7
BESCHLAG
  9
$CLAYER
  8
0
  9
$CELTYPE
  6
BYLAYER
  9
$CECOLOR
 62
   256
  9
$DIMSCALE
 40
1.0
  9
$DIMASZ
 40
2.0
  9
$DIMEXO
 40
2.0
  9
$DIMDLI
 40
0.0
  9
$DIMRND
 40
0.0
  9
$DIMDLE
 40
1.0
  9
$DIMEXE
 40
1.0
  9
$DIMTP
 40
0.0
  9
$DIMTM
 40
0.0
  9
$DIMTXT
 40
3.5
  9
$DIMCEN
 40
0.0
  9
$DIMTSZ
 40
0.0
  9
$DIMTOL
 70
     0
  9
$DIMLIM
 70
     0
  9
$DIMTIH
 70
     0
  9
$DIMTOH
 70
     0
  9
$DIMSE1
 70
     0
  9
$DIMSE2
 70
     0
  9
$DIMTAD
 70
     1
  9
$DIMZIN
 70
     8
  9
$DIMBLK
  1

  9
$DIMASO
 70
     1
  9
$DIMSHO
 70
     1
  9
$DIMPOST
  1

  9
$DIMAPOST
  1

  9
$DIMALT
 70
     0
  9
$DIMALTD
 70
     2
  9
$DIMALTF
 40
0.039370078740157
  9
$DIMLFAC
 40
1.0
  9
$DIMTOFL
 70
     1
  9
$DIMTVP
 40
0.0
  9
$DIMTIX
 70
     1
  9
$DIMSOXD
 70
     0
  9
$DIMSAH
 70
     1
  9
$DIMBLK1
  1
OBLIQUE
  9
$DIMBLK2
  1
OBLIQUE
  9
$DIMSTYLE
  2
OPO-SSTRICH
  9
$DIMCLRD
 70
   256
  9
$DIMCLRE
 70
   256
  9
$DIMCLRT
 70
   256
  9
$DIMTFAC
 40
0.7114285714285716
  9
$DIMGAP
 40
1.0
  9
$LUNITS
 70
     2
  9
$LUPREC
 70
     1
  9
$SKETCHINC
 40
1.0
  9
$FILLETRAD
 40
0.0
  9
$AUNITS
 70
     0
  9
$AUPREC
 70
     1
  9
$MENU
  1
D:\ACL_CGWG\CGTAB13
  9
$ELEVATION
 40
0.0
  9
$PELEVATION
 40
0.0
  9
$THICKNESS
 40
0.0
  9
$LIMCHECK
 70
     0
  9
$BLIPMODE
 70
     0
  9
$CHAMFERA
 40
1.0
  9
$CHAMFERB
 40
1.0
  9
$SKPOLY
 70
     0
  9
$TDCREATE
 40
2451739.8606662271
  9
$TDUPDATE
 40
2452086.7453270252
  9
$TDINDWG
 40
0.0008403819
  9
$TDUSRTIMER
 40
0.0008401968
  9
$USRTIMER
 70
     1
  9
$ANGBASE
 50
0.0
  9
$ANGDIR
 70
     0
  9
$PDMODE
 70
    35
  9
$PDSIZE
 40
5.0
  9
$PLINEWID
 40
0.0
  9
$COORDS
 70
     1
  9
$SPLFRAME
 70
     0
  9
$SPLINETYPE
 70
     6
  9
$SPLINESEGS
 70
     8
  9
$ATTDIA
 70
     1
  9
$ATTREQ
 70
     1
  9
$HANDLING
 70
-16383
  9
$HANDSEED
  5
44E
  9
$SURFTAB1
 70
    12
  9
$SURFTAB2
 70
    12
  9
$SURFTYPE
 70
     6
  9
$SURFU
 70
    12
  9
$SURFV
 70
    12
  9
$UCSNAME
  2

  9
$UCSORG
 10
0.0
 20
0.0
 30
0.0
  9
$UCSXDIR
 10
1.0
 20
0.0
 30
0.0
  9
$UCSYDIR
 10
0.0
 20
1.0
 30
0.0
  9
$PUCSNAME
  2

  9
$PUCSORG
 10
0.0
 20
0.0
 30
0.0
  9
$PUCSXDIR
 10
1.0
 20
0.0
 30
0.0
  9
$PUCSYDIR
 10
0.0
 20
1.0
 30
0.0
  9
$USERI1
 70
     0
  9
$USERI2
 70
     0
  9
$USERI3
 70
     0
  9
$USERI4
 70
     0
  9
$USERI5
 70
     0
  9
$USERR1
 40
0.0
  9
$USERR2
 40
0.0
  9
$USERR3
 40
0.0
  9
$USERR4
 40
0.0
  9
$USERR5
 40
0.0
  9
$WORLDVIEW
 70
     1
  9
$SHADEDGE
 70
     3
  9
$SHADEDIF
 70
    70
  9
$TILEMODE
 70
     1
  9
$MAXACTVP
 70
    48
  9
$PLIMCHECK
 70
     0
  9
$PEXTMIN
 10
1.0000000000000000E+020
 20
1.0000000000000000E+020
 30
1.0000000000000000E+020
  9
$PEXTMAX
 10
-1.0000000000000000E+020
 20
-1.0000000000000000E+020
 30
-1.0000000000000000E+020
  9
$PLIMMIN
 10
0.0
 20
0.0
  9
$PLIMMAX
 10
420.0
 20
297.0
  9
$UNITMODE
 70
     0
  9
$VISRETAIN
 70
     1
  9
$PLINEGEN
 70
     0
  9
$PSLTSCALE
 70
     1
  0
ENDSEC
  0
SECTION
  2
TABLES
  0
TABLE
  2
VPORT
 70
     2
  0
VPORT
  2
*ACTIVE
 70
     0
 10
0.0
 20
0.0
 11
1.0
 21
1.0
 12
-5.1841728915275658
 22
1.7395026536420319
 13
0.0
 23
0.0
 14
0.5
 24
0.5
 15
10.0
 25
10.0
 16
0.0
 26
0.0
 36
1.0
 17
0.0
 27
0.0
 37
0.0
 40
29.730903228765708
 41
1.6070460704607039
 42
50.0
 43
0.0
 44
0.0
 50
0.0
 51
0.0
 71
     0
 72
   800
 73
     1
 74
     1
 75
     0
 76
     0
 77
     0
 78
     0
  0
ENDTAB
  0
TABLE
  2
LTYPE
 70
     2
  0
LTYPE
  2
CONTINUOUS
 70
     0
  3
_______________________________________________
 72
    65
 73
     2
 40
1.0
 49
1.0
 49
0.0
  0
LTYPE
  2
STRICHPUNKT
 70
     0
  3
__ . __ . __ . __ . __ . __ . __ . __ . __ . __
 72
    65
 73
     4
 40
1.0
 49
0.5
 49
-0.25
 49
0.0
 49
-0.25
  0
ENDTAB
  0
TABLE
  2
LAYER
 70
     7
  0
LAYER
  2
0
 70
     0
 62
    30
  6
CONTINUOUS
  0
LAYER
  2
1
 70
     0
 62
     2
  6
CONTINUOUS
  0
LAYER
  2
2
 70
     0
 62
     9
  6
CONTINUOUS
  0
LAYER
  2
4
 70
     1
 62
     4
  6
CONTINUOUS
  0
LAYER
  2
5
 70
     0
 62
     1
  6
CONTINUOUS
  0
LAYER
  2
6
 70
     0
 62
     3
  6
CONTINUOUS
  0
LAYER
  2
DEFPOINTS
 70
     0
 62
     7
  6
CONTINUOUS
  0
ENDTAB
  0
TABLE
  2
STYLE
 70
     2
  0
STYLE
  2
STANDARD
 70
     0
 40
0.0
 41
1.0
 50
0.0
 71
     0
 42
2.5
  3
txt
  4

  0
STYLE
  2
BESCHLAG
 70
     0
 40
0.0
 41
1.0
 50
0.0
 71
     0
 42
3.5
  3
txt
  4

  0
ENDTAB
  0
TABLE
  2
VIEW
 70
     0
  0
ENDTAB
  0
TABLE
  2
UCS
 70
     0
  0
ENDTAB
  0
TABLE
  2
APPID
 70
     1
  0
APPID
  2
ACAD
 70
     0
  0
ENDTAB
  0
TABLE
  2
DIMSTYLE
 70
     1
  0
DIMSTYLE
  2
OPO-SSTRICH
 70
     0
  3

  4

  5

  6
OBLIQUE
  7
OBLIQUE
 40
1.0
 41
2.0
 42
2.0
 43
0.0
 44
1.0
 45
0.0
 46
1.0
 47
0.0
 48
0.0
140
3.5
141
0.0
142
0.0
143
0.039370078740157
144
1.0
145
0.0
146
0.7114285714285716
147
1.0
 71
     0
 72
     0
 73
     0
 74
     0
 75
     0
 76
     0
 77
     1
 78
     8
170
     0
171
     2
172
     1
173
     1
174
     1
175
     0
176
   256
177
   256
178
   256
  0
ENDTAB
  0
ENDSEC
  0
SECTION
  2
BLOCKS
  0
BLOCK
  8
0
  2
$MODEL_SPACE
 70
     0
 10
0.0
 20
0.0
 30
0.0
  3
$MODEL_SPACE
  1

  0
ENDBLK
  5
1C
  8
0
  0
BLOCK
 67
     1
  8
0
  2
$PAPER_SPACE
 70
     0
 10
0.0
 20
0.0
 30
0.0
  3
$PAPER_SPACE
  1

  0
ENDBLK
  5
19
 67
     1
  8
0
  0
BLOCK
  8
0
  2
_OBLIQUE
 70
     0
 10
0.0
 20
0.0
 30
0.0
  3
_OBLIQUE
  1

  0
LINE
  5
204
  8
0
 62
     0
 10
-0.5
 20
-0.5
 30
0.0
 11
0.5
 21
0.5
 31
0.0
  0
ENDBLK
  5
206
  8
0
  0
BLOCK
  8
0
  2
NULLPUNKT
 70
     0
 10
0.0
 20
0.0
 30
0.0
  3
NULLPUNKT
  1

  0
SOLID
  5
254
  8
5
 10
0.0
 20
0.0
 30
0.0
 11
2.0
 21
0.0
 31
0.0
 12
0.0
 22
-2.0
 32
0.0
 13
0.0
 23
-2.0
 33
0.0
  0
SOLID
  5
255
  8
5
 10
0.0
 20
0.0
 30
0.0
 11
-2.0
 21
0.0
 31
0.0
 12
0.0
 22
2.0
 32
0.0
 13
0.0
 23
2.0
 33
0.0
  0
POLYLINE
  5
256
  8
5
 66
     1
 10
0.0
 20
0.0
 30
0.0
  0
VERTEX
  5
3F1
  8
5
 10
0.0
 20
2.0
 30
0.0
  0
VERTEX
  5
3F2
  8
5
 10
0.0
 20
-2.0
 30
0.0
  0
SEQEND
  5
3F3
  8
5
  0
POLYLINE
  5
257
  8
5
 66
     1
 10
0.0
 20
0.0
 30
0.0
  0
VERTEX
  5
3F4
  8
5
 10
-2.0
 20
0.0
 30
0.0
  0
VERTEX
  5
3F5
  8
5
 10
2.0
 20
0.0
 30
0.0
  0
SEQEND
  5
3F6
  8
5
  0
CIRCLE
  5
258
  8
5
 10
0.0
 20
0.0
 30
0.0
 40
2.0
  0
ENDBLK
  5
25A
  8
0
  0
BLOCK
  8
0
  2
*X2
 70
     1
 10
0.0
 20
0.0
 30
0.0
  3
*X2
  1

  0
LINE
  5
29E
  8
0
 62
     0
 10
354.00923098565153
 20
-634.07355827404604
 30
0.0
 11
355.60923098565149
 21
-632.47355827404613
 31
0.0
  0
LINE
  5
29F
  8
0
 62
     0
 10
358.10307305157511
 20
-629.97971620812245
 30
0.0
 11
359.09353209485113
 21
-628.98925716484655
 31
0.0
  0
LINE
  5
2A0
  8
0
 62
     0
 10
353.5530730515751
 20
-633.11550264574942
 30
0.0
 11
354.19501742327839
 21
-632.47355827404613
 31
0.0
  0
LINE
  5
2A1
  8
0
 62
     0
 10
357.10307305157511
 20
-629.56550264574935
 30
0.0
 11
358.4480586665166
 21
-628.22051703080786
 31
0.0
  0
LINE
  5
2A2
  8
0
 62
     0
 10
355.39042354811011
 20
-634.10657927396051
 30
0.0
 11
357.0234445480246
 21
-632.47355827404613
 31
0.0
  0
LINE
  5
2A3
  8
0
 62
     0
 10
358.10307305157511
 20
-631.39392977049567
 30
0.0
 11
359.103073051575
 21
-630.39392977049545
 31
0.0
  0
LINE
  5
2A4
  8
0
 62
     0
 10
356.77055967524518
 20
-634.14065670919854
 30
0.0
 11
359.103073051575
 21
-631.80814333286855
 31
0.0
  0
LINE
  5
2A5
  8
0
 62
     0
 10
358.10307305157511
 20
-634.22235689524177
 30
0.0
 11
359.103073051575
 21
-633.22235689524166
 31
0.0
  0
LINE
  5
2A6
  8
0
 62
     0
 10
358.10307305157511
 20
-635.63657045761477
 30
0.0
 11
359.103073051575
 21
-634.63657045761488
 31
0.0
  0
LINE
  5
2A7
  8
0
 62
     0
 10
358.11428254683688
 20
-637.03957452472605
 30
0.0
 11
359.103073051575
 21
-636.05078401998787
 31
0.0
  0
ENDBLK
  5
2A9
  8
0
  0
BLOCK
  8
0
  2
*X3
 70
     1
 10
0.0
 20
0.0
 30
0.0
  3
*X3
  1

  0
LINE
  5
2AB
  8
0
 62
     0
 10
256.89473625216891
 20
-633.6073172037851
 30
0.0
 11
257.8947362521688
 21
-632.6073172037851
 31
0.0
  0
LINE
  5
2AC
  8
0
 62
     0
 10
256.89473625216891
 20
-632.19310364141188
 30
0.0
 11
257.8947362521688
 21
-631.19310364141199
 31
0.0
  0
LINE
  5
2AD
  8
0
 62
     0
 10
258.63400591165839
 20
-630.45383398192257
 30
0.0
 11
258.89473625216891
 21
-630.19310364141199
 31
0.0
  0
LINE
  5
2AE
  8
0
 62
     0
 10
256.89473625216891
 20
-630.778890079039
 30
0.0
 11
257.8947362521688
 21
-629.77889007903877
 31
0.0
  0
LINE
  5
2AF
  8
0
 62
     0
 10
257.98898467209028
 20
-629.68464165911735
 30
0.0
 11
258.71607181534688
 21
-628.95755451586092
 31
0.0
  0
LINE
  5
2B0
  8
0
 62
     0
 10
256.89473625216891
 20
-629.36467651666578
 30
0.0
 11
257.69729405561498
 21
-628.56211871321955
 31
0.0
  0
LINE
  5
2B1
  8
0
 62
     0
 10
257.36342935668199
 20
-634.55283766164496
 30
0.0
 11
259.0541483051075
 21
-632.86211871321962
 31
0.0
  0
LINE
  5
2B2
  8
0
 62
     0
 10
258.80621289001209
 20
-634.52426769068802
 30
0.0
 11
260.46836186748061
 21
-632.86211871321962
 31
0.0
  0
LINE
  5
2B3
  8
0
 62
     0
 10
260.24899642334242
 20
-634.49569771973086
 30
0.0
 11
261.44473625216892
 21
-633.29995789090435
 31
0.0
  0
ENDBLK
  5
2B5
  8
0
  0
BLOCK
  8
0
  2
*D4
 70
     1
 10
0.0
 20
0.0
 30
0.0
  3
*D4
  1

  0
LINE
  5
30E
  8
1
 10
-12.0
 20
-1.951201378804398
 30
0.0
 11
-12.0
 21
-12.93193954284447
 31
0.0
  0
LINE
  5
30F
  8
1
 10
-0.0000000000000001
 20
-1.951201378804398
 30
0.0
 11
-0.0000000000000008
 21
-12.93193954284447
 31
0.0
  0
LINE
  5
310
  8
1
 10
-13.0
 20
-11.93193954284447
 30
0.0
 11
0.9999999999999992
 21
-11.93193954284447
 31
0.0
  0
INSERT
  5
311
  8
1
  2
_OBLIQUE
 10
-12.0
 20
-11.93193954284447
 30
0.0
 41
2.0
 42
2.0
 43
2.0
 50
180.0
  0
INSERT
  5
312
  8
1
  2
_OBLIQUE
 10
-0.0000000000000007
 20
-11.93193954284447
 30
0.0
 41
2.0
 42
2.0
 43
2.0
  0
TEXT
  5
313
  8
0
 10
-8.8565825375170526
 20
-10.924777196323319
 30
0.0
 40
3.5
  1
12
  7
BESCHLAG
  0
POINT
  5
314
  8
DEFPOINTS
 62
     0
 10
-12.0
 20
0.0487986211956013
 30
0.0
  0
POINT
  5
315
  8
DEFPOINTS
 62
     0
 10
0.0
 20
0.0487986211956013
 30
0.0
  0
POINT
  5
316
  8
DEFPOINTS
 62
     0
 10
-0.0000000000000007
 20
-11.93193954284447
 30
0.0
  0
ENDBLK
  5
2E7
  8
0
  0
BLOCK
  8
0
  2
*D5
 70
     1
 10
0.0
 20
0.0
 30
0.0
  3
*D5
  1

  0
LINE
  5
317
  8
1
 10
-14.0
 20
0.0487986211956019
 30
0.0
 11
-24.458431250464852
 21
0.0487986211956048
 31
0.0
  0
LINE
  5
318
  8
1
 10
-14.0
 20
6.0487986211956022
 30
0.0
 11
-24.458431250464852
 21
6.048798621195604
 31
0.0
  0
LINE
  5
319
  8
1
 10
-23.458431250464852
 20
-0.9512013788043955
 30
0.0
 11
-23.458431250464852
 21
7.048798621195604
 31
0.0
  0
INSERT
  5
31A
  8
1
  2
_OBLIQUE
 10
-23.458431250464852
 20
0.0487986211956046
 30
0.0
 41
2.0
 42
2.0
 43
2.0
 50
270.0
  0
INSERT
  5
31B
  8
1
  2
_OBLIQUE
 10
-23.458431250464852
 20
6.048798621195604
 30
0.0
 41
2.0
 42
2.0
 43
2.0
 50
90.0
  0
TEXT
  5
31C
  8
0
 10
-24.52527981799555
 20
1.7094398217413029
 30
0.0
 40
3.5
  1
6
 50
90.0
  7
BESCHLAG
  0
POINT
  5
31D
  8
DEFPOINTS
 62
     0
 10
-12.0
 20
0.0487986211956013
 30
0.0
  0
POINT
  5
31E
  8
DEFPOINTS
 62
     0
 10
-12.0
 20
6.0487986211956013
 30
0.0
  0
POINT
  5
31F
  8
DEFPOINTS
 62
     0
 10
-23.458431250464852
 20
6.048798621195604
 30
0.0
  0
ENDBLK
  5
2F3
  8
0
  0
BLOCK
  8
0
  2
*D6
 70
     1
 10
0.0
 20
0.0
 30
0.0
  3
*D6
  1

  0
LINE
  5
320
  8
1
 10
1.9999999999999989
 20
-2.9512013788043991
 30
0.0
 11
12.96808335967034
 21
-2.9512013788044018
 31
0.0
  0
LINE
  5
321
  8
1
 10
3.0
 20
6.0487986211956004
 30
0.0
 11
12.96808335967034
 21
6.0487986211955969
 31
0.0
  0
LINE
  5
322
  8
1
 10
11.96808335967034
 20
-3.9512013788044018
 30
0.0
 11
11.96808335967034
 21
7.0487986211955969
 31
0.0
  0
INSERT
  5
323
  8
1
  2
_OBLIQUE
 10
11.96808335967034
 20
-2.9512013788044018
 30
0.0
 41
2.0
 42
2.0
 43
2.0
 50
270.0
  0
INSERT
  5
324
  8
1
  2
_OBLIQUE
 10
11.96808335967034
 20
6.0487986211955969
 30
0.0
 41
2.0
 42
2.0
 43
2.0
 50
90.0
  0
TEXT
  5
325
  8
0
 10
10.90123479213964
 20
0.1951151286990104
 30
0.0
 40
3.5
  1
9
 50
90.0
  7
BESCHLAG
  0
POINT
  5
326
  8
DEFPOINTS
 62
     0
 10
0.0
 20
-2.9512013788043978
 30
0.0
  0
POINT
  5
327
  8
DEFPOINTS
 62
     0
 10
1.0
 20
6.0487986211956013
 30
0.0
  0
POINT
  5
328
  8
DEFPOINTS
 62
     0
 10
11.96808335967034
 20
6.0487986211955969
 30
0.0
  0
ENDBLK
  5
2FF
  8
0
  0
BLOCK
  8
0
  2
*D7
 70
     1
 10
0.0
 20
0.0
 30
0.0
  3
*D7
  1

  0
LINE
  5
329
  8
1
 10
3.0
 20
6.0487986211956004
 30
0.0
 11
12.96808335967034
 21
6.0487986211955969
 31
0.0
  0
LINE
  5
32A
  8
1
 10
3.0
 20
9.0487986211956013
 30
0.0
 11
12.96808335967034
 21
9.0487986211955977
 31
0.0
  0
LINE
  5
32B
  8
1
 10
11.96808335967034
 20
6.0487986211955969
 30
0.0
 11
11.96808335967034
 21
4.0487986211955969
 31
0.0
  0
LINE
  5
32C
  8
1
 10
11.96808335967034
 20
9.0487986211955995
 30
0.0
 11
11.96808335967034
 21
11.048798621195591
 31
0.0
  0
LINE
  5
32D
  8
1
 10
11.96808335967034
 20
6.0487986211955969
 30
0.0
 11
11.96808335967034
 21
9.0487986211955995
 31
0.0
  0
INSERT
  5
32E
  8
1
  2
_OBLIQUE
 10
11.96808335967034
 20
6.0487986211955969
 30
0.0
 41
2.0
 42
2.0
 43
2.0
 50
90.0
  0
INSERT
  5
32F
  8
1
  2
_OBLIQUE
 10
11.96808335967034
 20
9.0487986211955995
 30
0.0
 41
2.0
 42
2.0
 43
2.0
 50
270.0
  0
TEXT
  5
330
  8
0
 10
10.898847343299259
 20
6.1975025775393933
 30
0.0
 40
3.5
  1
3
 50
90.0
  7
BESCHLAG
  0
POINT
  5
331
  8
DEFPOINTS
 62
     0
 10
1.0
 20
6.0487986211956013
 30
0.0
  0
POINT
  5
332
  8
DEFPOINTS
 62
     0
 10
1.0
 20
9.0487986211956013
 30
0.0
  0
POINT
  5
333
  8
DEFPOINTS
 62
     0
 10
11.96808335967034
 20
9.0487986211955995
 30
0.0
  0
ENDBLK
  5
30D
  8
0
  0
ENDSEC
  0
SECTION
  2
ENTITIES
  0
INSERT
  5
25B
  8
5
  2
NULLPUNKT
 10
0.0
 20
0.0
 30
0.0
  0
INSERT
  5
2CC
  8
2
  2
*X3
 10
-268.89473625216891
 20
634.61091733441515
 30
0.0
1001
ACAD
1000
HATCH
1002
{
1070
    16
1000
_U,I
1040
1.0
1040
0.7853981633974483
1070
     0
1002
}
  0
LINE
  5
2CD
  8
6
 10
-7.4500000000000446
 20
1.7487986211956461
 30
0.0
 11
-7.4500000000000446
 21
0.1388976310968246
 31
0.0
  0
LINE
  5
2CE
  8
6
 10
-4.550000000000181
 20
1.7487986211956461
 30
0.0
 11
-4.550000000000181
 21
0.1487986211957377
 31
0.0
  0
INSERT
  5
2CF
  8
2
  2
*X2
 10
-358.10307305157511
 20
634.22235689524177
 30
0.0
1001
ACAD
1000
HATCH
1002
{
1070
    16
1000
_U,I
1040
1.0
1040
0.7853981633974483
1070
     0
1002
}
  0
POLYLINE
  5
2D0
  8
5
 66
     1
 10
0.0
 20
0.0
 30
0.0
  0
VERTEX
  5
3F7
  8
5
 10
-8.0
 20
16.048798621195601
 30
0.0
  0
VERTEX
  5
3F8
  8
5
 10
-8.0
 20
9.0487986211956013
 30
0.0
  0
VERTEX
  5
3F9
  8
5
 10
5.0
 20
9.0487986211956013
 30
0.0
  0
SEQEND
  5
3FA
  8
5
  0
LINE
  5
2D1
  8
6
  6
STRICHPUNKT
 10
-6.0
 20
1.9958253740658161
 30
0.0
 11
-6.0
 21
-4.6068304659826254
 31
0.0
  0
DIMENSION
  5
2D2
  8
1
  2
*D4
 10
-0.0000000000000007
 20
-11.93193954284447
 30
0.0
 11
-6.0
 21
-9.1747771963233298
 31
0.0
 70
     0
 13
-12.0
 23
0.0487986211956013
 33
0.0
 14
0.0
 24
0.0487986211956013
 34
0.0
  0
POLYLINE
  5
2D3
  8
5
 66
     1
 10
0.0
 20
0.0
 30
0.0
  0
VERTEX
  5
3FB
  8
5
 10
-12.0
 20
16.048798621195601
 30
0.0
  0
VERTEX
  5
3FC
  8
5
 10
-12.0
 20
0.0487986211956013
 30
0.0
  0
VERTEX
  5
3FD
  8
5
 10
0.0
 20
0.0487986211956013
 30
0.0
  0
VERTEX
  5
3FE
  8
5
 10
0.0
 20
-4.9512013788043978
 30
0.0
  0
SEQEND
  5
3FF
  8
5
  0
POLYLINE
  5
2D4
  8
4
 66
     1
 10
0.0
 20
0.0
 30
0.0
 70
     1
  0
VERTEX
  5
400
  8
4
 10
-12.0
 20
6.0487986211956013
 30
0.0
  0
VERTEX
  5
401
  8
4
 10
-12.0
 20
0.0487986211956013
 30
0.0
  0
VERTEX
  5
402
  8
4
 10
0.0
 20
0.0487986211956013
 30
0.0
  0
VERTEX
  5
403
  8
4
 10
0.0
 20
-2.9512013788043978
 30
0.0
  0
VERTEX
  5
404
  8
4
 10
1.0
 20
-2.9512013788043978
 30
0.0
  0
VERTEX
  5
405
  8
4
 10
1.0
 20
6.0487986211956013
 30
0.0
  0
SEQEND
  5
406
  8
4
  0
POLYLINE
  5
2D5
  8
6
 66
     1
 10
0.0
 20
0.0
 30
0.0
 70
     1
  0
VERTEX
  5
407
  8
6
 10
0.0
 20
5.0487986211956013
 30
0.0
  0
VERTEX
  5
408
  8
6
 10
-0.6414752021792083
 20
4.2148808583629034
 30
0.0
 42
-0.7161369887166513
  0
VERTEX
  5
409
  8
6
 10
-1.0
 20
4.3368230105327248
 30
0.0
  0
VERTEX
  5
40A
  8
6
 10
-1.0
 20
5.0987986211955549
 30
0.0
 42
-0.4142135623730951
  0
VERTEX
  5
40B
  8
6
 10
-0.0500000000001819
 20
6.0487986211956013
 30
0.0
  0
VERTEX
  5
40C
  8
6
 10
0.0499999999997272
 20
6.0487986211956013
 30
0.0
 42
-0.4142135623730951
  0
VERTEX
  5
40D
  8
6
 10
1.0
 20
5.0987986211955549
 30
0.0
  0
VERTEX
  5
40E
  8
6
 10
1.0
 20
0.0487986211956013
 30
0.0
  0
VERTEX
  5
40F
  8
6
 10
1.0
 20
-2.1612013788044351
 30
0.0
 42
-0.4142135623730951
  0
VERTEX
  5
410
  8
6
 10
0.2100000000000364
 20
-2.9512013788043978
 30
0.0
  0
VERTEX
  5
411
  8
6
 10
0.1999999999998181
 20
-2.9512013788043978
 30
0.0
 42
-0.4142135623730951
  0
VERTEX
  5
412
  8
6
 10
0.0
 20
-2.7512013788043528
 30
0.0
  0
VERTEX
  5
413
  8
6
 10
0.0
 20
0.0487986211956013
 30
0.0
  0
VERTEX
  5
414
  8
6
 10
-4.050000000000181
 20
0.1487986211957377
 30
0.0
  0
VERTEX
  5
415
  8
6
 10
-6.950000000000272
 20
0.1487986211957377
 30
0.0
  0
VERTEX
  5
416
  8
6
 10
-12.0
 20
0.0487986211956013
 30
0.0
  0
VERTEX
  5
417
  8
6
 10
-12.0
 20
5.8487986211955549
 30
0.0
 42
-0.4142135623730951
  0
VERTEX
  5
418
  8
6
 10
-11.80000000000018
 20
6.0487986211956013
 30
0.0
  0
VERTEX
  5
419
  8
6
 10
-10.950000000000269
 20
6.0487986211956013
 30
0.0
 42
-0.4142135623730951
  0
VERTEX
  5
41A
  8
6
 10
-10.0
 20
5.0987986211955549
 30
0.0
  0
VERTEX
  5
41B
  8
6
 10
-10.0
 20
4.3368230105327248
 30
0.0
 42
-0.7161369887166513
  0
VERTEX
  5
41C
  8
6
 10
-10.35852479782079
 20
4.2148808583629034
 30
0.0
  0
VERTEX
  5
41D
  8
6
 10
-11.0
 20
5.0487986211956013
 30
0.0
  0
VERTEX
  5
41E
  8
6
 10
-11.0
 20
1.948798621195692
 30
0.0
 42
0.4142135623730951
  0
VERTEX
  5
41F
  8
6
 10
-10.80000000000018
 20
1.7487986211956461
 30
0.0
  0
VERTEX
  5
420
  8
6
 10
-0.2000000000002728
 20
1.7487986211956461
 30
0.0
 42
0.4142135623730951
  0
VERTEX
  5
421
  8
6
 10
0.0
 20
1.948798621195692
 30
0.0
  0
SEQEND
  5
422
  8
6
  0
POLYLINE
  5
2D6
  8
6
 66
     1
 10
0.0
 20
0.0
 30
0.0
  0
VERTEX
  5
423
  8
6
 10
-5.4981871823924839
 20
6.7748548873510108
 30
0.0
 42
0.0523662851020724
  0
VERTEX
  5
424
  8
6
 10
-2.4924015617648361
 20
7.1869929533579571
 30
0.0
 42
-0.1698680870516715
  0
VERTEX
  5
425
  8
6
 10
-1.893746946753708
 20
7.2003032828599771
 30
0.0
 42
-0.3581952709156561
  0
VERTEX
  5
426
  8
6
 10
-1.698134042131187
 20
6.2192806559198743
 30
0.0
  0
VERTEX
  5
427
  8
6
 10
-2.7115734556873572
 20
4.7101849421435409
 30
0.0
 42
-0.162990172482064
  0
VERTEX
  5
428
  8
6
 10
-3.8857084717624271
 20
4.1363218020235299
 30
0.0
 42
-0.0297520103796801
  0
VERTEX
  5
429
  8
6
 10
-5.5029513478534682
 20
4.0447576607009523
 30
0.0
 42
-0.0297520103796801
  0
VERTEX
  5
42A
  8
6
 10
-7.1162360148559847
 20
4.1902605660275176
 30
0.0
 42
-0.162990172482064
  0
VERTEX
  5
42B
  8
6
 10
-8.2705588086987518
 20
4.8030009900051018
 30
0.0
  0
VERTEX
  5
42C
  8
6
 10
-9.2330539026106635
 20
6.7977242956167174
 30
0.0
 42
-0.5496470159714418
  0
VERTEX
  5
42D
  8
6
 10
-9.0176924793531725
 20
7.3856874607281489
 30
0.0
 42
-0.0587952726232103
  0
VERTEX
  5
42E
  8
6
 10
-8.4220338803934283
 20
7.285997538212313
 30
0.0
 42
0.0523662851020724
  0
VERTEX
  5
42F
  8
6
 10
-5.431682430730234
 20
6.773744485394217
 30
0.0
  0
SEQEND
  5
430
  8
6
  0
POLYLINE
  5
2D7
  8
6
 66
     1
 10
0.0
 20
0.0
 30
0.0
 70
     1
  0
VERTEX
  5
431
  8
6
 10
-5.5029513478534682
 20
9.0487986211956013
 30
0.0
 42
-0.2980932138127738
  0
VERTEX
  5
432
  8
6
 10
-4.2785913478537623
 20
7.9980564020640941
 30
0.0
  0
VERTEX
  5
433
  8
6
 10
-2.136110220017144
 20
7.9621353525558334
 30
0.0
 42
-0.4158738464929489
  0
VERTEX
  5
434
  8
6
 10
-1.016391413364544
 20
5.849239366095162
 30
0.0
  0
VERTEX
  5
435
  8
6
 10
-1.8474806142189659
 20
4.6577485341085767
 30
0.0
 42
0.9647680298900043
  0
VERTEX
  5
436
  8
6
 10
-1.310266436973051
 20
3.884435321719593
 30
0.0
  0
VERTEX
  5
437
  8
6
 10
-0.5975956846609734
 20
4.2287941736478842
 30
0.0
 42
-0.7257084635035503
  0
VERTEX
  5
438
  8
6
 10
-0.0113349948169344
 20
4.0355911528786228
 30
0.0
  0
VERTEX
  5
439
  8
6
 10
-0.4439117842734959
 20
1.9173104434137249
 30
0.0
 42
-0.2464814616015845
  0
VERTEX
  5
43A
  8
6
 10
-0.7436967967314559
 20
1.748278162140422
 30
0.0
 42
-0.0150420667643324
  0
VERTEX
  5
43B
  8
6
 10
-1.0256240160961161
 20
1.748278162140422
 30
0.0
 42
-0.2063969197888626
  0
VERTEX
  5
43C
  8
6
 10
-1.394058987394146
 20
1.9204533803888351
 30
0.0
  0
VERTEX
  5
43D
  8
6
 10
-1.8269789773867151
 20
2.2511574662528342
 30
0.0
 42
0.0984306399189399
  0
VERTEX
  5
43E
  8
6
 10
-2.4751184361889491
 20
2.5691381179333339
 30
0.0
  0
VERTEX
  5
43F
  8
6
 10
-5.5029513478534682
 20
2.5691381179333339
 30
0.0
  0
VERTEX
  5
440
  8
6
 10
-8.5307842595179864
 20
2.5691381179333339
 30
0.0
 42
0.0984306399189399
  0
VERTEX
  5
441
  8
6
 10
-9.1789237183202204
 20
2.2511574662528342
 30
0.0
  0
VERTEX
  5
442
  8
6
 10
-9.6118437083127901
 20
1.9204533803888351
 30
0.0
 42
-0.2063969197888626
  0
VERTEX
  5
443
  8
6
 10
-9.9802786796108194
 20
1.748278162140422
 30
0.0
 42
-0.0150420667643324
  0
VERTEX
  5
444
  8
6
 10
-10.26220589897593
 20
1.748278162140422
 30
0.0
 42
-0.2464814616015845
  0
VERTEX
  5
445
  8
6
 10
-10.56199091143344
 20
1.9173104434137249
 30
0.0
  0
VERTEX
  5
446
  8
6
 10
-10.97602382234299
 20
3.953781268835427
 30
0.0
 42
-0.840747113403863
  0
VERTEX
  5
447
  8
6
 10
-10.408307011045959
 20
4.2287941736478842
 30
0.0
  0
VERTEX
  5
448
  8
6
 10
-9.7216569874317411
 20
3.895135493987254
 30
0.0
 42
0.9846311026449575
  0
VERTEX
  5
449
  8
6
 10
-9.1584220814884247
 20
4.6577485341085767
 30
0.0
  0
VERTEX
  5
44A
  8
6
 10
-9.9895112823428462
 20
5.849239366095162
 30
0.0
 42
-0.4158738464929489
  0
VERTEX
  5
44B
  8
6
 10
-8.8697924756897901
 20
7.9621353525558334
 30
0.0
  0
VERTEX
  5
44C
  8
6
 10
-6.7273113478536279
 20
7.9980564020640941
 30
0.0
 42
-0.2980932138127738
  0
SEQEND
  5
44D
  8
6
  0
DIMENSION
  5
2D8
  8
1
  2
*D5
 10
-23.458431250464852
 20
6.048798621195604
 30
0.0
 11
-26.245436707490772
 21
3.0487986211956009
 31
0.0
 70
     0
 13
-12.0
 23
0.0487986211956013
 33
0.0
 14
-12.0
 24
6.0487986211956013
 34
0.0
 50
90.0
  0
TEXT
  5
2D9
  8
1
 10
-5.3019539636798072
 20
13.259818828200419
 30
0.0
 40
2.5
  1
Hebgo 144/520
  0
DIMENSION
  5
2DA
  8
1
  2
*D6
 10
11.96808335967034
 20
6.0487986211955969
 30
0.0
 11
9.1810779026444216
 21
1.5487986211955991
 31
0.0
 70
     0
 13
0.0
 23
-2.9512013788043978
 33
0.0
 14
1.0
 24
6.0487986211956013
 34
0.0
 50
90.0
  0
DIMENSION
  5
2DB
  8
1
  2
*D7
 10
11.96808335967034
 20
9.0487986211955995
 30
0.0
 11
9.1798841782242313
 21
7.5487986211956004
 31
0.0
 70
     0
 13
1.0
 23
6.0487986211956013
 33
0.0
 14
1.0
 24
9.0487986211956013
 34
0.0
 50
90.0
  0
VIEWPORT
  5
22
 67
     1
  8
0
 10
210.0
 20
170.2366863905325
 30
0.0
 40
420.0
 41
340.47337278106511
 68
     1
 69
     1
1001
ACAD
1000
MVIEW
1002
{
1070
    16
1010
0.0
1020
0.0
1030
0.0
1010
0.0
1020
0.0
1030
1.0
1040
0.0
1040
340.47337278106511
1040
210.0
1040
170.2366863905325
1040
50.0
1040
0.0
1040
0.0
1070
     0
1070
   100
1070
     1
1070
     1
1070
     0
1070
     0
1070
     0
1070
     0
1040
0.0
1040
0.0
1040
0.0
1040
5.0
1040
5.0
1040
10.0
1040
10.0
1070
     0
1002
{
1002
}
1002
}
  0
ENDSEC
  0
EOF
