  0
SECTION
  2
HEADER
  9
$ACADVER
  1
AC1009
  9
$INSBASE
 10
0.0
 20
0.0
 30
0.0
  9
$EXTMIN
 10
-89.0
 20
-17.050471313595601
 30
0.0
  9
$EXTMAX
 10
2.0
 20
22.336533332756058
 30
0.0
  9
$LIMMIN
 10
-150.0
 20
-150.0
  9
$LIMMAX
 10
150.0
 20
150.0
  9
$ORTHOMODE
 70
     0
  9
$REGENMODE
 70
     1
  9
$FILLMODE
 70
     1
  9
$QTEXTMODE
 70
     0
  9
$MIRRTEXT
 70
     0
  9
$DRAGMODE
 70
     2
  9
$LTSCALE
 40
4.0
  9
$OSMODE
 70
   111
  9
$ATTMODE
 70
     1
  9
$TEXTSIZE
 40
3.5
  9
$TRACEWID
 40
1.0
  9
$TEXTSTYLE
  7
BESCHLAG
  9
$CLAYER
  8
0
  9
$CELTYPE
  6
BYLAYER
  9
$CECOLOR
 62
   256
  9
$DIMSCALE
 40
1.0
  9
$DIMASZ
 40
2.0
  9
$DIMEXO
 40
2.0
  9
$DIMDLI
 40
0.0
  9
$DIMRND
 40
0.0
  9
$DIMDLE
 40
1.0
  9
$DIMEXE
 40
1.0
  9
$DIMTP
 40
0.0
  9
$DIMTM
 40
0.0
  9
$DIMTXT
 40
3.5
  9
$DIMCEN
 40
0.0
  9
$DIMTSZ
 40
0.0
  9
$DIMTOL
 70
     0
  9
$DIMLIM
 70
     0
  9
$DIMTIH
 70
     0
  9
$DIMTOH
 70
     0
  9
$DIMSE1
 70
     0
  9
$DIMSE2
 70
     0
  9
$DIMTAD
 70
     1
  9
$DIMZIN
 70
     8
  9
$DIMBLK
  1

  9
$DIMASO
 70
     1
  9
$DIMSHO
 70
     1
  9
$DIMPOST
  1

  9
$DIMAPOST
  1

  9
$DIMALT
 70
     0
  9
$DIMALTD
 70
     2
  9
$DIMALTF
 40
0.039370078740157
  9
$DIMLFAC
 40
1.0
  9
$DIMTOFL
 70
     1
  9
$DIMTVP
 40
0.0
  9
$DIMTIX
 70
     1
  9
$DIMSOXD
 70
     0
  9
$DIMSAH
 70
     1
  9
$DIMBLK1
  1
OBLIQUE
  9
$DIMBLK2
  1
OBLIQUE
  9
$DIMSTYLE
  2
OPO-SSTRICH
  9
$DIMCLRD
 70
   256
  9
$DIMCLRE
 70
   256
  9
$DIMCLRT
 70
   256
  9
$DIMTFAC
 40
0.7114285714285716
  9
$DIMGAP
 40
1.0
  9
$LUNITS
 70
     2
  9
$LUPREC
 70
     1
  9
$SKETCHINC
 40
1.0
  9
$FILLETRAD
 40
0.0
  9
$AUNITS
 70
     0
  9
$AUPREC
 70
     1
  9
$MENU
  1
D:\ACL_CGWG\CGTAB13
  9
$ELEVATION
 40
0.0
  9
$PELEVATION
 40
0.0
  9
$THICKNESS
 40
0.0
  9
$LIMCHECK
 70
     0
  9
$BLIPMODE
 70
     0
  9
$CHAMFERA
 40
1.0
  9
$CHAMFERB
 40
1.0
  9
$SKPOLY
 70
     0
  9
$TDCREATE
 40
2451739.8731076382
  9
$TDUPDATE
 40
2452087.6144041088
  9
$TDINDWG
 40
0.0007629514
  9
$TDUSRTIMER
 40
0.0007629514
  9
$USRTIMER
 70
     1
  9
$ANGBASE
 50
0.0
  9
$ANGDIR
 70
     0
  9
$PDMODE
 70
    35
  9
$PDSIZE
 40
5.0
  9
$PLINEWID
 40
0.0
  9
$COORDS
 70
     1
  9
$SPLFRAME
 70
     0
  9
$SPLINETYPE
 70
     6
  9
$SPLINESEGS
 70
     8
  9
$ATTDIA
 70
     1
  9
$ATTREQ
 70
     1
  9
$HANDLING
 70
-16383
  9
$HANDSEED
  5
4DB
  9
$SURFTAB1
 70
    12
  9
$SURFTAB2
 70
    12
  9
$SURFTYPE
 70
     6
  9
$SURFU
 70
    12
  9
$SURFV
 70
    12
  9
$UCSNAME
  2

  9
$UCSORG
 10
0.0
 20
0.0
 30
0.0
  9
$UCSXDIR
 10
1.0
 20
0.0
 30
0.0
  9
$UCSYDIR
 10
0.0
 20
1.0
 30
0.0
  9
$PUCSNAME
  2

  9
$PUCSORG
 10
0.0
 20
0.0
 30
0.0
  9
$PUCSXDIR
 10
1.0
 20
0.0
 30
0.0
  9
$PUCSYDIR
 10
0.0
 20
1.0
 30
0.0
  9
$USERI1
 70
     0
  9
$USERI2
 70
     0
  9
$USERI3
 70
     0
  9
$USERI4
 70
     0
  9
$USERI5
 70
     0
  9
$USERR1
 40
0.0
  9
$USERR2
 40
0.0
  9
$USERR3
 40
0.0
  9
$USERR4
 40
0.0
  9
$USERR5
 40
0.0
  9
$WORLDVIEW
 70
     1
  9
$SHADEDGE
 70
     3
  9
$SHADEDIF
 70
    70
  9
$TILEMODE
 70
     1
  9
$MAXACTVP
 70
    48
  9
$PLIMCHECK
 70
     0
  9
$PEXTMIN
 10
1.0000000000000000E+020
 20
1.0000000000000000E+020
 30
1.0000000000000000E+020
  9
$PEXTMAX
 10
-1.0000000000000000E+020
 20
-1.0000000000000000E+020
 30
-1.0000000000000000E+020
  9
$PLIMMIN
 10
0.0
 20
0.0
  9
$PLIMMAX
 10
420.0
 20
297.0
  9
$UNITMODE
 70
     0
  9
$VISRETAIN
 70
     1
  9
$PLINEGEN
 70
     0
  9
$PSLTSCALE
 70
     1
  0
ENDSEC
  0
SECTION
  2
TABLES
  0
TABLE
  2
VPORT
 70
     2
  0
VPORT
  2
*ACTIVE
 70
     0
 10
0.0
 20
0.0
 11
1.0
 21
1.0
 12
-43.498992272069422
 22
3.6105172614880869
 13
0.0
 23
0.0
 14
0.5
 24
0.5
 15
10.0
 25
10.0
 16
0.0
 26
0.0
 36
1.0
 17
0.0
 27
0.0
 37
0.0
 40
56.962718393304847
 41
1.6070460704607039
 42
50.0
 43
0.0
 44
0.0
 50
0.0
 51
0.0
 71
     0
 72
   800
 73
     1
 74
     1
 75
     0
 76
     0
 77
     0
 78
     0
  0
ENDTAB
  0
TABLE
  2
LTYPE
 70
     2
  0
LTYPE
  2
CONTINUOUS
 70
     0
  3
_______________________________________________
 72
    65
 73
     2
 40
1.0
 49
1.0
 49
0.0
  0
LTYPE
  2
STRICHPUNKT
 70
     0
  3
__ . __ . __ . __ . __ . __ . __ . __ . __ . __
 72
    65
 73
     4
 40
1.0
 49
0.5
 49
-0.25
 49
0.0
 49
-0.25
  0
ENDTAB
  0
TABLE
  2
LAYER
 70
     7
  0
LAYER
  2
0
 70
     0
 62
    30
  6
CONTINUOUS
  0
LAYER
  2
1
 70
     0
 62
     2
  6
CONTINUOUS
  0
LAYER
  2
2
 70
     0
 62
     9
  6
CONTINUOUS
  0
LAYER
  2
4
 70
     1
 62
     4
  6
CONTINUOUS
  0
LAYER
  2
5
 70
     0
 62
     1
  6
CONTINUOUS
  0
LAYER
  2
6
 70
     0
 62
     3
  6
CONTINUOUS
  0
LAYER
  2
DEFPOINTS
 70
     0
 62
     7
  6
CONTINUOUS
  0
ENDTAB
  0
TABLE
  2
STYLE
 70
     2
  0
STYLE
  2
STANDARD
 70
     0
 40
0.0
 41
1.0
 50
0.0
 71
     0
 42
2.5
  3
txt
  4

  0
STYLE
  2
BESCHLAG
 70
     0
 40
0.0
 41
1.0
 50
0.0
 71
     0
 42
3.5
  3
txt
  4

  0
ENDTAB
  0
TABLE
  2
VIEW
 70
     0
  0
ENDTAB
  0
TABLE
  2
UCS
 70
     0
  0
ENDTAB
  0
TABLE
  2
APPID
 70
     1
  0
APPID
  2
ACAD
 70
     0
  0
ENDTAB
  0
TABLE
  2
DIMSTYLE
 70
     1
  0
DIMSTYLE
  2
OPO-SSTRICH
 70
     0
  3

  4

  5

  6
OBLIQUE
  7
OBLIQUE
 40
1.0
 41
2.0
 42
2.0
 43
0.0
 44
1.0
 45
0.0
 46
1.0
 47
0.0
 48
0.0
140
3.5
141
0.0
142
0.0
143
0.039370078740157
144
1.0
145
0.0
146
0.7114285714285716
147
1.0
 71
     0
 72
     0
 73
     0
 74
     0
 75
     0
 76
     0
 77
     1
 78
     8
170
     0
171
     2
172
     1
173
     1
174
     1
175
     0
176
   256
177
   256
178
   256
  0
ENDTAB
  0
ENDSEC
  0
SECTION
  2
BLOCKS
  0
BLOCK
  8
0
  2
$MODEL_SPACE
 70
     0
 10
0.0
 20
0.0
 30
0.0
  3
$MODEL_SPACE
  1

  0
ENDBLK
  5
1C
  8
0
  0
BLOCK
 67
     1
  8
0
  2
$PAPER_SPACE
 70
     0
 10
0.0
 20
0.0
 30
0.0
  3
$PAPER_SPACE
  1

  0
ENDBLK
  5
19
 67
     1
  8
0
  0
BLOCK
  8
0
  2
_OBLIQUE
 70
     0
 10
0.0
 20
0.0
 30
0.0
  3
_OBLIQUE
  1

  0
LINE
  5
204
  8
0
 62
     0
 10
-0.5
 20
-0.5
 30
0.0
 11
0.5
 21
0.5
 31
0.0
  0
ENDBLK
  5
206
  8
0
  0
BLOCK
  8
0
  2
NULLPUNKT
 70
     0
 10
0.0
 20
0.0
 30
0.0
  3
NULLPUNKT
  1

  0
SOLID
  5
254
  8
5
 10
0.0
 20
0.0
 30
0.0
 11
2.0
 21
0.0
 31
0.0
 12
0.0
 22
-2.0
 32
0.0
 13
0.0
 23
-2.0
 33
0.0
  0
SOLID
  5
255
  8
5
 10
0.0
 20
0.0
 30
0.0
 11
-2.0
 21
0.0
 31
0.0
 12
0.0
 22
2.0
 32
0.0
 13
0.0
 23
2.0
 33
0.0
  0
POLYLINE
  5
256
  8
5
 66
     1
 10
0.0
 20
0.0
 30
0.0
  0
VERTEX
  5
41F
  8
5
 10
0.0
 20
2.0
 30
0.0
  0
VERTEX
  5
420
  8
5
 10
0.0
 20
-2.0
 30
0.0
  0
SEQEND
  5
421
  8
5
  0
POLYLINE
  5
257
  8
5
 66
     1
 10
0.0
 20
0.0
 30
0.0
  0
VERTEX
  5
422
  8
5
 10
-2.0
 20
0.0
 30
0.0
  0
VERTEX
  5
423
  8
5
 10
2.0
 20
0.0
 30
0.0
  0
SEQEND
  5
424
  8
5
  0
CIRCLE
  5
258
  8
5
 10
0.0
 20
0.0
 30
0.0
 40
2.0
  0
ENDBLK
  5
25A
  8
0
  0
BLOCK
  8
0
  2
*X2
 70
     1
 10
0.0
 20
0.0
 30
0.0
  3
*X2
  1

  0
LINE
  5
292
  8
0
 62
     0
 10
415.99882728182428
 20
-144.02974341792111
 30
0.0
 11
418.21959002130291
 21
-141.80898067844251
 31
0.0
  0
LINE
  5
293
  8
0
 62
     0
 10
414.10186224494208
 20
-144.22965217995551
 30
0.0
 11
416.3322958380744
 21
-141.9992185868233
 31
0.0
  0
LINE
  5
294
  8
0
 62
     0
 10
412.20489720806012
 20
-144.42956094198991
 30
0.0
 11
414.4450016548459
 21
-142.1894564952041
 31
0.0
  0
LINE
  5
295
  8
0
 62
     0
 10
410.30793217117798
 20
-144.6294697040243
 30
0.0
 11
412.5577074716175
 21
-142.37969440358489
 31
0.0
  0
LINE
  5
296
  8
0
 62
     0
 10
408.41096713429579
 20
-144.82937846605881
 30
0.0
 11
410.670413288389
 21
-142.56993231196569
 31
0.0
  0
LINE
  5
297
  8
0
 62
     0
 10
406.51400209741371
 20
-145.02928722809321
 30
0.0
 11
408.78311910516038
 21
-142.76017022034651
 31
0.0
  0
LINE
  5
298
  8
0
 62
     0
 10
404.61703706053152
 20
-145.22919599012761
 30
0.0
 11
406.89582492193188
 21
-142.9504081287273
 31
0.0
  0
LINE
  5
299
  8
0
 62
     0
 10
402.72007202364949
 20
-145.429104752162
 30
0.0
 11
405.00853073870348
 21
-143.1406460371081
 31
0.0
  0
LINE
  5
29A
  8
0
 62
     0
 10
400.8231069867673
 20
-145.6290135141964
 30
0.0
 11
403.12123655547498
 21
-143.33088394548889
 31
0.0
  0
LINE
  5
29B
  8
0
 62
     0
 10
398.92614194988522
 20
-145.8289222762308
 30
0.0
 11
401.23394237224642
 21
-143.5211218538696
 31
0.0
  0
LINE
  5
29C
  8
0
 62
     0
 10
397.02917691300303
 20
-146.0288310382652
 30
0.0
 11
399.34664818901791
 21
-143.7113597622504
 31
0.0
  0
LINE
  5
29D
  8
0
 62
     0
 10
395.13221187612089
 20
-146.22873980029959
 30
0.0
 11
397.45935400578941
 21
-143.90159767063119
 31
0.0
  0
LINE
  5
29E
  8
0
 62
     0
 10
393.23524683923881
 20
-146.42864856233399
 30
0.0
 11
395.5720598225609
 21
-144.09183557901201
 31
0.0
  0
LINE
  5
29F
  8
0
 62
     0
 10
391.33828180235668
 20
-146.6285573243685
 30
0.0
 11
393.6847656393324
 21
-144.28207348739281
 31
0.0
  0
LINE
  5
2A0
  8
0
 62
     0
 10
389.4413167654746
 20
-146.82846608640281
 30
0.0
 11
391.79747145610401
 21
-144.4723113957736
 31
0.0
  0
LINE
  5
2A1
  8
0
 62
     0
 10
387.5443517285924
 20
-147.02837484843729
 30
0.0
 11
390.42878193833292
 21
-144.14394463869669
 31
0.0
  0
LINE
  5
2A2
  8
0
 62
     0
 10
385.64738669171032
 20
-147.22828361047169
 30
0.0
 11
388.47557799973839
 21
-144.4000923024436
 31
0.0
  0
LINE
  5
2A3
  8
0
 62
     0
 10
383.75042165482819
 20
-147.42819237250609
 30
0.0
 11
386.52237406114392
 21
-144.6562399661905
 31
0.0
  0
LINE
  5
2A4
  8
0
 62
     0
 10
381.85345661794611
 20
-147.62810113454049
 30
0.0
 11
384.56917012254939
 21
-144.9123876299372
 31
0.0
  0
LINE
  5
2A5
  8
0
 62
     0
 10
375.16300153346901
 20
-152.6214999441699
 30
0.0
 11
377.32862859578933
 21
-150.45587288184959
 31
0.0
  0
LINE
  5
2A6
  8
0
 62
     0
 10
379.6133758790271
 20
-148.17112559861189
 30
0.0
 11
382.61596618395492
 21
-145.16853529368399
 31
0.0
  0
LINE
  5
2A7
  8
0
 62
     0
 10
374.99438481960487
 20
-151.09306038318621
 30
0.0
 11
380.63216804248009
 21
-145.455277160311
 31
0.0
  0
LINE
  5
2A8
  8
0
 62
     0
 10
375.93129685381132
 20
-148.45909207413209
 30
0.0
 11
377.09195355342672
 21
-147.2984353745168
 31
0.0
  0
LINE
  5
2A9
  8
0
 62
     0
 10
377.389159358401
 20
-147.00122956954249
 30
0.0
 11
378.36490049292109
 21
-146.0254884350224
 31
0.0
  0
LINE
  5
2AA
  8
0
 62
     0
 10
417.89579231870653
 20
-143.82983465588671
 30
0.0
 11
420.10688420453153
 21
-141.6187427700618
 31
0.0
  0
LINE
  5
2AB
  8
0
 62
     0
 10
419.79275735558861
 20
-143.62992589385229
 30
0.0
 11
421.99417838775997
 21
-141.42850486168101
 31
0.0
  0
LINE
  5
2AC
  8
0
 62
     0
 10
421.68972239247069
 20
-143.43001713181789
 30
0.0
 11
423.88147257098842
 21
-141.23826695330021
 31
0.0
  0
LINE
  5
2AD
  8
0
 62
     0
 10
423.58668742935271
 20
-143.23010836978349
 30
0.0
 11
425.76876675421693
 21
-141.04802904491939
 31
0.0
  0
LINE
  5
2AE
  8
0
 62
     0
 10
433.2139268072213
 20
-133.6028689919151
 30
0.0
 11
434.69529585496639
 21
-132.1214999441699
 31
0.0
  0
LINE
  5
2AF
  8
0
 62
     0
 10
425.48365246623501
 20
-143.0301996077491
 30
0.0
 11
427.65606093744537
 21
-140.85779113653859
 31
0.0
  0
LINE
  5
2B0
  8
0
 62
     0
 10
433.57255699608839
 20
-134.9412950778956
 30
0.0
 11
436.39235212981413
 21
-132.1214999441699
 31
0.0
  0
LINE
  5
2B1
  8
0
 62
     0
 10
427.38061750311709
 20
-142.8302908457147
 30
0.0
 11
429.54335512067399
 21
-140.6675532281578
 31
0.0
  0
LINE
  5
2B2
  8
0
 62
     0
 10
433.93118718495572
 20
-136.2797211638761
 30
0.0
 11
437.95320178592368
 21
-132.257706562908
 31
0.0
  0
LINE
  5
2B3
  8
0
 62
     0
 10
429.27758253999917
 20
-142.63038208368019
 30
0.0
 11
431.43064930390238
 21
-140.47731531977701
 31
0.0
  0
LINE
  5
2B4
  8
0
 62
     0
 10
436.78646467950961
 20
-135.1214999441699
 30
0.0
 11
439.78646467950949
 21
-132.1214999441699
 31
0.0
  0
LINE
  5
2B5
  8
0
 62
     0
 10
434.28981737382293
 20
-137.61814724985669
 30
0.0
 11
436.3169951671855
 21
-135.59096945649401
 31
0.0
  0
LINE
  5
2B6
  8
0
 62
     0
 10
431.17454757688131
 20
-142.43047332164579
 30
0.0
 11
433.70478472751768
 21
-139.90023617100951
 31
0.0
  0
LINE
  5
2B7
  8
0
 62
     0
 10
438.48352095435729
 20
-135.1214999441699
 30
0.0
 11
441.48352095435718
 21
-132.1214999441699
 31
0.0
  0
LINE
  5
2B8
  8
0
 62
     0
 10
433.95282581089327
 20
-139.65219508763391
 30
0.0
 11
436.3169951671855
 21
-137.28802573134169
 31
0.0
  0
LINE
  5
2B9
  8
0
 62
     0
 10
426.84469839187727
 20
-148.45737878149751
 30
0.0
 11
427.15287400451302
 21
-148.14920316886179
 31
0.0
  0
LINE
  5
2BA
  8
0
 62
     0
 10
440.18057722920491
 20
-135.1214999441699
 30
0.0
 11
443.18057722920491
 21
-132.1214999441699
 31
0.0
  0
LINE
  5
2BB
  8
0
 62
     0
 10
433.07151261376339
 20
-142.23056455961139
 30
0.0
 11
436.3169951671855
 21
-138.9850820061894
 31
0.0
  0
LINE
  5
2BC
  8
0
 62
     0
 10
427.0973143356191
 20
-149.9018191126035
 30
0.0
 11
428.87763350405271
 21
-148.1214999441699
 31
0.0
  0
LINE
  5
2BD
  8
0
 62
     0
 10
443.3776335040526
 20
-133.6214999441699
 30
0.0
 11
444.87763350405271
 21
-132.1214999441699
 31
0.0
  0
LINE
  5
2BE
  8
0
 62
     0
 10
434.31699516718538
 20
-142.68213828103711
 30
0.0
 11
436.3169951671855
 21
-140.68213828103711
 31
0.0
  0
LINE
  5
2BF
  8
0
 62
     0
 10
440.8169951671855
 20
-136.18213828103711
 30
0.0
 11
442.81699516718538
 21
-134.18213828103711
 31
0.0
  0
LINE
  5
2C0
  8
0
 62
     0
 10
428.945842473043
 20
-149.7503472500274
 30
0.0
 11
430.57468977890039
 21
-148.1214999441699
 31
0.0
  0
LINE
  5
2C1
  8
0
 62
     0
 10
445.06997467769793
 20
-133.6262150453725
 30
0.0
 11
446.5699746777243
 21
-132.12621504534599
 31
0.0
  0
LINE
  5
2C2
  8
0
 62
     0
 10
434.31699516718538
 20
-144.37919455588491
 30
0.0
 11
436.3169951671855
 21
-142.37919455588491
 31
0.0
  0
LINE
  5
2C3
  8
0
 62
     0
 10
440.8169951671855
 20
-137.87919455588491
 30
0.0
 11
442.81699516718538
 21
-135.87919455588491
 31
0.0
  0
LINE
  5
2C4
  8
0
 62
     0
 10
430.29437061046679
 20
-150.0988753874513
 30
0.0
 11
436.3169951671855
 21
-144.07625083073259
 31
0.0
  0
LINE
  5
2C5
  8
0
 62
     0
 10
445.3169951671855
 20
-135.07625083073259
 30
0.0
 11
446.81699516718538
 21
-133.57625083073259
 31
0.0
  0
LINE
  5
2C6
  8
0
 62
     0
 10
440.8169951671855
 20
-139.57625083073259
 30
0.0
 11
442.81699516718538
 21
-137.57625083073259
 31
0.0
  0
LINE
  5
2C7
  8
0
 62
     0
 10
432.14289874789063
 20
-149.94740352487511
 30
0.0
 11
436.3169951671855
 21
-145.7733071055803
 31
0.0
  0
LINE
  5
2C8
  8
0
 62
     0
 10
440.8169951671855
 20
-141.2733071055803
 30
0.0
 11
442.81699516718538
 21
-139.2733071055803
 31
0.0
  0
LINE
  5
2C9
  8
0
 62
     0
 10
440.8169951671855
 20
-142.97036338042801
 30
0.0
 11
442.81699516718538
 21
-140.97036338042801
 31
0.0
  0
LINE
  5
2CA
  8
0
 62
     0
 10
440.8169951671855
 20
-144.66741965527569
 30
0.0
 11
442.81699516718538
 21
-142.66741965527569
 31
0.0
  0
LINE
  5
2CB
  8
0
 62
     0
 10
440.93848316016221
 20
-146.24298793714669
 30
0.0
 11
442.81699516718538
 21
-144.36447593012349
 31
0.0
  0
LINE
  5
2CC
  8
0
 62
     0
 10
441.7870112975861
 20
-147.09151607457059
 30
0.0
 11
443.25702742798671
 21
-145.6214999441699
 31
0.0
  0
LINE
  5
2CD
  8
0
 62
     0
 10
442.63553943501
 20
-147.9400442119944
 30
0.0
 11
444.9540837028344
 21
-145.6214999441699
 31
0.0
  0
LINE
  5
2CE
  8
0
 62
     0
 10
445.3169951671855
 20
-145.25858847981891
 30
0.0
 11
446.5893161633486
 21
-143.98626748365569
 31
0.0
  0
LINE
  5
2CF
  8
0
 62
     0
 10
443.48406757243379
 20
-148.78857234941819
 30
0.0
 11
446.81699516718538
 21
-145.45564475466659
 31
0.0
  0
LINE
  5
2D0
  8
0
 62
     0
 10
444.33259570985769
 20
-149.63710048684209
 30
0.0
 11
446.81699516718538
 21
-147.1527010295143
 31
0.0
  0
LINE
  5
2D1
  8
0
 62
     0
 10
445.68112384728153
 20
-149.9856286242659
 30
0.0
 11
447.5452525273775
 21
-148.1214999441699
 31
0.0
  0
LINE
  5
2D2
  8
0
 62
     0
 10
447.52965198470542
 20
-149.83415676168991
 30
0.0
 11
449.2423088022253
 21
-148.1214999441699
 31
0.0
  0
LINE
  5
2D3
  8
0
 62
     0
 10
449.37818012212932
 20
-149.6826848991137
 30
0.0
 11
450.93936507707292
 21
-148.1214999441699
 31
0.0
  0
LINE
  5
2D4
  8
0
 62
     0
 10
450.72670825955299
 20
-150.03121303653751
 30
0.0
 11
452.6364213519206
 21
-148.1214999441699
 31
0.0
  0
LINE
  5
2D5
  8
0
 62
     0
 10
452.57523639697689
 20
-149.87974117396141
 30
0.0
 11
454.33347762676829
 21
-148.1214999441699
 31
0.0
  0
LINE
  5
2D6
  8
0
 62
     0
 10
454.42376453440079
 20
-149.72826931138519
 30
0.0
 11
456.03053390161602
 21
-148.1214999441699
 31
0.0
  0
LINE
  5
2D7
  8
0
 62
     0
 10
455.77229267182469
 20
-150.07679744880909
 30
0.0
 11
457.72759017646388
 21
-148.1214999441699
 31
0.0
  0
LINE
  5
2D8
  8
0
 62
     0
 10
457.62082080924853
 20
-149.92532558623299
 30
0.0
 11
459.42464645131162
 21
-148.1214999441699
 31
0.0
  0
LINE
  5
2D9
  8
0
 62
     0
 10
459.46934894667243
 20
-149.7738537236568
 30
0.0
 11
461.12170272615919
 21
-148.1214999441699
 31
0.0
  0
LINE
  5
2DA
  8
0
 62
     0
 10
461.3169951671855
 20
-149.6214999441699
 30
0.0
 11
462.67142937474648
 21
-148.2688295704304
 31
0.0
  0
LINE
  5
2DB
  8
0
 62
     0
 10
462.66640522151999
 20
-149.97090999850451
 30
0.0
 11
462.81699516718538
 21
-149.82032005283909
 31
0.0
  0
ENDBLK
  5
2DD
  8
0
  0
BLOCK
  8
0
  2
*D3
 70
     1
 10
0.0
 20
0.0
 30
0.0
  3
*D3
  1

  0
LINE
  5
33C
  8
1
 10
-16.0
 20
-2.0
 30
0.0
 11
-16.0
 21
-14.185792703091231
 31
0.0
  0
LINE
  5
33D
  8
1
 10
-88.0
 20
-4.5047511154182303
 30
0.0
 11
-88.0
 21
-14.185792703091231
 31
0.0
  0
LINE
  5
33E
  8
1
 10
-15.0
 20
-13.185792703091231
 30
0.0
 11
-89.0
 21
-13.185792703091231
 31
0.0
  0
INSERT
  5
33F
  8
1
  2
_OBLIQUE
 10
-16.0
 20
-13.185792703091231
 30
0.0
 41
2.0
 42
2.0
 43
2.0
  0
INSERT
  5
340
  8
1
  2
_OBLIQUE
 10
-88.0
 20
-13.185792703091231
 30
0.0
 41
2.0
 42
2.0
 43
2.0
 50
180.0
  0
TEXT
  5
341
  8
0
 10
-54.706173260572989
 20
-12.178630356570091
 30
0.0
 40
3.5
  1
72
  7
BESCHLAG
  0
POINT
  5
342
  8
DEFPOINTS
 62
     0
 10
-16.0
 20
0.0
 30
0.0
  0
POINT
  5
343
  8
DEFPOINTS
 62
     0
 10
-88.0
 20
-2.5047511154182298
 30
0.0
  0
POINT
  5
344
  8
DEFPOINTS
 62
     0
 10
-88.0
 20
-13.185792703091231
 30
0.0
  0
ENDBLK
  5
315
  8
0
  0
BLOCK
  8
0
  2
*D4
 70
     1
 10
0.0
 20
0.0
 30
0.0
  3
*D4
  1

  0
LINE
  5
345
  8
1
 10
-13.0
 20
6.0
 30
0.0
 11
-13.0
 21
-14.185792703091231
 31
0.0
  0
LINE
  5
346
  8
1
 10
-0.0000000000000001
 20
-2.0
 30
0.0
 11
-0.0000000000000009
 21
-14.185792703091231
 31
0.0
  0
LINE
  5
347
  8
1
 10
-14.0
 20
-13.185792703091231
 30
0.0
 11
0.9999999999999992
 21
-13.185792703091231
 31
0.0
  0
INSERT
  5
348
  8
1
  2
_OBLIQUE
 10
-13.0
 20
-13.185792703091231
 30
0.0
 41
2.0
 42
2.0
 43
2.0
 50
180.0
  0
INSERT
  5
349
  8
1
  2
_OBLIQUE
 10
-0.0000000000000008
 20
-13.185792703091231
 30
0.0
 41
2.0
 42
2.0
 43
2.0
  0
TEXT
  5
34A
  8
0
 10
-9.3744884038199192
 20
-12.11655668672015
 30
0.0
 40
3.5
  1
13
  7
BESCHLAG
  0
POINT
  5
34B
  8
DEFPOINTS
 62
     0
 10
-13.0
 20
8.0
 30
0.0
  0
POINT
  5
34C
  8
DEFPOINTS
 62
     0
 10
0.0
 20
0.0
 30
0.0
  0
POINT
  5
34D
  8
DEFPOINTS
 62
     0
 10
-0.0000000000000008
 20
-13.185792703091231
 30
0.0
  0
ENDBLK
  5
321
  8
0
  0
BLOCK
  8
0
  2
*D5
 70
     1
 10
0.0
 20
0.0
 30
0.0
  3
*D5
  1

  0
LINE
  5
34E
  8
1
 10
-16.0
 20
0.0
 30
0.0
 11
-16.0
 21
-14.185792703091231
 31
0.0
  0
LINE
  5
34F
  8
1
 10
-13.0
 20
6.0
 30
0.0
 11
-13.0
 21
-14.185792703091231
 31
0.0
  0
LINE
  5
350
  8
1
 10
-16.0
 20
-13.185792703091231
 30
0.0
 11
-18.0
 21
-13.185792703091231
 31
0.0
  0
LINE
  5
351
  8
1
 10
-13.0
 20
-13.185792703091231
 30
0.0
 11
-11.0
 21
-13.185792703091231
 31
0.0
  0
LINE
  5
352
  8
1
 10
-16.0
 20
-13.185792703091231
 30
0.0
 11
-13.0
 21
-13.185792703091231
 31
0.0
  0
INSERT
  5
353
  8
1
  2
_OBLIQUE
 10
-16.0
 20
-13.185792703091231
 30
0.0
 41
2.0
 42
2.0
 43
2.0
  0
INSERT
  5
354
  8
1
  2
_OBLIQUE
 10
-13.0
 20
-13.185792703091231
 30
0.0
 41
2.0
 42
2.0
 43
2.0
 50
180.0
  0
TEXT
  5
355
  8
0
 10
-15.8512960436562
 20
-12.11655668672015
 30
0.0
 40
3.5
  1
3
  7
BESCHLAG
  0
POINT
  5
356
  8
DEFPOINTS
 62
     0
 10
-16.0
 20
2.0
 30
0.0
  0
POINT
  5
357
  8
DEFPOINTS
 62
     0
 10
-13.0
 20
8.0
 30
0.0
  0
POINT
  5
358
  8
DEFPOINTS
 62
     0
 10
-13.0
 20
-13.185792703091231
 30
0.0
  0
ENDBLK
  5
32F
  8
0
  0
BLOCK
  8
0
  2
*D6
 70
     1
 10
0.0
 20
0.0
 30
0.0
  3
*D6
  1

  0
LINE
  5
359
  8
1
 10
-2.0
 20
0.0000000000000006
 30
0.0
 11
-37.761845017963203
 21
0.0000000000000107
 31
0.0
  0
LINE
  5
35A
  8
1
 10
-31.981286809594842
 20
18.0
 30
0.0
 11
-37.761845017963189
 21
18.0
 31
0.0
  0
LINE
  5
35B
  8
1
 10
-36.761845017963203
 20
-0.9999999999999895
 30
0.0
 11
-36.761845017963189
 21
19.0
 31
0.0
  0
TEXT
  5
35C
  8
0
 10
-38.811373207963697
 20
9.8870746707940675
 30
0.0
 40
3.5
  1
18
 50
90.0
  7
BESCHLAG
  0
INSERT
  5
35D
  8
1
  2
_OBLIQUE
 10
-36.761845017963203
 20
0.0000000000000104
 30
0.0
 41
2.0
 42
2.0
 43
2.0
 50
270.0
  0
INSERT
  5
35E
  8
1
  2
_OBLIQUE
 10
-36.761845017963189
 20
18.0
 30
0.0
 41
2.0
 42
2.0
 43
2.0
 50
90.0
  0
POINT
  5
35F
  8
DEFPOINTS
 62
     0
 10
0.0
 20
0.0
 30
0.0
  0
POINT
  5
360
  8
DEFPOINTS
 62
     0
 10
-29.981286809594849
 20
18.0
 30
0.0
  0
POINT
  5
361
  8
DEFPOINTS
 62
     0
 10
-36.761845017963189
 20
18.0
 30
0.0
  0
ENDBLK
  5
33B
  8
0
  0
ENDSEC
  0
SECTION
  2
ENTITIES
  0
INSERT
  5
25B
  8
5
  2
NULLPUNKT
 10
0.0
 20
0.0
 30
0.0
  0
DIMENSION
  5
2FD
  8
1
  2
*D3
 10
-88.0
 20
-13.185792703091231
 30
0.0
 11
-52.0
 21
-10.428630356570091
 31
0.0
 70
     0
 13
-16.0
 23
0.0
 33
0.0
 14
-88.0
 24
-2.5047511154182298
 34
0.0
  0
INSERT
  5
2FE
  8
2
  2
*X2
 10
-462.81699516718538
 20
150.1214999441699
 30
0.0
1001
ACAD
1000
HATCH
1002
{
1070
    16
1000
_U,I
1040
1.1999999999999991
1040
0.7853981633974483
1070
     0
1002
}
  0
DIMENSION
  5
2FF
  8
1
  2
*D4
 10
-0.0000000000000008
 20
-13.185792703091231
 30
0.0
 11
-6.5
 21
-10.397593521645121
 31
0.0
 70
     0
 13
-13.0
 23
8.0
 33
0.0
 14
0.0
 24
0.0
 34
0.0
  0
DIMENSION
  5
300
  8
1
  2
*D5
 10
-13.0
 20
-13.185792703091231
 30
0.0
 11
-14.5
 21
-10.397593521645121
 31
0.0
 70
     0
 13
-16.0
 23
2.0
 33
0.0
 14
-13.0
 24
8.0
 34
0.0
  0
POLYLINE
  5
301
  8
5
 66
     1
 10
0.0
 20
0.0
 30
0.0
  0
VERTEX
  5
425
  8
5
 10
1.0
 20
-7.0
 30
0.0
  0
VERTEX
  5
426
  8
5
 10
1.0
 20
8.0
 30
0.0
  0
VERTEX
  5
427
  8
5
 10
-13.0
 20
8.0
 30
0.0
  0
VERTEX
  5
428
  8
5
 10
-13.0
 20
22.336533332756058
 30
0.0
  0
SEQEND
  5
429
  8
5
  0
POLYLINE
  5
302
  8
6
 66
     1
 10
0.0
 20
0.0
 30
0.0
 70
     1
  0
VERTEX
  5
42A
  8
6
 10
-13.0
 20
10.5
 30
0.0
 42
-0.3348758971066914
  0
VERTEX
  5
42B
  8
6
 10
-13.75074221913132
 20
9.2756400000000667
 30
0.0
  0
VERTEX
  5
42C
  8
6
 10
-13.78666326863981
 20
7.1331588721636763
 30
0.0
 42
-0.4158738464929489
  0
VERTEX
  5
42D
  8
6
 10
-15.89955925510025
 20
6.0134400655108493
 30
0.0
  0
VERTEX
  5
42E
  8
6
 10
-17.091050087086838
 20
6.8445292663654982
 30
0.0
 42
0.9647680298900043
  0
VERTEX
  5
42F
  8
6
 10
-17.86436329947605
 20
6.3073150891195828
 30
0.0
  0
VERTEX
  5
430
  8
6
 10
-17.5812058813924
 20
5.6539993526994294
 30
0.0
 42
-0.6694204690004703
  0
VERTEX
  5
431
  8
6
 10
-18.01126929769384
 20
5.0140504466337461
 30
0.0
  0
VERTEX
  5
432
  8
6
 10
-19.83148817778169
 20
5.4409604364202551
 30
0.0
 42
-0.2464814616015845
  0
VERTEX
  5
433
  8
6
 10
-20.000520459054989
 20
5.7407454488779868
 30
0.0
 42
-0.0150420667643324
  0
VERTEX
  5
434
  8
6
 10
-20.000520459054989
 20
6.0226726682426479
 30
0.0
 42
-0.2063969197888626
  0
VERTEX
  5
435
  8
6
 10
-19.828345240806581
 20
6.3911076395409054
 30
0.0
  0
VERTEX
  5
436
  8
6
 10
-19.497641154942581
 20
6.8240276295332469
 30
0.0
 42
0.0984306399189399
  0
VERTEX
  5
437
  8
6
 10
-19.179660503262308
 20
7.4721670883354809
 30
0.0
  0
VERTEX
  5
438
  8
6
 10
-19.179660503262308
 20
10.5
 30
0.0
  0
VERTEX
  5
439
  8
6
 10
-19.179660503262308
 20
13.52783291166474
 30
0.0
 42
0.0984306399189399
  0
VERTEX
  5
43A
  8
6
 10
-19.497641154942581
 20
14.17597237046698
 30
0.0
  0
VERTEX
  5
43B
  8
6
 10
-19.828345240806581
 20
14.60889236045932
 30
0.0
 42
-0.2063969197888626
  0
VERTEX
  5
43C
  8
6
 10
-20.000520459054989
 20
14.977327331757349
 30
0.0
 42
-0.0150420667643324
  0
VERTEX
  5
43D
  8
6
 10
-20.000520459054989
 20
15.25925455112224
 30
0.0
 42
-0.2464814616015845
  0
VERTEX
  5
43E
  8
6
 10
-19.83148817778169
 20
15.559039563579971
 30
0.0
  0
VERTEX
  5
43F
  8
6
 10
-18.01126929769384
 20
15.985949553366479
 30
0.0
 42
-0.6345177691905591
  0
VERTEX
  5
440
  8
6
 10
-17.5812058813924
 20
15.34600064730102
 30
0.0
  0
VERTEX
  5
441
  8
6
 10
-17.853663127208389
 20
14.718705639578269
 30
0.0
 42
0.9846311026449575
  0
VERTEX
  5
442
  8
6
 10
-17.091050087086838
 20
14.15547073363472
 30
0.0
  0
VERTEX
  5
443
  8
6
 10
-15.89955925510025
 20
14.986559934489151
 30
0.0
 42
-0.4158738464929489
  0
VERTEX
  5
444
  8
6
 10
-13.78666326863981
 20
13.866841127836549
 30
0.0
  0
VERTEX
  5
445
  8
6
 10
-13.75074221913132
 20
11.724360000000161
 30
0.0
 42
-0.3348758971066985
  0
SEQEND
  5
446
  8
6
  0
POLYLINE
  5
303
  8
6
 66
     1
 10
0.0
 20
0.0
 30
0.0
  0
VERTEX
  5
447
  8
6
 10
-14.97394373384463
 20
10.49523583453901
 30
0.0
 42
0.0523662851020724
  0
VERTEX
  5
448
  8
6
 10
-14.561805667837691
 20
7.4894502139113683
 30
0.0
 42
-0.1698680870516715
  0
VERTEX
  5
449
  8
6
 10
-14.548495338335441
 20
6.8907955989002403
 30
0.0
 42
-0.3581952709156561
  0
VERTEX
  5
44A
  8
6
 10
-15.529517965275771
 20
6.6951826942777179
 30
0.0
  0
VERTEX
  5
44B
  8
6
 10
-17.038613679051871
 20
7.7086221078341159
 30
0.0
 42
-0.162990172482064
  0
VERTEX
  5
44C
  8
6
 10
-17.612476819171881
 20
8.8827571239089593
 30
0.0
 42
-0.0297520103796801
  0
VERTEX
  5
44D
  8
6
 10
-17.704040960494691
 20
10.5
 30
0.0
 42
-0.0297520103796801
  0
VERTEX
  5
44E
  8
6
 10
-17.558538055167901
 20
12.11328466700251
 30
0.0
 42
-0.162990172482064
  0
VERTEX
  5
44F
  8
6
 10
-16.94579763119054
 20
13.267607460845509
 30
0.0
  0
VERTEX
  5
450
  8
6
 10
-14.951074325578929
 20
14.230102554757419
 30
0.0
 42
-0.5496470159714418
  0
VERTEX
  5
451
  8
6
 10
-14.36311116046749
 20
14.01474113149993
 30
0.0
 42
-0.0587952726232103
  0
VERTEX
  5
452
  8
6
 10
-14.4628010829831
 20
13.41908253253996
 30
0.0
 42
0.0523662851020724
  0
VERTEX
  5
453
  8
6
 10
-14.97505413580142
 20
10.428731082876761
 30
0.0
  0
SEQEND
  5
454
  8
6
  0
LINE
  5
304
  8
6
  6
STRICHPUNKT
 10
-24.25
 20
19.045583720597051
 30
0.0
 11
-24.25
 21
-15.4831408309783
 31
0.0
  0
TEXT
  5
305
  8
1
 10
-77.383812531563763
 20
9.8289702493268578
 30
0.0
 40
2.4999999499999999
  1
Hebgo 160/520
  0
DIMENSION
  5
306
  8
1
  2
*D6
 10
-36.761845017963189
 20
18.0
 30
0.0
 11
-40.531530097458919
 21
12.765144247874559
 31
0.0
 70
   128
 13
0.0
 23
0.0
 33
0.0
 14
-29.981286809594849
 24
18.0
 34
0.0
 50
90.0
  0
POLYLINE
  5
307
  8
5
 66
     1
 10
0.0
 20
0.0
 30
0.0
  0
VERTEX
  5
455
  8
5
 10
0.0
 20
-17.050471313595601
 30
0.0
  0
VERTEX
  5
456
  8
5
 10
0.0
 20
0.0
 30
0.0
  0
VERTEX
  5
457
  8
5
 10
-45.0
 20
0.0
 30
0.0
  0
VERTEX
  5
458
  8
5
 10
-45.0
 20
-4.4984250289921874
 30
0.0
  0
SEQEND
  5
459
  8
5
  0
POLYLINE
  5
308
  8
6
 66
     1
 10
0.0
 20
0.0
 30
0.0
  0
VERTEX
  5
45A
  8
6
 10
-18.0
 20
0.0
 30
0.0
  0
VERTEX
  5
45B
  8
6
 10
-22.0
 20
4.0
 30
0.0
  0
VERTEX
  5
45C
  8
6
 10
-22.0
 20
14.70000000000004
 30
0.0
 42
0.4142135623730951
  0
VERTEX
  5
45D
  8
6
 10
-22.299999999999951
 20
15.0
 30
0.0
  0
VERTEX
  5
45E
  8
6
 10
-26.200000000000038
 20
15.0
 30
0.0
 42
0.4142135623730951
  0
VERTEX
  5
45F
  8
6
 10
-26.5
 20
14.70000000000004
 30
0.0
  0
VERTEX
  5
460
  8
6
 10
-26.5
 20
4.0
 30
0.0
  0
VERTEX
  5
461
  8
6
 10
-30.5
 20
0.0
 30
0.0
  0
VERTEX
  5
462
  8
6
 10
-31.0
 20
0.5
 30
0.0
  0
VERTEX
  5
463
  8
6
 10
-31.5
 20
0.0
 30
0.0
  0
VERTEX
  5
464
  8
6
 10
-32.0
 20
0.5
 30
0.0
  0
VERTEX
  5
465
  8
6
 10
-32.5
 20
0.0
 30
0.0
  0
VERTEX
  5
466
  8
6
 10
-33.0
 20
0.5
 30
0.0
  0
VERTEX
  5
467
  8
6
 10
-33.5
 20
0.0
 30
0.0
  0
VERTEX
  5
468
  8
6
 10
-34.0
 20
0.5
 30
0.0
  0
VERTEX
  5
469
  8
6
 10
-34.5
 20
0.0
 30
0.0
  0
VERTEX
  5
46A
  8
6
 10
-35.0
 20
0.5
 30
0.0
  0
VERTEX
  5
46B
  8
6
 10
-35.5
 20
0.0
 30
0.0
  0
VERTEX
  5
46C
  8
6
 10
-36.0
 20
0.5
 30
0.0
  0
VERTEX
  5
46D
  8
6
 10
-36.0
 20
1.5
 30
0.0
 42
-0.4142135623730951
  0
VERTEX
  5
46E
  8
6
 10
-35.5
 20
2.0
 30
0.0
  0
VERTEX
  5
46F
  8
6
 10
-31.328427124746209
 20
2.0
 30
0.0
  0
VERTEX
  5
470
  8
6
 10
-28.5
 20
4.8284271247462121
 30
0.0
  0
VERTEX
  5
471
  8
6
 10
-28.5
 20
7.4667281713718694
 30
0.0
 42
0.4453114188885447
  0
VERTEX
  5
472
  8
6
 10
-29.052401562078561
 20
7.963974665871091
 30
0.0
  0
VERTEX
  5
473
  8
6
 10
-81.573904551040187
 20
2.4290763211092781
 30
0.0
 42
0.3787463949118454
  0
VERTEX
  5
474
  8
6
 10
-85.999958980750975
 20
-2.5
 30
0.0
  0
VERTEX
  5
475
  8
6
 10
-88.0
 20
-2.5
 30
0.0
 42
-0.1447160856908663
  0
VERTEX
  5
476
  8
6
 10
-86.854242912643713
 20
1.29995353736831
 30
0.0
  0
VERTEX
  5
477
  8
6
 10
-86.982157777837074
 20
2.7738911132848889
 30
0.0
  0
VERTEX
  5
478
  8
6
 10
-85.490272154277591
 20
2.8322478305976801
 30
0.0
  0
VERTEX
  5
479
  8
6
 10
-85.175066989069364
 20
4.286307847364923
 30
0.0
  0
VERTEX
  5
47A
  8
6
 10
-83.732782536819741
 20
3.9066785803645412
 30
0.0
  0
VERTEX
  5
47B
  8
6
 10
-83.007413551216345
 20
5.2061856374941717
 30
0.0
  0
VERTEX
  5
47C
  8
6
 10
-81.803425353216653
 20
4.4158627216486357
 30
0.0
  0
VERTEX
  5
47D
  8
6
 10
-81.800336451998874
 20
4.4162195627691281
 30
0.0
  0
VERTEX
  5
47E
  8
6
 10
-80.921703652817314
 20
5.5243731641271552
 30
0.0
  0
VERTEX
  5
47F
  8
6
 10
-79.813550051459274
 20
4.6457403649455946
 30
0.0
  0
VERTEX
  5
480
  8
6
 10
-78.934917252277955
 20
5.7538939663036208
 30
0.0
  0
VERTEX
  5
481
  8
6
 10
-77.826763650919929
 20
4.875261167122062
 30
0.0
  0
VERTEX
  5
482
  8
6
 10
-76.948130851738597
 20
5.9834147684800882
 30
0.0
  0
VERTEX
  5
483
  8
6
 10
-75.839977250380571
 20
5.1047819692985277
 30
0.0
  0
VERTEX
  5
484
  8
6
 10
-74.961344451199238
 20
6.2129355706565539
 30
0.0
  0
VERTEX
  5
485
  8
6
 10
-73.853190849841212
 20
5.3343027714752216
 30
0.0
  0
VERTEX
  5
486
  8
6
 10
-72.974558050659653
 20
6.4424563728330213
 30
0.0
  0
VERTEX
  5
487
  8
6
 10
-71.866404449301854
 20
5.563823573651689
 30
0.0
  0
VERTEX
  5
488
  8
6
 10
-30.196372783726702
 20
9.7641330625833689
 30
0.0
 42
0.4622982271803826
  0
VERTEX
  5
489
  8
6
 10
-28.46510327380042
 20
12.271687433451691
 30
0.0
  0
VERTEX
  5
48A
  8
6
 10
-29.898810136034399
 20
17.62235428646931
 30
0.0
 42
-0.4931454260313036
  0
VERTEX
  5
48B
  8
6
 10
-29.609032388147622
 20
18.0
 30
0.0
  0
VERTEX
  5
48C
  8
6
 10
-25.124264068711909
 20
18.0
 30
0.0
 42
-0.198912367379658
  0
VERTEX
  5
48D
  8
6
 10
-24.91213203435586
 20
17.912132034356091
 30
0.0
  0
VERTEX
  5
48E
  8
6
 10
-24.462132034356038
 20
17.462132034356038
 30
0.0
 42
0.4142135623730951
  0
VERTEX
  5
48F
  8
6
 10
-24.037867965643951
 20
17.462132034356038
 30
0.0
  0
VERTEX
  5
490
  8
6
 10
-23.587867965643909
 20
17.912132034356091
 30
0.0
 42
-0.198912367379658
  0
VERTEX
  5
491
  8
6
 10
-23.375735931288091
 20
18.0
 30
0.0
  0
VERTEX
  5
492
  8
6
 10
-16.299999999999951
 20
18.0
 30
0.0
 42
-0.4142135623730951
  0
VERTEX
  5
493
  8
6
 10
-16.0
 20
17.700000000000038
 30
0.0
  0
VERTEX
  5
494
  8
6
 10
-16.0
 20
15.5
 30
0.0
 42
-0.4142135623730951
  0
VERTEX
  5
495
  8
6
 10
-17.0
 20
14.5
 30
0.0
  0
VERTEX
  5
496
  8
6
 10
-17.200000000000038
 20
14.5
 30
0.0
 42
-0.4142135623730951
  0
VERTEX
  5
497
  8
6
 10
-17.5
 20
14.80000000000018
 30
0.0
  0
VERTEX
  5
498
  8
6
 10
-17.5
 20
16.200000000000038
 30
0.0
 42
0.4142135623730951
  0
VERTEX
  5
499
  8
6
 10
-17.799999999999951
 20
16.5
 30
0.0
  0
VERTEX
  5
49A
  8
6
 10
-19.700000000000038
 20
16.5
 30
0.0
 42
0.4142135623730951
  0
VERTEX
  5
49B
  8
6
 10
-20.0
 20
16.200000000000038
 30
0.0
  0
VERTEX
  5
49C
  8
6
 10
-20.0
 20
4.800000000000181
 30
0.0
 42
0.4142135623730951
  0
VERTEX
  5
49D
  8
6
 10
-19.700000000000038
 20
4.5
 30
0.0
  0
VERTEX
  5
49E
  8
6
 10
-17.799999999999951
 20
4.5
 30
0.0
 42
0.4142135623730951
  0
VERTEX
  5
49F
  8
6
 10
-17.5
 20
4.800000000000181
 30
0.0
  0
VERTEX
  5
4A0
  8
6
 10
-17.5
 20
6.2000000000000446
 30
0.0
 42
-0.4142135623730951
  0
VERTEX
  5
4A1
  8
6
 10
-17.200000000000038
 20
6.5
 30
0.0
  0
VERTEX
  5
4A2
  8
6
 10
-17.0
 20
6.5
 30
0.0
 42
-0.4142135623730951
  0
VERTEX
  5
4A3
  8
6
 10
-16.0
 20
5.5
 30
0.0
  0
VERTEX
  5
4A4
  8
6
 10
-16.0
 20
2.300000000000181
 30
0.0
 42
0.4142135623730951
  0
VERTEX
  5
4A5
  8
6
 10
-15.70000000000004
 20
2.0
 30
0.0
  0
VERTEX
  5
4A6
  8
6
 10
-0.5
 20
2.0
 30
0.0
 42
-0.4142135623731076
  0
VERTEX
  5
4A7
  8
6
 10
0.0
 20
1.5
 30
0.0
  0
VERTEX
  5
4A8
  8
6
 10
0.0
 20
0.0
 30
0.0
  0
VERTEX
  5
4A9
  8
6
 10
-0.5
 20
0.5
 30
0.0
  0
VERTEX
  5
4AA
  8
6
 10
-1.0
 20
0.0
 30
0.0
  0
VERTEX
  5
4AB
  8
6
 10
-1.5
 20
0.5
 30
0.0
  0
VERTEX
  5
4AC
  8
6
 10
-2.0
 20
0.0
 30
0.0
  0
VERTEX
  5
4AD
  8
6
 10
-2.5
 20
0.5
 30
0.0
  0
VERTEX
  5
4AE
  8
6
 10
-3.0
 20
0.0
 30
0.0
  0
VERTEX
  5
4AF
  8
6
 10
-3.5
 20
0.5
 30
0.0
  0
VERTEX
  5
4B0
  8
6
 10
-4.0
 20
0.0
 30
0.0
  0
VERTEX
  5
4B1
  8
6
 10
-4.5
 20
0.5
 30
0.0
  0
VERTEX
  5
4B2
  8
6
 10
-5.0
 20
0.0
 30
0.0
  0
VERTEX
  5
4B3
  8
6
 10
-5.5
 20
0.5
 30
0.0
  0
VERTEX
  5
4B4
  8
6
 10
-6.0
 20
0.0
 30
0.0
  0
VERTEX
  5
4B5
  8
6
 10
-6.5
 20
0.5
 30
0.0
  0
VERTEX
  5
4B6
  8
6
 10
-7.0
 20
0.0
 30
0.0
  0
VERTEX
  5
4B7
  8
6
 10
-7.5
 20
0.5
 30
0.0
  0
VERTEX
  5
4B8
  8
6
 10
-8.0
 20
0.0
 30
0.0
  0
VERTEX
  5
4B9
  8
6
 10
-8.5
 20
0.5
 30
0.0
  0
VERTEX
  5
4BA
  8
6
 10
-9.0
 20
0.0
 30
0.0
  0
VERTEX
  5
4BB
  8
6
 10
-9.5
 20
0.5
 30
0.0
  0
VERTEX
  5
4BC
  8
6
 10
-10.0
 20
0.0
 30
0.0
  0
VERTEX
  5
4BD
  8
6
 10
-10.5
 20
0.5
 30
0.0
  0
VERTEX
  5
4BE
  8
6
 10
-11.0
 20
0.0
 30
0.0
  0
VERTEX
  5
4BF
  8
6
 10
-11.5
 20
0.5
 30
0.0
  0
VERTEX
  5
4C0
  8
6
 10
-12.0
 20
0.0
 30
0.0
  0
VERTEX
  5
4C1
  8
6
 10
-12.5
 20
0.5
 30
0.0
  0
VERTEX
  5
4C2
  8
6
 10
-13.0
 20
0.0
 30
0.0
  0
VERTEX
  5
4C3
  8
6
 10
-13.5
 20
0.5
 30
0.0
  0
VERTEX
  5
4C4
  8
6
 10
-14.0
 20
0.0
 30
0.0
  0
VERTEX
  5
4C5
  8
6
 10
-14.5
 20
0.5
 30
0.0
  0
VERTEX
  5
4C6
  8
6
 10
-15.0
 20
0.0
 30
0.0
  0
VERTEX
  5
4C7
  8
6
 10
-15.5
 20
0.5
 30
0.0
  0
VERTEX
  5
4C8
  8
6
 10
-16.0
 20
0.0
 30
0.0
  0
VERTEX
  5
4C9
  8
6
 10
-16.5
 20
0.5
 30
0.0
  0
VERTEX
  5
4CA
  8
6
 10
-17.0
 20
0.0
 30
0.0
  0
VERTEX
  5
4CB
  8
6
 10
-17.5
 20
0.5
 30
0.0
  0
VERTEX
  5
4CC
  8
6
 10
-18.0
 20
0.0
 30
0.0
  0
VERTEX
  5
4CD
  8
6
 10
-18.5
 20
0.5
 30
0.0
  0
SEQEND
  5
4CE
  8
6
  0
POLYLINE
  5
309
  8
4
 66
     1
 10
0.0
 20
0.0
 30
0.0
  0
VERTEX
  5
4CF
  8
4
 10
-85.999958980750975
 20
-2.5
 30
0.0
  0
VERTEX
  5
4D0
  8
4
 10
-88.0
 20
-2.5
 30
0.0
  0
VERTEX
  5
4D1
  8
4
 10
-88.0
 20
3.8404849038040529
 30
0.0
  0
VERTEX
  5
4D2
  8
4
 10
-27.818439235986261
 20
10.024165049860811
 30
0.0
  0
VERTEX
  5
4D3
  8
4
 10
-29.981286809594849
 20
18.0
 30
0.0
  0
VERTEX
  5
4D4
  8
4
 10
-16.0
 20
18.0
 30
0.0
  0
VERTEX
  5
4D5
  8
4
 10
-16.0
 20
2.0
 30
0.0
  0
VERTEX
  5
4D6
  8
4
 10
0.0
 20
2.0
 30
0.0
  0
VERTEX
  5
4D7
  8
4
 10
0.0
 20
0.0
 30
0.0
  0
VERTEX
  5
4D8
  8
4
 10
-36.0
 20
0.0
 30
0.0
  0
VERTEX
  5
4D9
  8
4
 10
-36.0
 20
2.0
 30
0.0
  0
SEQEND
  5
4DA
  8
4
  0
VIEWPORT
  5
22
 67
     1
  8
0
 10
210.0
 20
170.2366863905325
 30
0.0
 40
420.0
 41
340.47337278106511
 68
     1
 69
     1
1001
ACAD
1000
MVIEW
1002
{
1070
    16
1010
0.0
1020
0.0
1030
0.0
1010
0.0
1020
0.0
1030
1.0
1040
0.0
1040
340.47337278106511
1040
210.0
1040
170.2366863905325
1040
50.0
1040
0.0
1040
0.0
1070
     0
1070
   100
1070
     1
1070
     1
1070
     0
1070
     0
1070
     0
1070
     0
1040
0.0
1040
0.0
1040
0.0
1040
5.0
1040
5.0
1040
10.0
1040
10.0
1070
     0
1002
{
1002
}
1002
}
  0
ENDSEC
  0
EOF
