  0
SECTION
  2
HEADER
  9
$ACADVER
  1
AC1009
  9
$INSBASE
 10
0.0
 20
0.0
 30
0.0
  9
$EXTMIN
 10
-34.584044577302393
 20
-12.634276485343319
 30
-0.0000000000000058
  9
$EXTMAX
 10
11.1007695797607
 20
12.19940239353968
 30
0.0000000000000104
  9
$LIMMIN
 10
-150.0
 20
-150.0
  9
$LIMMAX
 10
150.0
 20
150.0
  9
$ORTHOMODE
 70
     0
  9
$REGENMODE
 70
     1
  9
$FILLMODE
 70
     1
  9
$QTEXTMODE
 70
     0
  9
$MIRRTEXT
 70
     0
  9
$DRAGMODE
 70
     2
  9
$LTSCALE
 40
1.0
  9
$OSMODE
 70
   111
  9
$ATTMODE
 70
     1
  9
$TEXTSIZE
 40
3.5
  9
$TRACEWID
 40
1.0
  9
$TEXTSTYLE
  7
BESCHLAG
  9
$CLAYER
  8
0
  9
$CELTYPE
  6
BYLAYER
  9
$CECOLOR
 62
   256
  9
$DIMSCALE
 40
1.0
  9
$DIMASZ
 40
2.0
  9
$DIMEXO
 40
2.0
  9
$DIMDLI
 40
0.0
  9
$DIMRND
 40
0.0
  9
$DIMDLE
 40
1.0
  9
$DIMEXE
 40
1.0
  9
$DIMTP
 40
0.0
  9
$DIMTM
 40
0.0
  9
$DIMTXT
 40
3.5
  9
$DIMCEN
 40
0.0
  9
$DIMTSZ
 40
0.0
  9
$DIMTOL
 70
     0
  9
$DIMLIM
 70
     0
  9
$DIMTIH
 70
     0
  9
$DIMTOH
 70
     0
  9
$DIMSE1
 70
     0
  9
$DIMSE2
 70
     0
  9
$DIMTAD
 70
     1
  9
$DIMZIN
 70
     8
  9
$DIMBLK
  1

  9
$DIMASO
 70
     1
  9
$DIMSHO
 70
     1
  9
$DIMPOST
  1

  9
$DIMAPOST
  1

  9
$DIMALT
 70
     0
  9
$DIMALTD
 70
     2
  9
$DIMALTF
 40
0.039370078740157
  9
$DIMLFAC
 40
1.0
  9
$DIMTOFL
 70
     1
  9
$DIMTVP
 40
0.0
  9
$DIMTIX
 70
     1
  9
$DIMSOXD
 70
     0
  9
$DIMSAH
 70
     1
  9
$DIMBLK1
  1
OBLIQUE
  9
$DIMBLK2
  1
OBLIQUE
  9
$DIMSTYLE
  2
OPO-SSTRICH
  9
$DIMCLRD
 70
   256
  9
$DIMCLRE
 70
   256
  9
$DIMCLRT
 70
   256
  9
$DIMTFAC
 40
0.7114285714285716
  9
$DIMGAP
 40
1.0
  9
$LUNITS
 70
     2
  9
$LUPREC
 70
     1
  9
$SKETCHINC
 40
1.0
  9
$FILLETRAD
 40
0.0
  9
$AUNITS
 70
     0
  9
$AUPREC
 70
     1
  9
$MENU
  1
D:\ACL_CGWG\CGTAB13
  9
$ELEVATION
 40
0.0
  9
$PELEVATION
 40
0.0
  9
$THICKNESS
 40
0.0
  9
$LIMCHECK
 70
     0
  9
$BLIPMODE
 70
     0
  9
$CHAMFERA
 40
1.0
  9
$CHAMFERB
 40
1.0
  9
$SKPOLY
 70
     0
  9
$TDCREATE
 40
2451739.8447146178
  9
$TDUPDATE
 40
2452086.7085257289
  9
$TDINDWG
 40
0.0010726736
  9
$TDUSRTIMER
 40
0.0010725
  9
$USRTIMER
 70
     1
  9
$ANGBASE
 50
0.0
  9
$ANGDIR
 70
     0
  9
$PDMODE
 70
    35
  9
$PDSIZE
 40
5.0
  9
$PLINEWID
 40
0.0
  9
$COORDS
 70
     1
  9
$SPLFRAME
 70
     0
  9
$SPLINETYPE
 70
     6
  9
$SPLINESEGS
 70
     8
  9
$ATTDIA
 70
     1
  9
$ATTREQ
 70
     1
  9
$HANDLING
 70
-16383
  9
$HANDSEED
  5
419
  9
$SURFTAB1
 70
    12
  9
$SURFTAB2
 70
    12
  9
$SURFTYPE
 70
     6
  9
$SURFU
 70
    12
  9
$SURFV
 70
    12
  9
$UCSNAME
  2

  9
$UCSORG
 10
0.0
 20
0.0
 30
0.0
  9
$UCSXDIR
 10
1.0
 20
0.0
 30
0.0
  9
$UCSYDIR
 10
0.0
 20
1.0
 30
0.0
  9
$PUCSNAME
  2

  9
$PUCSORG
 10
0.0
 20
0.0
 30
0.0
  9
$PUCSXDIR
 10
1.0
 20
0.0
 30
0.0
  9
$PUCSYDIR
 10
0.0
 20
1.0
 30
0.0
  9
$USERI1
 70
     0
  9
$USERI2
 70
     0
  9
$USERI3
 70
     0
  9
$USERI4
 70
     0
  9
$USERI5
 70
     0
  9
$USERR1
 40
0.0
  9
$USERR2
 40
0.0
  9
$USERR3
 40
0.0
  9
$USERR4
 40
0.0
  9
$USERR5
 40
0.0
  9
$WORLDVIEW
 70
     1
  9
$SHADEDGE
 70
     3
  9
$SHADEDIF
 70
    70
  9
$TILEMODE
 70
     1
  9
$MAXACTVP
 70
    48
  9
$PLIMCHECK
 70
     0
  9
$PEXTMIN
 10
1.0000000000000000E+020
 20
1.0000000000000000E+020
 30
1.0000000000000000E+020
  9
$PEXTMAX
 10
-1.0000000000000000E+020
 20
-1.0000000000000000E+020
 30
-1.0000000000000000E+020
  9
$PLIMMIN
 10
0.0
 20
0.0
  9
$PLIMMAX
 10
420.0
 20
297.0
  9
$UNITMODE
 70
     0
  9
$VISRETAIN
 70
     1
  9
$PLINEGEN
 70
     0
  9
$PSLTSCALE
 70
     1
  0
ENDSEC
  0
SECTION
  2
TABLES
  0
TABLE
  2
VPORT
 70
     2
  0
VPORT
  2
*ACTIVE
 70
     0
 10
0.0
 20
0.0
 11
1.0
 21
1.0
 12
-11.741637498770841
 22
-0.2174370459018178
 13
0.0
 23
0.0
 14
0.5
 24
0.5
 15
10.0
 25
10.0
 16
0.0
 26
0.0
 36
1.0
 17
0.0
 27
0.0
 37
0.0
 40
28.571440937373271
 41
1.6070460704607039
 42
50.0
 43
0.0
 44
0.0
 50
0.0
 51
0.0
 71
     0
 72
   800
 73
     1
 74
     1
 75
     0
 76
     0
 77
     0
 78
     0
  0
ENDTAB
  0
TABLE
  2
LTYPE
 70
     1
  0
LTYPE
  2
CONTINUOUS
 70
     0
  3
_______________________________________________
 72
    65
 73
     2
 40
1.0
 49
1.0
 49
0.0
  0
ENDTAB
  0
TABLE
  2
LAYER
 70
     5
  0
LAYER
  2
0
 70
     0
 62
    30
  6
CONTINUOUS
  0
LAYER
  2
1
 70
     0
 62
     2
  6
CONTINUOUS
  0
LAYER
  2
5
 70
     0
 62
     1
  6
CONTINUOUS
  0
LAYER
  2
6
 70
     0
 62
     3
  6
CONTINUOUS
  0
LAYER
  2
DEFPOINTS
 70
     0
 62
     7
  6
CONTINUOUS
  0
ENDTAB
  0
TABLE
  2
STYLE
 70
     2
  0
STYLE
  2
STANDARD
 70
     0
 40
0.0
 41
1.0
 50
0.0
 71
     0
 42
2.5
  3
txt
  4

  0
STYLE
  2
BESCHLAG
 70
     0
 40
0.0
 41
1.0
 50
0.0
 71
     0
 42
3.5
  3
txt
  4

  0
ENDTAB
  0
TABLE
  2
VIEW
 70
     0
  0
ENDTAB
  0
TABLE
  2
UCS
 70
     0
  0
ENDTAB
  0
TABLE
  2
APPID
 70
     1
  0
APPID
  2
ACAD
 70
     0
  0
ENDTAB
  0
TABLE
  2
DIMSTYLE
 70
     1
  0
DIMSTYLE
  2
OPO-SSTRICH
 70
     0
  3

  4

  5

  6
OBLIQUE
  7
OBLIQUE
 40
1.0
 41
2.0
 42
2.0
 43
0.0
 44
1.0
 45
0.0
 46
1.0
 47
0.0
 48
0.0
140
3.5
141
0.0
142
0.0
143
0.039370078740157
144
1.0
145
0.0
146
0.7114285714285716
147
1.0
 71
     0
 72
     0
 73
     0
 74
     0
 75
     0
 76
     0
 77
     1
 78
     8
170
     0
171
     2
172
     1
173
     1
174
     1
175
     0
176
   256
177
   256
178
   256
  0
ENDTAB
  0
ENDSEC
  0
SECTION
  2
BLOCKS
  0
BLOCK
  8
0
  2
$MODEL_SPACE
 70
     0
 10
0.0
 20
0.0
 30
0.0
  3
$MODEL_SPACE
  1

  0
ENDBLK
  5
1C
  8
0
  0
BLOCK
 67
     1
  8
0
  2
$PAPER_SPACE
 70
     0
 10
0.0
 20
0.0
 30
0.0
  3
$PAPER_SPACE
  1

  0
ENDBLK
  5
19
 67
     1
  8
0
  0
BLOCK
  8
0
  2
_OBLIQUE
 70
     0
 10
0.0
 20
0.0
 30
0.0
  3
_OBLIQUE
  1

  0
LINE
  5
204
  8
0
 62
     0
 10
-0.5
 20
-0.5
 30
0.0
 11
0.5
 21
0.5
 31
0.0
  0
ENDBLK
  5
206
  8
0
  0
BLOCK
  8
0
  2
NULLPUNKT
 70
     0
 10
0.0
 20
0.0
 30
0.0
  3
NULLPUNKT
  1

  0
SOLID
  5
254
  8
5
 10
0.0
 20
0.0
 30
0.0
 11
2.0
 21
0.0
 31
0.0
 12
0.0
 22
-2.0
 32
0.0
 13
0.0
 23
-2.0
 33
0.0
  0
SOLID
  5
255
  8
5
 10
0.0
 20
0.0
 30
0.0
 11
-2.0
 21
0.0
 31
0.0
 12
0.0
 22
2.0
 32
0.0
 13
0.0
 23
2.0
 33
0.0
  0
POLYLINE
  5
256
  8
5
 66
     1
 10
0.0
 20
0.0
 30
0.0
  0
VERTEX
  5
3CF
  8
5
 10
0.0
 20
2.0
 30
0.0
  0
VERTEX
  5
3D0
  8
5
 10
0.0
 20
-2.0
 30
0.0
  0
SEQEND
  5
3D1
  8
5
  0
POLYLINE
  5
257
  8
5
 66
     1
 10
0.0
 20
0.0
 30
0.0
  0
VERTEX
  5
3D2
  8
5
 10
-2.0
 20
0.0
 30
0.0
  0
VERTEX
  5
3D3
  8
5
 10
2.0
 20
0.0
 30
0.0
  0
SEQEND
  5
3D4
  8
5
  0
CIRCLE
  5
258
  8
5
 10
0.0
 20
0.0
 30
0.0
 40
2.0
  0
ENDBLK
  5
25A
  8
0
  0
BLOCK
  8
0
  2
*D2
 70
     1
 10
0.0
 20
0.0
 30
0.0
  3
*D2
  1

  0
LINE
  5
2EA
  8
1
 10
-22.0
 20
0.0000000000000006
 30
0.0
 11
-30.141845684360302
 21
0.0000000000000029
 31
0.0
  0
LINE
  5
2EB
  8
1
 10
-22.0
 20
4.0
 30
0.0
 11
-30.141845684360302
 21
4.0000000000000018
 31
0.0
  0
LINE
  5
2EC
  8
1
 10
-29.141845684360302
 20
0.0000000000000026
 30
0.0
 11
-29.141845684360302
 21
-1.9999999999999969
 31
0.0
  0
LINE
  5
2ED
  8
1
 10
-29.141845684360302
 20
4.0000000000000018
 30
0.0
 11
-29.141845684360302
 21
6.0000000000000018
 31
0.0
  0
LINE
  5
2EE
  8
1
 10
-29.141845684360302
 20
0.0000000000000026
 30
0.0
 11
-29.141845684360302
 21
4.0000000000000018
 31
0.0
  0
INSERT
  5
2EF
  8
1
  2
_OBLIQUE
 10
-29.141845684360302
 20
0.0000000000000026
 30
0.0
 41
2.0
 42
2.0
 43
2.0
 50
90.0
  0
INSERT
  5
2F0
  8
1
  2
_OBLIQUE
 10
-29.141845684360302
 20
4.0000000000000018
 30
0.0
 41
2.0
 42
2.0
 43
2.0
 50
270.0
  0
TEXT
  5
2F1
  8
0
 10
-30.141845684360302
 20
0.7274897680763964
 30
0.0
 40
3.5
  1
4
 50
90.0
  7
BESCHLAG
  0
POINT
  5
2F2
  8
DEFPOINTS
 62
     0
 10
-20.0
 20
0.0
 30
0.0
  0
POINT
  5
2F3
  8
DEFPOINTS
 62
     0
 10
-20.0
 20
4.0
 30
0.0
  0
POINT
  5
2F4
  8
DEFPOINTS
 62
     0
 10
-29.141845684360302
 20
4.0000000000000018
 30
0.0
  0
ENDBLK
  5
2C3
  8
0
  0
BLOCK
  8
0
  2
*D3
 70
     1
 10
0.0
 20
0.0
 30
0.0
  3
*D3
  1

  0
LINE
  5
2F5
  8
1
 10
-20.0
 20
-2.0
 30
0.0
 11
-20.0
 21
-12.627920674892721
 31
0.0
  0
LINE
  5
2F6
  8
1
 10
-12.0
 20
-2.0
 30
0.0
 11
-12.0
 21
-12.627920674892721
 31
0.0
  0
LINE
  5
2F7
  8
1
 10
-21.0
 20
-11.627920674892721
 30
0.0
 11
-11.0
 21
-11.627920674892721
 31
0.0
  0
INSERT
  5
2F8
  8
1
  2
_OBLIQUE
 10
-20.0
 20
-11.627920674892721
 30
0.0
 41
2.0
 42
2.0
 43
2.0
 50
180.0
  0
INSERT
  5
2F9
  8
1
  2
_OBLIQUE
 10
-12.0
 20
-11.627920674892721
 30
0.0
 41
2.0
 42
2.0
 43
2.0
  0
TEXT
  5
2FA
  8
0
 10
-17.351296043656209
 20
-10.561072107362021
 30
0.0
 40
3.5
  1
8
  7
BESCHLAG
  0
POINT
  5
2FB
  8
DEFPOINTS
 62
     0
 10
-20.0
 20
0.0
 30
0.0
  0
POINT
  5
2FC
  8
DEFPOINTS
 62
     0
 10
-12.0
 20
0.0
 30
0.0
  0
POINT
  5
2FD
  8
DEFPOINTS
 62
     0
 10
-12.0
 20
-11.627920674892721
 30
0.0
  0
ENDBLK
  5
2CF
  8
0
  0
BLOCK
  8
0
  2
*D4
 70
     1
 10
0.0
 20
0.0
 30
0.0
  3
*D4
  1

  0
LINE
  5
2FE
  8
1
 10
-12.0
 20
-2.0
 30
0.0
 11
-12.0
 21
-12.627920674892721
 31
0.0
  0
LINE
  5
2FF
  8
1
 10
-0.0000000000000001
 20
-2.0
 30
0.0
 11
-0.0000000000000008
 21
-12.627920674892721
 31
0.0
  0
LINE
  5
300
  8
1
 10
-13.0
 20
-11.627920674892721
 30
0.0
 11
0.9999999999999992
 21
-11.627920674892721
 31
0.0
  0
INSERT
  5
301
  8
1
  2
_OBLIQUE
 10
-12.0
 20
-11.627920674892721
 30
0.0
 41
2.0
 42
2.0
 43
2.0
 50
180.0
  0
INSERT
  5
302
  8
1
  2
_OBLIQUE
 10
-0.0000000000000007
 20
-11.627920674892721
 30
0.0
 41
2.0
 42
2.0
 43
2.0
  0
TEXT
  5
303
  8
0
 10
-8.8565825375170526
 20
-10.62075832837157
 30
0.0
 40
3.5
  1
12
  7
BESCHLAG
  0
POINT
  5
304
  8
DEFPOINTS
 62
     0
 10
-12.0
 20
0.0
 30
0.0
  0
POINT
  5
305
  8
DEFPOINTS
 62
     0
 10
0.0
 20
0.0
 30
0.0
  0
POINT
  5
306
  8
DEFPOINTS
 62
     0
 10
-0.0000000000000007
 20
-11.627920674892721
 30
0.0
  0
ENDBLK
  5
2DB
  8
0
  0
BLOCK
  8
0
  2
*D5
 70
     1
 10
0.0
 20
0.0
 30
0.0
  3
*D5
  1

  0
LINE
  5
307
  8
1
 10
2.0
 20
-0.0000000000000006
 30
0.0
 11
11.09945945518575
 21
-0.0000000000000031
 31
0.0
  0
LINE
  5
308
  8
1
 10
2.0
 20
3.9999999999999991
 30
0.0
 11
11.09945945518575
 21
3.999999999999996
 31
0.0
  0
LINE
  5
309
  8
1
 10
10.09945945518575
 20
-0.0000000000000029
 30
0.0
 11
10.09945945518575
 21
-2.0000000000000022
 31
0.0
  0
LINE
  5
30A
  8
1
 10
10.09945945518575
 20
3.9999999999999969
 30
0.0
 11
10.09945945518575
 21
5.9999999999999973
 31
0.0
  0
LINE
  5
30B
  8
1
 10
10.09945945518575
 20
-0.0000000000000029
 30
0.0
 11
10.09945945518575
 21
3.9999999999999969
 31
0.0
  0
INSERT
  5
30C
  8
1
  2
_OBLIQUE
 10
10.09945945518575
 20
-0.0000000000000029
 30
0.0
 41
2.0
 42
2.0
 43
2.0
 50
90.0
  0
INSERT
  5
30D
  8
1
  2
_OBLIQUE
 10
10.09945945518575
 20
3.9999999999999969
 30
0.0
 41
2.0
 42
2.0
 43
2.0
 50
270.0
  0
TEXT
  5
30E
  8
0
 10
9.0994594551857517
 20
0.7274897680763975
 30
0.0
 40
3.5
  1
4
 50
90.0
  7
BESCHLAG
  0
POINT
  5
30F
  8
DEFPOINTS
 62
     0
 10
0.0
 20
0.0
 30
0.0
  0
POINT
  5
310
  8
DEFPOINTS
 62
     0
 10
0.0
 20
4.0
 30
0.0
  0
POINT
  5
311
  8
DEFPOINTS
 62
     0
 10
10.09945945518575
 20
3.9999999999999969
 30
0.0
  0
ENDBLK
  5
2E9
  8
0
  0
ENDSEC
  0
SECTION
  2
ENTITIES
  0
INSERT
  5
25B
  8
5
  2
NULLPUNKT
 10
0.0
 20
0.0
 30
0.0
  0
POLYLINE
  5
2AD
  8
5
 66
     1
 10
0.0
 20
0.0
 30
0.0
  0
VERTEX
  5
3D5
  8
5
 10
-8.0
 20
10.535711254382241
 30
0.0
  0
VERTEX
  5
3D6
  8
5
 10
-8.0
 20
4.0
 30
0.0
  0
VERTEX
  5
3D7
  8
5
 10
2.3892720946023469
 20
4.0
 30
0.0
  0
SEQEND
  5
3D8
  8
5
  0
POLYLINE
  5
2AE
  8
6
 66
     1
 10
0.0
 20
0.0
 30
0.0
 70
     1
  0
VERTEX
  5
3D9
  8
6
 10
-1.659968346045843
 20
2.9453320321638321
 30
0.0
 42
-0.6901029734005912
  0
VERTEX
  5
3DA
  8
6
 10
-1.659968346045843
 20
0.9397261246474499
 30
0.0
 42
-0.1376618506975992
  0
VERTEX
  5
3DB
  8
6
 10
-2.4693950105952349
 20
0.904921689295179
 30
0.0
 42
-0.1318302147572033
  0
VERTEX
  5
3DC
  8
6
 10
-2.89151539663635
 20
1.1877077906003699
 30
0.0
 42
0.2970033217126471
  0
VERTEX
  5
3DD
  8
6
 10
-4.4484104155731066
 20
2.161592221316595
 30
0.0
 42
-0.1790670497788031
  0
VERTEX
  5
3DE
  8
6
 10
-4.7236562387415679
 20
2.174765219152504
 30
0.0
 42
-0.7872944703011028
  0
VERTEX
  5
3DF
  8
6
 10
-4.7002310354350811
 20
2.3840699574177502
 30
0.0
 42
-0.1471053060255426
  0
VERTEX
  5
3E0
  8
6
 10
-4.2057457462078673
 20
2.3188521226015828
 30
0.0
 42
0.2488376497633646
  0
VERTEX
  5
3E1
  8
6
 10
-2.6782793158240561
 20
2.5450809890019168
 30
0.0
  0
VERTEX
  5
3E2
  8
6
 10
-2.451988005395378
 20
2.8409187261067919
 30
0.0
 42
-0.2003492740195071
  0
SEQEND
  5
3E3
  8
6
  0
DIMENSION
  5
2AF
  8
1
  2
*D2
 10
-29.141845684360302
 20
4.0000000000000018
 30
0.0
 11
-31.891845684360302
 21
1.999999999999998
 31
0.0
 70
     0
 13
-20.0
 23
0.0
 33
0.0
 14
-20.0
 24
4.0
 34
0.0
 50
90.0
  0
POLYLINE
  5
2B0
  8
5
 66
     1
 10
0.0
 20
0.0
 30
0.0
  0
VERTEX
  5
3E4
  8
5
 10
-15.0
 20
7.0
 30
0.0
  0
VERTEX
  5
3E5
  8
5
 10
-12.0
 20
7.0
 30
0.0
  0
VERTEX
  5
3E6
  8
5
 10
-12.0
 20
4.0
 30
0.0
  0
VERTEX
  5
3E7
  8
5
 10
-20.0
 20
4.0
 30
0.0
  0
VERTEX
  5
3E8
  8
5
 10
-20.0
 20
0.0
 30
0.0
  0
VERTEX
  5
3E9
  8
5
 10
0.0
 20
0.0
 30
0.0
  0
VERTEX
  5
3EA
  8
5
 10
0.0
 20
-3.953892615338872
 30
0.0
  0
SEQEND
  5
3EB
  8
5
  0
POLYLINE
  5
2B1
  8
6
 66
     1
 10
0.0
 20
0.0
 30
0.0
 70
     1
  0
VERTEX
  5
3EC
  8
6
 10
-11.832017742272001
 20
0.0
 30
0.0
 42
-0.2204371057360159
  0
VERTEX
  5
3ED
  8
6
 10
-10.934438530674919
 20
0.7267993062118876
 30
0.0
 42
-0.1380811941032905
  0
VERTEX
  5
3EE
  8
6
 10
-10.48947399399321
 20
0.6920667728320497
 30
0.0
  0
VERTEX
  5
3EF
  8
6
 10
-5.3798637737122581
 20
0.0671831309914524
 30
0.0
  0
VERTEX
  5
3F0
  8
6
 10
-1.430152837552213
 20
0.0671830943815621
 30
0.0
 42
0.7775257470317423
  0
VERTEX
  5
3F1
  8
6
 10
-1.6506672295163289
 20
3.9956424752861031
 30
0.0
  0
VERTEX
  5
3F2
  8
6
 10
-10.05934096745295
 20
4.0126683791254427
 30
0.0
 42
0.6156817696571393
  0
VERTEX
  5
3F3
  8
6
 10
-10.0648783546776
 20
3.3483613323980981
 30
0.0
  0
VERTEX
  5
3F4
  8
6
 10
-3.3679291417442978
 20
3.1958514643247322
 30
0.0
 42
-0.7021477470443847
  0
VERTEX
  5
3F5
  8
6
 10
-3.3965559902931091
 20
2.9528086657860508
 30
0.0
 42
-0.13103583140145
  0
VERTEX
  5
3F6
  8
6
 10
-4.0402726899164909
 20
3.0188126630043821
 30
0.0
 42
0.0458598078756302
  0
VERTEX
  5
3F7
  8
6
 10
-4.7912754899548409
 20
3.0518146799186061
 30
0.0
 42
0.1188152429693699
  0
VERTEX
  5
3F8
  8
6
 10
-5.6165533236830916
 20
2.622788643084959
 30
0.0
 42
0.2660801418727094
  0
VERTEX
  5
3F9
  8
6
 10
-5.5978824657981932
 20
2.1389283461592181
 30
0.0
 42
0.0090919171787586
  0
VERTEX
  5
3FA
  8
6
 10
-5.3038227070828716
 20
1.809952256628093
 30
0.0
 42
0.1269908561490962
  0
VERTEX
  5
3FB
  8
6
 10
-4.2151013546376808
 20
1.4249802727949821
 30
0.0
 42
-1.1757356255244751
  0
VERTEX
  5
3FC
  8
6
 10
-4.284187904675945
 20
1.1563802402947649
 30
0.0
 42
-0.0509238273695921
  0
VERTEX
  5
3FD
  8
6
 10
-4.7822166729697519
 20
1.3234876365766011
 30
0.0
  0
VERTEX
  5
3FE
  8
6
 10
-10.056547990462599
 20
2.7217946572172869
 30
0.0
 42
-0.2407991269746653
  0
VERTEX
  5
3FF
  8
6
 10
-10.62598970496264
 20
3.604598179502545
 30
0.0
  0
VERTEX
  5
400
  8
6
 10
-11.10037593371816
 20
5.2637799807446291
 30
0.0
 42
0.3132814489550107
  0
VERTEX
  5
401
  8
6
 10
-11.68837301435769
 20
5.812813887648189
 30
0.0
  0
VERTEX
  5
402
  8
6
 10
-12.0
 20
5.8157322876688786
 30
0.0
  0
VERTEX
  5
403
  8
6
 10
-12.0
 20
3.7613576957771779
 30
0.0
 42
-0.0911509143119009
  0
VERTEX
  5
404
  8
6
 10
-11.70710360935208
 20
2.8785541734919202
 30
0.0
 42
-0.3660315289714009
  0
VERTEX
  5
405
  8
6
 10
-12.09498418974726
 20
2.433027109896329
 30
0.0
  0
VERTEX
  5
406
  8
6
 10
-13.81156203922046
 20
2.0865060970429559
 30
0.0
 42
-0.5480460895906795
  0
VERTEX
  5
407
  8
6
 10
-14.19118986507646
 20
2.5320331240286569
 30
0.0
  0
VERTEX
  5
408
  8
6
 10
-14.06739815844867
 20
2.9363076390241072
 30
0.0
 42
-0.2015441265874732
  0
VERTEX
  5
409
  8
6
 10
-13.63825370822223
 20
3.3323316589435299
 30
0.0
 42
0.0630989901035754
  0
VERTEX
  5
40A
  8
6
 10
-13.10182310901382
 20
3.571596162588548
 30
0.0
 42
0.6175385480881488
  0
VERTEX
  5
40B
  8
6
 10
-13.22561481564116
 20
3.9676201825079711
 30
0.0
  0
VERTEX
  5
40C
  8
6
 10
-14.18870703538823
 20
3.9332148690009481
 30
0.0
 42
0.2321231063432656
  0
VERTEX
  5
40D
  8
6
 10
-15.189776029802941
 20
3.0353136531564351
 30
0.0
  0
VERTEX
  5
40E
  8
6
 10
-15.443392745426531
 20
2.4363398358568702
 30
0.0
 42
-0.3403916956456269
  0
VERTEX
  5
40F
  8
6
 10
-15.79222881102805
 20
2.1855121111752851
 30
0.0
  0
VERTEX
  5
410
  8
6
 10
-17.294234459671308
 20
2.0700051068909029
 30
0.0
 42
-0.527762527576422
  0
VERTEX
  5
411
  8
6
 10
-17.512387293136719
 20
2.551026081321651
 30
0.0
 42
-0.053108076609585
  0
VERTEX
  5
412
  8
6
 10
-17.16220787107067
 20
2.9506488608633381
 30
0.0
  0
VERTEX
  5
413
  8
6
 10
-16.027479910826511
 20
3.5423643131557578
 30
0.0
 42
0.6265777254502241
  0
VERTEX
  5
414
  8
6
 10
-15.98500279486961
 20
3.961384260621116
 30
0.0
  0
VERTEX
  5
415
  8
6
 10
-16.94827616861539
 20
3.95798216973435
 30
0.0
 42
0.2931556511669353
  0
VERTEX
  5
416
  8
6
 10
-19.233552175558081
 20
1.487567095820622
 30
0.0
 42
0.4084022002160477
  0
VERTEX
  5
417
  8
6
 10
-18.22724831624009
 20
0.0
 30
0.0
  0
SEQEND
  5
418
  8
6
  0
DIMENSION
  5
2B2
  8
1
  2
*D3
 10
-12.0
 20
-11.627920674892721
 30
0.0
 11
-16.0
 21
-8.8409152178667991
 31
0.0
 70
     0
 13
-20.0
 23
0.0
 33
0.0
 14
-12.0
 24
0.0
 34
0.0
  0
DIMENSION
  5
2B3
  8
1
  2
*D4
 10
-0.0000000000000007
 20
-11.627920674892721
 30
0.0
 11
-6.0
 21
-8.8707583283715756
 31
0.0
 70
     0
 13
-12.0
 23
0.0
 33
0.0
 14
0.0
 24
0.0
 34
0.0
  0
TEXT
  5
2B4
  8
1
 10
-4.355129193979792
 20
9.0307252437565921
 30
0.0
 40
2.5
  1
Hebgo 525
 41
0.9
  7
BESCHLAG
  0
DIMENSION
  5
2B5
  8
1
  2
*D5
 10
10.09945945518575
 20
3.9999999999999969
 30
0.0
 11
7.3494594551857508
 21
1.9999999999999989
 31
0.0
 70
     0
 13
0.0
 23
0.0
 33
0.0
 14
0.0
 24
4.0
 34
0.0
 50
90.0
  0
VIEWPORT
  5
22
 67
     1
  8
0
 10
210.0
 20
170.2366863905325
 30
0.0
 40
420.0
 41
340.47337278106511
 68
     1
 69
     1
1001
ACAD
1000
MVIEW
1002
{
1070
    16
1010
0.0
1020
0.0
1030
0.0
1010
0.0
1020
0.0
1030
1.0
1040
0.0
1040
340.47337278106511
1040
210.0
1040
170.2366863905325
1040
50.0
1040
0.0
1040
0.0
1070
     0
1070
   100
1070
     1
1070
     1
1070
     0
1070
     0
1070
     0
1070
     0
1040
0.0
1040
0.0
1040
0.0
1040
5.0
1040
5.0
1040
10.0
1040
10.0
1070
     0
1002
{
1002
}
1002
}
  0
ENDSEC
  0
EOF
