  0
SECTION
  2
HEADER
  9
$ACADVER
  1
AC1009
  9
$INSBASE
 10
0.0
 20
0.0
 30
0.0
  9
$EXTMIN
 10
-6.0195914190489921
 20
-16.044615844782129
 30
-0.000000000000013
  9
$EXTMAX
 10
17.120361871924722
 20
10.574341356491679
 30
0.0000000000000023
  9
$LIMMIN
 10
-150.0
 20
-150.0
  9
$LIMMAX
 10
150.0
 20
150.0
  9
$ORTHOMODE
 70
     0
  9
$REGENMODE
 70
     1
  9
$FILLMODE
 70
     1
  9
$QTEXTMODE
 70
     0
  9
$MIRRTEXT
 70
     0
  9
$DRAGMODE
 70
     2
  9
$LTSCALE
 40
1.0
  9
$OSMODE
 70
   111
  9
$ATTMODE
 70
     1
  9
$TEXTSIZE
 40
3.5
  9
$TRACEWID
 40
1.0
  9
$TEXTSTYLE
  7
BESCHLAG
  9
$CLAYER
  8
0
  9
$CELTYPE
  6
BYLAYER
  9
$CECOLOR
 62
   256
  9
$DIMSCALE
 40
1.0
  9
$DIMASZ
 40
2.0
  9
$DIMEXO
 40
2.0
  9
$DIMDLI
 40
0.0
  9
$DIMRND
 40
0.0
  9
$DIMDLE
 40
1.0
  9
$DIMEXE
 40
1.0
  9
$DIMTP
 40
0.0
  9
$DIMTM
 40
0.0
  9
$DIMTXT
 40
3.5
  9
$DIMCEN
 40
0.0
  9
$DIMTSZ
 40
0.0
  9
$DIMTOL
 70
     0
  9
$DIMLIM
 70
     0
  9
$DIMTIH
 70
     0
  9
$DIMTOH
 70
     0
  9
$DIMSE1
 70
     0
  9
$DIMSE2
 70
     0
  9
$DIMTAD
 70
     1
  9
$DIMZIN
 70
     8
  9
$DIMBLK
  1

  9
$DIMASO
 70
     1
  9
$DIMSHO
 70
     1
  9
$DIMPOST
  1

  9
$DIMAPOST
  1

  9
$DIMALT
 70
     0
  9
$DIMALTD
 70
     2
  9
$DIMALTF
 40
0.039370078740157
  9
$DIMLFAC
 40
1.0
  9
$DIMTOFL
 70
     1
  9
$DIMTVP
 40
0.0
  9
$DIMTIX
 70
     1
  9
$DIMSOXD
 70
     0
  9
$DIMSAH
 70
     1
  9
$DIMBLK1
  1
OBLIQUE
  9
$DIMBLK2
  1
OBLIQUE
  9
$DIMSTYLE
  2
OPO-SSTRICH
  9
$DIMCLRD
 70
   256
  9
$DIMCLRE
 70
   256
  9
$DIMCLRT
 70
   256
  9
$DIMTFAC
 40
0.7114285714285716
  9
$DIMGAP
 40
1.0
  9
$LUNITS
 70
     2
  9
$LUPREC
 70
     1
  9
$SKETCHINC
 40
1.0
  9
$FILLETRAD
 40
0.0
  9
$AUNITS
 70
     0
  9
$AUPREC
 70
     1
  9
$MENU
  1
D:\ACL_CGWG\CGTAB13
  9
$ELEVATION
 40
0.0
  9
$PELEVATION
 40
0.0
  9
$THICKNESS
 40
0.0
  9
$LIMCHECK
 70
     0
  9
$BLIPMODE
 70
     0
  9
$CHAMFERA
 40
1.0
  9
$CHAMFERB
 40
1.0
  9
$SKPOLY
 70
     0
  9
$TDCREATE
 40
2451739.8391972221
  9
$TDUPDATE
 40
2452086.710169062
  9
$TDINDWG
 40
0.006150625
  9
$TDUSRTIMER
 40
0.0061504514
  9
$USRTIMER
 70
     1
  9
$ANGBASE
 50
0.0
  9
$ANGDIR
 70
     0
  9
$PDMODE
 70
    35
  9
$PDSIZE
 40
5.0
  9
$PLINEWID
 40
0.0
  9
$COORDS
 70
     1
  9
$SPLFRAME
 70
     0
  9
$SPLINETYPE
 70
     6
  9
$SPLINESEGS
 70
     8
  9
$ATTDIA
 70
     1
  9
$ATTREQ
 70
     1
  9
$HANDLING
 70
-16383
  9
$HANDSEED
  5
468
  9
$SURFTAB1
 70
    12
  9
$SURFTAB2
 70
    12
  9
$SURFTYPE
 70
     6
  9
$SURFU
 70
    12
  9
$SURFV
 70
    12
  9
$UCSNAME
  2

  9
$UCSORG
 10
0.0
 20
0.0
 30
0.0
  9
$UCSXDIR
 10
1.0
 20
0.0
 30
0.0
  9
$UCSYDIR
 10
0.0
 20
1.0
 30
0.0
  9
$PUCSNAME
  2

  9
$PUCSORG
 10
0.0
 20
0.0
 30
0.0
  9
$PUCSXDIR
 10
1.0
 20
0.0
 30
0.0
  9
$PUCSYDIR
 10
0.0
 20
1.0
 30
0.0
  9
$USERI1
 70
     0
  9
$USERI2
 70
     0
  9
$USERI3
 70
     0
  9
$USERI4
 70
     0
  9
$USERI5
 70
     0
  9
$USERR1
 40
0.0
  9
$USERR2
 40
0.0
  9
$USERR3
 40
0.0
  9
$USERR4
 40
0.0
  9
$USERR5
 40
0.0
  9
$WORLDVIEW
 70
     1
  9
$SHADEDGE
 70
     3
  9
$SHADEDIF
 70
    70
  9
$TILEMODE
 70
     1
  9
$MAXACTVP
 70
    48
  9
$PLIMCHECK
 70
     0
  9
$PEXTMIN
 10
1.0000000000000000E+020
 20
1.0000000000000000E+020
 30
1.0000000000000000E+020
  9
$PEXTMAX
 10
-1.0000000000000000E+020
 20
-1.0000000000000000E+020
 30
-1.0000000000000000E+020
  9
$PLIMMIN
 10
0.0
 20
0.0
  9
$PLIMMAX
 10
420.0
 20
297.0
  9
$UNITMODE
 70
     0
  9
$VISRETAIN
 70
     1
  9
$PLINEGEN
 70
     0
  9
$PSLTSCALE
 70
     1
  0
ENDSEC
  0
SECTION
  2
TABLES
  0
TABLE
  2
VPORT
 70
     2
  0
VPORT
  2
*ACTIVE
 70
     0
 10
0.0
 20
0.0
 11
1.0
 21
1.0
 12
5.550385226437867
 22
-2.7351372441452209
 13
0.0
 23
0.0
 14
0.5
 24
0.5
 15
10.0
 25
10.0
 16
0.0
 26
0.0
 36
1.0
 17
0.0
 27
0.0
 37
0.0
 40
26.835078639985099
 41
1.6070460704607039
 42
50.0
 43
0.0
 44
0.0
 50
0.0
 51
0.0
 71
     0
 72
   800
 73
     1
 74
     1
 75
     0
 76
     0
 77
     0
 78
     0
  0
ENDTAB
  0
TABLE
  2
LTYPE
 70
     1
  0
LTYPE
  2
CONTINUOUS
 70
     0
  3
_______________________________________________
 72
    65
 73
     2
 40
1.0
 49
1.0
 49
0.0
  0
ENDTAB
  0
TABLE
  2
LAYER
 70
     5
  0
LAYER
  2
0
 70
     0
 62
    30
  6
CONTINUOUS
  0
LAYER
  2
1
 70
     0
 62
     2
  6
CONTINUOUS
  0
LAYER
  2
5
 70
     0
 62
     1
  6
CONTINUOUS
  0
LAYER
  2
6
 70
     0
 62
     3
  6
CONTINUOUS
  0
LAYER
  2
DEFPOINTS
 70
     0
 62
     7
  6
CONTINUOUS
  0
ENDTAB
  0
TABLE
  2
STYLE
 70
     2
  0
STYLE
  2
STANDARD
 70
     0
 40
0.0
 41
1.0
 50
0.0
 71
     0
 42
2.5
  3
txt
  4

  0
STYLE
  2
BESCHLAG
 70
     0
 40
0.0
 41
0.9
 50
0.0
 71
     0
 42
3.5
  3
txt
  4

  0
ENDTAB
  0
TABLE
  2
VIEW
 70
     0
  0
ENDTAB
  0
TABLE
  2
UCS
 70
     0
  0
ENDTAB
  0
TABLE
  2
APPID
 70
     1
  0
APPID
  2
ACAD
 70
     0
  0
ENDTAB
  0
TABLE
  2
DIMSTYLE
 70
     1
  0
DIMSTYLE
  2
OPO-SSTRICH
 70
     0
  3

  4

  5

  6
OBLIQUE
  7
OBLIQUE
 40
1.0
 41
2.0
 42
2.0
 43
0.0
 44
1.0
 45
0.0
 46
1.0
 47
0.0
 48
0.0
140
3.5
141
0.0
142
0.0
143
0.039370078740157
144
1.0
145
0.0
146
0.7114285714285716
147
1.0
 71
     0
 72
     0
 73
     0
 74
     0
 75
     0
 76
     0
 77
     1
 78
     8
170
     0
171
     2
172
     1
173
     1
174
     1
175
     0
176
   256
177
   256
178
   256
  0
ENDTAB
  0
ENDSEC
  0
SECTION
  2
BLOCKS
  0
BLOCK
  8
0
  2
$MODEL_SPACE
 70
     0
 10
0.0
 20
0.0
 30
0.0
  3
$MODEL_SPACE
  1

  0
ENDBLK
  5
1C
  8
0
  0
BLOCK
 67
     1
  8
0
  2
$PAPER_SPACE
 70
     0
 10
0.0
 20
0.0
 30
0.0
  3
$PAPER_SPACE
  1

  0
ENDBLK
  5
19
 67
     1
  8
0
  0
BLOCK
  8
0
  2
_OBLIQUE
 70
     0
 10
0.0
 20
0.0
 30
0.0
  3
_OBLIQUE
  1

  0
LINE
  5
204
  8
0
 62
     0
 10
-0.5
 20
-0.5
 30
0.0
 11
0.5
 21
0.5
 31
0.0
  0
ENDBLK
  5
206
  8
0
  0
BLOCK
  8
0
  2
NULLPUNKT
 70
     0
 10
0.0
 20
0.0
 30
0.0
  3
NULLPUNKT
  1

  0
SOLID
  5
254
  8
5
 10
0.0
 20
0.0
 30
0.0
 11
2.0
 21
0.0
 31
0.0
 12
0.0
 22
-2.0
 32
0.0
 13
0.0
 23
-2.0
 33
0.0
  0
SOLID
  5
255
  8
5
 10
0.0
 20
0.0
 30
0.0
 11
-2.0
 21
0.0
 31
0.0
 12
0.0
 22
2.0
 32
0.0
 13
0.0
 23
2.0
 33
0.0
  0
POLYLINE
  5
256
  8
5
 66
     1
 10
0.0
 20
0.0
 30
0.0
  0
VERTEX
  5
423
  8
5
 10
0.0
 20
2.0
 30
0.0
  0
VERTEX
  5
424
  8
5
 10
0.0
 20
-2.0
 30
0.0
  0
SEQEND
  5
425
  8
5
  0
POLYLINE
  5
257
  8
5
 66
     1
 10
0.0
 20
0.0
 30
0.0
  0
VERTEX
  5
426
  8
5
 10
-2.0
 20
0.0
 30
0.0
  0
VERTEX
  5
427
  8
5
 10
2.0
 20
0.0
 30
0.0
  0
SEQEND
  5
428
  8
5
  0
CIRCLE
  5
258
  8
5
 10
0.0
 20
0.0
 30
0.0
 40
2.0
  0
ENDBLK
  5
25A
  8
0
  0
BLOCK
  8
0
  2
*D2
 70
     1
 10
0.0
 20
0.0
 30
0.0
  3
*D2
  1

  0
LINE
  5
2D0
  8
1
 10
-3.0
 20
-8.0
 30
0.0
 11
-3.0
 21
-16.0427268488429
 31
0.0
  0
LINE
  5
2D1
  8
1
 10
-0.0000000000000001
 20
-8.0
 30
0.0
 11
-0.0000000000000006
 21
-16.0427268488429
 31
0.0
  0
LINE
  5
2D2
  8
1
 10
-3.0
 20
-15.0427268488429
 30
0.0
 11
-5.0
 21
-15.0427268488429
 31
0.0
  0
LINE
  5
2D3
  8
1
 10
-0.0000000000000006
 20
-15.0427268488429
 30
0.0
 11
1.9999999999999989
 21
-15.0427268488429
 31
0.0
  0
LINE
  5
2D4
  8
1
 10
-3.0
 20
-15.0427268488429
 30
0.0
 11
-0.0000000000000006
 21
-15.0427268488429
 31
0.0
  0
INSERT
  5
2D5
  8
1
  2
_OBLIQUE
 10
-3.0
 20
-15.0427268488429
 30
0.0
 41
2.0
 42
2.0
 43
2.0
  0
INSERT
  5
2D6
  8
1
  2
_OBLIQUE
 10
-0.0000000000000006
 20
-15.0427268488429
 30
0.0
 41
2.0
 42
2.0
 43
2.0
 50
180.0
  0
TEXT
  5
2D7
  8
0
 10
-2.716166439290586
 20
-13.973490832471819
 30
0.0
 40
3.5
  1
3
 41
0.9
  7
BESCHLAG
  0
POINT
  5
2D8
  8
DEFPOINTS
 62
     0
 10
-3.0
 20
-6.0
 30
0.0
  0
POINT
  5
2D9
  8
DEFPOINTS
 62
     0
 10
0.0
 20
-6.0
 30
0.0
  0
POINT
  5
2DA
  8
DEFPOINTS
 62
     0
 10
-0.0000000000000006
 20
-15.0427268488429
 30
0.0
  0
ENDBLK
  5
2B5
  8
0
  0
BLOCK
  8
0
  2
*D3
 70
     1
 10
0.0
 20
0.0
 30
0.0
  3
*D3
  1

  0
LINE
  5
2DB
  8
1
 10
2.0
 20
-0.0000000000000006
 30
0.0
 11
11.74877937066185
 21
-0.0000000000000033
 31
0.0
  0
LINE
  5
2DC
  8
1
 10
2.0
 20
3.9999999999999991
 30
0.0
 11
11.74877937066185
 21
3.999999999999996
 31
0.0
  0
LINE
  5
2DD
  8
1
 10
10.74877937066185
 20
-0.000000000000003
 30
0.0
 11
10.74877937066185
 21
-2.0000000000000022
 31
0.0
  0
LINE
  5
2DE
  8
1
 10
10.74877937066185
 20
3.9999999999999969
 30
0.0
 11
10.74877937066185
 21
5.9999999999999973
 31
0.0
  0
LINE
  5
2DF
  8
1
 10
10.74877937066185
 20
-0.000000000000003
 30
0.0
 11
10.74877937066185
 21
3.9999999999999969
 31
0.0
  0
INSERT
  5
2E0
  8
1
  2
_OBLIQUE
 10
10.74877937066185
 20
-0.000000000000003
 30
0.0
 41
2.0
 42
2.0
 43
2.0
 50
90.0
  0
INSERT
  5
2E1
  8
1
  2
_OBLIQUE
 10
10.74877937066185
 20
3.9999999999999969
 30
0.0
 41
2.0
 42
2.0
 43
2.0
 50
270.0
  0
TEXT
  5
2E2
  8
0
 10
9.7487793706618504
 20
0.8547407912687576
 30
0.0
 40
3.5
  1
4
 50
90.0
 41
0.9
  7
BESCHLAG
  0
POINT
  5
2E3
  8
DEFPOINTS
 62
     0
 10
0.0
 20
0.0
 30
0.0
  0
POINT
  5
2E4
  8
DEFPOINTS
 62
     0
 10
0.0
 20
4.0
 30
0.0
  0
POINT
  5
2E5
  8
DEFPOINTS
 62
     0
 10
10.74877937066185
 20
3.9999999999999969
 30
0.0
  0
ENDBLK
  5
2C3
  8
0
  0
BLOCK
  8
0
  2
*D4
 70
     1
 10
0.0
 20
0.0
 30
0.0
  3
*D4
  1

  0
LINE
  5
2E6
  8
1
 10
2.0
 20
-6.0
 30
0.0
 11
11.74877937066184
 21
-6.0000000000000027
 31
0.0
  0
LINE
  5
2E7
  8
1
 10
2.0
 20
-0.0000000000000006
 30
0.0
 11
11.74877937066185
 21
-0.0000000000000033
 31
0.0
  0
LINE
  5
2E8
  8
1
 10
10.74877937066184
 20
-7.0000000000000027
 30
0.0
 11
10.74877937066185
 21
0.9999999999999969
 31
0.0
  0
INSERT
  5
2E9
  8
1
  2
_OBLIQUE
 10
10.74877937066184
 20
-6.0000000000000027
 30
0.0
 41
2.0
 42
2.0
 43
2.0
 50
270.0
  0
INSERT
  5
2EA
  8
1
  2
_OBLIQUE
 10
10.74877937066185
 20
-0.000000000000003
 30
0.0
 41
2.0
 42
2.0
 43
2.0
 50
90.0
  0
TEXT
  5
2EB
  8
0
 10
9.6819308031311557
 20
-4.2054229195088704
 30
0.0
 40
3.5
  1
6
 50
90.0
 41
0.9
  7
BESCHLAG
  0
POINT
  5
2EC
  8
DEFPOINTS
 62
     0
 10
0.0
 20
-6.0
 30
0.0
  0
POINT
  5
2ED
  8
DEFPOINTS
 62
     0
 10
0.0
 20
0.0
 30
0.0
  0
POINT
  5
2EE
  8
DEFPOINTS
 62
     0
 10
10.74877937066185
 20
-0.000000000000003
 30
0.0
  0
ENDBLK
  5
2CF
  8
0
  0
ENDSEC
  0
SECTION
  2
ENTITIES
  0
INSERT
  5
25B
  8
5
  2
NULLPUNKT
 10
0.0
 20
0.0
 30
0.0
  0
POLYLINE
  5
2A0
  8
6
 66
     1
 10
0.0
 20
0.0
 30
0.0
 70
     1
  0
VERTEX
  5
429
  8
6
 10
-1.5
 20
2.639194963543559
 30
0.0
 42
0.0810140654945016
  0
VERTEX
  5
42A
  8
6
 10
-0.1530677606624522
 20
2.8279839841209191
 30
0.0
 42
-0.7148582707051018
  0
VERTEX
  5
42B
  8
6
 10
0.8418247721788247
 20
1.317773595348398
 30
0.0
 42
-0.166214732608571
  0
VERTEX
  5
42C
  8
6
 10
-1.5
 20
0.4079451937857357
 30
0.0
 42
-0.1662147326085706
  0
VERTEX
  5
42D
  8
6
 10
-3.8418247721788239
 20
1.317773595348398
 30
0.0
 42
-0.7148582707051018
  0
VERTEX
  5
42E
  8
6
 10
-2.8469322393380021
 20
2.8279839841209191
 30
0.0
 42
0.0810140654945016
  0
SEQEND
  5
42F
  8
6
  0
LINE
  5
2A1
  8
5
 10
-6.0
 20
4.0
 30
0.0
 11
3.0
 21
4.0
 31
0.0
  0
DIMENSION
  5
2A2
  8
1
  2
*D2
 10
-0.0000000000000006
 20
-15.0427268488429
 30
0.0
 11
-1.5
 21
-12.25452766739679
 31
0.0
 70
     0
 13
-3.0
 23
-6.0
 33
0.0
 14
0.0
 24
-6.0
 34
0.0
  0
TEXT
  5
2A3
  8
1
 10
0.017381908473908
 20
7.397342554323699
 30
0.0
 40
2.5
  1
Hebgo 526
  7
BESCHLAG
  0
POLYLINE
  5
2A4
  8
6
 66
     1
 10
0.0
 20
0.0
 30
0.0
 70
     1
  0
VERTEX
  5
430
  8
6
 10
-1.5
 20
4.0
 30
0.0
 42
-0.3755155665862612
  0
VERTEX
  5
431
  8
6
 10
-0.8896655147932506
 20
3.316619174319384
 30
0.0
  0
VERTEX
  5
432
  8
6
 10
0.0250370333033061
 20
3.49686126629308
 30
0.0
  0
VERTEX
  5
433
  8
6
 10
0.7075412914082336
 20
3.4008316149013349
 30
0.0
  0
VERTEX
  5
434
  8
6
 10
1.0880521922822479
 20
3.9110354868994359
 30
0.0
 42
-0.849985669627559
  0
VERTEX
  5
435
  8
6
 10
1.794492381670352
 20
3.3603980835257512
 30
0.0
  0
VERTEX
  5
436
  8
6
 10
1.476005360709677
 20
2.9498516830999502
 30
0.0
 42
0.3552812814794005
  0
VERTEX
  5
437
  8
6
 10
1.490502392929556
 20
2.7147443596904841
 30
0.0
 42
-0.3793838421575348
  0
VERTEX
  5
438
  8
6
 10
1.3900454732333849
 20
0.706947601387583
 30
0.0
 42
0.0086238807176365
  0
VERTEX
  5
439
  8
6
 10
-0.680521659453234
 20
-0.5262751055636273
 30
0.0
 42
0.305541356778279
  0
VERTEX
  5
43A
  8
6
 10
-0.8271336818781946
 20
-0.7436052935811404
 30
0.0
  0
VERTEX
  5
43B
  8
6
 10
-0.8271336818781946
 20
-1.324837321478298
 30
0.0
 42
0.7440894012573249
  0
VERTEX
  5
43C
  8
6
 10
-0.7260219738388969
 20
-1.3551624987601369
 30
0.0
  0
VERTEX
  5
43D
  8
6
 10
-0.0413219286374442
 20
-1.0143235060320419
 30
0.0
 42
-0.6074999965019705
  0
VERTEX
  5
43E
  8
6
 10
0.0705372714087389
 20
-1.072411459967042
 30
0.0
  0
VERTEX
  5
43F
  8
6
 10
0.0705372714087389
 20
-1.5656357604995881
 30
0.0
  0
VERTEX
  5
440
  8
6
 10
-0.8625228407156556
 20
-2.3378432627415
 30
0.0
  0
VERTEX
  5
441
  8
6
 10
-0.8625228407156556
 20
-3.181528279432825
 30
0.0
 42
0.7726510115360289
  0
VERTEX
  5
442
  8
6
 10
-0.7462442849343917
 20
-3.2118533992141352
 30
0.0
  0
VERTEX
  5
443
  8
6
 10
-0.045741208092295
 20
-2.8631142054760512
 30
0.0
 42
-0.6322467702262857
  0
VERTEX
  5
444
  8
6
 10
0.0604261158609916
 20
-2.923764502539199
 30
0.0
  0
VERTEX
  5
445
  8
6
 10
0.0604261158609916
 20
-3.4071641873135832
 30
0.0
  0
VERTEX
  5
446
  8
6
 10
-1.132692374634189
 20
-4.6302784826705192
 30
0.0
 42
-0.1809757128983446
  0
VERTEX
  5
447
  8
6
 10
-1.2186373874915259
 20
-4.6707120140458747
 30
0.0
  0
VERTEX
  5
448
  8
6
 10
-1.5
 20
-4.6707120140458747
 30
0.0
  0
VERTEX
  5
449
  8
6
 10
-1.7813626125084729
 20
-4.6707120140458747
 30
0.0
 42
-0.1809757128983446
  0
VERTEX
  5
44A
  8
6
 10
-1.8673076253658101
 20
-4.6302784826705192
 30
0.0
  0
VERTEX
  5
44B
  8
6
 10
-3.0604261158614459
 20
-3.4071641873135832
 30
0.0
  0
VERTEX
  5
44C
  8
6
 10
-3.0604261158614459
 20
-2.923764502539199
 30
0.0
 42
-0.6322467702262857
  0
VERTEX
  5
44D
  8
6
 10
-2.9542587919081589
 20
-2.8631142054760512
 30
0.0
  0
VERTEX
  5
44E
  8
6
 10
-2.2537557150658349
 20
-3.2118533992141352
 30
0.0
 42
0.7726510115360289
  0
VERTEX
  5
44F
  8
6
 10
-2.1374771592845709
 20
-3.181528279432825
 30
0.0
  0
VERTEX
  5
450
  8
6
 10
-2.1374771592845709
 20
-2.3378432627415
 30
0.0
  0
VERTEX
  5
451
  8
6
 10
-3.0705372714091932
 20
-1.5656357604995881
 30
0.0
  0
VERTEX
  5
452
  8
6
 10
-3.0705372714091932
 20
-1.072411459967042
 30
0.0
 42
-0.6074999965019705
  0
VERTEX
  5
453
  8
6
 10
-2.9586780713625549
 20
-1.0143235060320419
 30
0.0
  0
VERTEX
  5
454
  8
6
 10
-2.2739780261617848
 20
-1.3551624987601369
 30
0.0
 42
0.7440894012573249
  0
VERTEX
  5
455
  8
6
 10
-2.172866318122487
 20
-1.324837321478298
 30
0.0
  0
VERTEX
  5
456
  8
6
 10
-2.172866318122487
 20
-0.7436052935811404
 30
0.0
 42
0.305541356778279
  0
VERTEX
  5
457
  8
6
 10
-2.3194783405474482
 20
-0.5262751055636273
 30
0.0
 42
0.0233822123939236
  0
VERTEX
  5
458
  8
6
 10
-4.3900454732338403
 20
0.706947601387583
 30
0.0
 42
-0.3793838421575348
  0
VERTEX
  5
459
  8
6
 10
-4.4905023929300114
 20
2.7147443596904841
 30
0.0
 42
0.3552812814794005
  0
VERTEX
  5
45A
  8
6
 10
-4.476005360709677
 20
2.9498516830999502
 30
0.0
  0
VERTEX
  5
45B
  8
6
 10
-4.794492381670806
 20
3.3603980835257512
 30
0.0
 42
-0.849985669627559
  0
VERTEX
  5
45C
  8
6
 10
-4.0880521922822481
 20
3.9110354868994359
 30
0.0
  0
VERTEX
  5
45D
  8
6
 10
-3.7075412914086878
 20
3.4008316149013349
 30
0.0
  0
VERTEX
  5
45E
  8
6
 10
-3.0250370333037599
 20
3.49686126629308
 30
0.0
  0
VERTEX
  5
45F
  8
6
 10
-2.1103344852067489
 20
3.316619174319384
 30
0.0
 42
-0.3755155665862808
  0
SEQEND
  5
460
  8
6
  0
POLYLINE
  5
2A5
  8
5
 66
     1
 10
0.0
 20
0.0
 30
0.0
  0
VERTEX
  5
461
  8
5
 10
-6.0
 20
0.0
 30
0.0
  0
VERTEX
  5
462
  8
5
 10
-3.0
 20
0.0
 30
0.0
  0
VERTEX
  5
463
  8
5
 10
-3.0
 20
-6.0
 30
0.0
  0
VERTEX
  5
464
  8
5
 10
0.0
 20
-6.0
 30
0.0
  0
VERTEX
  5
465
  8
5
 10
0.0
 20
0.0
 30
0.0
  0
VERTEX
  5
466
  8
5
 10
3.0
 20
0.0
 30
0.0
  0
SEQEND
  5
467
  8
5
  0
DIMENSION
  5
2A6
  8
1
  2
*D3
 10
10.74877937066185
 20
3.9999999999999969
 30
0.0
 11
7.9987793706618504
 21
1.9999999999999989
 31
0.0
 70
     0
 13
0.0
 23
0.0
 33
0.0
 14
0.0
 24
4.0
 34
0.0
 50
90.0
  0
DIMENSION
  5
2A7
  8
1
  2
*D4
 10
10.74877937066185
 20
-0.000000000000003
 30
0.0
 11
7.9617739136359287
 21
-3.0000000000000009
 31
0.0
 70
     0
 13
0.0
 23
-6.0
 33
0.0
 14
0.0
 24
0.0
 34
0.0
 50
90.0
  0
VIEWPORT
  5
22
 67
     1
  8
0
 10
210.0
 20
170.2366863905325
 30
0.0
 40
420.0
 41
340.47337278106511
 68
     1
 69
     1
1001
ACAD
1000
MVIEW
1002
{
1070
    16
1010
0.0
1020
0.0
1030
0.0
1010
0.0
1020
0.0
1030
1.0
1040
0.0
1040
340.47337278106511
1040
210.0
1040
170.2366863905325
1040
50.0
1040
0.0
1040
0.0
1070
     0
1070
   100
1070
     1
1070
     1
1070
     0
1070
     0
1070
     0
1070
     0
1040
0.0
1040
0.0
1040
0.0
1040
5.0
1040
5.0
1040
10.0
1040
10.0
1070
     0
1002
{
1002
}
1002
}
  0
ENDSEC
  0
EOF
