  0
SECTION
  2
HEADER
  9
$ACADVER
  1
AC1009
  9
$INSBASE
 10
0.0
 20
0.0
 30
0.0
  9
$EXTMIN
 10
-11.192320917258369
 20
-24.993895640356751
 30
-0.0000000000112498
  9
$EXTMAX
 10
34.881592361351522
 20
2.0141606824637388
 30
0.0000000000002956
  9
$LIMMIN
 10
-150.0
 20
-150.0
  9
$LIMMAX
 10
150.0
 20
150.0
  9
$ORTHOMODE
 70
     0
  9
$REGENMODE
 70
     1
  9
$FILLMODE
 70
     1
  9
$QTEXTMODE
 70
     0
  9
$MIRRTEXT
 70
     0
  9
$DRAGMODE
 70
     2
  9
$LTSCALE
 40
3.0
  9
$OSMODE
 70
   111
  9
$ATTMODE
 70
     1
  9
$TEXTSIZE
 40
3.5
  9
$TRACEWID
 40
1.0
  9
$TEXTSTYLE
  7
BESCHLAG
  9
$CLAYER
  8
0
  9
$CELTYPE
  6
BYLAYER
  9
$CECOLOR
 62
   256
  9
$DIMSCALE
 40
1.0
  9
$DIMASZ
 40
2.0
  9
$DIMEXO
 40
2.0
  9
$DIMDLI
 40
0.0
  9
$DIMRND
 40
0.0
  9
$DIMDLE
 40
1.0
  9
$DIMEXE
 40
1.0
  9
$DIMTP
 40
0.0
  9
$DIMTM
 40
0.0
  9
$DIMTXT
 40
3.5
  9
$DIMCEN
 40
0.0
  9
$DIMTSZ
 40
0.0
  9
$DIMTOL
 70
     0
  9
$DIMLIM
 70
     0
  9
$DIMTIH
 70
     0
  9
$DIMTOH
 70
     0
  9
$DIMSE1
 70
     0
  9
$DIMSE2
 70
     0
  9
$DIMTAD
 70
     1
  9
$DIMZIN
 70
     8
  9
$DIMBLK
  1

  9
$DIMASO
 70
     1
  9
$DIMSHO
 70
     1
  9
$DIMPOST
  1

  9
$DIMAPOST
  1

  9
$DIMALT
 70
     0
  9
$DIMALTD
 70
     2
  9
$DIMALTF
 40
0.039370078740157
  9
$DIMLFAC
 40
1.0
  9
$DIMTOFL
 70
     1
  9
$DIMTVP
 40
0.0
  9
$DIMTIX
 70
     1
  9
$DIMSOXD
 70
     0
  9
$DIMSAH
 70
     1
  9
$DIMBLK1
  1
OBLIQUE
  9
$DIMBLK2
  1
OBLIQUE
  9
$DIMSTYLE
  2
OPO-SSTRICH
  9
$DIMCLRD
 70
   256
  9
$DIMCLRE
 70
   256
  9
$DIMCLRT
 70
   256
  9
$DIMTFAC
 40
0.7114285714285716
  9
$DIMGAP
 40
1.0
  9
$LUNITS
 70
     2
  9
$LUPREC
 70
     1
  9
$SKETCHINC
 40
1.0
  9
$FILLETRAD
 40
0.0
  9
$AUNITS
 70
     0
  9
$AUPREC
 70
     1
  9
$MENU
  1
D:\ACL_CGWG\CGTAB13
  9
$ELEVATION
 40
0.0
  9
$PELEVATION
 40
0.0
  9
$THICKNESS
 40
0.0
  9
$LIMCHECK
 70
     0
  9
$BLIPMODE
 70
     0
  9
$CHAMFERA
 40
1.0
  9
$CHAMFERB
 40
1.0
  9
$SKPOLY
 70
     0
  9
$TDCREATE
 40
2451739.9005895481
  9
$TDUPDATE
 40
2452087.6374664349
  9
$TDINDWG
 40
0.0036635185
  9
$TDUSRTIMER
 40
0.0036633333
  9
$USRTIMER
 70
     1
  9
$ANGBASE
 50
0.0
  9
$ANGDIR
 70
     0
  9
$PDMODE
 70
    35
  9
$PDSIZE
 40
5.0
  9
$PLINEWID
 40
0.0
  9
$COORDS
 70
     1
  9
$SPLFRAME
 70
     0
  9
$SPLINETYPE
 70
     6
  9
$SPLINESEGS
 70
     8
  9
$ATTDIA
 70
     1
  9
$ATTREQ
 70
     1
  9
$HANDLING
 70
-16383
  9
$HANDSEED
  5
4D1
  9
$SURFTAB1
 70
    12
  9
$SURFTAB2
 70
    12
  9
$SURFTYPE
 70
     6
  9
$SURFU
 70
    12
  9
$SURFV
 70
    12
  9
$UCSNAME
  2

  9
$UCSORG
 10
0.0
 20
0.0
 30
0.0
  9
$UCSXDIR
 10
1.0
 20
0.0
 30
0.0
  9
$UCSYDIR
 10
0.0
 20
1.0
 30
0.0
  9
$PUCSNAME
  2

  9
$PUCSORG
 10
0.0
 20
0.0
 30
0.0
  9
$PUCSXDIR
 10
1.0
 20
0.0
 30
0.0
  9
$PUCSYDIR
 10
0.0
 20
1.0
 30
0.0
  9
$USERI1
 70
     0
  9
$USERI2
 70
     0
  9
$USERI3
 70
     0
  9
$USERI4
 70
     0
  9
$USERI5
 70
     0
  9
$USERR1
 40
0.0
  9
$USERR2
 40
0.0
  9
$USERR3
 40
0.0
  9
$USERR4
 40
0.0
  9
$USERR5
 40
0.0
  9
$WORLDVIEW
 70
     1
  9
$SHADEDGE
 70
     3
  9
$SHADEDIF
 70
    70
  9
$TILEMODE
 70
     1
  9
$MAXACTVP
 70
    48
  9
$PLIMCHECK
 70
     0
  9
$PEXTMIN
 10
1.0000000000000000E+020
 20
1.0000000000000000E+020
 30
1.0000000000000000E+020
  9
$PEXTMAX
 10
-1.0000000000000000E+020
 20
-1.0000000000000000E+020
 30
-1.0000000000000000E+020
  9
$PLIMMIN
 10
0.0
 20
0.0
  9
$PLIMMAX
 10
420.0
 20
297.0
  9
$UNITMODE
 70
     0
  9
$VISRETAIN
 70
     1
  9
$PLINEGEN
 70
     0
  9
$PSLTSCALE
 70
     1
  0
ENDSEC
  0
SECTION
  2
TABLES
  0
TABLE
  2
VPORT
 70
     2
  0
VPORT
  2
*ACTIVE
 70
     0
 10
0.0
 20
0.0
 11
1.0
 21
1.0
 12
11.84463572204657
 22
-11.489867478946501
 13
0.0
 23
0.0
 14
0.5
 24
0.5
 15
10.0
 25
10.0
 16
0.0
 26
0.0
 36
1.0
 17
0.0
 27
0.0
 37
0.0
 40
28.814784875072949
 41
1.6070460704607039
 42
50.0
 43
0.0
 44
0.0
 50
0.0
 51
0.0
 71
     0
 72
   800
 73
     1
 74
     1
 75
     0
 76
     0
 77
     0
 78
     0
  0
ENDTAB
  0
TABLE
  2
LTYPE
 70
     2
  0
LTYPE
  2
CONTINUOUS
 70
     0
  3
_______________________________________________
 72
    65
 73
     2
 40
1.0
 49
1.0
 49
0.0
  0
LTYPE
  2
STRICHPUNKT
 70
     0
  3
__ . __ . __ . __ . __ . __ . __ . __ . __ . __
 72
    65
 73
     4
 40
1.0
 49
0.5
 49
-0.25
 49
0.0
 49
-0.25
  0
ENDTAB
  0
TABLE
  2
LAYER
 70
     7
  0
LAYER
  2
0
 70
     0
 62
    30
  6
CONTINUOUS
  0
LAYER
  2
1
 70
     0
 62
     2
  6
CONTINUOUS
  0
LAYER
  2
2
 70
     0
 62
     9
  6
CONTINUOUS
  0
LAYER
  2
4
 70
     1
 62
     4
  6
CONTINUOUS
  0
LAYER
  2
5
 70
     0
 62
     1
  6
CONTINUOUS
  0
LAYER
  2
6
 70
     0
 62
     3
  6
CONTINUOUS
  0
LAYER
  2
DEFPOINTS
 70
     0
 62
     7
  6
CONTINUOUS
  0
ENDTAB
  0
TABLE
  2
STYLE
 70
     2
  0
STYLE
  2
STANDARD
 70
     0
 40
0.0
 41
1.0
 50
0.0
 71
     0
 42
2.5
  3
txt
  4

  0
STYLE
  2
BESCHLAG
 70
     0
 40
0.0
 41
1.0
 50
0.0
 71
     0
 42
3.5
  3
txt
  4

  0
ENDTAB
  0
TABLE
  2
VIEW
 70
     0
  0
ENDTAB
  0
TABLE
  2
UCS
 70
     0
  0
ENDTAB
  0
TABLE
  2
APPID
 70
     1
  0
APPID
  2
ACAD
 70
     0
  0
ENDTAB
  0
TABLE
  2
DIMSTYLE
 70
     1
  0
DIMSTYLE
  2
OPO-SSTRICH
 70
     0
  3

  4

  5

  6
OBLIQUE
  7
OBLIQUE
 40
1.0
 41
2.0
 42
2.0
 43
0.0
 44
1.0
 45
0.0
 46
1.0
 47
0.0
 48
0.0
140
3.5
141
0.0
142
0.0
143
0.039370078740157
144
1.0
145
0.0
146
0.7114285714285716
147
1.0
 71
     0
 72
     0
 73
     0
 74
     0
 75
     0
 76
     0
 77
     1
 78
     8
170
     0
171
     2
172
     1
173
     1
174
     1
175
     0
176
   256
177
   256
178
   256
  0
ENDTAB
  0
ENDSEC
  0
SECTION
  2
BLOCKS
  0
BLOCK
  8
0
  2
$MODEL_SPACE
 70
     0
 10
0.0
 20
0.0
 30
0.0
  3
$MODEL_SPACE
  1

  0
ENDBLK
  5
1C
  8
0
  0
BLOCK
 67
     1
  8
0
  2
$PAPER_SPACE
 70
     0
 10
0.0
 20
0.0
 30
0.0
  3
$PAPER_SPACE
  1

  0
ENDBLK
  5
19
 67
     1
  8
0
  0
BLOCK
  8
0
  2
_OBLIQUE
 70
     0
 10
0.0
 20
0.0
 30
0.0
  3
_OBLIQUE
  1

  0
LINE
  5
204
  8
0
 62
     0
 10
-0.5
 20
-0.5
 30
0.0
 11
0.5
 21
0.5
 31
0.0
  0
ENDBLK
  5
206
  8
0
  0
BLOCK
  8
0
  2
NULLPUNKT
 70
     0
 10
0.0
 20
0.0
 30
0.0
  3
NULLPUNKT
  1

  0
SOLID
  5
254
  8
5
 10
0.0
 20
0.0
 30
0.0
 11
2.0
 21
0.0
 31
0.0
 12
0.0
 22
-2.0
 32
0.0
 13
0.0
 23
-2.0
 33
0.0
  0
SOLID
  5
255
  8
5
 10
0.0
 20
0.0
 30
0.0
 11
-2.0
 21
0.0
 31
0.0
 12
0.0
 22
2.0
 32
0.0
 13
0.0
 23
2.0
 33
0.0
  0
POLYLINE
  5
256
  8
5
 66
     1
 10
0.0
 20
0.0
 30
0.0
  0
VERTEX
  5
44B
  8
5
 10
0.0
 20
2.0
 30
0.0
  0
VERTEX
  5
44C
  8
5
 10
0.0
 20
-2.0
 30
0.0
  0
SEQEND
  5
44D
  8
5
  0
POLYLINE
  5
257
  8
5
 66
     1
 10
0.0
 20
0.0
 30
0.0
  0
VERTEX
  5
44E
  8
5
 10
-2.0
 20
0.0
 30
0.0
  0
VERTEX
  5
44F
  8
5
 10
2.0
 20
0.0
 30
0.0
  0
SEQEND
  5
450
  8
5
  0
CIRCLE
  5
258
  8
5
 10
0.0
 20
0.0
 30
0.0
 40
2.0
  0
ENDBLK
  5
25A
  8
0
  0
BLOCK
  8
0
  2
*X2
 70
     1
 10
0.0
 20
0.0
 30
0.0
  3
*X2
  1
REF-PKT.dwg
  0
LINE
  5
29E
  8
0
 62
     0
 10
1443.6384064034551
 20
227.38087863416391
 30
0.0
 11
1444.7023760276829
 21
228.4448482583916
 31
0.0
  0
ENDBLK
  5
2A0
  8
0
  0
BLOCK
  8
0
  2
*X3
 70
     1
 10
0.0
 20
0.0
 30
0.0
  3
*X3
  1
REF-PKT.dwg
  0
LINE
  5
2A2
  8
0
 62
     0
 10
1443.8950081212531
 20
217.7379854153501
 30
0.0
 11
1445.5004766671429
 21
219.3434539612401
 31
0.0
  0
LINE
  5
2A3
  8
0
 62
     0
 10
1446.758743637567
 20
220.60172093166381
 30
0.0
 11
1447.881299622268
 21
221.72427691636551
 31
0.0
  0
LINE
  5
2A4
  8
0
 62
     0
 10
1446.8019257310741
 20
222.05911658754459
 30
0.0
 11
1447.881299622268
 21
223.13849047873859
 31
0.0
  0
LINE
  5
2A5
  8
0
 62
     0
 10
1443.573940309388
 20
220.24534472823129
 30
0.0
 11
1444.981299622269
 21
221.6527040411122
 31
0.0
  0
LINE
  5
2A6
  8
0
 62
     0
 10
1446.8451078245821
 20
223.51651224342521
 30
0.0
 11
1447.9443090870659
 21
224.61571350590961
 31
0.0
  0
LINE
  5
2A7
  8
0
 62
     0
 10
1443.4668335282011
 20
221.55245150941781
 30
0.0
 11
1444.981299622269
 21
223.06691760348531
 31
0.0
  0
LINE
  5
2A8
  8
0
 62
     0
 10
1443.6597267470149
 20
223.15955829060439
 30
0.0
 11
1444.981299622269
 21
224.48113116585839
 31
0.0
  0
LINE
  5
2A9
  8
0
 62
     0
 10
1443.5526199658279
 20
224.46666507179091
 30
0.0
 11
1444.6059985395129
 21
225.52004364547551
 31
0.0
  0
LINE
  5
2AA
  8
0
 62
     0
 10
1445.309221683626
 20
217.7379854153501
 30
0.0
 11
1447.881299622268
 21
220.3100633539924
 31
0.0
  0
LINE
  5
2AB
  8
0
 62
     0
 10
1450.981299622269
 20
223.41006335399291
 30
0.0
 11
1452.309221683626
 21
224.7379854153501
 31
0.0
  0
LINE
  5
2AC
  8
0
 62
     0
 10
1446.7234352459991
 20
217.7379854153501
 30
0.0
 11
1448.3402500185559
 21
219.35480018790719
 31
0.0
  0
LINE
  5
2AD
  8
0
 62
     0
 10
1450.981299622269
 20
221.9958497916198
 30
0.0
 11
1452.381299622268
 21
223.39584979161941
 31
0.0
  0
LINE
  5
2AE
  8
0
 62
     0
 10
1448.137648808372
 20
217.7379854153501
 30
0.0
 11
1449.737648808373
 21
219.3379854153504
 31
0.0
  0
LINE
  5
2AF
  8
0
 62
     0
 10
1450.981299622269
 20
220.5816362292467
 30
0.0
 11
1452.381299622268
 21
221.98163622924631
 31
0.0
  0
LINE
  5
2B0
  8
0
 62
     0
 10
1449.5518623707451
 20
217.7379854153501
 30
0.0
 11
1452.381299622268
 21
220.5674226668732
 31
0.0
  0
LINE
  5
2B1
  8
0
 62
     0
 10
1451.09946407947
 20
217.87137356170169
 30
0.0
 11
1452.2479114759169
 21
219.0198209581485
 31
0.0
  0
ENDBLK
  5
2B3
  8
0
  0
BLOCK
  8
0
  2
*D4
 70
     1
 10
0.0
 20
0.0
 30
0.0
  3
*D4
  1

  0
LINE
  5
318
  8
1
 10
11.0
 20
-11.0
 30
0.0
 11
32.345793947739821
 21
-11.0
 31
0.0
  0
LINE
  5
319
  8
1
 10
2.0
 20
-0.0000000000000006
 30
0.0
 11
32.345793947739821
 21
-0.0000000000000092
 31
0.0
  0
LINE
  5
31A
  8
1
 10
31.345793947739811
 20
-12.0
 30
0.0
 11
31.345793947739821
 21
0.9999999999999911
 31
0.0
  0
INSERT
  5
31B
  8
1
  2
_OBLIQUE
 10
31.345793947739811
 20
-11.0
 30
0.0
 41
2.0
 42
2.0
 43
2.0
 50
270.0
  0
INSERT
  5
31C
  8
1
  2
_OBLIQUE
 10
31.345793947739821
 20
-0.0000000000000089
 30
0.0
 41
2.0
 42
2.0
 43
2.0
 50
90.0
  0
TEXT
  5
31D
  8
0
 10
30.338631601218669
 20
-8.0366643929058696
 30
0.0
 40
3.5
  1
11
 50
90.0
  7
BESCHLAG
  0
POINT
  5
31E
  8
DEFPOINTS
 62
     0
 10
9.0
 20
-11.0
 30
0.0
  0
POINT
  5
31F
  8
DEFPOINTS
 62
     0
 10
0.0
 20
0.0
 30
0.0
  0
POINT
  5
320
  8
DEFPOINTS
 62
     0
 10
31.345793947739821
 20
-0.0000000000000089
 30
0.0
  0
ENDBLK
  5
2F1
  8
0
  0
BLOCK
  8
0
  2
*D5
 70
     1
 10
0.0
 20
0.0
 30
0.0
  3
*D5
  1

  0
LINE
  5
321
  8
1
 10
11.0
 20
-4.0
 30
0.0
 11
21.565236374137381
 21
-4.0000000000000027
 31
0.0
  0
LINE
  5
322
  8
1
 10
2.0
 20
-0.0000000000000006
 30
0.0
 11
21.565236374137381
 21
-0.0000000000000061
 31
0.0
  0
LINE
  5
323
  8
1
 10
20.565236374137381
 20
-4.0000000000000027
 30
0.0
 11
20.565236374137381
 21
-6.0000000000000027
 31
0.0
  0
LINE
  5
324
  8
1
 10
20.565236374137381
 20
-0.0000000000000058
 30
0.0
 11
20.565236374137381
 21
1.9999999999999929
 31
0.0
  0
LINE
  5
325
  8
1
 10
20.565236374137381
 20
-4.0000000000000027
 30
0.0
 11
20.565236374137381
 21
-0.0000000000000058
 31
0.0
  0
INSERT
  5
326
  8
1
  2
_OBLIQUE
 10
20.565236374137381
 20
-4.0000000000000027
 30
0.0
 41
2.0
 42
2.0
 43
2.0
 50
90.0
  0
INSERT
  5
327
  8
1
  2
_OBLIQUE
 10
20.565236374137381
 20
-0.0000000000000058
 30
0.0
 41
2.0
 42
2.0
 43
2.0
 50
270.0
  0
TEXT
  5
328
  8
0
 10
19.565236374137381
 20
-3.2725102319236021
 30
0.0
 40
3.5
  1
4
 50
90.0
  7
BESCHLAG
  0
POINT
  5
329
  8
DEFPOINTS
 62
     0
 10
9.0
 20
-4.0
 30
0.0
  0
POINT
  5
32A
  8
DEFPOINTS
 62
     0
 10
0.0
 20
0.0
 30
0.0
  0
POINT
  5
32B
  8
DEFPOINTS
 62
     0
 10
20.565236374137381
 20
-0.0000000000000058
 30
0.0
  0
ENDBLK
  5
2FF
  8
0
  0
BLOCK
  8
0
  2
*D6
 70
     1
 10
0.0
 20
0.0
 30
0.0
  3
*D6
  1

  0
LINE
  5
32C
  8
1
 10
11.0
 20
-11.0
 30
0.0
 11
21.565236374137381
 21
-11.0
 31
0.0
  0
LINE
  5
32D
  8
1
 10
11.0
 20
-4.0
 30
0.0
 11
21.565236374137381
 21
-4.0000000000000027
 31
0.0
  0
LINE
  5
32E
  8
1
 10
20.565236374137381
 20
-12.0
 30
0.0
 11
20.565236374137381
 21
-3.0000000000000031
 31
0.0
  0
INSERT
  5
32F
  8
1
  2
_OBLIQUE
 10
20.565236374137381
 20
-11.0
 30
0.0
 41
2.0
 42
2.0
 43
2.0
 50
270.0
  0
INSERT
  5
330
  8
1
  2
_OBLIQUE
 10
20.565236374137381
 20
-4.0000000000000027
 30
0.0
 41
2.0
 42
2.0
 43
2.0
 50
90.0
  0
TEXT
  5
331
  8
0
 10
19.565236374137381
 20
-8.8644270122783073
 30
0.0
 40
3.5
  1
7
 50
90.0
  7
BESCHLAG
  0
POINT
  5
332
  8
DEFPOINTS
 62
     0
 10
9.0
 20
-11.0
 30
0.0
  0
POINT
  5
333
  8
DEFPOINTS
 62
     0
 10
9.0
 20
-4.0
 30
0.0
  0
POINT
  5
334
  8
DEFPOINTS
 62
     0
 10
20.565236374137381
 20
-4.0000000000000027
 30
0.0
  0
ENDBLK
  5
30B
  8
0
  0
BLOCK
  8
0
  2
*D7
 70
     1
 10
0.0
 20
0.0
 30
0.0
  3
*D7
  1

  0
LINE
  5
3FF
  8
1
 10
-0.0000000000000001
 20
-14.199999999999809
 30
0.0
 11
-0.0000000000000008
 21
-24.972457971134641
 31
0.0
  0
LINE
  5
400
  8
1
 10
9.0
 20
-13.0
 30
0.0
 11
9.0
 21
-24.972457971134641
 31
0.0
  0
LINE
  5
401
  8
1
 10
-1.0
 20
-23.972457971134641
 30
0.0
 11
10.0
 21
-23.972457971134641
 31
0.0
  0
INSERT
  5
402
  8
1
  2
_OBLIQUE
 10
-0.0000000000000007
 20
-23.972457971134641
 30
0.0
 41
2.0
 42
2.0
 43
2.0
 50
180.0
  0
INSERT
  5
403
  8
1
  2
_OBLIQUE
 10
9.0
 20
-23.972457971134641
 30
0.0
 41
2.0
 42
2.0
 43
2.0
  0
TEXT
  5
404
  8
0
 10
3.1463165075034101
 20
-22.90560940360395
 30
0.0
 40
3.5
  1
9
  7
BESCHLAG
  0
POINT
  5
405
  8
DEFPOINTS
 62
     0
 10
0.0
 20
-12.199999999999809
 30
0.0
  0
POINT
  5
406
  8
DEFPOINTS
 62
     0
 10
9.0
 20
-11.0
 30
0.0
  0
POINT
  5
407
  8
DEFPOINTS
 62
     0
 10
9.0
 20
-23.972457971134641
 30
0.0
  0
ENDBLK
  5
317
  8
0
  0
ENDSEC
  0
SECTION
  2
ENTITIES
  0
INSERT
  5
25B
  8
5
  2
NULLPUNKT
 10
0.0
 20
0.0
 30
0.0
  0
INSERT
  5
2D0
  8
2
  2
*X3
 10
-1443.381299622268
 20
-228.7379854153501
 30
0.0
1001
ACAD
1000
HATCH
1002
{
1070
    16
1000
_U,O
1040
1.0
1040
0.7853981633974483
1070
     0
1002
}
  0
INSERT
  5
2D1
  8
2
  2
*X2
 10
-1443.381299622268
 20
-228.7379854153501
 30
0.0
1001
ACAD
1000
HATCH
1002
{
1070
    16
1000
_U,O
1040
1.0
1040
0.7853981633974483
1070
     0
1002
}
  0
LINE
  5
2D2
  8
6
  6
STRICHPUNKT
 10
1.6000000000003629
 20
-3.1239964960875279
 30
0.0
 11
0.0196014647588072
 21
-3.5196014647586651
 31
0.0
  0
LINE
  5
2D3
  8
6
  6
STRICHPUNKT
 10
1.6000000000003629
 20
-1.062288487654143
 30
0.0
 11
0.2901658473108455
 21
-1.3901658473101
 31
0.0
  0
DIMENSION
  5
2D4
  8
1
  2
*D4
 10
31.345793947739821
 20
-0.0000000000000089
 30
0.0
 11
28.588631601218669
 21
-5.5000000000000018
 31
0.0
 70
     0
 13
9.0
 23
-11.0
 33
0.0
 14
0.0
 24
0.0
 34
0.0
 50
90.0
  0
DIMENSION
  5
2D5
  8
1
  2
*D5
 10
20.565236374137381
 20
-0.0000000000000058
 30
0.0
 11
17.815236374137381
 21
-2.0
 31
0.0
 70
     0
 13
9.0
 23
-4.0
 33
0.0
 14
0.0
 24
0.0
 34
0.0
 50
90.0
  0
DIMENSION
  5
2D6
  8
1
  2
*D6
 10
20.565236374137381
 20
-4.0000000000000027
 30
0.0
 11
17.815236374137381
 21
-7.4999999999999991
 31
0.0
 70
     0
 13
9.0
 23
-11.0
 33
0.0
 14
9.0
 24
-4.0
 34
0.0
 50
90.0
  0
DIMENSION
  5
2D7
  8
1
  2
*D7
 10
9.0
 20
-23.972457971134641
 30
0.0
 11
4.5
 21
-21.185452514108722
 31
0.0
 70
     0
 13
0.0
 23
-12.199999999999809
 33
0.0
 14
9.0
 24
-11.0
 34
0.0
  0
POLYLINE
  5
2DB
  8
6
 66
     1
 10
0.0
 20
0.0
 30
0.0
 70
     1
  0
VERTEX
  5
451
  8
6
 10
6.050000000000181
 20
0.0
 30
0.0
 42
-0.3755155665862612
  0
VERTEX
  5
452
  8
6
 10
6.6603344852069313
 20
-0.6833808256806151
 30
0.0
  0
VERTEX
  5
453
  8
6
 10
7.5750370333034871
 20
-0.5031387337069191
 30
0.0
  0
VERTEX
  5
454
  8
6
 10
8.2575412914086428
 20
-0.5991683850986647
 30
0.0
  0
VERTEX
  5
455
  8
6
 10
8.63805219228243
 20
-0.0889645131005637
 30
0.0
 42
-0.849985669627559
  0
VERTEX
  5
456
  8
6
 10
9.3444923816705341
 20
-0.6396019164742484
 30
0.0
  0
VERTEX
  5
457
  8
6
 10
9.0260053607096324
 20
-1.050148316900049
 30
0.0
 42
0.3552812814794005
  0
VERTEX
  5
458
  8
6
 10
9.0405023929299642
 20
-1.285255640309515
 30
0.0
 42
-0.3793838421575348
  0
VERTEX
  5
459
  8
6
 10
8.9400454732335675
 20
-3.2930523986124172
 30
0.0
 42
0.0092762723599261
  0
VERTEX
  5
45A
  8
6
 10
7.0694783405472199
 20
-4.5262751055636272
 30
0.0
 42
0.305541356778279
  0
VERTEX
  5
45B
  8
6
 10
6.9228663181222601
 20
-4.7436052935811404
 30
0.0
  0
VERTEX
  5
45C
  8
6
 10
6.9228663181222601
 20
-5.3248373214782978
 30
0.0
 42
0.7440894012573249
  0
VERTEX
  5
45D
  8
6
 10
7.023978026161557
 20
-5.3551624987601372
 30
0.0
  0
VERTEX
  5
45E
  8
6
 10
7.5086780713627368
 20
-5.0143235060320421
 30
0.0
 42
-0.6074999965019705
  0
VERTEX
  5
45F
  8
6
 10
7.6205372714091482
 20
-5.072411459967042
 30
0.0
  0
VERTEX
  5
460
  8
6
 10
7.6205372714091482
 20
-5.5656357604996174
 30
0.0
  0
VERTEX
  5
461
  8
6
 10
6.8874771592843436
 20
-6.2378432627417624
 30
0.0
  0
VERTEX
  5
462
  8
6
 10
6.8874771592843436
 20
-7.1815282794327677
 30
0.0
 42
0.7726510115360289
  0
VERTEX
  5
463
  8
6
 10
7.0037557150656076
 20
-7.2118533992140783
 30
0.0
  0
VERTEX
  5
464
  8
6
 10
7.504258791907886
 20
-6.8631142054759939
 30
0.0
 42
-0.6322467702262857
  0
VERTEX
  5
465
  8
6
 10
7.6104261158611726
 20
-6.9237645025393704
 30
0.0
  0
VERTEX
  5
466
  8
6
 10
7.6104261158611726
 20
-7.4071641873135832
 30
0.0
  0
VERTEX
  5
467
  8
6
 10
6.417307625365992
 20
-8.6302784826705192
 30
0.0
 42
-0.1809757128983446
  0
VERTEX
  5
468
  8
6
 10
6.3313626125084284
 20
-8.6707120140458755
 30
0.0
  0
VERTEX
  5
469
  8
6
 10
6.050000000000181
 20
-8.6707120140458755
 30
0.0
  0
VERTEX
  5
46A
  8
6
 10
5.7686373874917081
 20
-8.6707120140458755
 30
0.0
 42
-0.1809757128983446
  0
VERTEX
  5
46B
  8
6
 10
5.68269237463437
 20
-8.6302784826705192
 30
0.0
  0
VERTEX
  5
46C
  8
6
 10
4.4895738841389621
 20
-7.4071641873135832
 30
0.0
  0
VERTEX
  5
46D
  8
6
 10
4.4895738841389621
 20
-6.9237645025393704
 30
0.0
 42
-0.6322467702262857
  0
VERTEX
  5
46E
  8
6
 10
4.5957412080922486
 20
-6.8631142054759939
 30
0.0
  0
VERTEX
  5
46F
  8
6
 10
5.0962442849345271
 20
-7.2118533992140783
 30
0.0
 42
0.7726510115360289
  0
VERTEX
  5
470
  8
6
 10
5.2125228407157911
 20
-7.1815282794327677
 30
0.0
  0
VERTEX
  5
471
  8
6
 10
5.2125228407157911
 20
-6.2378432627417624
 30
0.0
  0
VERTEX
  5
472
  8
6
 10
4.4794627285909883
 20
-5.5656357604996174
 30
0.0
  0
VERTEX
  5
473
  8
6
 10
4.4794627285909883
 20
-5.072411459967042
 30
0.0
 42
-0.6074999965019705
  0
VERTEX
  5
474
  8
6
 10
4.5913219286373979
 20
-5.0143235060320421
 30
0.0
  0
VERTEX
  5
475
  8
6
 10
5.076021973838805
 20
-5.3551624987601372
 30
0.0
 42
0.7440894012573249
  0
VERTEX
  5
476
  8
6
 10
5.1771336818778764
 20
-5.3248373214782978
 30
0.0
  0
VERTEX
  5
477
  8
6
 10
5.1771336818778764
 20
-4.7436052935811404
 30
0.0
 42
0.305541356778279
  0
VERTEX
  5
478
  8
6
 10
5.0305216594529147
 20
-4.5262751055636272
 30
0.0
 42
0.0251510633838079
  0
VERTEX
  5
479
  8
6
 10
3.1599545267665681
 20
-3.2930523986124172
 30
0.0
 42
-0.3793838421575348
  0
VERTEX
  5
47A
  8
6
 10
3.05949760707017
 20
-1.285255640309515
 30
0.0
 42
0.3552812814794005
  0
VERTEX
  5
47B
  8
6
 10
3.0739946392905031
 20
-1.050148316900049
 30
0.0
  0
VERTEX
  5
47C
  8
6
 10
2.7555076183296019
 20
-0.6396019164742484
 30
0.0
 42
-0.849985669627559
  0
VERTEX
  5
47D
  8
6
 10
3.4619478077177059
 20
-0.0889645131005637
 30
0.0
  0
VERTEX
  5
47E
  8
6
 10
3.8424587085914932
 20
-0.5991683850986647
 30
0.0
  0
VERTEX
  5
47F
  8
6
 10
4.5249629666966484
 20
-0.5031387337069191
 30
0.0
  0
VERTEX
  5
480
  8
6
 10
5.4396655147932051
 20
-0.6833808256806151
 30
0.0
 42
-0.3755155665862808
  0
SEQEND
  5
481
  8
6
  0
POINT
  5
2DC
  8
5
 10
6.050000000000181
 20
-4.0
 30
0.0
  0
POLYLINE
  5
2DD
  8
6
 66
     1
 10
0.0
 20
0.0
 30
0.0
 70
     1
  0
VERTEX
  5
482
  8
6
 10
6.050000000000181
 20
-1.3608050364564399
 30
0.0
 42
0.0810140654945016
  0
VERTEX
  5
483
  8
6
 10
7.3969322393377288
 20
-1.17201601587908
 30
0.0
 42
-0.7148582707051018
  0
VERTEX
  5
484
  8
6
 10
8.3918247721787793
 20
-2.6822264046516011
 30
0.0
 42
-0.166214732608571
  0
VERTEX
  5
485
  8
6
 10
6.050000000000181
 20
-3.5920548062142639
 30
0.0
 42
-0.1662147326085706
  0
VERTEX
  5
486
  8
6
 10
3.7081752278213571
 20
-2.6822264046516011
 30
0.0
 42
-0.7148582707051018
  0
VERTEX
  5
487
  8
6
 10
4.7030677606624058
 20
-1.17201601587908
 30
0.0
 42
0.0810140654945016
  0
SEQEND
  5
488
  8
6
  0
TEXT
  5
2DF
  8
1
 10
10.972399210220599
 20
-16.44277851466904
 30
0.0
 40
2.4999999499999999
  1
Hebgo 121/526
  0
POINT
  5
2E0
  8
5
 10
6.050000000000181
 20
-4.0
 30
0.0
  0
LINE
  5
2E1
  8
6
  6
STRICHPUNKT
 10
1.970104225985096
 20
-2.0004980939795578
 30
0.0
 11
-11.13946167585595
 21
-5.2820813732864726
 31
0.0
  0
POLYLINE
  5
2E2
  8
5
 66
     1
 10
0.0
 20
0.0
 30
0.0
  0
VERTEX
  5
489
  8
5
 10
-11.180073512979099
 20
-0.1999999999998181
 30
0.0
  0
VERTEX
  5
48A
  8
5
 10
0.0
 20
-0.1999999999998181
 30
0.0
  0
VERTEX
  5
48B
  8
5
 10
0.0
 20
-12.199999999999809
 30
0.0
  0
VERTEX
  5
48C
  8
5
 10
-1.1858781571634149
 20
-12.199999999999809
 30
0.0
  0
SEQEND
  5
48D
  8
5
  0
LINE
  5
2E3
  8
5
 10
10.46368644475046
 20
0.0
 30
0.0
 11
-6.610132623859271
 21
0.0
 31
0.0
  0
POLYLINE
  5
2E4
  8
4
 66
     1
 10
0.0
 20
0.0
 30
0.0
 70
     1
  0
VERTEX
  5
48E
  8
4
 10
1.6000000000003629
 20
-0.1999999999998181
 30
0.0
  0
VERTEX
  5
48F
  8
4
 10
0.0
 20
-0.1999999999998181
 30
0.0
  0
VERTEX
  5
490
  8
4
 10
0.0
 20
-11.0
 30
0.0
  0
VERTEX
  5
491
  8
4
 10
9.0
 20
-11.0
 30
0.0
  0
VERTEX
  5
492
  8
4
 10
9.0
 20
-4.0
 30
0.0
  0
VERTEX
  5
493
  8
4
 10
1.6000000000003629
 20
-4.0
 30
0.0
  0
SEQEND
  5
494
  8
4
  0
POLYLINE
  5
2E5
  8
6
 66
     1
 10
0.0
 20
0.0
 30
0.0
 70
     1
  0
VERTEX
  5
495
  8
6
 10
1.0
 20
-0.1999999999998181
 30
0.0
  0
VERTEX
  5
496
  8
6
 10
0.3000000000001819
 20
-0.1999999999998181
 30
0.0
  0
VERTEX
  5
497
  8
6
 10
0.0
 20
-0.5
 30
0.0
  0
VERTEX
  5
498
  8
6
 10
0.3000000000001819
 20
-0.7999999999992724
 30
0.0
  0
VERTEX
  5
499
  8
6
 10
0.0
 20
-1.0999999999994541
 30
0.0
  0
VERTEX
  5
49A
  8
6
 10
0.3000000000001819
 20
-1.399999999999636
 30
0.0
  0
VERTEX
  5
49B
  8
6
 10
0.0
 20
-1.6999999999998181
 30
0.0
  0
VERTEX
  5
49C
  8
6
 10
0.3000000000001819
 20
-2.0
 30
0.0
  0
VERTEX
  5
49D
  8
6
 10
0.0
 20
-2.299999999999272
 30
0.0
  0
VERTEX
  5
49E
  8
6
 10
0.3000000000001819
 20
-2.5999999999994539
 30
0.0
  0
VERTEX
  5
49F
  8
6
 10
0.0
 20
-2.8999999999996362
 30
0.0
  0
VERTEX
  5
4A0
  8
6
 10
0.3000000000001819
 20
-3.1999999999998181
 30
0.0
  0
VERTEX
  5
4A1
  8
6
 10
0.0
 20
-3.5
 30
0.0
  0
VERTEX
  5
4A2
  8
6
 10
0.3000000000001819
 20
-3.799999999999272
 30
0.0
  0
VERTEX
  5
4A3
  8
6
 10
0.0
 20
-4.0999999999994543
 30
0.0
  0
VERTEX
  5
4A4
  8
6
 10
0.3000000000001819
 20
-4.3999999999996362
 30
0.0
  0
VERTEX
  5
4A5
  8
6
 10
0.0
 20
-4.6999999999998181
 30
0.0
  0
VERTEX
  5
4A6
  8
6
 10
0.3000000000001819
 20
-5.0
 30
0.0
  0
VERTEX
  5
4A7
  8
6
 10
0.0
 20
-5.2999999999992724
 30
0.0
  0
VERTEX
  5
4A8
  8
6
 10
0.3000000000001819
 20
-5.5999999999994543
 30
0.0
  0
VERTEX
  5
4A9
  8
6
 10
0.0
 20
-5.8999999999996362
 30
0.0
  0
VERTEX
  5
4AA
  8
6
 10
0.3000000000001819
 20
-6.1999999999998181
 30
0.0
  0
VERTEX
  5
4AB
  8
6
 10
0.0
 20
-6.5
 30
0.0
  0
VERTEX
  5
4AC
  8
6
 10
0.3000000000001819
 20
-6.7999999999992724
 30
0.0
  0
VERTEX
  5
4AD
  8
6
 10
0.0
 20
-7.0999999999994543
 30
0.0
  0
VERTEX
  5
4AE
  8
6
 10
0.3000000000001819
 20
-7.3999999999996362
 30
0.0
  0
VERTEX
  5
4AF
  8
6
 10
0.0
 20
-7.6999999999998181
 30
0.0
  0
VERTEX
  5
4B0
  8
6
 10
0.3000000000001819
 20
-8.0
 30
0.0
  0
VERTEX
  5
4B1
  8
6
 10
0.0
 20
-8.2999999999992724
 30
0.0
  0
VERTEX
  5
4B2
  8
6
 10
0.3000000000001819
 20
-8.5999999999994543
 30
0.0
  0
VERTEX
  5
4B3
  8
6
 10
0.0
 20
-8.8999999999996362
 30
0.0
  0
VERTEX
  5
4B4
  8
6
 10
0.3000000000001819
 20
-9.1999999999998181
 30
0.0
  0
VERTEX
  5
4B5
  8
6
 10
0.0
 20
-9.5
 30
0.0
  0
VERTEX
  5
4B6
  8
6
 10
0.3000000000001819
 20
-9.7999999999992724
 30
0.0
  0
VERTEX
  5
4B7
  8
6
 10
0.0
 20
-10.099999999999451
 30
0.0
  0
VERTEX
  5
4B8
  8
6
 10
0.3000000000001819
 20
-10.399999999999631
 30
0.0
  0
VERTEX
  5
4B9
  8
6
 10
0.0
 20
-10.699999999999809
 30
0.0
  0
VERTEX
  5
4BA
  8
6
 10
0.3000000000001819
 20
-11.0
 30
0.0
  0
VERTEX
  5
4BB
  8
6
 10
7.0
 20
-11.0
 30
0.0
 42
0.4142135623730951
  0
VERTEX
  5
4BC
  8
6
 10
9.0
 20
-9.0
 30
0.0
  0
VERTEX
  5
4BD
  8
6
 10
9.0
 20
-4.0
 30
0.0
  0
VERTEX
  5
4BE
  8
6
 10
7.9000000000005448
 20
-4.0
 30
0.0
 42
0.4142135623730951
  0
VERTEX
  5
4BF
  8
6
 10
7.300000000000181
 20
-4.5999999999994543
 30
0.0
  0
VERTEX
  5
4C0
  8
6
 10
7.300000000000181
 20
-5.0
 30
0.0
  0
VERTEX
  5
4C1
  8
6
 10
7.6000000000003629
 20
-5.0
 30
0.0
  0
VERTEX
  5
4C2
  8
6
 10
7.6000000000003629
 20
-8.7999999999992724
 30
0.0
 42
-0.4142135623730951
  0
VERTEX
  5
4C3
  8
6
 10
7.0
 20
-9.3999999999996362
 30
0.0
  0
VERTEX
  5
4C4
  8
6
 10
5.1000000000003629
 20
-9.3999999999996362
 30
0.0
 42
-0.4142135623730951
  0
VERTEX
  5
4C5
  8
6
 10
4.5
 20
-8.7999999999992724
 30
0.0
  0
VERTEX
  5
4C6
  8
6
 10
4.5
 20
-5.0
 30
0.0
  0
VERTEX
  5
4C7
  8
6
 10
4.800000000000181
 20
-5.0
 30
0.0
  0
VERTEX
  5
4C8
  8
6
 10
4.800000000000181
 20
-4.5999999999994543
 30
0.0
 42
0.4142135623730951
  0
VERTEX
  5
4C9
  8
6
 10
4.2000000000007267
 20
-4.0
 30
0.0
  0
VERTEX
  5
4CA
  8
6
 10
3.5
 20
-4.0
 30
0.0
  0
VERTEX
  5
4CB
  8
6
 10
3.3572512598748281
 20
-8.8177699792231579
 30
0.0
 42
-0.4055641557130541
  0
VERTEX
  5
4CC
  8
6
 10
2.757514461071878
 20
-9.3999999999996362
 30
0.0
  0
VERTEX
  5
4CD
  8
6
 10
2.1999999999998181
 20
-9.3999999999996362
 30
0.0
 42
-0.4142135623730951
  0
VERTEX
  5
4CE
  8
6
 10
1.6000000000003629
 20
-8.7999999999992724
 30
0.0
  0
VERTEX
  5
4CF
  8
6
 10
1.6000000000003629
 20
-0.7999999999992724
 30
0.0
 42
0.4142135623730951
  0
SEQEND
  5
4D0
  8
6
  0
VIEWPORT
  5
22
 67
     1
  8
0
 10
210.0
 20
170.2366863905325
 30
0.0
 40
420.0
 41
340.47337278106511
 68
     1
 69
     1
1001
ACAD
1000
MVIEW
1002
{
1070
    16
1010
0.0
1020
0.0
1030
0.0
1010
0.0
1020
0.0
1030
1.0
1040
0.0
1040
340.47337278106511
1040
210.0
1040
170.2366863905325
1040
50.0
1040
0.0
1040
0.0
1070
     0
1070
   100
1070
     1
1070
     1
1070
     0
1070
     0
1070
     0
1070
     0
1040
0.0
1040
0.0
1040
0.0
1040
5.0
1040
5.0
1040
10.0
1040
10.0
1070
     0
1002
{
1002
}
1002
}
  0
ENDSEC
  0
EOF
