  0
SECTION
  2
HEADER
  9
$ACADVER
  1
AC1009
  9
$INSBASE
 10
0.0
 20
0.0
 30
0.0
  9
$EXTMIN
 10
-20.78464090189177
 20
-36.967776959507937
 30
0.0
  9
$EXTMAX
 10
31.324793018333661
 20
2.0
 30
0.0
  9
$LIMMIN
 10
-150.0
 20
-150.0
  9
$LIMMAX
 10
150.0
 20
150.0
  9
$ORTHOMODE
 70
     0
  9
$REGENMODE
 70
     1
  9
$FILLMODE
 70
     1
  9
$QTEXTMODE
 70
     0
  9
$MIRRTEXT
 70
     0
  9
$DRAGMODE
 70
     2
  9
$LTSCALE
 40
3.0
  9
$OSMODE
 70
   111
  9
$ATTMODE
 70
     1
  9
$TEXTSIZE
 40
3.5
  9
$TRACEWID
 40
1.0
  9
$TEXTSTYLE
  7
BESCHLAG
  9
$CLAYER
  8
0
  9
$CELTYPE
  6
BYLAYER
  9
$CECOLOR
 62
   256
  9
$DIMSCALE
 40
1.0
  9
$DIMASZ
 40
2.0
  9
$DIMEXO
 40
2.0
  9
$DIMDLI
 40
0.0
  9
$DIMRND
 40
0.0
  9
$DIMDLE
 40
1.0
  9
$DIMEXE
 40
1.0
  9
$DIMTP
 40
0.0
  9
$DIMTM
 40
0.0
  9
$DIMTXT
 40
3.5
  9
$DIMCEN
 40
0.0
  9
$DIMTSZ
 40
0.0
  9
$DIMTOL
 70
     0
  9
$DIMLIM
 70
     0
  9
$DIMTIH
 70
     0
  9
$DIMTOH
 70
     0
  9
$DIMSE1
 70
     0
  9
$DIMSE2
 70
     0
  9
$DIMTAD
 70
     1
  9
$DIMZIN
 70
     8
  9
$DIMBLK
  1

  9
$DIMASO
 70
     1
  9
$DIMSHO
 70
     1
  9
$DIMPOST
  1

  9
$DIMAPOST
  1

  9
$DIMALT
 70
     0
  9
$DIMALTD
 70
     2
  9
$DIMALTF
 40
0.039370078740157
  9
$DIMLFAC
 40
1.0
  9
$DIMTOFL
 70
     1
  9
$DIMTVP
 40
0.0
  9
$DIMTIX
 70
     1
  9
$DIMSOXD
 70
     0
  9
$DIMSAH
 70
     1
  9
$DIMBLK1
  1
OBLIQUE
  9
$DIMBLK2
  1
OBLIQUE
  9
$DIMSTYLE
  2
OPO-SSTRICH
  9
$DIMCLRD
 70
   256
  9
$DIMCLRE
 70
   256
  9
$DIMCLRT
 70
   256
  9
$DIMTFAC
 40
0.7114285714285716
  9
$DIMGAP
 40
1.0
  9
$LUNITS
 70
     2
  9
$LUPREC
 70
     1
  9
$SKETCHINC
 40
1.0
  9
$FILLETRAD
 40
0.0
  9
$AUNITS
 70
     0
  9
$AUPREC
 70
     1
  9
$MENU
  1
D:\ACL_CGWG\CGTAB13
  9
$ELEVATION
 40
0.0
  9
$PELEVATION
 40
0.0
  9
$THICKNESS
 40
0.0
  9
$LIMCHECK
 70
     0
  9
$BLIPMODE
 70
     0
  9
$CHAMFERA
 40
1.0
  9
$CHAMFERB
 40
1.0
  9
$SKPOLY
 70
     0
  9
$TDCREATE
 40
2451739.9015241549
  9
$TDUPDATE
 40
2452087.6406494789
  9
$TDINDWG
 40
0.0103742708
  9
$TDUSRTIMER
 40
0.0103740856
  9
$USRTIMER
 70
     1
  9
$ANGBASE
 50
0.0
  9
$ANGDIR
 70
     0
  9
$PDMODE
 70
    35
  9
$PDSIZE
 40
5.0
  9
$PLINEWID
 40
0.0
  9
$COORDS
 70
     1
  9
$SPLFRAME
 70
     0
  9
$SPLINETYPE
 70
     6
  9
$SPLINESEGS
 70
     8
  9
$ATTDIA
 70
     1
  9
$ATTREQ
 70
     1
  9
$HANDLING
 70
-16383
  9
$HANDSEED
  5
555
  9
$SURFTAB1
 70
    12
  9
$SURFTAB2
 70
    12
  9
$SURFTYPE
 70
     6
  9
$SURFU
 70
    12
  9
$SURFV
 70
    12
  9
$UCSNAME
  2

  9
$UCSORG
 10
0.0
 20
0.0
 30
0.0
  9
$UCSXDIR
 10
1.0
 20
0.0
 30
0.0
  9
$UCSYDIR
 10
0.0
 20
1.0
 30
0.0
  9
$PUCSNAME
  2

  9
$PUCSORG
 10
0.0
 20
0.0
 30
0.0
  9
$PUCSXDIR
 10
1.0
 20
0.0
 30
0.0
  9
$PUCSYDIR
 10
0.0
 20
1.0
 30
0.0
  9
$USERI1
 70
     0
  9
$USERI2
 70
     0
  9
$USERI3
 70
     0
  9
$USERI4
 70
     0
  9
$USERI5
 70
     0
  9
$USERR1
 40
0.0
  9
$USERR2
 40
0.0
  9
$USERR3
 40
0.0
  9
$USERR4
 40
0.0
  9
$USERR5
 40
0.0
  9
$WORLDVIEW
 70
     1
  9
$SHADEDGE
 70
     3
  9
$SHADEDIF
 70
    70
  9
$TILEMODE
 70
     1
  9
$MAXACTVP
 70
    48
  9
$PLIMCHECK
 70
     0
  9
$PEXTMIN
 10
1.0000000000000000E+020
 20
1.0000000000000000E+020
 30
1.0000000000000000E+020
  9
$PEXTMAX
 10
-1.0000000000000000E+020
 20
-1.0000000000000000E+020
 30
-1.0000000000000000E+020
  9
$PLIMMIN
 10
0.0
 20
0.0
  9
$PLIMMAX
 10
420.0
 20
297.0
  9
$UNITMODE
 70
     0
  9
$VISRETAIN
 70
     1
  9
$PLINEGEN
 70
     0
  9
$PSLTSCALE
 70
     1
  0
ENDSEC
  0
SECTION
  2
TABLES
  0
TABLE
  2
VPORT
 70
     2
  0
VPORT
  2
*ACTIVE
 70
     0
 10
0.0
 20
0.0
 11
1.0
 21
1.0
 12
5.2642829311829473
 22
-17.486571587490111
 13
0.0
 23
0.0
 14
0.5
 24
0.5
 15
10.0
 25
10.0
 16
0.0
 26
0.0
 36
1.0
 17
0.0
 27
0.0
 37
0.0
 40
39.320316414347033
 41
1.6070460704607039
 42
50.0
 43
0.0
 44
0.0
 50
0.0
 51
0.0
 71
     0
 72
   800
 73
     1
 74
     1
 75
     0
 76
     0
 77
     0
 78
     0
  0
ENDTAB
  0
TABLE
  2
LTYPE
 70
     2
  0
LTYPE
  2
CONTINUOUS
 70
     0
  3
_______________________________________________
 72
    65
 73
     2
 40
1.0
 49
1.0
 49
0.0
  0
LTYPE
  2
STRICHPUNKT
 70
     0
  3
__ . __ . __ . __ . __ . __ . __ . __ . __ . __
 72
    65
 73
     4
 40
1.0
 49
0.5
 49
-0.25
 49
0.0
 49
-0.25
  0
ENDTAB
  0
TABLE
  2
LAYER
 70
     7
  0
LAYER
  2
0
 70
     0
 62
    30
  6
CONTINUOUS
  0
LAYER
  2
1
 70
     0
 62
     2
  6
CONTINUOUS
  0
LAYER
  2
2
 70
     0
 62
     9
  6
CONTINUOUS
  0
LAYER
  2
4
 70
     1
 62
     4
  6
CONTINUOUS
  0
LAYER
  2
5
 70
     0
 62
     1
  6
CONTINUOUS
  0
LAYER
  2
6
 70
     0
 62
     3
  6
CONTINUOUS
  0
LAYER
  2
DEFPOINTS
 70
     0
 62
     7
  6
CONTINUOUS
  0
ENDTAB
  0
TABLE
  2
STYLE
 70
     2
  0
STYLE
  2
STANDARD
 70
     0
 40
0.0
 41
1.0
 50
0.0
 71
     0
 42
2.5
  3
txt
  4

  0
STYLE
  2
BESCHLAG
 70
     0
 40
0.0
 41
1.0
 50
0.0
 71
     0
 42
3.5
  3
txt
  4

  0
ENDTAB
  0
TABLE
  2
VIEW
 70
     0
  0
ENDTAB
  0
TABLE
  2
UCS
 70
     0
  0
ENDTAB
  0
TABLE
  2
APPID
 70
     1
  0
APPID
  2
ACAD
 70
     0
  0
ENDTAB
  0
TABLE
  2
DIMSTYLE
 70
     1
  0
DIMSTYLE
  2
OPO-SSTRICH
 70
     0
  3

  4

  5

  6
OBLIQUE
  7
OBLIQUE
 40
1.0
 41
2.0
 42
2.0
 43
0.0
 44
1.0
 45
0.0
 46
1.0
 47
0.0
 48
0.0
140
3.5
141
0.0
142
0.0
143
0.039370078740157
144
1.0
145
0.0
146
0.7114285714285716
147
1.0
 71
     0
 72
     0
 73
     0
 74
     0
 75
     0
 76
     0
 77
     1
 78
     8
170
     0
171
     2
172
     1
173
     1
174
     1
175
     0
176
   256
177
   256
178
   256
  0
ENDTAB
  0
ENDSEC
  0
SECTION
  2
BLOCKS
  0
BLOCK
  8
0
  2
$MODEL_SPACE
 70
     0
 10
0.0
 20
0.0
 30
0.0
  3
$MODEL_SPACE
  1

  0
ENDBLK
  5
1C
  8
0
  0
BLOCK
 67
     1
  8
0
  2
$PAPER_SPACE
 70
     0
 10
0.0
 20
0.0
 30
0.0
  3
$PAPER_SPACE
  1

  0
ENDBLK
  5
19
 67
     1
  8
0
  0
BLOCK
  8
0
  2
_OBLIQUE
 70
     0
 10
0.0
 20
0.0
 30
0.0
  3
_OBLIQUE
  1

  0
LINE
  5
204
  8
0
 62
     0
 10
-0.5
 20
-0.5
 30
0.0
 11
0.5
 21
0.5
 31
0.0
  0
ENDBLK
  5
206
  8
0
  0
BLOCK
  8
0
  2
NULLPUNKT
 70
     0
 10
0.0
 20
0.0
 30
0.0
  3
NULLPUNKT
  1

  0
SOLID
  5
254
  8
5
 10
0.0
 20
0.0
 30
0.0
 11
2.0
 21
0.0
 31
0.0
 12
0.0
 22
-2.0
 32
0.0
 13
0.0
 23
-2.0
 33
0.0
  0
SOLID
  5
255
  8
5
 10
0.0
 20
0.0
 30
0.0
 11
-2.0
 21
0.0
 31
0.0
 12
0.0
 22
2.0
 32
0.0
 13
0.0
 23
2.0
 33
0.0
  0
POLYLINE
  5
256
  8
5
 66
     1
 10
0.0
 20
0.0
 30
0.0
  0
VERTEX
  5
4AE
  8
5
 10
0.0
 20
2.0
 30
0.0
  0
VERTEX
  5
4AF
  8
5
 10
0.0
 20
-2.0
 30
0.0
  0
SEQEND
  5
4B0
  8
5
  0
POLYLINE
  5
257
  8
5
 66
     1
 10
0.0
 20
0.0
 30
0.0
  0
VERTEX
  5
4B1
  8
5
 10
-2.0
 20
0.0
 30
0.0
  0
VERTEX
  5
4B2
  8
5
 10
2.0
 20
0.0
 30
0.0
  0
SEQEND
  5
4B3
  8
5
  0
CIRCLE
  5
258
  8
5
 10
0.0
 20
0.0
 30
0.0
 40
2.0
  0
ENDBLK
  5
25A
  8
0
  0
BLOCK
  8
0
  2
*X2
 70
     1
 10
0.0
 20
0.0
 30
0.0
  3
*X2
  1

  0
LINE
  5
26C
  8
0
 62
     0
 10
1276.57087570523
 20
109.8446867474274
 30
0.0
 11
1278.8521611081051
 21
112.1259721503023
 31
0.0
  0
LINE
  5
26D
  8
0
 62
     0
 10
1275.157246438634
 20
109.84527104320379
 30
0.0
 11
1276.957246438634
 21
111.64527104320381
 31
0.0
  0
LINE
  5
26E
  8
0
 62
     0
 10
1277.3021611081051
 20
111.9901857126753
 30
0.0
 11
1278.8521611081051
 21
113.5401857126754
 31
0.0
  0
LINE
  5
26F
  8
0
 62
     0
 10
1273.2015203517319
 20
109.30375851867549
 30
0.0
 11
1275.54303287626
 21
111.64527104320381
 31
0.0
  0
LINE
  5
270
  8
0
 62
     0
 10
1277.3021611081051
 20
113.40439927504841
 30
0.0
 11
1278.8521611081051
 21
114.9543992750485
 31
0.0
  0
LINE
  5
271
  8
0
 62
     0
 10
1272.590543071922
 20
110.1069948012388
 30
0.0
 11
1274.1361678353001
 21
111.6526195646161
 31
0.0
  0
LINE
  5
272
  8
0
 62
     0
 10
1277.3021611081051
 20
114.8186128374215
 30
0.0
 11
1278.8521611081051
 21
116.36861283742159
 31
0.0
  0
LINE
  5
273
  8
0
 62
     0
 10
1272.399517692282
 20
111.33018298397199
 30
0.0
 11
1272.4233552967121
 21
111.3540205884016
 31
0.0
  0
LINE
  5
274
  8
0
 62
     0
 10
1277.3021611081051
 20
116.2328263997946
 30
0.0
 11
1278.6960613961451
 21
117.6267266878348
 31
0.0
  0
LINE
  5
275
  8
0
 62
     0
 10
1272.7288513130979
 20
111.6595166047872
 30
0.0
 11
1273.902161108105
 21
112.8328263997944
 31
0.0
  0
LINE
  5
276
  8
0
 62
     0
 10
1272.649092720726
 20
112.9939715747888
 30
0.0
 11
1273.902161108105
 21
114.24703996216751
 31
0.0
  0
LINE
  5
277
  8
0
 62
     0
 10
1276.8533287750649
 20
117.19820762912779
 30
0.0
 11
1277.599224522181
 21
117.9441033762439
 31
0.0
  0
LINE
  5
278
  8
0
 62
     0
 10
1272.569334128355
 20
114.3284265447904
 30
0.0
 11
1273.902161108105
 21
115.6612535245406
 31
0.0
  0
LINE
  5
279
  8
0
 62
     0
 10
1272.489575535983
 20
115.66288151479201
 30
0.0
 11
1274.289741711963
 21
117.4630476907714
 31
0.0
  0
LINE
  5
27A
  8
0
 62
     0
 10
1272.409816943612
 20
116.99733648479349
 30
0.0
 11
1273.357751502022
 21
117.945271043204
 31
0.0
  0
LINE
  5
27B
  8
0
 62
     0
 10
1276.8521611081051
 20
108.7117585879293
 30
0.0
 11
1278.8521611081051
 21
110.7117585879292
 31
0.0
  0
LINE
  5
27C
  8
0
 62
     0
 10
1276.8521611081051
 20
107.2975450255562
 30
0.0
 11
1278.8521611081051
 21
109.2975450255561
 31
0.0
  0
LINE
  5
27D
  8
0
 62
     0
 10
1272.3743695330511
 20
101.4055398881288
 30
0.0
 11
1272.6543021107641
 21
101.6854724658415
 31
0.0
  0
LINE
  5
27E
  8
0
 62
     0
 10
1277.1449977999371
 20
106.17616815501459
 30
0.0
 11
1278.8521611081051
 21
107.883331463183
 31
0.0
  0
LINE
  5
27F
  8
0
 62
     0
 10
1273.134190848283
 20
100.7511476409877
 30
0.0
 11
1274.3103035333049
 21
101.92726032601
 31
0.0
  0
LINE
  5
280
  8
0
 62
     0
 10
1276.8521611081051
 20
104.46911790081001
 30
0.0
 11
1278.8521611081051
 21
106.46911790080991
 31
0.0
  0
LINE
  5
281
  8
0
 62
     0
 10
1272.388526668112
 20
98.591269898443826
 30
0.0
 11
1273.6727729081181
 21
99.875516138449257
 31
0.0
  0
LINE
  5
282
  8
0
 62
     0
 10
1276.8521611081051
 20
103.0549043384369
 30
0.0
 11
1278.8521611081051
 21
105.0549043384368
 31
0.0
  0
LINE
  5
283
  8
0
 62
     0
 10
1274.030766320451
 20
100.2335095507827
 30
0.0
 11
1275.3520111801311
 21
101.55475441046281
 31
0.0
  0
LINE
  5
284
  8
0
 62
     0
 10
1273.1567413752459
 20
97.945271043204016
 30
0.0
 11
1275.480396009262
 21
100.26892567722059
 31
0.0
  0
LINE
  5
285
  8
0
 62
     0
 10
1276.8521611081051
 20
101.64069077606381
 30
0.0
 11
1278.8521611081051
 21
103.64069077606381
 31
0.0
  0
LINE
  5
286
  8
0
 62
     0
 10
1274.570954937619
 20
97.945271043204016
 30
0.0
 11
1278.8521611081051
 21
102.2264772136906
 31
0.0
  0
LINE
  5
287
  8
0
 62
     0
 10
1276.229943314916
 20
98.190045858128045
 30
0.0
 11
1278.607386293181
 21
100.56748883639349
 31
0.0
  0
ENDBLK
  5
289
  8
0
  0
BLOCK
  8
0
  2
*D3
 70
     1
 10
0.0
 20
0.0
 30
0.0
  3
*D3
  1

  0
LINE
  5
341
  8
1
 10
8.4999999999999982
 20
-4.0000000000002274
 30
0.0
 11
19.247574335457561
 21
-4.00000000000023
 31
0.0
  0
LINE
  5
342
  8
1
 10
2.0
 20
-24.000000000000171
 30
0.0
 11
19.24757433545755
 21
-24.000000000000171
 31
0.0
  0
LINE
  5
343
  8
1
 10
18.247574335457561
 20
-3.00000000000023
 30
0.0
 11
18.24757433545755
 21
-25.000000000000171
 31
0.0
  0
INSERT
  5
344
  8
1
  2
_OBLIQUE
 10
18.247574335457561
 20
-4.00000000000023
 30
0.0
 41
2.0
 42
2.0
 43
2.0
 50
90.0
  0
INSERT
  5
345
  8
1
  2
_OBLIQUE
 10
18.24757433545755
 20
-24.000000000000171
 30
0.0
 41
2.0
 42
2.0
 43
2.0
 50
270.0
  0
TEXT
  5
346
  8
0
 10
17.180725767926859
 20
-16.673942701228029
 30
0.0
 40
3.5
  1
20
 50
90.0
  7
BESCHLAG
  0
POINT
  5
347
  8
DEFPOINTS
 62
     0
 10
6.5
 20
-4.0000000000002274
 30
0.0
  0
POINT
  5
348
  8
DEFPOINTS
 62
     0
 10
0.0
 20
-24.000000000000171
 30
0.0
  0
POINT
  5
349
  8
DEFPOINTS
 62
     0
 10
18.24757433545755
 20
-24.000000000000171
 30
0.0
  0
ENDBLK
  5
317
  8
0
  0
BLOCK
  8
0
  2
*D4
 70
     1
 10
0.0
 20
0.0
 30
0.0
  3
*D4
  1

  0
LINE
  5
34A
  8
1
 10
-0.0000000000000001
 20
-26.000000000000171
 30
0.0
 11
-0.0000000000000008
 21
-36.967776959507937
 31
0.0
  0
LINE
  5
34B
  8
1
 10
6.5
 20
-22.000000000000171
 30
0.0
 11
6.4999999999999991
 21
-36.967776959507937
 31
0.0
  0
LINE
  5
34C
  8
1
 10
-0.0000000000000007
 20
-35.967776959507937
 30
0.0
 11
-2.0
 21
-35.967776959507937
 31
0.0
  0
LINE
  5
34D
  8
1
 10
6.4999999999999991
 20
-35.967776959507937
 30
0.0
 11
8.5
 21
-35.967776959507937
 31
0.0
  0
LINE
  5
34E
  8
1
 10
-0.0000000000000007
 20
-35.967776959507937
 30
0.0
 11
6.4999999999999991
 21
-35.967776959507937
 31
0.0
  0
INSERT
  5
34F
  8
1
  2
_OBLIQUE
 10
-0.0000000000000007
 20
-35.967776959507937
 30
0.0
 41
2.0
 42
2.0
 43
2.0
  0
INSERT
  5
350
  8
1
  2
_OBLIQUE
 10
6.4999999999999991
 20
-35.967776959507937
 30
0.0
 41
2.0
 42
2.0
 43
2.0
 50
180.0
  0
TEXT
  5
351
  8
0
 10
-0.1425648021828113
 20
-34.900928391977239
 30
0.0
 40
3.5
  1
6.5
  7
BESCHLAG
  0
POINT
  5
352
  8
DEFPOINTS
 62
     0
 10
0.0
 20
-24.000000000000171
 30
0.0
  0
POINT
  5
353
  8
DEFPOINTS
 62
     0
 10
6.5
 20
-20.000000000000171
 30
0.0
  0
POINT
  5
354
  8
DEFPOINTS
 62
     0
 10
6.4999999999999991
 20
-35.967776959507937
 30
0.0
  0
ENDBLK
  5
325
  8
0
  0
BLOCK
  8
0
  2
*D5
 70
     1
 10
0.0
 20
0.0
 30
0.0
  3
*D5
  1

  0
LINE
  5
355
  8
1
 10
7.9999999999997717
 20
-4.0
 30
0.0
 11
19.24757433545755
 21
-4.0000000000000027
 31
0.0
  0
LINE
  5
356
  8
1
 10
2.0
 20
-0.0000000000000006
 30
0.0
 11
19.24757433545755
 21
-0.0000000000000055
 31
0.0
  0
LINE
  5
357
  8
1
 10
18.24757433545755
 20
-4.0000000000000027
 30
0.0
 11
18.24757433545755
 21
-6.0000000000000044
 31
0.0
  0
LINE
  5
358
  8
1
 10
18.24757433545755
 20
-0.0000000000000052
 30
0.0
 11
18.24757433545755
 21
1.999999999999994
 31
0.0
  0
LINE
  5
359
  8
1
 10
18.24757433545755
 20
-4.0000000000000027
 30
0.0
 11
18.24757433545755
 21
-0.0000000000000052
 31
0.0
  0
INSERT
  5
35A
  8
1
  2
_OBLIQUE
 10
18.24757433545755
 20
-4.0000000000000027
 30
0.0
 41
2.0
 42
2.0
 43
2.0
 50
90.0
  0
INSERT
  5
35B
  8
1
  2
_OBLIQUE
 10
18.24757433545755
 20
-0.0000000000000052
 30
0.0
 41
2.0
 42
2.0
 43
2.0
 50
270.0
  0
TEXT
  5
35C
  8
0
 10
17.24757433545755
 20
-3.272510231923603
 30
0.0
 40
3.5
  1
4
 50
90.0
  7
BESCHLAG
  0
POINT
  5
35D
  8
DEFPOINTS
 62
     0
 10
5.9999999999997717
 20
-4.0
 30
0.0
  0
POINT
  5
35E
  8
DEFPOINTS
 62
     0
 10
0.0
 20
0.0
 30
0.0
  0
POINT
  5
35F
  8
DEFPOINTS
 62
     0
 10
18.24757433545755
 20
-0.0000000000000052
 30
0.0
  0
ENDBLK
  5
333
  8
0
  0
BLOCK
  8
0
  2
*D6
 70
     1
 10
0.0
 20
0.0
 30
0.0
  3
*D6
  1

  0
LINE
  5
36A
  8
1
 10
-2.0
 20
0.0000000000000006
 30
0.0
 11
-16.291462184292861
 21
0.0000000000000046
 31
0.0
  0
LINE
  5
36B
  8
1
 10
-12.328789664488109
 20
-16.0
 30
0.0
 11
-16.291462184292861
 21
-16.0
 31
0.0
  0
LINE
  5
36C
  8
1
 10
-15.291462184292859
 20
1.000000000000004
 30
0.0
 11
-15.291462184292859
 21
-17.0
 31
0.0
  0
INSERT
  5
36D
  8
1
  2
_OBLIQUE
 10
-15.291462184292859
 20
0.0000000000000043
 30
0.0
 41
2.0
 42
2.0
 43
2.0
 50
90.0
  0
INSERT
  5
36E
  8
1
  2
_OBLIQUE
 10
-15.291462184292859
 20
-16.0
 30
0.0
 41
2.0
 42
2.0
 43
2.0
 50
270.0
  0
TEXT
  5
36F
  8
0
 10
-16.358310751823549
 20
-10.87329467939972
 30
0.0
 40
3.5
  1
16
 50
90.0
  7
BESCHLAG
  0
POINT
  5
370
  8
DEFPOINTS
 62
     0
 10
0.0
 20
0.0
 30
0.0
  0
POINT
  5
371
  8
DEFPOINTS
 62
     0
 10
-10.328789664488109
 20
-16.0
 30
0.0
  0
POINT
  5
372
  8
DEFPOINTS
 62
     0
 10
-15.291462184292859
 20
-16.0
 30
0.0
  0
ENDBLK
  5
340
  8
0
  0
ENDSEC
  0
SECTION
  2
ENTITIES
  0
INSERT
  5
25B
  8
5
  2
NULLPUNKT
 10
0.0
 20
0.0
 30
0.0
  0
DIMENSION
  5
2E9
  8
1
  2
*D3
 10
18.24757433545755
 20
-24.000000000000171
 30
0.0
 11
15.460568878431641
 21
-14.000000000000201
 31
0.0
 70
     0
 13
6.5
 23
-4.0000000000002274
 33
0.0
 14
0.0
 24
-24.000000000000171
 34
0.0
 50
90.0
  0
DIMENSION
  5
2EB
  8
1
  2
*D4
 10
6.4999999999999991
 20
-35.967776959507937
 30
0.0
 11
3.2499999999999991
 21
-33.180771502482017
 31
0.0
 70
     0
 13
0.0
 23
-24.000000000000171
 33
0.0
 14
6.5
 24
-20.000000000000171
 34
0.0
  0
POLYLINE
  5
2EC
  8
5
 66
     1
 10
0.0
 20
0.0
 30
0.0
  0
VERTEX
  5
4B4
  8
5
 10
-11.180073512979099
 20
-1.0
 30
0.0
  0
VERTEX
  5
4B5
  8
5
 10
0.0
 20
-1.0
 30
0.0
  0
VERTEX
  5
4B6
  8
5
 10
0.0
 20
-30.79182692112084
 30
0.0
  0
SEQEND
  5
4B7
  8
5
  0
POLYLINE
  5
2ED
  8
6
 66
     1
 10
0.0
 20
0.0
 30
0.0
 70
     1
  0
VERTEX
  5
4B8
  8
6
 10
0.319463553724745
 20
-4.0
 30
0.0
  0
VERTEX
  5
4B9
  8
6
 10
1.2100000000000359
 20
-4.0000000000002274
 30
0.0
 42
-0.4142135623730901
  0
VERTEX
  5
4BA
  8
6
 10
2.0
 20
-4.7900000000001901
 30
0.0
  0
VERTEX
  5
4BB
  8
6
 10
2.0
 20
-4.800000000000181
 30
0.0
 42
-0.4142135623730951
  0
VERTEX
  5
4BC
  8
6
 10
1.7999999999997269
 20
-5.0000000000002274
 30
0.0
  0
VERTEX
  5
4BD
  8
6
 10
1.5499999999997269
 20
-5.0000000000002274
 30
0.0
  0
VERTEX
  5
4BE
  8
6
 10
1.5499999999997269
 20
-10.00000000000022
 30
0.0
 42
0.4142135623730951
  0
VERTEX
  5
4BF
  8
6
 10
1.8499999999999091
 20
-10.3000000000004
 30
0.0
  0
VERTEX
  5
4C0
  8
6
 10
4.6499999999998627
 20
-10.3000000000004
 30
0.0
 42
0.4142135623730951
  0
VERTEX
  5
4C1
  8
6
 10
4.9499999999998181
 20
-10.00000000000022
 30
0.0
  0
VERTEX
  5
4C2
  8
6
 10
4.9499999999998181
 20
-5.0000000000002274
 30
0.0
  0
VERTEX
  5
4C3
  8
6
 10
4.6999999999998181
 20
-5.0000000000002274
 30
0.0
 42
-0.4142135623730951
  0
VERTEX
  5
4C4
  8
6
 10
4.5
 20
-4.800000000000181
 30
0.0
  0
VERTEX
  5
4C5
  8
6
 10
4.5
 20
-4.7900000000001901
 30
0.0
 42
-0.4142135623730951
  0
VERTEX
  5
4C6
  8
6
 10
5.2899999999999627
 20
-4.0000000000002274
 30
0.0
  0
VERTEX
  5
4C7
  8
6
 10
5.7100000000000364
 20
-4.0000000000002274
 30
0.0
 42
-0.4142135623730951
  0
VERTEX
  5
4C8
  8
6
 10
6.5
 20
-4.7900000000001901
 30
0.0
  0
VERTEX
  5
4C9
  8
6
 10
6.5
 20
-20.000000000000171
 30
0.0
 42
-0.4142135623730951
  0
VERTEX
  5
4CA
  8
6
 10
2.5
 20
-24.000000000000171
 30
0.0
  0
VERTEX
  5
4CB
  8
6
 10
0.4891164776242931
 20
-24.000000000000171
 30
0.0
 42
-0.6714695952603508
  0
VERTEX
  5
4CC
  8
6
 10
0.3489860204697379
 20
-23.657299421943829
 30
0.0
  0
VERTEX
  5
4CD
  8
6
 10
0.3799999999998818
 20
-23.626844022330431
 30
0.0
  0
VERTEX
  5
4CE
  8
6
 10
0.079039560614774
 20
-23.398281638801048
 30
0.0
 42
-0.5128473494945071
  0
VERTEX
  5
4CF
  8
6
 10
0.087635891900618
 20
-23.073554665430201
 30
0.0
  0
VERTEX
  5
4D0
  8
6
 10
0.3799999999998818
 20
-22.87500000000016
 30
0.0
  0
VERTEX
  5
4D1
  8
6
 10
0.0759167182900455
 20
-22.624152245099079
 30
0.0
 42
-0.640016886991525
  0
VERTEX
  5
4D2
  8
6
 10
0.1684573482968972
 20
-22.272910820535738
 30
0.0
  0
VERTEX
  5
4D3
  8
6
 10
2.0698463103929039
 20
-21.937644645696931
 30
0.0
  0
VERTEX
  5
4D4
  8
6
 10
0.1016315800313805
 20
-20.801295341299859
 30
0.0
 42
-0.5866121572054289
  0
VERTEX
  5
4D5
  8
6
 10
0.1064625766553036
 20
-20.45218443120114
 30
0.0
  0
VERTEX
  5
4D6
  8
6
 10
0.3799999999998818
 20
-20.304194543298252
 30
0.0
  0
VERTEX
  5
4D7
  8
6
 10
0.0987533511956826
 20
-20.143824938420199
 30
0.0
 42
-0.6730833256522799
  0
VERTEX
  5
4D8
  8
6
 10
0.1476358916029312
 20
-19.776484015944948
 30
0.0
  0
VERTEX
  5
4D9
  8
6
 10
1.4526957749058049
 20
-19.438184423526248
 30
0.0
 42
-0.3371805774911301
  0
VERTEX
  5
4DA
  8
6
 10
1.6760864392163051
 20
-19.531785578490311
 30
0.0
  0
VERTEX
  5
4DB
  8
6
 10
1.9464101615135401
 20
-20.000000000000171
 30
0.0
 42
0.2679491924311163
  0
VERTEX
  5
4DC
  8
6
 10
2.1196152422705832
 20
-20.1000000000003
 30
0.0
  0
VERTEX
  5
4DD
  8
6
 10
2.6999999999998181
 20
-20.1000000000003
 30
0.0
 42
-0.4142135623730951
  0
VERTEX
  5
4DE
  8
6
 10
3.0
 20
-20.400000000000261
 30
0.0
  0
VERTEX
  5
4DF
  8
6
 10
3.0
 20
-21.260000000000161
 30
0.0
 42
0.4142135623730951
  0
VERTEX
  5
4E0
  8
6
 10
3.7399999999997808
 20
-22.000000000000171
 30
0.0
  0
VERTEX
  5
4E1
  8
6
 10
3.7599999999997631
 20
-22.000000000000171
 30
0.0
 42
0.4142135623730943
  0
VERTEX
  5
4E2
  8
6
 10
4.5
 20
-21.260000000000161
 30
0.0
  0
VERTEX
  5
4E3
  8
6
 10
4.5
 20
-16.722432151244671
 30
0.0
  0
VERTEX
  5
4E4
  8
6
 10
4.9828423624280731
 20
-16.24173601207508
 30
0.0
 42
0.4155189665304489
  0
VERTEX
  5
4E5
  8
6
 10
4.9828423624280731
 20
-15.95826398792542
 30
0.0
  0
VERTEX
  5
4E6
  8
6
 10
4.5
 20
-15.477567848756051
 30
0.0
  0
VERTEX
  5
4E7
  8
6
 10
4.5
 20
-12.400000000000309
 30
0.0
 42
0.4142135623730964
  0
VERTEX
  5
4E8
  8
6
 10
4.1999999999998181
 20
-12.10000000000036
 30
0.0
  0
VERTEX
  5
4E9
  8
6
 10
2.1196152422703558
 20
-12.10000000000036
 30
0.0
 42
0.2679491924311188
  0
VERTEX
  5
4EA
  8
6
 10
1.9464101615135401
 20
-12.200000000000269
 30
0.0
  0
VERTEX
  5
4EB
  8
6
 10
1.6725504623054801
 20
-12.674338913174321
 30
0.0
 42
-0.3245440347879519
  0
VERTEX
  5
4EC
  8
6
 10
1.4580290020796829
 20
-12.77002477568748
 30
0.0
  0
VERTEX
  5
4ED
  8
6
 10
0.1586836205308373
 20
-12.49568586251371
 30
0.0
 42
-0.6761679143041793
  0
VERTEX
  5
4EE
  8
6
 10
0.0945593075471152
 20
-12.13005218337684
 30
0.0
  0
VERTEX
  5
4EF
  8
6
 10
0.3799999999998818
 20
-11.95295626732195
 30
0.0
  0
VERTEX
  5
4F0
  8
6
 10
0.0743295188794946
 20
-11.70542919047147
 30
0.0
 42
-0.4769755326981806
  0
VERTEX
  5
4F1
  8
6
 10
0.0743295188794946
 20
-11.39457080588863
 30
0.0
  0
VERTEX
  5
4F2
  8
6
 10
0.3799999999998818
 20
-11.14704373267864
 30
0.0
  0
VERTEX
  5
4F3
  8
6
 10
0.0743295188794946
 20
-10.899516660005929
 30
0.0
 42
-0.4769755326981546
  0
VERTEX
  5
4F4
  8
6
 10
0.0743295188794946
 20
-10.58865827542331
 30
0.0
  0
VERTEX
  5
4F5
  8
6
 10
0.3799999999998818
 20
-10.34113119803532
 30
0.0
  0
VERTEX
  5
4F6
  8
6
 10
0.0200552999224328
 20
-4.3188334159142414
 30
0.0
 42
-0.4327349346905139
  0
SEQEND
  5
4F7
  8
6
  0
POLYLINE
  5
2EE
  8
4
 66
     1
 10
0.0
 20
0.0
 30
0.0
 70
     1
  0
VERTEX
  5
4F8
  8
4
 10
6.4999999999997717
 20
-20.000000000000171
 30
0.0
  0
VERTEX
  5
4F9
  8
4
 10
6.5
 20
-4.0000000000002274
 30
0.0
  0
VERTEX
  5
4FA
  8
4
 10
0.0
 20
-4.0
 30
0.0
  0
VERTEX
  5
4FB
  8
4
 10
0.0
 20
-24.000000000000171
 30
0.0
  0
VERTEX
  5
4FC
  8
4
 10
2.4999999999997722
 20
-24.000000000000171
 30
0.0
 42
0.4142135623730951
  0
SEQEND
  5
4FD
  8
4
  0
TEXT
  5
2F1
  8
1
 10
7.4383678480403432
 20
-27.88390904552892
 30
0.0
 40
2.4999999499999999
  1
Hebgo 126/526
  0
LINE
  5
2F8
  8
6
  6
STRICHPUNKT
 10
4.2973804217087936
 20
-16.10000000000036
 30
0.0
 11
-9.1021234161639768
 21
-16.10000000000036
 31
0.0
  0
POLYLINE
  5
2F9
  8
6
 66
     1
 10
0.0
 20
0.0
 30
0.0
  0
VERTEX
  5
4FE
  8
6
 10
1.066181442512061
 20
-16.948737203898979
 30
0.0
 42
0.0698020145797582
  0
VERTEX
  5
4FF
  8
6
 10
0.0
 20
-16.675775050048109
 30
0.0
 42
-3.2234280385613259
  0
SEQEND
  5
500
  8
6
  0
POLYLINE
  5
2FA
  8
6
 66
     1
 10
0.0
 20
0.0
 30
0.0
  0
VERTEX
  5
501
  8
6
 10
0.0
 20
-15.52865434181472
 30
0.0
 42
0.0716230936514669
  0
VERTEX
  5
502
  8
6
 10
1.066181442512061
 20
-15.25836788441614
 30
0.0
  0
SEQEND
  5
503
  8
6
  0
POLYLINE
  5
2FB
  8
6
 66
     1
 10
0.0
 20
0.0
 30
0.0
 70
     1
  0
VERTEX
  5
504
  8
6
 10
3.726380421708654
 20
-12.72738226925537
 30
0.0
  0
VERTEX
  5
505
  8
6
 10
2.5059520906847861
 20
-12.30000000000018
 30
0.0
  0
VERTEX
  5
506
  8
6
 10
1.8972764410309531
 20
-13.306393037037649
 30
0.0
  0
VERTEX
  5
507
  8
6
 10
0.0
 20
-13.306393037037649
 30
0.0
  0
VERTEX
  5
508
  8
6
 10
0.0
 20
-18.893606962963069
 30
0.0
  0
VERTEX
  5
509
  8
6
 10
1.8972764410309531
 20
-18.893606962963069
 30
0.0
  0
VERTEX
  5
50A
  8
6
 10
2.5059520906847861
 20
-19.900000000000539
 30
0.0
  0
VERTEX
  5
50B
  8
6
 10
3.726380421708654
 20
-19.472617730745348
 30
0.0
  0
VERTEX
  5
50C
  8
6
 10
3.726380421708654
 20
-16.10000000000036
 30
0.0
  0
SEQEND
  5
50D
  8
6
  0
INSERT
  5
2FC
  8
2
  2
*X2
 10
-1272.3521611081051
 20
-121.9452710432041
 30
0.0
1001
ACAD
1000
HATCH
1002
{
1070
    16
1000
_U,I
1040
1.0
1040
0.7853981633974483
1070
     0
1002
}
  0
LINE
  5
2FD
  8
5
 10
10.450540533564199
 20
0.0
 30
0.0
 11
-6.6232785350455279
 21
0.0
 31
0.0
  0
DIMENSION
  5
2FE
  8
1
  2
*D5
 10
18.24757433545755
 20
-0.0000000000000052
 30
0.0
 11
15.49757433545755
 21
-2.0000000000000009
 31
0.0
 70
     0
 13
5.9999999999997717
 23
-4.0
 33
0.0
 14
0.0
 24
0.0
 34
0.0
 50
90.0
  0
POINT
  5
2FF
  8
5
 10
0.0
 20
-16.10000000000036
 30
0.0
  0
POINT
  5
300
  8
5
 10
0.0
 20
-16.10000000000036
 30
0.0
  0
DIMENSION
  5
301
  8
1
  2
*D6
 10
-15.291462184292859
 20
-16.0
 30
0.0
 11
-18.078467641318781
 21
-8.0
 31
0.0
 70
     0
 13
0.0
 23
0.0
 33
0.0
 14
-10.328789664488109
 24
-16.0
 34
0.0
 50
90.0
  0
POINT
  5
303
  8
5
 10
3.2499999999997722
 20
-4.0000000000002274
 30
0.0
  0
POLYLINE
  5
304
  8
6
 66
     1
 10
0.0
 20
0.0
 30
0.0
  0
VERTEX
  5
50E
  8
6
 10
2.4179959360328658
 20
-17.937228201439041
 30
0.0
  0
VERTEX
  5
50F
  8
6
 10
2.0455060114925341
 20
-17.528000000000361
 30
0.0
 42
0.0337004454472373
  0
VERTEX
  5
510
  8
6
 10
1.6086291171807261
 20
-17.22207802304365
 30
0.0
 42
-3.2234280385613259
  0
SEQEND
  5
511
  8
6
  0
POLYLINE
  5
305
  8
6
 66
     1
 10
0.0
 20
0.0
 30
0.0
  0
VERTEX
  5
512
  8
6
 10
2.7710176984105601
 20
-13.97616644218658
 30
0.0
  0
VERTEX
  5
513
  8
6
 10
3.476380421708654
 20
-13.3000000000004
 30
0.0
  0
VERTEX
  5
514
  8
6
 10
3.6763804217086991
 20
-13.3000000000004
 30
0.0
  0
VERTEX
  5
515
  8
6
 10
3.6763804217086991
 20
-19.10000000000036
 30
0.0
  0
VERTEX
  5
516
  8
6
 10
3.476380421708654
 20
-19.10000000000036
 30
0.0
  0
VERTEX
  5
517
  8
6
 10
2.7710176984105601
 20
-18.32506811701478
 30
0.0
 42
0.142709741532141
  0
SEQEND
  5
518
  8
6
  0
POLYLINE
  5
306
  8
6
 66
     1
 10
0.0
 20
0.0
 30
0.0
  0
VERTEX
  5
519
  8
6
 10
1.6086291171807261
 20
-14.98268415172117
 30
0.0
 42
0.0347698152739638
  0
VERTEX
  5
51A
  8
6
 10
2.0453302862117648
 20
-14.671816296422429
 30
0.0
  0
VERTEX
  5
51B
  8
6
 10
2.4179959360328658
 20
-14.314575974185971
 30
0.0
  0
SEQEND
  5
51C
  8
6
  0
POLYLINE
  5
309
  8
6
 66
     1
 10
0.0
 20
0.0
 30
0.0
 70
     1
  0
VERTEX
  5
51D
  8
6
 10
3.2499999999997722
 20
-1.360805036456781
 30
0.0
 42
0.0810140654945016
  0
VERTEX
  5
51E
  8
6
 10
4.5969322393373204
 20
-1.1720160158794211
 30
0.0
 42
-0.7148582707051018
  0
VERTEX
  5
51F
  8
6
 10
5.59182477217837
 20
-2.6822264046519422
 30
0.0
 42
-0.166214732608571
  0
VERTEX
  5
520
  8
6
 10
3.2499999999997722
 20
-3.5920548062146049
 30
0.0
 42
-0.1662147326085706
  0
VERTEX
  5
521
  8
6
 10
0.9081752278209478
 20
-2.6822264046519422
 30
0.0
 42
-0.7148582707051018
  0
VERTEX
  5
522
  8
6
 10
1.903067760661997
 20
-1.1720160158794211
 30
0.0
 42
0.0810140654945016
  0
SEQEND
  5
523
  8
6
  0
POLYLINE
  5
30A
  8
6
 66
     1
 10
0.0
 20
0.0
 30
0.0
 70
     1
  0
VERTEX
  5
524
  8
6
 10
3.2499999999997722
 20
-0.0000000000003411
 30
0.0
 42
-0.3755155665862612
  0
VERTEX
  5
525
  8
6
 10
3.860334485206522
 20
-0.6833808256809562
 30
0.0
  0
VERTEX
  5
526
  8
6
 10
4.7750370333030778
 20
-0.5031387337072603
 30
0.0
  0
VERTEX
  5
527
  8
6
 10
5.4575412914082326
 20
-0.5991683850990058
 30
0.0
  0
VERTEX
  5
528
  8
6
 10
5.8380521922820199
 20
-0.0889645131009047
 30
0.0
 42
-0.849985669627559
  0
VERTEX
  5
529
  8
6
 10
6.5444923816701239
 20
-0.6396019164745895
 30
0.0
  0
VERTEX
  5
52A
  8
6
 10
6.2260053607092232
 20
-1.05014831690039
 30
0.0
 42
0.3552812814794005
  0
VERTEX
  5
52B
  8
6
 10
6.2405023929295558
 20
-1.2852556403098561
 30
0.0
 42
-0.3793838421575348
  0
VERTEX
  5
52C
  8
6
 10
6.1400454732331582
 20
-3.2930523986127578
 30
0.0
 42
0.0092762723599261
  0
VERTEX
  5
52D
  8
6
 10
4.2694783405468106
 20
-4.5262751055639683
 30
0.0
 42
0.305541356778279
  0
VERTEX
  5
52E
  8
6
 10
4.1228663181218499
 20
-4.7436052935814814
 30
0.0
  0
VERTEX
  5
52F
  8
6
 10
4.1228663181218499
 20
-5.3248373214786389
 30
0.0
 42
0.7440894012573249
  0
VERTEX
  5
530
  8
6
 10
4.2239780261611477
 20
-5.3551624987604782
 30
0.0
  0
VERTEX
  5
531
  8
6
 10
4.7086780713623284
 20
-5.0143235060323832
 30
0.0
 42
-0.6074999965019705
  0
VERTEX
  5
532
  8
6
 10
4.820537271408738
 20
-5.0724114599673831
 30
0.0
  0
VERTEX
  5
533
  8
6
 10
4.820537271408738
 20
-5.5656357604999576
 30
0.0
  0
VERTEX
  5
534
  8
6
 10
4.0874771592839352
 20
-6.2378432627421034
 30
0.0
  0
VERTEX
  5
535
  8
6
 10
4.0874771592839352
 20
-7.1815282794331088
 30
0.0
 42
0.7726510115360289
  0
VERTEX
  5
536
  8
6
 10
4.2037557150651992
 20
-7.2118533992144194
 30
0.0
  0
VERTEX
  5
537
  8
6
 10
4.7042587919074768
 20
-6.863114205476335
 30
0.0
 42
-0.6322467702262857
  0
VERTEX
  5
538
  8
6
 10
4.8104261158607642
 20
-6.9237645025397114
 30
0.0
  0
VERTEX
  5
539
  8
6
 10
4.8104261158607642
 20
-7.4071641873139242
 30
0.0
  0
VERTEX
  5
53A
  8
6
 10
3.6173076253655831
 20
-8.6302784826708603
 30
0.0
 42
-0.1809757128983446
  0
VERTEX
  5
53B
  8
6
 10
3.5313626125080191
 20
-8.6707120140462166
 30
0.0
  0
VERTEX
  5
53C
  8
6
 10
3.2499999999997722
 20
-8.6707120140462166
 30
0.0
  0
VERTEX
  5
53D
  8
6
 10
2.9686373874912979
 20
-8.6707120140462166
 30
0.0
 42
-0.1809757128983446
  0
VERTEX
  5
53E
  8
6
 10
2.8826923746339612
 20
-8.6302784826708603
 30
0.0
  0
VERTEX
  5
53F
  8
6
 10
1.689573884138553
 20
-7.4071641873139242
 30
0.0
  0
VERTEX
  5
540
  8
6
 10
1.689573884138553
 20
-6.9237645025397114
 30
0.0
 42
-0.6322467702262857
  0
VERTEX
  5
541
  8
6
 10
1.79574120809184
 20
-6.863114205476335
 30
0.0
  0
VERTEX
  5
542
  8
6
 10
2.2962442849341178
 20
-7.2118533992144194
 30
0.0
 42
0.7726510115360289
  0
VERTEX
  5
543
  8
6
 10
2.4125228407153818
 20
-7.1815282794331088
 30
0.0
  0
VERTEX
  5
544
  8
6
 10
2.4125228407153818
 20
-6.2378432627421034
 30
0.0
  0
VERTEX
  5
545
  8
6
 10
1.6794627285905781
 20
-5.5656357604999576
 30
0.0
  0
VERTEX
  5
546
  8
6
 10
1.6794627285905781
 20
-5.0724114599673831
 30
0.0
 42
-0.6074999965019705
  0
VERTEX
  5
547
  8
6
 10
1.791321928636989
 20
-5.0143235060323832
 30
0.0
  0
VERTEX
  5
548
  8
6
 10
2.2760219738383962
 20
-5.3551624987604782
 30
0.0
 42
0.7440894012573249
  0
VERTEX
  5
549
  8
6
 10
2.3771336818774671
 20
-5.3248373214786389
 30
0.0
  0
VERTEX
  5
54A
  8
6
 10
2.3771336818774671
 20
-4.7436052935814814
 30
0.0
 42
0.305541356778279
  0
VERTEX
  5
54B
  8
6
 10
2.2305216594525059
 20
-4.5262751055639683
 30
0.0
 42
0.0251510633838079
  0
VERTEX
  5
54C
  8
6
 10
0.3599545267661597
 20
-3.2930523986127578
 30
0.0
 42
-0.3793838421575348
  0
VERTEX
  5
54D
  8
6
 10
0.2594976070697612
 20
-1.2852556403098561
 30
0.0
 42
0.3552812814794005
  0
VERTEX
  5
54E
  8
6
 10
0.2739946392900947
 20
-1.05014831690039
 30
0.0
  0
VERTEX
  5
54F
  8
6
 10
-0.0444923816708069
 20
-0.6396019164745895
 30
0.0
 42
-0.849985669627559
  0
VERTEX
  5
550
  8
6
 10
0.6619478077172971
 20
-0.0889645131009047
 30
0.0
  0
VERTEX
  5
551
  8
6
 10
1.0424587085910839
 20
-0.5991683850990058
 30
0.0
  0
VERTEX
  5
552
  8
6
 10
1.7249629666962389
 20
-0.5031387337072603
 30
0.0
  0
VERTEX
  5
553
  8
6
 10
2.639665514792795
 20
-0.6833808256809562
 30
0.0
 42
-0.3755155665862808
  0
SEQEND
  5
554
  8
6
  0
VIEWPORT
  5
22
 67
     1
  8
0
 10
210.0
 20
170.2366863905325
 30
0.0
 40
420.0
 41
340.47337278106511
 68
     1
 69
     1
1001
ACAD
1000
MVIEW
1002
{
1070
    16
1010
0.0
1020
0.0
1030
0.0
1010
0.0
1020
0.0
1030
1.0
1040
0.0
1040
340.47337278106511
1040
210.0
1040
170.2366863905325
1040
50.0
1040
0.0
1040
0.0
1070
     0
1070
   100
1070
     1
1070
     1
1070
     0
1070
     0
1070
     0
1070
     0
1040
0.0
1040
0.0
1040
0.0
1040
5.0
1040
5.0
1040
10.0
1040
10.0
1070
     0
1002
{
1002
}
1002
}
  0
ENDSEC
  0
EOF
