  0
SECTION
  2
HEADER
  9
$ACADVER
  1
AC1009
  9
$INSBASE
 10
0.0
 20
0.0
 30
0.0
  9
$EXTMIN
 10
-37.248631771738907
 20
-14.192572453454879
 30
0.0
  9
$EXTMAX
 10
12.01099247361571
 20
14.0
 30
0.0
  9
$LIMMIN
 10
-150.0
 20
-150.0
  9
$LIMMAX
 10
150.0
 20
150.0
  9
$ORTHOMODE
 70
     0
  9
$REGENMODE
 70
     1
  9
$FILLMODE
 70
     1
  9
$QTEXTMODE
 70
     0
  9
$MIRRTEXT
 70
     0
  9
$DRAGMODE
 70
     2
  9
$LTSCALE
 40
1.0
  9
$OSMODE
 70
   111
  9
$ATTMODE
 70
     1
  9
$TEXTSIZE
 40
3.5
  9
$TRACEWID
 40
1.0
  9
$TEXTSTYLE
  7
BESCHLAG
  9
$CLAYER
  8
0
  9
$CELTYPE
  6
BYLAYER
  9
$CECOLOR
 62
   256
  9
$DIMSCALE
 40
1.0
  9
$DIMASZ
 40
2.0
  9
$DIMEXO
 40
2.0
  9
$DIMDLI
 40
0.0
  9
$DIMRND
 40
0.0
  9
$DIMDLE
 40
1.0
  9
$DIMEXE
 40
1.0
  9
$DIMTP
 40
0.0
  9
$DIMTM
 40
0.0
  9
$DIMTXT
 40
3.5
  9
$DIMCEN
 40
0.0
  9
$DIMTSZ
 40
0.0
  9
$DIMTOL
 70
     0
  9
$DIMLIM
 70
     0
  9
$DIMTIH
 70
     0
  9
$DIMTOH
 70
     0
  9
$DIMSE1
 70
     0
  9
$DIMSE2
 70
     0
  9
$DIMTAD
 70
     1
  9
$DIMZIN
 70
     8
  9
$DIMBLK
  1

  9
$DIMASO
 70
     1
  9
$DIMSHO
 70
     1
  9
$DIMPOST
  1

  9
$DIMAPOST
  1

  9
$DIMALT
 70
     0
  9
$DIMALTD
 70
     2
  9
$DIMALTF
 40
0.039370078740157
  9
$DIMLFAC
 40
1.0
  9
$DIMTOFL
 70
     1
  9
$DIMTVP
 40
0.0
  9
$DIMTIX
 70
     1
  9
$DIMSOXD
 70
     0
  9
$DIMSAH
 70
     1
  9
$DIMBLK1
  1
OBLIQUE
  9
$DIMBLK2
  1
OBLIQUE
  9
$DIMSTYLE
  2
OPO-SSTRICH
  9
$DIMCLRD
 70
   256
  9
$DIMCLRE
 70
   256
  9
$DIMCLRT
 70
   256
  9
$DIMTFAC
 40
0.7114285714285716
  9
$DIMGAP
 40
1.0
  9
$LUNITS
 70
     2
  9
$LUPREC
 70
     1
  9
$SKETCHINC
 40
1.0
  9
$FILLETRAD
 40
0.0
  9
$AUNITS
 70
     0
  9
$AUPREC
 70
     1
  9
$MENU
  1
D:\ACL_CGWG\CGTAB13
  9
$ELEVATION
 40
0.0
  9
$PELEVATION
 40
0.0
  9
$THICKNESS
 40
0.0
  9
$LIMCHECK
 70
     0
  9
$BLIPMODE
 70
     0
  9
$CHAMFERA
 40
1.0
  9
$CHAMFERB
 40
1.0
  9
$SKPOLY
 70
     0
  9
$TDCREATE
 40
2451739.8460660758
  9
$TDUPDATE
 40
2452086.7116118749
  9
$TDINDWG
 40
0.0009761921
  9
$TDUSRTIMER
 40
0.0009761921
  9
$USRTIMER
 70
     1
  9
$ANGBASE
 50
0.0
  9
$ANGDIR
 70
     0
  9
$PDMODE
 70
    35
  9
$PDSIZE
 40
5.0
  9
$PLINEWID
 40
0.0
  9
$COORDS
 70
     1
  9
$SPLFRAME
 70
     0
  9
$SPLINETYPE
 70
     6
  9
$SPLINESEGS
 70
     8
  9
$ATTDIA
 70
     1
  9
$ATTREQ
 70
     1
  9
$HANDLING
 70
-16383
  9
$HANDSEED
  5
44E
  9
$SURFTAB1
 70
    12
  9
$SURFTAB2
 70
    12
  9
$SURFTYPE
 70
     6
  9
$SURFU
 70
    12
  9
$SURFV
 70
    12
  9
$UCSNAME
  2

  9
$UCSORG
 10
0.0
 20
0.0
 30
0.0
  9
$UCSXDIR
 10
1.0
 20
0.0
 30
0.0
  9
$UCSYDIR
 10
0.0
 20
1.0
 30
0.0
  9
$PUCSNAME
  2

  9
$PUCSORG
 10
0.0
 20
0.0
 30
0.0
  9
$PUCSXDIR
 10
1.0
 20
0.0
 30
0.0
  9
$PUCSYDIR
 10
0.0
 20
1.0
 30
0.0
  9
$USERI1
 70
     0
  9
$USERI2
 70
     0
  9
$USERI3
 70
     0
  9
$USERI4
 70
     0
  9
$USERI5
 70
     0
  9
$USERR1
 40
0.0
  9
$USERR2
 40
0.0
  9
$USERR3
 40
0.0
  9
$USERR4
 40
0.0
  9
$USERR5
 40
0.0
  9
$WORLDVIEW
 70
     1
  9
$SHADEDGE
 70
     3
  9
$SHADEDIF
 70
    70
  9
$TILEMODE
 70
     1
  9
$MAXACTVP
 70
    48
  9
$PLIMCHECK
 70
     0
  9
$PEXTMIN
 10
1.0000000000000000E+020
 20
1.0000000000000000E+020
 30
1.0000000000000000E+020
  9
$PEXTMAX
 10
-1.0000000000000000E+020
 20
-1.0000000000000000E+020
 30
-1.0000000000000000E+020
  9
$PLIMMIN
 10
0.0
 20
0.0
  9
$PLIMMAX
 10
420.0
 20
297.0
  9
$UNITMODE
 70
     0
  9
$VISRETAIN
 70
     1
  9
$PLINEGEN
 70
     0
  9
$PSLTSCALE
 70
     1
  0
ENDSEC
  0
SECTION
  2
TABLES
  0
TABLE
  2
VPORT
 70
     3
  0
VPORT
  2
*ACTIVE
 70
     0
 10
0.0
 20
0.0
 11
1.0
 21
1.0
 12
-12.62283256815607
 22
0.4204645712710651
 13
0.0
 23
0.0
 14
0.5
 24
0.5
 15
10.0
 25
10.0
 16
0.0
 26
0.0
 36
1.0
 17
0.0
 27
0.0
 37
0.0
 40
30.837498693021391
 41
1.6070460704607039
 42
50.0
 43
0.0
 44
0.0
 50
0.0
 51
0.0
 71
     0
 72
   800
 73
     1
 74
     1
 75
     0
 76
     0
 77
     0
 78
     0
  0
ENDTAB
  0
TABLE
  2
LTYPE
 70
     1
  0
LTYPE
  2
CONTINUOUS
 70
     0
  3
_______________________________________________
 72
    65
 73
     2
 40
1.0
 49
1.0
 49
0.0
  0
ENDTAB
  0
TABLE
  2
LAYER
 70
     5
  0
LAYER
  2
0
 70
     0
 62
    30
  6
CONTINUOUS
  0
LAYER
  2
1
 70
     0
 62
     2
  6
CONTINUOUS
  0
LAYER
  2
5
 70
     0
 62
     1
  6
CONTINUOUS
  0
LAYER
  2
6
 70
     0
 62
     3
  6
CONTINUOUS
  0
LAYER
  2
DEFPOINTS
 70
     0
 62
     7
  6
CONTINUOUS
  0
ENDTAB
  0
TABLE
  2
STYLE
 70
     2
  0
STYLE
  2
STANDARD
 70
     0
 40
0.0
 41
1.0
 50
0.0
 71
     0
 42
2.5
  3
txt
  4

  0
STYLE
  2
BESCHLAG
 70
     0
 40
0.0
 41
1.0
 50
0.0
 71
     0
 42
3.5
  3
txt
  4

  0
ENDTAB
  0
TABLE
  2
VIEW
 70
     0
  0
ENDTAB
  0
TABLE
  2
UCS
 70
     0
  0
ENDTAB
  0
TABLE
  2
APPID
 70
     1
  0
APPID
  2
ACAD
 70
     0
  0
ENDTAB
  0
TABLE
  2
DIMSTYLE
 70
     1
  0
DIMSTYLE
  2
OPO-SSTRICH
 70
     0
  3

  4

  5

  6
OBLIQUE
  7
OBLIQUE
 40
1.0
 41
2.0
 42
2.0
 43
0.0
 44
1.0
 45
0.0
 46
1.0
 47
0.0
 48
0.0
140
3.5
141
0.0
142
0.0
143
0.039370078740157
144
1.0
145
0.0
146
0.7114285714285716
147
1.0
 71
     0
 72
     0
 73
     0
 74
     0
 75
     0
 76
     0
 77
     1
 78
     8
170
     0
171
     2
172
     1
173
     1
174
     1
175
     0
176
   256
177
   256
178
   256
  0
ENDTAB
  0
ENDSEC
  0
SECTION
  2
BLOCKS
  0
BLOCK
  8
0
  2
$MODEL_SPACE
 70
     0
 10
0.0
 20
0.0
 30
0.0
  3
$MODEL_SPACE
  1

  0
ENDBLK
  5
1C
  8
0
  0
BLOCK
 67
     1
  8
0
  2
$PAPER_SPACE
 70
     0
 10
0.0
 20
0.0
 30
0.0
  3
$PAPER_SPACE
  1

  0
ENDBLK
  5
19
 67
     1
  8
0
  0
BLOCK
  8
0
  2
_OBLIQUE
 70
     0
 10
0.0
 20
0.0
 30
0.0
  3
_OBLIQUE
  1

  0
LINE
  5
204
  8
0
 62
     0
 10
-0.5
 20
-0.5
 30
0.0
 11
0.5
 21
0.5
 31
0.0
  0
ENDBLK
  5
206
  8
0
  0
BLOCK
  8
0
  2
NULLPUNKT
 70
     0
 10
0.0
 20
0.0
 30
0.0
  3
NULLPUNKT
  1

  0
SOLID
  5
254
  8
5
 10
0.0
 20
0.0
 30
0.0
 11
2.0
 21
0.0
 31
0.0
 12
0.0
 22
-2.0
 32
0.0
 13
0.0
 23
-2.0
 33
0.0
  0
SOLID
  5
255
  8
5
 10
0.0
 20
0.0
 30
0.0
 11
-2.0
 21
0.0
 31
0.0
 12
0.0
 22
2.0
 32
0.0
 13
0.0
 23
2.0
 33
0.0
  0
POLYLINE
  5
256
  8
5
 66
     1
 10
0.0
 20
0.0
 30
0.0
  0
VERTEX
  5
40A
  8
5
 10
0.0
 20
2.0
 30
0.0
  0
VERTEX
  5
40B
  8
5
 10
0.0
 20
-2.0
 30
0.0
  0
SEQEND
  5
40C
  8
5
  0
POLYLINE
  5
257
  8
5
 66
     1
 10
0.0
 20
0.0
 30
0.0
  0
VERTEX
  5
40D
  8
5
 10
-2.0
 20
0.0
 30
0.0
  0
VERTEX
  5
40E
  8
5
 10
2.0
 20
0.0
 30
0.0
  0
SEQEND
  5
40F
  8
5
  0
CIRCLE
  5
258
  8
5
 10
0.0
 20
0.0
 30
0.0
 40
2.0
  0
ENDBLK
  5
25A
  8
0
  0
BLOCK
  8
0
  2
*D2
 70
     1
 10
0.0
 20
0.0
 30
0.0
  3
*D2
  1

  0
LINE
  5
2EA
  8
1
 10
2.1961041808795012
 20
-0.0000000000000006
 30
0.0
 11
12.01099247361571
 21
-0.0000000000000033
 31
0.0
  0
LINE
  5
2EB
  8
1
 10
2.1961041808795012
 20
3.9999999999999991
 30
0.0
 11
12.01099247361571
 21
3.999999999999996
 31
0.0
  0
LINE
  5
2EC
  8
1
 10
11.01099247361571
 20
-0.0000000000000031
 30
0.0
 11
11.01099247361571
 21
-2.0000000000000031
 31
0.0
  0
LINE
  5
2ED
  8
1
 10
11.01099247361571
 20
3.999999999999996
 30
0.0
 11
11.01099247361571
 21
5.9999999999999973
 31
0.0
  0
LINE
  5
2EE
  8
1
 10
11.01099247361571
 20
-0.0000000000000031
 30
0.0
 11
11.01099247361571
 21
3.999999999999996
 31
0.0
  0
INSERT
  5
2EF
  8
1
  2
_OBLIQUE
 10
11.01099247361571
 20
-0.0000000000000031
 30
0.0
 41
2.0
 42
2.0
 43
2.0
 50
90.0
  0
INSERT
  5
2F0
  8
1
  2
_OBLIQUE
 10
11.01099247361571
 20
3.999999999999996
 30
0.0
 41
2.0
 42
2.0
 43
2.0
 50
270.0
  0
TEXT
  5
2F1
  8
0
 10
10.01099247361571
 20
0.7274897680763975
 30
0.0
 40
3.5
  1
4
 50
90.0
  7
BESCHLAG
  0
POINT
  5
2F2
  8
DEFPOINTS
 62
     0
 10
0.1961041808795016
 20
0.0
 30
0.0
  0
POINT
  5
2F3
  8
DEFPOINTS
 62
     0
 10
0.1961041808795016
 20
4.0
 30
0.0
  0
POINT
  5
2F4
  8
DEFPOINTS
 62
     0
 10
11.01099247361571
 20
3.999999999999996
 30
0.0
  0
ENDBLK
  5
2C3
  8
0
  0
BLOCK
  8
0
  2
*D3
 70
     1
 10
0.0
 20
0.0
 30
0.0
  3
*D3
  1

  0
LINE
  5
2F5
  8
1
 10
-25.0
 20
4.0
 30
0.0
 11
-32.822301621670697
 21
4.0000000000000018
 31
0.0
  0
LINE
  5
2F6
  8
1
 10
-25.0
 20
0.0000000000000006
 30
0.0
 11
-32.822301621670697
 21
0.0000000000000028
 31
0.0
  0
LINE
  5
2F7
  8
1
 10
-31.8223016216707
 20
4.0000000000000009
 30
0.0
 11
-31.8223016216707
 21
6.0000000000000009
 31
0.0
  0
LINE
  5
2F8
  8
1
 10
-31.8223016216707
 20
0.0000000000000025
 30
0.0
 11
-31.8223016216707
 21
-1.9999999999999969
 31
0.0
  0
LINE
  5
2F9
  8
1
 10
-31.8223016216707
 20
4.0000000000000009
 30
0.0
 11
-31.8223016216707
 21
0.0000000000000025
 31
0.0
  0
INSERT
  5
2FA
  8
1
  2
_OBLIQUE
 10
-31.8223016216707
 20
4.0000000000000009
 30
0.0
 41
2.0
 42
2.0
 43
2.0
 50
270.0
  0
INSERT
  5
2FB
  8
1
  2
_OBLIQUE
 10
-31.8223016216707
 20
0.0000000000000025
 30
0.0
 41
2.0
 42
2.0
 43
2.0
 50
90.0
  0
TEXT
  5
2FC
  8
0
 10
-32.822301621670697
 20
0.7274897680763959
 30
0.0
 40
3.5
  1
4
 50
90.0
  7
BESCHLAG
  0
POINT
  5
2FD
  8
DEFPOINTS
 62
     0
 10
-23.0
 20
4.0
 30
0.0
  0
POINT
  5
2FE
  8
DEFPOINTS
 62
     0
 10
-23.0
 20
0.0
 30
0.0
  0
POINT
  5
2FF
  8
DEFPOINTS
 62
     0
 10
-31.8223016216707
 20
0.0000000000000025
 30
0.0
  0
ENDBLK
  5
2D1
  8
0
  0
BLOCK
  8
0
  2
*D4
 70
     1
 10
0.0
 20
0.0
 30
0.0
  3
*D4
  1

  0
LINE
  5
300
  8
1
 10
-23.0
 20
-2.0
 30
0.0
 11
-23.0
 21
-14.192572453454879
 31
0.0
  0
LINE
  5
301
  8
1
 10
-15.0
 20
-2.0
 30
0.0
 11
-15.0
 21
-14.192572453454879
 31
0.0
  0
LINE
  5
302
  8
1
 10
-24.0
 20
-13.192572453454879
 30
0.0
 11
-14.0
 21
-13.192572453454879
 31
0.0
  0
INSERT
  5
303
  8
1
  2
_OBLIQUE
 10
-23.0
 20
-13.192572453454879
 30
0.0
 41
2.0
 42
2.0
 43
2.0
 50
180.0
  0
INSERT
  5
304
  8
1
  2
_OBLIQUE
 10
-15.0
 20
-13.192572453454879
 30
0.0
 41
2.0
 42
2.0
 43
2.0
  0
TEXT
  5
305
  8
0
 10
-20.351296043656209
 20
-12.12572388592419
 30
0.0
 40
3.5
  1
8
  7
BESCHLAG
  0
POINT
  5
306
  8
DEFPOINTS
 62
     0
 10
-23.0
 20
0.0
 30
0.0
  0
POINT
  5
307
  8
DEFPOINTS
 62
     0
 10
-15.0
 20
0.0
 30
0.0
  0
POINT
  5
308
  8
DEFPOINTS
 62
     0
 10
-15.0
 20
-13.192572453454879
 30
0.0
  0
ENDBLK
  5
2DD
  8
0
  0
BLOCK
  8
0
  2
*D5
 70
     1
 10
0.0
 20
0.0
 30
0.0
  3
*D5
  1

  0
LINE
  5
309
  8
1
 10
-15.0
 20
-2.0
 30
0.0
 11
-15.0
 21
-14.192572453454879
 31
0.0
  0
LINE
  5
30A
  8
1
 10
-0.0000000000000001
 20
-2.0
 30
0.0
 11
-0.0000000000000009
 21
-14.192572453454879
 31
0.0
  0
LINE
  5
30B
  8
1
 10
-16.0
 20
-13.192572453454879
 30
0.0
 11
0.9999999999999992
 21
-13.192572453454879
 31
0.0
  0
INSERT
  5
30C
  8
1
  2
_OBLIQUE
 10
-15.0
 20
-13.192572453454879
 30
0.0
 41
2.0
 42
2.0
 43
2.0
 50
180.0
  0
INSERT
  5
30D
  8
1
  2
_OBLIQUE
 10
-0.0000000000000008
 20
-13.192572453454879
 30
0.0
 41
2.0
 42
2.0
 43
2.0
  0
TEXT
  5
30E
  8
0
 10
-10.387619372442019
 20
-12.12572388592419
 30
0.0
 40
3.5
  1
15
  7
BESCHLAG
  0
POINT
  5
30F
  8
DEFPOINTS
 62
     0
 10
-15.0
 20
0.0
 30
0.0
  0
POINT
  5
310
  8
DEFPOINTS
 62
     0
 10
0.0
 20
0.0
 30
0.0
  0
POINT
  5
311
  8
DEFPOINTS
 62
     0
 10
-0.0000000000000008
 20
-13.192572453454879
 30
0.0
  0
ENDBLK
  5
2E9
  8
0
  0
ENDSEC
  0
SECTION
  2
ENTITIES
  0
INSERT
  5
25B
  8
5
  2
NULLPUNKT
 10
0.0
 20
0.0
 30
0.0
  0
POLYLINE
  5
2AD
  8
6
 66
     1
 10
0.0
 20
0.0
 30
0.0
 70
     1
  0
VERTEX
  5
410
  8
6
 10
-3.1702746962264419
 20
2.2197311439941809
 30
0.0
 42
0.131335928731573
  0
VERTEX
  5
411
  8
6
 10
-2.1673181535852559
 20
2.8718250945197492
 30
0.0
 42
-0.2905080179712449
  0
VERTEX
  5
412
  8
6
 10
-1.4556189537743189
 20
2.8639195337799488
 30
0.0
 42
-0.4841024204986858
  0
VERTEX
  5
413
  8
6
 10
-1.4556189537743189
 20
1.148407135733464
 30
0.0
 42
-0.3365200073652254
  0
VERTEX
  5
414
  8
6
 10
-2.610153315863954
 20
1.148407135733464
 30
0.0
 42
0.0464717474098966
  0
VERTEX
  5
415
  8
6
 10
-3.2902214575638018
 20
1.8599099681815681
 30
0.0
 42
0.2276788024688995
  0
VERTEX
  5
416
  8
6
 10
-3.8629734655874008
 20
2.0742213512214671
 30
0.0
 42
-0.0881493731529968
  0
VERTEX
  5
417
  8
6
 10
-4.8085132058813542
 20
2.1524167013318438
 30
0.0
 42
-0.9079906797104758
  0
VERTEX
  5
418
  8
6
 10
-4.7899158193567919
 20
2.332369776353175
 30
0.0
 42
-0.0938506730575352
  0
VERTEX
  5
419
  8
6
 10
-3.8895274605415571
 20
2.1765878938182359
 30
0.0
 42
0.0743472234199958
  0
SEQEND
  5
41A
  8
6
  0
DIMENSION
  5
2AE
  8
1
  2
*D2
 10
11.01099247361571
 20
3.999999999999996
 30
0.0
 11
8.2609924736157154
 21
1.9999999999999989
 31
0.0
 70
     0
 13
0.1961041808795016
 23
0.0
 33
0.0
 14
0.1961041808795016
 24
4.0
 34
0.0
 50
90.0
  0
DIMENSION
  5
2AF
  8
1
  2
*D3
 10
-31.8223016216707
 20
0.0000000000000025
 30
0.0
 11
-34.572301621670697
 21
1.9999999999999969
 31
0.0
 70
     0
 13
-23.0
 23
4.0
 33
0.0
 14
-23.0
 24
0.0
 34
0.0
 50
90.0
  0
DIMENSION
  5
2B0
  8
1
  2
*D4
 10
-15.0
 20
-13.192572453454879
 30
0.0
 11
-19.0
 21
-10.405566996428959
 31
0.0
 70
     0
 13
-23.0
 23
0.0
 33
0.0
 14
-15.0
 24
0.0
 34
0.0
  0
POLYLINE
  5
2B1
  8
5
 66
     1
 10
0.0
 20
0.0
 30
0.0
  0
VERTEX
  5
41B
  8
5
 10
-11.0
 20
11.94371462543608
 30
0.0
  0
VERTEX
  5
41C
  8
5
 10
-11.0
 20
4.0
 30
0.0
  0
VERTEX
  5
41D
  8
5
 10
2.7686455178518372
 20
4.0
 30
0.0
  0
SEQEND
  5
41E
  8
5
  0
POLYLINE
  5
2B2
  8
5
 66
     1
 10
0.0
 20
0.0
 30
0.0
  0
VERTEX
  5
41F
  8
5
 10
-15.0
 20
14.0
 30
0.0
  0
VERTEX
  5
420
  8
5
 10
-15.0
 20
4.0
 30
0.0
  0
VERTEX
  5
421
  8
5
 10
-23.0
 20
4.0
 30
0.0
  0
VERTEX
  5
422
  8
5
 10
-23.0
 20
0.0
 30
0.0
  0
VERTEX
  5
423
  8
5
 10
0.0
 20
0.0
 30
0.0
  0
VERTEX
  5
424
  8
5
 10
0.0
 20
-10.0
 30
0.0
  0
SEQEND
  5
425
  8
5
  0
TEXT
  5
2B3
  8
1
 10
-9.284821150195512
 20
8.3872394241174941
 30
0.0
 40
2.5
  1
Hebgo 535
 41
0.9
  7
BESCHLAG
  0
POLYLINE
  5
2B4
  8
6
 66
     1
 10
0.0
 20
0.0
 30
0.0
 70
     1
  0
VERTEX
  5
426
  8
6
 10
-13.79795538931603
 20
4.6482615182436566
 30
0.0
 42
-0.0087027996012148
  0
VERTEX
  5
427
  8
6
 10
-13.47099095276462
 20
3.4365832148155269
 30
0.0
 42
0.2565028777810548
  0
VERTEX
  5
428
  8
6
 10
-12.83848818415936
 20
2.6654997118620249
 30
0.0
  0
VERTEX
  5
429
  8
6
 10
-4.0697949805530689
 20
1.276478941546088
 30
0.0
 42
0.970674292010473
  0
VERTEX
  5
42A
  8
6
 10
-3.9383037962402341
 20
1.506524883824113
 30
0.0
 42
0.0539236430511081
  0
VERTEX
  5
42B
  8
6
 10
-4.7748305731129221
 20
1.5299545726458059
 30
0.0
 42
-0.2097854334997801
  0
VERTEX
  5
42C
  8
6
 10
-5.169095585910326
 20
1.6613399791207251
 30
0.0
 42
-0.0037459924523558
  0
VERTEX
  5
42D
  8
6
 10
-5.6290714051133364
 20
2.083650139111568
 30
0.0
 42
-0.5038940228095087
  0
VERTEX
  5
42E
  8
6
 10
-5.4431467107028757
 20
2.6969214471829441
 30
0.0
 42
-0.0516576595180739
  0
VERTEX
  5
42F
  8
6
 10
-4.7966486493796756
 20
2.9196643374153828
 30
0.0
 42
-0.0974092805433745
  0
VERTEX
  5
430
  8
6
 10
-4.0520114411056047
 20
2.890731827859212
 30
0.0
 42
0.0809376437970051
  0
VERTEX
  5
431
  8
6
 10
-3.329192309098743
 20
2.8531931309065608
 30
0.0
 42
1.309168719340182
  0
VERTEX
  5
432
  8
6
 10
-3.3283311220143328
 20
2.9817402798022381
 30
0.0
  0
VERTEX
  5
433
  8
6
 10
-11.66710757988403
 20
3.1979264191160151
 30
0.0
 42
-0.9335774872744833
  0
VERTEX
  5
434
  8
6
 10
-11.582106461772121
 20
4.0370813780006074
 30
0.0
  0
VERTEX
  5
435
  8
6
 10
-1.4777440862176261
 20
4.0372017745896747
 30
0.0
 42
-0.7884178280848461
  0
VERTEX
  5
436
  8
6
 10
-1.31636505454071
 20
0.0
 30
0.0
 42
-0.0284459105672782
  0
VERTEX
  5
437
  8
6
 10
-10.80656215748013
 20
0.5126001755196512
 30
0.0
 42
0.1384777996430798
  0
VERTEX
  5
438
  8
6
 10
-11.74213556220638
 20
0.4269488460371349
 30
0.0
  0
VERTEX
  5
439
  8
6
 10
-12.34357918880505
 20
0.1119938665650579
 30
0.0
 42
-0.1185554568446651
  0
VERTEX
  5
43A
  8
6
 10
-12.76582208708942
 20
0.0
 30
0.0
  0
VERTEX
  5
43B
  8
6
 10
-21.453034566514361
 20
0.0
 30
0.0
 42
-0.2573152806763547
  0
VERTEX
  5
43C
  8
6
 10
-22.03800456821773
 20
1.2108757471264651
 30
0.0
 42
-0.3967050536942419
  0
VERTEX
  5
43D
  8
6
 10
-18.952549009682109
 20
3.9893427503767489
 30
0.0
 42
-0.8586600924389674
  0
VERTEX
  5
43E
  8
6
 10
-18.949595533790671
 20
3.34119599413475
 30
0.0
 42
0.1417999230343901
  0
VERTEX
  5
43F
  8
6
 10
-20.38536406026196
 20
2.5212612466078781
 30
0.0
 42
0.611068708960492
  0
VERTEX
  5
440
  8
6
 10
-20.263812097811289
 20
2.0179574358741088
 30
0.0
  0
VERTEX
  5
441
  8
6
 10
-18.696139491498791
 20
2.083650139111568
 30
0.0
 42
0.2706354936411275
  0
VERTEX
  5
442
  8
6
 10
-18.179840049220719
 20
2.6561150211941822
 30
0.0
 42
-0.2601836308907449
  0
VERTEX
  5
443
  8
6
 10
-16.921947021092819
 20
4.016892276407475
 30
0.0
  0
VERTEX
  5
444
  8
6
 10
-16.092864220532189
 20
4.0190609922570948
 30
0.0
 42
-0.7279916134161134
  0
VERTEX
  5
445
  8
6
 10
-16.009630113943331
 20
3.3771467967734452
 30
0.0
 42
0.1859347738816371
  0
VERTEX
  5
446
  8
6
 10
-17.006432368523289
 20
2.806269743286065
 30
0.0
 42
0.5700359986762457
  0
VERTEX
  5
447
  8
6
 10
-16.630941896750748
 20
2.06488082349449
 30
0.0
  0
VERTEX
  5
448
  8
6
 10
-14.92246031993227
 20
2.46842160214976
 30
0.0
 42
0.272477741764751
  0
VERTEX
  5
449
  8
6
 10
-14.69716608917861
 20
2.6842690274789902
 30
0.0
 42
0.0857690881438546
  0
VERTEX
  5
44A
  8
6
 10
-14.80981316096404
 20
3.7916601604102871
 30
0.0
 42
-0.0942144671397656
  0
VERTEX
  5
44B
  8
6
 10
-14.983334337690851
 20
5.482558027875938
 30
0.0
 42
-0.4988373399297799
  0
VERTEX
  5
44C
  8
6
 10
-14.319221347552681
 20
5.567741440484383
 30
0.0
 42
-0.1329095744484323
  0
SEQEND
  5
44D
  8
6
  0
DIMENSION
  5
2B5
  8
1
  2
*D5
 10
-0.0000000000000008
 20
-13.192572453454879
 30
0.0
 11
-7.5
 21
-10.405566996428959
 31
0.0
 70
     0
 13
-15.0
 23
0.0
 33
0.0
 14
0.0
 24
0.0
 34
0.0
  0
VIEWPORT
  5
22
 67
     1
  8
0
 10
210.0
 20
170.2366863905325
 30
0.0
 40
420.0
 41
340.47337278106511
 68
     1
 69
     1
1001
ACAD
1000
MVIEW
1002
{
1070
    16
1010
0.0
1020
0.0
1030
0.0
1010
0.0
1020
0.0
1030
1.0
1040
0.0
1040
340.47337278106511
1040
210.0
1040
170.2366863905325
1040
50.0
1040
0.0
1040
0.0
1070
     0
1070
   100
1070
     1
1070
     1
1070
     0
1070
     0
1070
     0
1070
     0
1040
0.0
1040
0.0
1040
0.0
1040
5.0
1040
5.0
1040
10.0
1040
10.0
1070
     0
1002
{
1002
}
1002
}
  0
ENDSEC
  0
EOF
