  0
SECTION
  2
HEADER
  9
$ACADVER
  1
AC1009
  9
$INSBASE
 10
0.0
 20
0.0
 30
0.0
  9
$EXTMIN
 10
-7.8048697414398021
 20
-16.044615844782129
 30
-0.0000000000000058
  9
$EXTMAX
 10
14.73999077540361
 20
13.824463430587789
 30
0.0000000000000104
  9
$LIMMIN
 10
-150.0
 20
-150.0
  9
$LIMMAX
 10
150.0
 20
150.0
  9
$ORTHOMODE
 70
     0
  9
$REGENMODE
 70
     1
  9
$FILLMODE
 70
     1
  9
$QTEXTMODE
 70
     0
  9
$MIRRTEXT
 70
     0
  9
$DRAGMODE
 70
     2
  9
$LTSCALE
 40
1.0
  9
$OSMODE
 70
   111
  9
$ATTMODE
 70
     1
  9
$TEXTSIZE
 40
3.5
  9
$TRACEWID
 40
1.0
  9
$TEXTSTYLE
  7
BESCHLAG
  9
$CLAYER
  8
0
  9
$CELTYPE
  6
BYLAYER
  9
$CECOLOR
 62
   256
  9
$DIMSCALE
 40
1.0
  9
$DIMASZ
 40
2.0
  9
$DIMEXO
 40
2.0
  9
$DIMDLI
 40
0.0
  9
$DIMRND
 40
0.0
  9
$DIMDLE
 40
1.0
  9
$DIMEXE
 40
1.0
  9
$DIMTP
 40
0.0
  9
$DIMTM
 40
0.0
  9
$DIMTXT
 40
3.5
  9
$DIMCEN
 40
0.0
  9
$DIMTSZ
 40
0.0
  9
$DIMTOL
 70
     0
  9
$DIMLIM
 70
     0
  9
$DIMTIH
 70
     0
  9
$DIMTOH
 70
     0
  9
$DIMSE1
 70
     0
  9
$DIMSE2
 70
     0
  9
$DIMTAD
 70
     1
  9
$DIMZIN
 70
     8
  9
$DIMBLK
  1

  9
$DIMASO
 70
     1
  9
$DIMSHO
 70
     1
  9
$DIMPOST
  1

  9
$DIMAPOST
  1

  9
$DIMALT
 70
     0
  9
$DIMALTD
 70
     2
  9
$DIMALTF
 40
0.039370078740157
  9
$DIMLFAC
 40
1.0
  9
$DIMTOFL
 70
     1
  9
$DIMTVP
 40
0.0
  9
$DIMTIX
 70
     1
  9
$DIMSOXD
 70
     0
  9
$DIMSAH
 70
     1
  9
$DIMBLK1
  1
OBLIQUE
  9
$DIMBLK2
  1
OBLIQUE
  9
$DIMSTYLE
  2
OPO-SSTRICH
  9
$DIMCLRD
 70
   256
  9
$DIMCLRE
 70
   256
  9
$DIMCLRT
 70
   256
  9
$DIMTFAC
 40
0.7114285714285716
  9
$DIMGAP
 40
1.0
  9
$LUNITS
 70
     2
  9
$LUPREC
 70
     1
  9
$SKETCHINC
 40
1.0
  9
$FILLETRAD
 40
0.0
  9
$AUNITS
 70
     0
  9
$AUPREC
 70
     1
  9
$MENU
  1
D:\ACL_CGWG\CGTAB13
  9
$ELEVATION
 40
0.0
  9
$PELEVATION
 40
0.0
  9
$THICKNESS
 40
0.0
  9
$LIMCHECK
 70
     0
  9
$BLIPMODE
 70
     0
  9
$CHAMFERA
 40
1.0
  9
$CHAMFERB
 40
1.0
  9
$SKPOLY
 70
     0
  9
$TDCREATE
 40
2451739.8413116662
  9
$TDUPDATE
 40
2452086.7121814461
  9
$TDINDWG
 40
0.0008039468
  9
$TDUSRTIMER
 40
0.0008039468
  9
$USRTIMER
 70
     1
  9
$ANGBASE
 50
0.0
  9
$ANGDIR
 70
     0
  9
$PDMODE
 70
    35
  9
$PDSIZE
 40
5.0
  9
$PLINEWID
 40
0.0
  9
$COORDS
 70
     1
  9
$SPLFRAME
 70
     0
  9
$SPLINETYPE
 70
     6
  9
$SPLINESEGS
 70
     8
  9
$ATTDIA
 70
     1
  9
$ATTREQ
 70
     1
  9
$HANDLING
 70
-16383
  9
$HANDSEED
  5
432
  9
$SURFTAB1
 70
    12
  9
$SURFTAB2
 70
    12
  9
$SURFTYPE
 70
     6
  9
$SURFU
 70
    12
  9
$SURFV
 70
    12
  9
$UCSNAME
  2

  9
$UCSORG
 10
0.0
 20
0.0
 30
0.0
  9
$UCSXDIR
 10
1.0
 20
0.0
 30
0.0
  9
$UCSYDIR
 10
0.0
 20
1.0
 30
0.0
  9
$PUCSNAME
  2

  9
$PUCSORG
 10
0.0
 20
0.0
 30
0.0
  9
$PUCSXDIR
 10
1.0
 20
0.0
 30
0.0
  9
$PUCSYDIR
 10
0.0
 20
1.0
 30
0.0
  9
$USERI1
 70
     0
  9
$USERI2
 70
     0
  9
$USERI3
 70
     0
  9
$USERI4
 70
     0
  9
$USERI5
 70
     0
  9
$USERR1
 40
0.0
  9
$USERR2
 40
0.0
  9
$USERR3
 40
0.0
  9
$USERR4
 40
0.0
  9
$USERR5
 40
0.0
  9
$WORLDVIEW
 70
     1
  9
$SHADEDGE
 70
     3
  9
$SHADEDIF
 70
    70
  9
$TILEMODE
 70
     1
  9
$MAXACTVP
 70
    48
  9
$PLIMCHECK
 70
     0
  9
$PEXTMIN
 10
1.0000000000000000E+020
 20
1.0000000000000000E+020
 30
1.0000000000000000E+020
  9
$PEXTMAX
 10
-1.0000000000000000E+020
 20
-1.0000000000000000E+020
 30
-1.0000000000000000E+020
  9
$PLIMMIN
 10
0.0
 20
0.0
  9
$PLIMMAX
 10
420.0
 20
297.0
  9
$UNITMODE
 70
     0
  9
$VISRETAIN
 70
     1
  9
$PLINEGEN
 70
     0
  9
$PSLTSCALE
 70
     1
  0
ENDSEC
  0
SECTION
  2
TABLES
  0
TABLE
  2
VPORT
 70
     3
  0
VPORT
  2
*ACTIVE
 70
     0
 10
0.0
 20
0.0
 11
1.0
 21
1.0
 12
3.467560516981905
 22
-1.110076207097165
 13
0.0
 23
0.0
 14
0.5
 24
0.5
 15
10.0
 25
10.0
 16
0.0
 26
0.0
 36
1.0
 17
0.0
 27
0.0
 37
0.0
 40
30.11158871468281
 41
1.6070460704607039
 42
50.0
 43
0.0
 44
0.0
 50
0.0
 51
0.0
 71
     0
 72
   800
 73
     1
 74
     1
 75
     0
 76
     0
 77
     0
 78
     0
  0
ENDTAB
  0
TABLE
  2
LTYPE
 70
     1
  0
LTYPE
  2
CONTINUOUS
 70
     0
  3
_______________________________________________
 72
    65
 73
     2
 40
1.0
 49
1.0
 49
0.0
  0
ENDTAB
  0
TABLE
  2
LAYER
 70
     5
  0
LAYER
  2
0
 70
     0
 62
    30
  6
CONTINUOUS
  0
LAYER
  2
1
 70
     0
 62
     2
  6
CONTINUOUS
  0
LAYER
  2
5
 70
     0
 62
     1
  6
CONTINUOUS
  0
LAYER
  2
6
 70
     0
 62
     3
  6
CONTINUOUS
  0
LAYER
  2
DEFPOINTS
 70
     0
 62
     7
  6
CONTINUOUS
  0
ENDTAB
  0
TABLE
  2
STYLE
 70
     2
  0
STYLE
  2
STANDARD
 70
     0
 40
0.0
 41
1.0
 50
0.0
 71
     0
 42
2.5
  3
txt
  4

  0
STYLE
  2
BESCHLAG
 70
     0
 40
0.0
 41
1.0
 50
0.0
 71
     0
 42
3.5
  3
txt
  4

  0
ENDTAB
  0
TABLE
  2
VIEW
 70
     0
  0
ENDTAB
  0
TABLE
  2
UCS
 70
     0
  0
ENDTAB
  0
TABLE
  2
APPID
 70
     1
  0
APPID
  2
ACAD
 70
     0
  0
ENDTAB
  0
TABLE
  2
DIMSTYLE
 70
     1
  0
DIMSTYLE
  2
OPO-SSTRICH
 70
     0
  3

  4

  5

  6
OBLIQUE
  7
OBLIQUE
 40
1.0
 41
2.0
 42
2.0
 43
0.0
 44
1.0
 45
0.0
 46
1.0
 47
0.0
 48
0.0
140
3.5
141
0.0
142
0.0
143
0.039370078740157
144
1.0
145
0.0
146
0.7114285714285716
147
1.0
 71
     0
 72
     0
 73
     0
 74
     0
 75
     0
 76
     0
 77
     1
 78
     8
170
     0
171
     2
172
     1
173
     1
174
     1
175
     0
176
   256
177
   256
178
   256
  0
ENDTAB
  0
ENDSEC
  0
SECTION
  2
BLOCKS
  0
BLOCK
  8
0
  2
$MODEL_SPACE
 70
     0
 10
0.0
 20
0.0
 30
0.0
  3
$MODEL_SPACE
  1

  0
ENDBLK
  5
1C
  8
0
  0
BLOCK
 67
     1
  8
0
  2
$PAPER_SPACE
 70
     0
 10
0.0
 20
0.0
 30
0.0
  3
$PAPER_SPACE
  1

  0
ENDBLK
  5
19
 67
     1
  8
0
  0
BLOCK
  8
0
  2
_OBLIQUE
 70
     0
 10
0.0
 20
0.0
 30
0.0
  3
_OBLIQUE
  1

  0
LINE
  5
204
  8
0
 62
     0
 10
-0.5
 20
-0.5
 30
0.0
 11
0.5
 21
0.5
 31
0.0
  0
ENDBLK
  5
206
  8
0
  0
BLOCK
  8
0
  2
NULLPUNKT
 70
     0
 10
0.0
 20
0.0
 30
0.0
  3
NULLPUNKT
  1

  0
SOLID
  5
254
  8
5
 10
0.0
 20
0.0
 30
0.0
 11
2.0
 21
0.0
 31
0.0
 12
0.0
 22
-2.0
 32
0.0
 13
0.0
 23
-2.0
 33
0.0
  0
SOLID
  5
255
  8
5
 10
0.0
 20
0.0
 30
0.0
 11
-2.0
 21
0.0
 31
0.0
 12
0.0
 22
2.0
 32
0.0
 13
0.0
 23
2.0
 33
0.0
  0
POLYLINE
  5
256
  8
5
 66
     1
 10
0.0
 20
0.0
 30
0.0
  0
VERTEX
  5
3E1
  8
5
 10
0.0
 20
2.0
 30
0.0
  0
VERTEX
  5
3E2
  8
5
 10
0.0
 20
-2.0
 30
0.0
  0
SEQEND
  5
3E3
  8
5
  0
POLYLINE
  5
257
  8
5
 66
     1
 10
0.0
 20
0.0
 30
0.0
  0
VERTEX
  5
3E4
  8
5
 10
-2.0
 20
0.0
 30
0.0
  0
VERTEX
  5
3E5
  8
5
 10
2.0
 20
0.0
 30
0.0
  0
SEQEND
  5
3E6
  8
5
  0
CIRCLE
  5
258
  8
5
 10
0.0
 20
0.0
 30
0.0
 40
2.0
  0
ENDBLK
  5
25A
  8
0
  0
BLOCK
  8
0
  2
*D2
 70
     1
 10
0.0
 20
0.0
 30
0.0
  3
*D2
  1

  0
LINE
  5
2CC
  8
1
 10
-3.0
 20
-8.0
 30
0.0
 11
-3.0
 21
-16.0427268488429
 31
0.0
  0
LINE
  5
2CD
  8
1
 10
-0.0000000000000001
 20
-8.0
 30
0.0
 11
-0.0000000000000006
 21
-16.0427268488429
 31
0.0
  0
LINE
  5
2CE
  8
1
 10
-3.0
 20
-15.0427268488429
 30
0.0
 11
-5.0
 21
-15.0427268488429
 31
0.0
  0
LINE
  5
2CF
  8
1
 10
-0.0000000000000006
 20
-15.0427268488429
 30
0.0
 11
1.9999999999999989
 21
-15.0427268488429
 31
0.0
  0
LINE
  5
2D0
  8
1
 10
-3.0
 20
-15.0427268488429
 30
0.0
 11
-0.0000000000000006
 21
-15.0427268488429
 31
0.0
  0
INSERT
  5
2D1
  8
1
  2
_OBLIQUE
 10
-3.0
 20
-15.0427268488429
 30
0.0
 41
2.0
 42
2.0
 43
2.0
  0
INSERT
  5
2D2
  8
1
  2
_OBLIQUE
 10
-0.0000000000000006
 20
-15.0427268488429
 30
0.0
 41
2.0
 42
2.0
 43
2.0
 50
180.0
  0
TEXT
  5
2D3
  8
0
 10
-2.8512960436562071
 20
-13.973490832471819
 30
0.0
 40
3.5
  1
3
  7
BESCHLAG
  0
POINT
  5
2D4
  8
DEFPOINTS
 62
     0
 10
-3.0
 20
-6.0
 30
0.0
  0
POINT
  5
2D5
  8
DEFPOINTS
 62
     0
 10
0.0
 20
-6.0
 30
0.0
  0
POINT
  5
2D6
  8
DEFPOINTS
 62
     0
 10
-0.0000000000000006
 20
-15.0427268488429
 30
0.0
  0
ENDBLK
  5
2B3
  8
0
  0
BLOCK
  8
0
  2
*D3
 70
     1
 10
0.0
 20
0.0
 30
0.0
  3
*D3
  1

  0
LINE
  5
2D7
  8
1
 10
2.0
 20
-6.0
 30
0.0
 11
11.74877937066139
 21
-6.0000000000000027
 31
0.0
  0
LINE
  5
2D8
  8
1
 10
2.0
 20
-0.0000000000000006
 30
0.0
 11
11.74877937066139
 21
-0.0000000000000033
 31
0.0
  0
LINE
  5
2D9
  8
1
 10
10.74877937066139
 20
-7.0000000000000027
 30
0.0
 11
10.74877937066139
 21
0.9999999999999969
 31
0.0
  0
INSERT
  5
2DA
  8
1
  2
_OBLIQUE
 10
10.74877937066139
 20
-6.0000000000000027
 30
0.0
 41
2.0
 42
2.0
 43
2.0
 50
270.0
  0
INSERT
  5
2DB
  8
1
  2
_OBLIQUE
 10
10.74877937066139
 20
-0.000000000000003
 30
0.0
 41
2.0
 42
2.0
 43
2.0
 50
90.0
  0
TEXT
  5
2DC
  8
0
 10
9.6819308031306992
 20
-4.339358799454299
 30
0.0
 40
3.5
  1
6
 50
90.0
  7
BESCHLAG
  0
POINT
  5
2DD
  8
DEFPOINTS
 62
     0
 10
0.0
 20
-6.0
 30
0.0
  0
POINT
  5
2DE
  8
DEFPOINTS
 62
     0
 10
0.0
 20
0.0
 30
0.0
  0
POINT
  5
2DF
  8
DEFPOINTS
 62
     0
 10
10.74877937066139
 20
-0.000000000000003
 30
0.0
  0
ENDBLK
  5
2BF
  8
0
  0
BLOCK
  8
0
  2
*D4
 70
     1
 10
0.0
 20
0.0
 30
0.0
  3
*D4
  1

  0
LINE
  5
2E0
  8
1
 10
2.0
 20
-0.0000000000000006
 30
0.0
 11
11.74877937066139
 21
-0.0000000000000033
 31
0.0
  0
LINE
  5
2E1
  8
1
 10
2.0
 20
7.0
 30
0.0
 11
11.74877937066139
 21
6.9999999999999956
 31
0.0
  0
LINE
  5
2E2
  8
1
 10
10.74877937066139
 20
-1.0000000000000031
 30
0.0
 11
10.74877937066139
 21
7.9999999999999956
 31
0.0
  0
INSERT
  5
2E3
  8
1
  2
_OBLIQUE
 10
10.74877937066139
 20
-0.000000000000003
 30
0.0
 41
2.0
 42
2.0
 43
2.0
 50
270.0
  0
INSERT
  5
2E4
  8
1
  2
_OBLIQUE
 10
10.74877937066139
 20
6.9999999999999956
 30
0.0
 41
2.0
 42
2.0
 43
2.0
 50
90.0
  0
TEXT
  5
2E5
  8
0
 10
9.7487793706613939
 20
2.13557298772169
 30
0.0
 40
3.5
  1
7
 50
90.0
  7
BESCHLAG
  0
POINT
  5
2E6
  8
DEFPOINTS
 62
     0
 10
0.0
 20
0.0
 30
0.0
  0
POINT
  5
2E7
  8
DEFPOINTS
 62
     0
 10
0.0
 20
7.0
 30
0.0
  0
POINT
  5
2E8
  8
DEFPOINTS
 62
     0
 10
10.74877937066139
 20
6.9999999999999956
 30
0.0
  0
ENDBLK
  5
2CB
  8
0
  0
ENDSEC
  0
SECTION
  2
ENTITIES
  0
INSERT
  5
25B
  8
5
  2
NULLPUNKT
 10
0.0
 20
0.0
 30
0.0
  0
LINE
  5
29E
  8
5
 10
-6.0
 20
7.0
 30
0.0
 11
3.0
 21
7.0
 31
0.0
  0
POLYLINE
  5
29F
  8
6
 66
     1
 10
0.0
 20
0.0
 30
0.0
 70
     1
  0
VERTEX
  5
3E7
  8
6
 10
-1.5
 20
5.6549744432911657
 30
0.0
  0
VERTEX
  5
3E8
  8
6
 10
-1.2524157505026769
 20
5.9453890804775247
 30
0.0
  0
VERTEX
  5
3E9
  8
6
 10
-0.0547617384595469
 20
5.9453890804775247
 30
0.0
  0
VERTEX
  5
3EA
  8
6
 10
0.1993838046755627
 20
5.7950653311800124
 30
0.0
  0
VERTEX
  5
3EB
  8
6
 10
0.3966111565969186
 20
6.0148119087466512
 30
0.0
  0
VERTEX
  5
3EC
  8
6
 10
1.8462124619518361
 20
6.1363018393858511
 30
0.0
  0
VERTEX
  5
3ED
  8
6
 10
2.0344193561145398
 20
5.8128458753628811
 30
0.0
  0
VERTEX
  5
3EE
  8
6
 10
2.3843877753329248
 20
5.9453890804775247
 30
0.0
 42
-0.1441989937915127
  0
VERTEX
  5
3EF
  8
6
 10
3.6169829349487368
 20
4.7044562605622096
 30
0.0
 42
-0.3831255426272743
  0
VERTEX
  5
3F0
  8
6
 10
2.2715445515686952
 20
1.476295386322817
 30
0.0
 42
-0.0990174069867319
  0
VERTEX
  5
3F1
  8
6
 10
0.0667616871660357
 20
0.9209128354964377
 30
0.0
 42
-0.0028165394623608
  0
VERTEX
  5
3F2
  8
6
 10
-1.5
 20
0.8730923148561942
 30
0.0
 42
-0.0028165394623608
  0
VERTEX
  5
3F3
  8
6
 10
-3.06676168716649
 20
0.9209128354964377
 30
0.0
 42
-0.0990174069867319
  0
VERTEX
  5
3F4
  8
6
 10
-5.271544551569149
 20
1.476295386322817
 30
0.0
 42
-0.3831255426272743
  0
VERTEX
  5
3F5
  8
6
 10
-6.6169829349487372
 20
4.7044562605622096
 30
0.0
 42
-0.1441989937915127
  0
VERTEX
  5
3F6
  8
6
 10
-5.3843877753329252
 20
5.9453890804775247
 30
0.0
  0
VERTEX
  5
3F7
  8
6
 10
-5.0344193561145403
 20
5.8128458753628811
 30
0.0
  0
VERTEX
  5
3F8
  8
6
 10
-4.8462124619522911
 20
6.1363018393858511
 30
0.0
  0
VERTEX
  5
3F9
  8
6
 10
-3.3966111565969181
 20
6.0148119087466512
 30
0.0
  0
VERTEX
  5
3FA
  8
6
 10
-3.1993838046755618
 20
5.7950653311800124
 30
0.0
  0
VERTEX
  5
3FB
  8
6
 10
-2.945238261540907
 20
5.9453890804775247
 30
0.0
  0
VERTEX
  5
3FC
  8
6
 10
-1.747584249497776
 20
5.9453890804775247
 30
0.0
  0
SEQEND
  5
3FD
  8
6
  0
DIMENSION
  5
2A0
  8
1
  2
*D2
 10
-0.0000000000000006
 20
-15.0427268488429
 30
0.0
 11
-1.5
 21
-12.25452766739679
 31
0.0
 70
     0
 13
-3.0
 23
-6.0
 33
0.0
 14
0.0
 24
-6.0
 34
0.0
  0
POLYLINE
  5
2A1
  8
5
 66
     1
 10
0.0
 20
0.0
 30
0.0
  0
VERTEX
  5
3FE
  8
5
 10
-6.0
 20
0.0
 30
0.0
  0
VERTEX
  5
3FF
  8
5
 10
-3.0
 20
0.0
 30
0.0
  0
VERTEX
  5
400
  8
5
 10
-3.0
 20
-6.0
 30
0.0
  0
VERTEX
  5
401
  8
5
 10
0.0
 20
-6.0
 30
0.0
  0
VERTEX
  5
402
  8
5
 10
0.0
 20
0.0
 30
0.0
  0
VERTEX
  5
403
  8
5
 10
3.0
 20
0.0
 30
0.0
  0
SEQEND
  5
404
  8
5
  0
DIMENSION
  5
2A2
  8
1
  2
*D3
 10
10.74877937066139
 20
-0.000000000000003
 30
0.0
 11
7.9617739136354739
 21
-3.0000000000000009
 31
0.0
 70
     0
 13
0.0
 23
-6.0
 33
0.0
 14
0.0
 24
0.0
 34
0.0
 50
90.0
  0
DIMENSION
  5
2A3
  8
1
  2
*D4
 10
10.74877937066139
 20
6.9999999999999956
 30
0.0
 11
7.998779370661393
 21
3.4999999999999978
 31
0.0
 70
     0
 13
0.0
 23
0.0
 33
0.0
 14
0.0
 24
7.0
 34
0.0
 50
90.0
  0
POLYLINE
  5
2A4
  8
6
 66
     1
 10
0.0
 20
0.0
 30
0.0
 70
     1
  0
VERTEX
  5
405
  8
6
 10
-1.5
 20
7.0
 30
0.0
 42
-0.3566252959829845
  0
VERTEX
  5
406
  8
6
 10
-1.0971673948474741
 20
6.6254118482549984
 30
0.0
 42
-0.012834237297955
  0
VERTEX
  5
407
  8
6
 10
1.989266265670721
 20
6.7098499465384966
 30
0.0
 42
-0.7890362292669892
  0
VERTEX
  5
408
  8
6
 10
2.7494101241973108
 20
6.6236163010594282
 30
0.0
 42
-0.1344171172618938
  0
VERTEX
  5
409
  8
6
 10
4.1964579822702026
 20
5.2018783490530041
 30
0.0
 42
-0.0884382348648352
  0
VERTEX
  5
40A
  8
6
 10
4.6416830380458123
 20
3.9611523744872552
 30
0.0
 42
-0.1553450975057197
  0
VERTEX
  5
40B
  8
6
 10
4.203101461926507
 20
2.138230560241936
 30
0.0
 42
-0.1336749596412557
  0
VERTEX
  5
40C
  8
6
 10
2.0328470445415401
 20
0.3397003774771292
 30
0.0
 42
-0.0548775178668954
  0
VERTEX
  5
40D
  8
6
 10
-0.7656390435713547
 20
-0.1646493730531802
 30
0.0
  0
VERTEX
  5
40E
  8
6
 10
-0.7656390435713547
 20
-1.1566531551172821
 30
0.0
  0
VERTEX
  5
40F
  8
6
 10
-0.1901895753899225
 20
-0.7464822164693034
 30
0.0
 42
-0.5341365814274237
  0
VERTEX
  5
410
  8
6
 10
-0.0190111781766973
 20
-0.8034504086697324
 30
0.0
  0
VERTEX
  5
411
  8
6
 10
-0.0190111781766973
 20
-1.2767108361288131
 30
0.0
 42
-0.1385363168312356
  0
VERTEX
  5
412
  8
6
 10
-0.1700280041245605
 20
-1.568972920163332
 30
0.0
  0
VERTEX
  5
413
  8
6
 10
-0.7939922711748296
 20
-2.1904498668245651
 30
0.0
  0
VERTEX
  5
414
  8
6
 10
-0.7939922711748296
 20
-3.0992680722633841
 30
0.0
 42
0.632906213782556
  0
VERTEX
  5
415
  8
6
 10
-0.6857228287885846
 20
-3.150539430178696
 30
0.0
  0
VERTEX
  5
416
  8
6
 10
-0.1733882660018935
 20
-2.8555981489862461
 30
0.0
 42
-0.5333128541368682
  0
VERTEX
  5
417
  8
6
 10
-0.0087354340007551
 20
-2.9227848479583818
 30
0.0
  0
VERTEX
  5
418
  8
6
 10
-0.0247095435843221
 20
-3.4777612890368341
 30
0.0
 42
-0.2265341607359641
  0
VERTEX
  5
419
  8
6
 10
-0.0493472010921323
 20
-3.5293502168944988
 30
0.0
  0
VERTEX
  5
41A
  8
6
 10
-1.349975663456916
 20
-4.580472028485473
 30
0.0
 42
-0.1889414318766982
  0
VERTEX
  5
41B
  8
6
 10
-1.5
 20
-4.6365959662509786
 30
0.0
 42
-0.1889414318766982
  0
VERTEX
  5
41C
  8
6
 10
-1.6500243365435381
 20
-4.580472028485473
 30
0.0
  0
VERTEX
  5
41D
  8
6
 10
-2.9506527989078668
 20
-3.5293502168944988
 30
0.0
 42
-0.2265341607359641
  0
VERTEX
  5
41E
  8
6
 10
-2.975290456415677
 20
-3.4777612890368341
 30
0.0
  0
VERTEX
  5
41F
  8
6
 10
-2.9912645659992441
 20
-2.9227848479583818
 30
0.0
 42
-0.5333128541368682
  0
VERTEX
  5
420
  8
6
 10
-2.8266117339981061
 20
-2.8555981489862461
 30
0.0
  0
VERTEX
  5
421
  8
6
 10
-2.314277171211415
 20
-3.150539430178696
 30
0.0
 42
0.632906213782556
  0
VERTEX
  5
422
  8
6
 10
-2.20600772882517
 20
-3.0992680722633841
 30
0.0
  0
VERTEX
  5
423
  8
6
 10
-2.20600772882517
 20
-2.1904498668245651
 30
0.0
  0
VERTEX
  5
424
  8
6
 10
-2.8299719958758942
 20
-1.568972920163332
 30
0.0
 42
-0.1385363168312356
  0
VERTEX
  5
425
  8
6
 10
-2.980988821823757
 20
-1.2767108361288131
 30
0.0
  0
VERTEX
  5
426
  8
6
 10
-2.980988821823757
 20
-0.8034504086697324
 30
0.0
 42
-0.5341365814274237
  0
VERTEX
  5
427
  8
6
 10
-2.809810424610077
 20
-0.7464822164693034
 30
0.0
  0
VERTEX
  5
428
  8
6
 10
-2.2343609564286449
 20
-1.1566531551172821
 30
0.0
  0
VERTEX
  5
429
  8
6
 10
-2.2343609564286449
 20
-0.1646493730531802
 30
0.0
 42
-0.0548775178668954
  0
VERTEX
  5
42A
  8
6
 10
-5.0328470445419953
 20
0.3397003774771292
 30
0.0
 42
-0.1336749596412557
  0
VERTEX
  5
42B
  8
6
 10
-7.203101461926507
 20
2.138230560241936
 30
0.0
 42
-0.1553450975057197
  0
VERTEX
  5
42C
  8
6
 10
-7.6416830380458123
 20
3.9611523744872552
 30
0.0
 42
-0.0884382348648352
  0
VERTEX
  5
42D
  8
6
 10
-7.1964579822702026
 20
5.2018783490530041
 30
0.0
 42
-0.1344171172618938
  0
VERTEX
  5
42E
  8
6
 10
-5.7494101241973112
 20
6.6236163010594282
 30
0.0
 42
-0.7890362292669892
  0
VERTEX
  5
42F
  8
6
 10
-4.9892662656707207
 20
6.7098499465384966
 30
0.0
 42
-0.012834237297955
  0
VERTEX
  5
430
  8
6
 10
-1.90283260515298
 20
6.6254118482549984
 30
0.0
 42
-0.3566252959829845
  0
SEQEND
  5
431
  8
6
  0
TEXT
  5
2A5
  8
1
 10
-0.6540249979457258
 20
10.659556087287219
 30
0.0
 40
2.5
  1
Hebgo 536
 41
0.9
  7
BESCHLAG
  0
VIEWPORT
  5
22
 67
     1
  8
0
 10
210.0
 20
170.2366863905325
 30
0.0
 40
420.0
 41
340.47337278106511
 68
     1
 69
     1
1001
ACAD
1000
MVIEW
1002
{
1070
    16
1010
0.0
1020
0.0
1030
0.0
1010
0.0
1020
0.0
1030
1.0
1040
0.0
1040
340.47337278106511
1040
210.0
1040
170.2366863905325
1040
50.0
1040
0.0
1040
0.0
1070
     0
1070
   100
1070
     1
1070
     1
1070
     0
1070
     0
1070
     0
1070
     0
1040
0.0
1040
0.0
1040
0.0
1040
5.0
1040
5.0
1040
10.0
1040
10.0
1070
     0
1002
{
1002
}
1002
}
  0
ENDSEC
  0
EOF
