  0
SECTION
  2
HEADER
  9
$ACADVER
  1
AC1009
  9
$INSBASE
 10
0.0
 20
0.0
 30
0.0
  9
$EXTMIN
 10
-34.584044577302393
 20
-12.634276485343319
 30
-0.0000000000000058
  9
$EXTMAX
 10
12.74871880042917
 20
12.19940239353968
 30
0.0000000000000104
  9
$LIMMIN
 10
-150.0
 20
-150.0
  9
$LIMMAX
 10
150.0
 20
150.0
  9
$ORTHOMODE
 70
     0
  9
$REGENMODE
 70
     1
  9
$FILLMODE
 70
     1
  9
$QTEXTMODE
 70
     0
  9
$MIRRTEXT
 70
     0
  9
$DRAGMODE
 70
     2
  9
$LTSCALE
 40
1.0
  9
$OSMODE
 70
   111
  9
$ATTMODE
 70
     1
  9
$TEXTSIZE
 40
3.5
  9
$TRACEWID
 40
1.0
  9
$TEXTSTYLE
  7
BESCHLAG
  9
$CLAYER
  8
0
  9
$CELTYPE
  6
BYLAYER
  9
$CECOLOR
 62
   256
  9
$DIMSCALE
 40
1.0
  9
$DIMASZ
 40
2.0
  9
$DIMEXO
 40
2.0
  9
$DIMDLI
 40
0.0
  9
$DIMRND
 40
0.0
  9
$DIMDLE
 40
1.0
  9
$DIMEXE
 40
1.0
  9
$DIMTP
 40
0.0
  9
$DIMTM
 40
0.0
  9
$DIMTXT
 40
3.5
  9
$DIMCEN
 40
0.0
  9
$DIMTSZ
 40
0.0
  9
$DIMTOL
 70
     0
  9
$DIMLIM
 70
     0
  9
$DIMTIH
 70
     0
  9
$DIMTOH
 70
     0
  9
$DIMSE1
 70
     0
  9
$DIMSE2
 70
     0
  9
$DIMTAD
 70
     1
  9
$DIMZIN
 70
     8
  9
$DIMBLK
  1

  9
$DIMASO
 70
     1
  9
$DIMSHO
 70
     1
  9
$DIMPOST
  1

  9
$DIMAPOST
  1

  9
$DIMALT
 70
     0
  9
$DIMALTD
 70
     2
  9
$DIMALTF
 40
0.039370078740157
  9
$DIMLFAC
 40
1.0
  9
$DIMTOFL
 70
     1
  9
$DIMTVP
 40
0.0
  9
$DIMTIX
 70
     1
  9
$DIMSOXD
 70
     0
  9
$DIMSAH
 70
     1
  9
$DIMBLK1
  1
OBLIQUE
  9
$DIMBLK2
  1
OBLIQUE
  9
$DIMSTYLE
  2
OPO-SSTRICH
  9
$DIMCLRD
 70
   256
  9
$DIMCLRE
 70
   256
  9
$DIMCLRT
 70
   256
  9
$DIMTFAC
 40
0.7114285714285716
  9
$DIMGAP
 40
1.0
  9
$LUNITS
 70
     2
  9
$LUPREC
 70
     1
  9
$SKETCHINC
 40
1.0
  9
$FILLETRAD
 40
0.0
  9
$AUNITS
 70
     0
  9
$AUPREC
 70
     1
  9
$MENU
  1
D:\ACL_CGWG\CGTAB13
  9
$ELEVATION
 40
0.0
  9
$PELEVATION
 40
0.0
  9
$THICKNESS
 40
0.0
  9
$LIMCHECK
 70
     0
  9
$BLIPMODE
 70
     0
  9
$CHAMFERA
 40
1.0
  9
$CHAMFERB
 40
1.0
  9
$SKPOLY
 70
     0
  9
$TDCREATE
 40
2451739.845071794
  9
$TDUPDATE
 40
2452086.712835046
  9
$TDINDWG
 40
0.0105418519
  9
$TDUSRTIMER
 40
0.0105418519
  9
$USRTIMER
 70
     1
  9
$ANGBASE
 50
0.0
  9
$ANGDIR
 70
     0
  9
$PDMODE
 70
    35
  9
$PDSIZE
 40
5.0
  9
$PLINEWID
 40
0.0
  9
$COORDS
 70
     1
  9
$SPLFRAME
 70
     0
  9
$SPLINETYPE
 70
     6
  9
$SPLINESEGS
 70
     8
  9
$ATTDIA
 70
     1
  9
$ATTREQ
 70
     1
  9
$HANDLING
 70
-16383
  9
$HANDSEED
  5
412
  9
$SURFTAB1
 70
    12
  9
$SURFTAB2
 70
    12
  9
$SURFTYPE
 70
     6
  9
$SURFU
 70
    12
  9
$SURFV
 70
    12
  9
$UCSNAME
  2

  9
$UCSORG
 10
0.0
 20
0.0
 30
0.0
  9
$UCSXDIR
 10
1.0
 20
0.0
 30
0.0
  9
$UCSYDIR
 10
0.0
 20
1.0
 30
0.0
  9
$PUCSNAME
  2

  9
$PUCSORG
 10
0.0
 20
0.0
 30
0.0
  9
$PUCSXDIR
 10
1.0
 20
0.0
 30
0.0
  9
$PUCSYDIR
 10
0.0
 20
1.0
 30
0.0
  9
$USERI1
 70
     0
  9
$USERI2
 70
     0
  9
$USERI3
 70
     0
  9
$USERI4
 70
     0
  9
$USERI5
 70
     0
  9
$USERR1
 40
0.0
  9
$USERR2
 40
0.0
  9
$USERR3
 40
0.0
  9
$USERR4
 40
0.0
  9
$USERR5
 40
0.0
  9
$WORLDVIEW
 70
     1
  9
$SHADEDGE
 70
     3
  9
$SHADEDIF
 70
    70
  9
$TILEMODE
 70
     1
  9
$MAXACTVP
 70
    48
  9
$PLIMCHECK
 70
     0
  9
$PEXTMIN
 10
1.0000000000000000E+020
 20
1.0000000000000000E+020
 30
1.0000000000000000E+020
  9
$PEXTMAX
 10
-1.0000000000000000E+020
 20
-1.0000000000000000E+020
 30
-1.0000000000000000E+020
  9
$PLIMMIN
 10
0.0
 20
0.0
  9
$PLIMMAX
 10
420.0
 20
297.0
  9
$UNITMODE
 70
     0
  9
$VISRETAIN
 70
     1
  9
$PLINEGEN
 70
     0
  9
$PSLTSCALE
 70
     1
  0
ENDSEC
  0
SECTION
  2
TABLES
  0
TABLE
  2
VPORT
 70
     2
  0
VPORT
  2
*ACTIVE
 70
     0
 10
0.0
 20
0.0
 11
1.0
 21
1.0
 12
-10.917662888436601
 22
-0.2174370459018178
 13
0.0
 23
0.0
 14
0.5
 24
0.5
 15
10.0
 25
10.0
 16
0.0
 26
0.0
 36
1.0
 17
0.0
 27
0.0
 37
0.0
 40
29.602074085277629
 41
1.6070460704607039
 42
50.0
 43
0.0
 44
0.0
 50
0.0
 51
0.0
 71
     0
 72
   800
 73
     1
 74
     1
 75
     0
 76
     0
 77
     0
 78
     0
  0
ENDTAB
  0
TABLE
  2
LTYPE
 70
     1
  0
LTYPE
  2
CONTINUOUS
 70
     0
  3
_______________________________________________
 72
    65
 73
     2
 40
1.0
 49
1.0
 49
0.0
  0
ENDTAB
  0
TABLE
  2
LAYER
 70
     5
  0
LAYER
  2
0
 70
     0
 62
    30
  6
CONTINUOUS
  0
LAYER
  2
1
 70
     0
 62
     2
  6
CONTINUOUS
  0
LAYER
  2
5
 70
     0
 62
     1
  6
CONTINUOUS
  0
LAYER
  2
6
 70
     0
 62
     3
  6
CONTINUOUS
  0
LAYER
  2
DEFPOINTS
 70
     0
 62
     7
  6
CONTINUOUS
  0
ENDTAB
  0
TABLE
  2
STYLE
 70
     2
  0
STYLE
  2
STANDARD
 70
     0
 40
0.0
 41
1.0
 50
0.0
 71
     0
 42
2.5
  3
txt
  4

  0
STYLE
  2
BESCHLAG
 70
     0
 40
0.0
 41
1.0
 50
0.0
 71
     0
 42
3.5
  3
txt
  4

  0
ENDTAB
  0
TABLE
  2
VIEW
 70
     0
  0
ENDTAB
  0
TABLE
  2
UCS
 70
     0
  0
ENDTAB
  0
TABLE
  2
APPID
 70
     1
  0
APPID
  2
ACAD
 70
     0
  0
ENDTAB
  0
TABLE
  2
DIMSTYLE
 70
     1
  0
DIMSTYLE
  2
OPO-SSTRICH
 70
     0
  3

  4

  5

  6
OBLIQUE
  7
OBLIQUE
 40
1.0
 41
2.0
 42
2.0
 43
0.0
 44
1.0
 45
0.0
 46
1.0
 47
0.0
 48
0.0
140
3.5
141
0.0
142
0.0
143
0.039370078740157
144
1.0
145
0.0
146
0.7114285714285716
147
1.0
 71
     0
 72
     0
 73
     0
 74
     0
 75
     0
 76
     0
 77
     1
 78
     8
170
     0
171
     2
172
     1
173
     1
174
     1
175
     0
176
   256
177
   256
178
   256
  0
ENDTAB
  0
ENDSEC
  0
SECTION
  2
BLOCKS
  0
BLOCK
  8
0
  2
$MODEL_SPACE
 70
     0
 10
0.0
 20
0.0
 30
0.0
  3
$MODEL_SPACE
  1

  0
ENDBLK
  5
1C
  8
0
  0
BLOCK
 67
     1
  8
0
  2
$PAPER_SPACE
 70
     0
 10
0.0
 20
0.0
 30
0.0
  3
$PAPER_SPACE
  1

  0
ENDBLK
  5
19
 67
     1
  8
0
  0
BLOCK
  8
0
  2
_OBLIQUE
 70
     0
 10
0.0
 20
0.0
 30
0.0
  3
_OBLIQUE
  1

  0
LINE
  5
204
  8
0
 62
     0
 10
-0.5
 20
-0.5
 30
0.0
 11
0.5
 21
0.5
 31
0.0
  0
ENDBLK
  5
206
  8
0
  0
BLOCK
  8
0
  2
NULLPUNKT
 70
     0
 10
0.0
 20
0.0
 30
0.0
  3
NULLPUNKT
  1

  0
SOLID
  5
254
  8
5
 10
0.0
 20
0.0
 30
0.0
 11
2.0
 21
0.0
 31
0.0
 12
0.0
 22
-2.0
 32
0.0
 13
0.0
 23
-2.0
 33
0.0
  0
SOLID
  5
255
  8
5
 10
0.0
 20
0.0
 30
0.0
 11
-2.0
 21
0.0
 31
0.0
 12
0.0
 22
2.0
 32
0.0
 13
0.0
 23
2.0
 33
0.0
  0
POLYLINE
  5
256
  8
5
 66
     1
 10
0.0
 20
0.0
 30
0.0
  0
VERTEX
  5
3D5
  8
5
 10
0.0
 20
2.0
 30
0.0
  0
VERTEX
  5
3D6
  8
5
 10
0.0
 20
-2.0
 30
0.0
  0
SEQEND
  5
3D7
  8
5
  0
POLYLINE
  5
257
  8
5
 66
     1
 10
0.0
 20
0.0
 30
0.0
  0
VERTEX
  5
3D8
  8
5
 10
-2.0
 20
0.0
 30
0.0
  0
VERTEX
  5
3D9
  8
5
 10
2.0
 20
0.0
 30
0.0
  0
SEQEND
  5
3DA
  8
5
  0
CIRCLE
  5
258
  8
5
 10
0.0
 20
0.0
 30
0.0
 40
2.0
  0
ENDBLK
  5
25A
  8
0
  0
BLOCK
  8
0
  2
*D2
 70
     1
 10
0.0
 20
0.0
 30
0.0
  3
*D2
  1

  0
LINE
  5
2EE
  8
1
 10
-12.0
 20
-2.0
 30
0.0
 11
-12.0
 21
-12.627920674892721
 31
0.0
  0
LINE
  5
2EF
  8
1
 10
-0.0000000000000001
 20
-2.0
 30
0.0
 11
-0.0000000000000008
 21
-12.627920674892721
 31
0.0
  0
LINE
  5
2F0
  8
1
 10
-13.0
 20
-11.627920674892721
 30
0.0
 11
0.9999999999999992
 21
-11.627920674892721
 31
0.0
  0
INSERT
  5
2F1
  8
1
  2
_OBLIQUE
 10
-12.0
 20
-11.627920674892721
 30
0.0
 41
2.0
 42
2.0
 43
2.0
 50
180.0
  0
INSERT
  5
2F2
  8
1
  2
_OBLIQUE
 10
-0.0000000000000007
 20
-11.627920674892721
 30
0.0
 41
2.0
 42
2.0
 43
2.0
  0
TEXT
  5
2F3
  8
0
 10
-8.8565825375170526
 20
-10.62075832837157
 30
0.0
 40
3.5
  1
12
  7
BESCHLAG
  0
POINT
  5
2F4
  8
DEFPOINTS
 62
     0
 10
-12.0
 20
0.0
 30
0.0
  0
POINT
  5
2F5
  8
DEFPOINTS
 62
     0
 10
0.0
 20
0.0
 30
0.0
  0
POINT
  5
2F6
  8
DEFPOINTS
 62
     0
 10
-0.0000000000000007
 20
-11.627920674892721
 30
0.0
  0
ENDBLK
  5
2C5
  8
0
  0
BLOCK
  8
0
  2
*D3
 70
     1
 10
0.0
 20
0.0
 30
0.0
  3
*D3
  1

  0
LINE
  5
2F7
  8
1
 10
-20.0
 20
-2.0
 30
0.0
 11
-20.0
 21
-12.627920674892721
 31
0.0
  0
LINE
  5
2F8
  8
1
 10
-12.0
 20
-2.0
 30
0.0
 11
-12.0
 21
-12.627920674892721
 31
0.0
  0
LINE
  5
2F9
  8
1
 10
-21.0
 20
-11.627920674892721
 30
0.0
 11
-11.0
 21
-11.627920674892721
 31
0.0
  0
INSERT
  5
2FA
  8
1
  2
_OBLIQUE
 10
-20.0
 20
-11.627920674892721
 30
0.0
 41
2.0
 42
2.0
 43
2.0
 50
180.0
  0
INSERT
  5
2FB
  8
1
  2
_OBLIQUE
 10
-12.0
 20
-11.627920674892721
 30
0.0
 41
2.0
 42
2.0
 43
2.0
  0
TEXT
  5
2FC
  8
0
 10
-17.351296043656209
 20
-10.561072107362021
 30
0.0
 40
3.5
  1
8
  7
BESCHLAG
  0
POINT
  5
2FD
  8
DEFPOINTS
 62
     0
 10
-20.0
 20
0.0
 30
0.0
  0
POINT
  5
2FE
  8
DEFPOINTS
 62
     0
 10
-12.0
 20
0.0
 30
0.0
  0
POINT
  5
2FF
  8
DEFPOINTS
 62
     0
 10
-12.0
 20
-11.627920674892721
 30
0.0
  0
ENDBLK
  5
2D1
  8
0
  0
BLOCK
  8
0
  2
*D4
 70
     1
 10
0.0
 20
0.0
 30
0.0
  3
*D4
  1

  0
LINE
  5
300
  8
1
 10
-22.0
 20
0.0000000000000006
 30
0.0
 11
-30.141845684360302
 21
0.0000000000000029
 31
0.0
  0
LINE
  5
301
  8
1
 10
-22.0
 20
4.0
 30
0.0
 11
-30.141845684360302
 21
4.0000000000000018
 31
0.0
  0
LINE
  5
302
  8
1
 10
-29.141845684360302
 20
0.0000000000000026
 30
0.0
 11
-29.141845684360302
 21
-1.9999999999999969
 31
0.0
  0
LINE
  5
303
  8
1
 10
-29.141845684360302
 20
4.0000000000000018
 30
0.0
 11
-29.141845684360302
 21
6.0000000000000018
 31
0.0
  0
LINE
  5
304
  8
1
 10
-29.141845684360302
 20
0.0000000000000026
 30
0.0
 11
-29.141845684360302
 21
4.0000000000000018
 31
0.0
  0
INSERT
  5
305
  8
1
  2
_OBLIQUE
 10
-29.141845684360302
 20
0.0000000000000026
 30
0.0
 41
2.0
 42
2.0
 43
2.0
 50
90.0
  0
INSERT
  5
306
  8
1
  2
_OBLIQUE
 10
-29.141845684360302
 20
4.0000000000000018
 30
0.0
 41
2.0
 42
2.0
 43
2.0
 50
270.0
  0
TEXT
  5
307
  8
0
 10
-30.141845684360302
 20
0.7274897680763964
 30
0.0
 40
3.5
  1
4
 50
90.0
  7
BESCHLAG
  0
POINT
  5
308
  8
DEFPOINTS
 62
     0
 10
-20.0
 20
0.0
 30
0.0
  0
POINT
  5
309
  8
DEFPOINTS
 62
     0
 10
-20.0
 20
4.0
 30
0.0
  0
POINT
  5
30A
  8
DEFPOINTS
 62
     0
 10
-29.141845684360302
 20
4.0000000000000018
 30
0.0
  0
ENDBLK
  5
2DF
  8
0
  0
BLOCK
  8
0
  2
*D5
 70
     1
 10
0.0
 20
0.0
 30
0.0
  3
*D5
  1

  0
LINE
  5
30B
  8
1
 10
2.0
 20
-0.0000000000000006
 30
0.0
 11
11.09945945518575
 21
-0.0000000000000031
 31
0.0
  0
LINE
  5
30C
  8
1
 10
2.0
 20
3.9999999999999991
 30
0.0
 11
11.09945945518575
 21
3.999999999999996
 31
0.0
  0
LINE
  5
30D
  8
1
 10
10.09945945518575
 20
-0.0000000000000029
 30
0.0
 11
10.09945945518575
 21
-2.0000000000000022
 31
0.0
  0
LINE
  5
30E
  8
1
 10
10.09945945518575
 20
3.9999999999999969
 30
0.0
 11
10.09945945518575
 21
5.9999999999999973
 31
0.0
  0
LINE
  5
30F
  8
1
 10
10.09945945518575
 20
-0.0000000000000029
 30
0.0
 11
10.09945945518575
 21
3.9999999999999969
 31
0.0
  0
INSERT
  5
310
  8
1
  2
_OBLIQUE
 10
10.09945945518575
 20
-0.0000000000000029
 30
0.0
 41
2.0
 42
2.0
 43
2.0
 50
90.0
  0
INSERT
  5
311
  8
1
  2
_OBLIQUE
 10
10.09945945518575
 20
3.9999999999999969
 30
0.0
 41
2.0
 42
2.0
 43
2.0
 50
270.0
  0
TEXT
  5
312
  8
0
 10
9.0994594551857517
 20
0.7274897680763975
 30
0.0
 40
3.5
  1
4
 50
90.0
  7
BESCHLAG
  0
POINT
  5
313
  8
DEFPOINTS
 62
     0
 10
0.0
 20
0.0
 30
0.0
  0
POINT
  5
314
  8
DEFPOINTS
 62
     0
 10
0.0
 20
4.0
 30
0.0
  0
POINT
  5
315
  8
DEFPOINTS
 62
     0
 10
10.09945945518575
 20
3.9999999999999969
 30
0.0
  0
ENDBLK
  5
2ED
  8
0
  0
ENDSEC
  0
SECTION
  2
ENTITIES
  0
INSERT
  5
25B
  8
5
  2
NULLPUNKT
 10
0.0
 20
0.0
 30
0.0
  0
POLYLINE
  5
2AF
  8
5
 66
     1
 10
0.0
 20
0.0
 30
0.0
  0
VERTEX
  5
3DB
  8
5
 10
-8.0
 20
10.535711254382241
 30
0.0
  0
VERTEX
  5
3DC
  8
5
 10
-8.0
 20
4.0
 30
0.0
  0
VERTEX
  5
3DD
  8
5
 10
2.3892720946023469
 20
4.0
 30
0.0
  0
SEQEND
  5
3DE
  8
5
  0
POLYLINE
  5
2B0
  8
6
 66
     1
 10
0.0
 20
0.0
 30
0.0
 70
     1
  0
VERTEX
  5
3DF
  8
6
 10
-10.661115149056959
 20
1.6135413708677779
 30
0.0
  0
VERTEX
  5
3E0
  8
6
 10
-10.661115149056959
 20
2.1700670659670318
 30
0.0
 42
-0.2339445794312582
  0
VERTEX
  5
3E1
  8
6
 10
-10.2009030384338
 20
2.5133566244287522
 30
0.0
 42
-0.0593764220404475
  0
VERTEX
  5
3E2
  8
6
 10
-6.3259751837626927
 20
2.886593814959951
 30
0.0
 42
-0.1979446149929635
  0
VERTEX
  5
3E3
  8
6
 10
-5.7205863993649473
 20
2.46919955657313
 30
0.0
 42
-0.0066400714691037
  0
VERTEX
  5
3E4
  8
6
 10
-5.323952410819401
 20
1.7596293638905529
 30
0.0
 42
0.1459266467210745
  0
VERTEX
  5
3E5
  8
6
 10
-4.8637126333869674
 20
1.441911676897689
 30
0.0
  0
VERTEX
  5
3E6
  8
6
 10
-3.4312162746386998
 20
1.4621227694065051
 30
0.0
 42
-1.109740571487281
  0
VERTEX
  5
3E7
  8
6
 10
-3.410367377159218
 20
1.2239734412235059
 30
0.0
  0
VERTEX
  5
3E8
  8
6
 10
-10.300287778673001
 20
1.156419780961869
 30
0.0
 42
-0.3325599667970468
  0
SEQEND
  5
3E9
  8
6
  0
POLYLINE
  5
2B1
  8
6
 66
     1
 10
0.0
 20
0.0
 30
0.0
  0
VERTEX
  5
3EA
  8
6
 10
-12.4004392591346
 20
1.8639285580557039
 30
0.0
 42
0.1388322320064667
  0
VERTEX
  5
3EB
  8
6
 10
-11.59545296070155
 20
2.6166607999457479
 30
0.0
 42
-0.6572424397945844
  0
VERTEX
  5
3EC
  8
6
 10
-10.873825543481869
 20
2.5492990304096561
 30
0.0
 42
0.0959822808579751
  0
VERTEX
  5
3ED
  8
6
 10
-10.661115149056959
 20
2.074389327445942
 30
0.0
 42
0.3315536874638822
  0
SEQEND
  5
3EE
  8
6
  0
POLYLINE
  5
2B2
  8
6
 66
     1
 10
0.0
 20
0.0
 30
0.0
  0
VERTEX
  5
3EF
  8
6
 10
-3.2901529424339051
 20
1.3225138379932551
 30
0.0
 42
-0.6901502268946116
  0
VERTEX
  5
3F0
  8
6
 10
-2.6158852184521488
 20
1.104441924023603
 30
0.0
  0
VERTEX
  5
3F1
  8
6
 10
-2.525955079458071
 20
0.0
 30
0.0
  0
SEQEND
  5
3F2
  8
6
  0
DIMENSION
  5
2B3
  8
1
  2
*D2
 10
-0.0000000000000007
 20
-11.627920674892721
 30
0.0
 11
-6.0
 21
-8.8707583283715756
 31
0.0
 70
     0
 13
-12.0
 23
0.0
 33
0.0
 14
0.0
 24
0.0
 34
0.0
  0
DIMENSION
  5
2B4
  8
1
  2
*D3
 10
-12.0
 20
-11.627920674892721
 30
0.0
 11
-16.0
 21
-8.8409152178667991
 31
0.0
 70
     0
 13
-20.0
 23
0.0
 33
0.0
 14
-12.0
 24
0.0
 34
0.0
  0
POLYLINE
  5
2B5
  8
6
 66
     1
 10
0.0
 20
0.0
 30
0.0
 70
     1
  0
VERTEX
  5
3F3
  8
6
 10
-18.948844046309659
 20
0.0
 30
0.0
 42
-0.410162645560194
  0
VERTEX
  5
3F4
  8
6
 10
-19.161663254364608
 20
0.3775861443914437
 30
0.0
  0
VERTEX
  5
3F5
  8
6
 10
-19.000699130234349
 20
2.72856823158213
 30
0.0
 42
-0.3585892363107915
  0
VERTEX
  5
3F6
  8
6
 10
-18.63224128127467
 20
3.118592393328981
 30
0.0
 42
0.0399380237796934
  0
VERTEX
  5
3F7
  8
6
 10
-15.38500702339115
 20
3.9413415310518749
 30
0.0
 42
-0.9882761290022394
  0
VERTEX
  5
3F8
  8
6
 10
-15.04880804720414
 20
3.4456214777449068
 30
0.0
 42
-0.0585048647200884
  0
VERTEX
  5
3F9
  8
6
 10
-17.758057017380452
 20
1.7896211391073391
 30
0.0
 42
0.6480298987234897
  0
VERTEX
  5
3FA
  8
6
 10
-17.656911693202339
 20
1.4140423435178491
 30
0.0
  0
VERTEX
  5
3FB
  8
6
 10
-12.83083627762516
 20
1.479046361850805
 30
0.0
 42
0.3053668716993292
  0
VERTEX
  5
3FC
  8
6
 10
-12.378303937809051
 20
1.9511920433685641
 30
0.0
 42
0.1064260801386476
  0
VERTEX
  5
3FD
  8
6
 10
-12.0
 20
5.6970855172819483
 30
0.0
 42
-0.732383987436446
  0
VERTEX
  5
3FE
  8
6
 10
-11.13304034327393
 20
5.9426562762059802
 30
0.0
 42
-0.0653905613408401
  0
VERTEX
  5
3FF
  8
6
 10
-10.10713809311255
 20
3.9564221297027871
 30
0.0
 42
0.3856205419741194
  0
VERTEX
  5
400
  8
6
 10
-9.5363896644485067
 20
3.6530700096495821
 30
0.0
 42
-0.0767688294405497
  0
VERTEX
  5
401
  8
6
 10
-5.5623301212985998
 20
3.7522183640430731
 30
0.0
 42
-0.0434455559125051
  0
VERTEX
  5
402
  8
6
 10
-1.4837077911511181
 20
3.970752738993951
 30
0.0
 42
-0.7692909529042915
  0
VERTEX
  5
403
  8
6
 10
-1.4180225978216181
 20
3.2730404409498979
 30
0.0
  0
VERTEX
  5
404
  8
6
 10
-4.2725203548252457
 20
2.7305742348721651
 30
0.0
 42
1.021559493529655
  0
VERTEX
  5
405
  8
6
 10
-4.2129906490035864
 20
2.49252121430527
 30
0.0
 42
0.0424134707008852
  0
VERTEX
  5
406
  8
6
 10
-1.980627607489168
 20
2.3437381087951499
 30
0.0
 42
-0.3607722910894878
  0
VERTEX
  5
407
  8
6
 10
-1.7921169524806819
 20
1.9866586038201599
 30
0.0
  0
VERTEX
  5
408
  8
6
 10
-2.2021319968321218
 20
0.0
 30
0.0
  0
SEQEND
  5
409
  8
6
  0
POLYLINE
  5
2B6
  8
5
 66
     1
 10
0.0
 20
0.0
 30
0.0
  0
VERTEX
  5
40A
  8
5
 10
-15.0
 20
7.0
 30
0.0
  0
VERTEX
  5
40B
  8
5
 10
-12.0
 20
7.0
 30
0.0
  0
VERTEX
  5
40C
  8
5
 10
-12.0
 20
4.0
 30
0.0
  0
VERTEX
  5
40D
  8
5
 10
-20.0
 20
4.0
 30
0.0
  0
VERTEX
  5
40E
  8
5
 10
-20.0
 20
0.0
 30
0.0
  0
VERTEX
  5
40F
  8
5
 10
0.0
 20
0.0
 30
0.0
  0
VERTEX
  5
410
  8
5
 10
0.0
 20
-3.9538926153389862
 30
0.0
  0
SEQEND
  5
411
  8
5
  0
DIMENSION
  5
2B7
  8
1
  2
*D4
 10
-29.141845684360302
 20
4.0000000000000018
 30
0.0
 11
-31.891845684360302
 21
1.999999999999998
 31
0.0
 70
     0
 13
-20.0
 23
0.0
 33
0.0
 14
-20.0
 24
4.0
 34
0.0
 50
90.0
  0
DIMENSION
  5
2B8
  8
1
  2
*D5
 10
10.09945945518575
 20
3.9999999999999969
 30
0.0
 11
7.3494594551857508
 21
1.9999999999999989
 31
0.0
 70
     0
 13
0.0
 23
0.0
 33
0.0
 14
0.0
 24
4.0
 34
0.0
 50
90.0
  0
TEXT
  5
2B9
  8
1
 10
-4.355129193979792
 20
9.0307252437564784
 30
0.0
 40
2.5
  1
Hebgo 554
  7
BESCHLAG
  0
VIEWPORT
  5
22
 67
     1
  8
0
 10
210.0
 20
170.2366863905325
 30
0.0
 40
420.0
 41
340.47337278106511
 68
     1
 69
     1
1001
ACAD
1000
MVIEW
1002
{
1070
    16
1010
0.0
1020
0.0
1030
0.0
1010
0.0
1020
0.0
1030
1.0
1040
0.0
1040
340.47337278106511
1040
210.0
1040
170.2366863905325
1040
50.0
1040
0.0
1040
0.0
1070
     0
1070
   100
1070
     1
1070
     1
1070
     0
1070
     0
1070
     0
1070
     0
1040
0.0
1040
0.0
1040
0.0
1040
5.0
1040
5.0
1040
10.0
1040
10.0
1070
     0
1002
{
1002
}
1002
}
  0
ENDSEC
  0
EOF
