  0
SECTION
  2
HEADER
  9
$ACADVER
  1
AC1009
  9
$INSBASE
 10
0.0
 20
0.0
 30
0.0
  9
$EXTMIN
 10
-85.999999999999545
 20
-17.050471313595601
 30
0.0
  9
$EXTMAX
 10
2.0
 20
20.0
 30
0.0
  9
$LIMMIN
 10
-150.0
 20
-150.0
  9
$LIMMAX
 10
150.0
 20
150.0
  9
$ORTHOMODE
 70
     0
  9
$REGENMODE
 70
     1
  9
$FILLMODE
 70
     1
  9
$QTEXTMODE
 70
     0
  9
$MIRRTEXT
 70
     0
  9
$DRAGMODE
 70
     2
  9
$LTSCALE
 40
4.0
  9
$OSMODE
 70
   111
  9
$ATTMODE
 70
     1
  9
$TEXTSIZE
 40
3.5
  9
$TRACEWID
 40
1.0
  9
$TEXTSTYLE
  7
BESCHLAG
  9
$CLAYER
  8
0
  9
$CELTYPE
  6
BYLAYER
  9
$CECOLOR
 62
   256
  9
$DIMSCALE
 40
1.0
  9
$DIMASZ
 40
2.0
  9
$DIMEXO
 40
2.0
  9
$DIMDLI
 40
0.0
  9
$DIMRND
 40
0.0
  9
$DIMDLE
 40
1.0
  9
$DIMEXE
 40
1.0
  9
$DIMTP
 40
0.0
  9
$DIMTM
 40
0.0
  9
$DIMTXT
 40
3.5
  9
$DIMCEN
 40
0.0
  9
$DIMTSZ
 40
0.0
  9
$DIMTOL
 70
     0
  9
$DIMLIM
 70
     0
  9
$DIMTIH
 70
     0
  9
$DIMTOH
 70
     0
  9
$DIMSE1
 70
     0
  9
$DIMSE2
 70
     0
  9
$DIMTAD
 70
     1
  9
$DIMZIN
 70
     8
  9
$DIMBLK
  1

  9
$DIMASO
 70
     1
  9
$DIMSHO
 70
     1
  9
$DIMPOST
  1

  9
$DIMAPOST
  1

  9
$DIMALT
 70
     0
  9
$DIMALTD
 70
     2
  9
$DIMALTF
 40
0.039370078740157
  9
$DIMLFAC
 40
1.0
  9
$DIMTOFL
 70
     1
  9
$DIMTVP
 40
0.0
  9
$DIMTIX
 70
     1
  9
$DIMSOXD
 70
     0
  9
$DIMSAH
 70
     1
  9
$DIMBLK1
  1
OBLIQUE
  9
$DIMBLK2
  1
OBLIQUE
  9
$DIMSTYLE
  2
OPO-SSTRICH
  9
$DIMCLRD
 70
   256
  9
$DIMCLRE
 70
   256
  9
$DIMCLRT
 70
   256
  9
$DIMTFAC
 40
0.7114285714285716
  9
$DIMGAP
 40
1.0
  9
$LUNITS
 70
     2
  9
$LUPREC
 70
     1
  9
$SKETCHINC
 40
1.0
  9
$FILLETRAD
 40
0.0
  9
$AUNITS
 70
     0
  9
$AUPREC
 70
     1
  9
$MENU
  1
D:\ACL_CGWG\CGTAB13
  9
$ELEVATION
 40
0.0
  9
$PELEVATION
 40
0.0
  9
$THICKNESS
 40
0.0
  9
$LIMCHECK
 70
     0
  9
$BLIPMODE
 70
     0
  9
$CHAMFERA
 40
1.0
  9
$CHAMFERB
 40
1.0
  9
$SKPOLY
 70
     0
  9
$TDCREATE
 40
2451739.8726683562
  9
$TDUPDATE
 40
2452087.6224168981
  9
$TDINDWG
 40
0.0007939468
  9
$TDUSRTIMER
 40
0.0007939468
  9
$USRTIMER
 70
     1
  9
$ANGBASE
 50
0.0
  9
$ANGDIR
 70
     0
  9
$PDMODE
 70
    35
  9
$PDSIZE
 40
5.0
  9
$PLINEWID
 40
0.0
  9
$COORDS
 70
     1
  9
$SPLFRAME
 70
     0
  9
$SPLINETYPE
 70
     6
  9
$SPLINESEGS
 70
     8
  9
$ATTDIA
 70
     1
  9
$ATTREQ
 70
     1
  9
$HANDLING
 70
-16383
  9
$HANDSEED
  5
4AA
  9
$SURFTAB1
 70
    12
  9
$SURFTAB2
 70
    12
  9
$SURFTYPE
 70
     6
  9
$SURFU
 70
    12
  9
$SURFV
 70
    12
  9
$UCSNAME
  2

  9
$UCSORG
 10
0.0
 20
0.0
 30
0.0
  9
$UCSXDIR
 10
1.0
 20
0.0
 30
0.0
  9
$UCSYDIR
 10
0.0
 20
1.0
 30
0.0
  9
$PUCSNAME
  2

  9
$PUCSORG
 10
0.0
 20
0.0
 30
0.0
  9
$PUCSXDIR
 10
1.0
 20
0.0
 30
0.0
  9
$PUCSYDIR
 10
0.0
 20
1.0
 30
0.0
  9
$USERI1
 70
     0
  9
$USERI2
 70
     0
  9
$USERI3
 70
     0
  9
$USERI4
 70
     0
  9
$USERI5
 70
     0
  9
$USERR1
 40
0.0
  9
$USERR2
 40
0.0
  9
$USERR3
 40
0.0
  9
$USERR4
 40
0.0
  9
$USERR5
 40
0.0
  9
$WORLDVIEW
 70
     1
  9
$SHADEDGE
 70
     3
  9
$SHADEDIF
 70
    70
  9
$TILEMODE
 70
     1
  9
$MAXACTVP
 70
    48
  9
$PLIMCHECK
 70
     0
  9
$PEXTMIN
 10
1.0000000000000000E+020
 20
1.0000000000000000E+020
 30
1.0000000000000000E+020
  9
$PEXTMAX
 10
-1.0000000000000000E+020
 20
-1.0000000000000000E+020
 30
-1.0000000000000000E+020
  9
$PLIMMIN
 10
0.0
 20
0.0
  9
$PLIMMAX
 10
420.0
 20
297.0
  9
$UNITMODE
 70
     0
  9
$VISRETAIN
 70
     1
  9
$PLINEGEN
 70
     0
  9
$PSLTSCALE
 70
     1
  0
ENDSEC
  0
SECTION
  2
TABLES
  0
TABLE
  2
VPORT
 70
     2
  0
VPORT
  2
*ACTIVE
 70
     0
 10
0.0
 20
0.0
 11
1.0
 21
1.0
 12
-41.999816244933527
 22
2.411369756548694
 13
0.0
 23
0.0
 14
0.5
 24
0.5
 15
10.0
 25
10.0
 16
0.0
 26
0.0
 36
1.0
 17
0.0
 27
0.0
 37
0.0
 40
55.086400531058629
 41
1.6070460704607039
 42
50.0
 43
0.0
 44
0.0
 50
0.0
 51
0.0
 71
     0
 72
   800
 73
     1
 74
     1
 75
     0
 76
     0
 77
     0
 78
     0
  0
ENDTAB
  0
TABLE
  2
LTYPE
 70
     2
  0
LTYPE
  2
CONTINUOUS
 70
     0
  3
_______________________________________________
 72
    65
 73
     2
 40
1.0
 49
1.0
 49
0.0
  0
LTYPE
  2
STRICHPUNKT
 70
     0
  3
__ . __ . __ . __ . __ . __ . __ . __ . __ . __
 72
    65
 73
     4
 40
1.0
 49
0.5
 49
-0.25
 49
0.0
 49
-0.25
  0
ENDTAB
  0
TABLE
  2
LAYER
 70
     7
  0
LAYER
  2
0
 70
     0
 62
    30
  6
CONTINUOUS
  0
LAYER
  2
1
 70
     0
 62
     2
  6
CONTINUOUS
  0
LAYER
  2
2
 70
     0
 62
     9
  6
CONTINUOUS
  0
LAYER
  2
4
 70
     1
 62
     4
  6
CONTINUOUS
  0
LAYER
  2
5
 70
     0
 62
     1
  6
CONTINUOUS
  0
LAYER
  2
6
 70
     0
 62
     3
  6
CONTINUOUS
  0
LAYER
  2
DEFPOINTS
 70
     0
 62
     7
  6
CONTINUOUS
  0
ENDTAB
  0
TABLE
  2
STYLE
 70
     2
  0
STYLE
  2
STANDARD
 70
     0
 40
0.0
 41
1.0
 50
0.0
 71
     0
 42
2.5
  3
txt
  4

  0
STYLE
  2
BESCHLAG
 70
     0
 40
0.0
 41
1.0
 50
0.0
 71
     0
 42
3.5
  3
txt
  4

  0
ENDTAB
  0
TABLE
  2
VIEW
 70
     0
  0
ENDTAB
  0
TABLE
  2
UCS
 70
     0
  0
ENDTAB
  0
TABLE
  2
APPID
 70
     1
  0
APPID
  2
ACAD
 70
     0
  0
ENDTAB
  0
TABLE
  2
DIMSTYLE
 70
     1
  0
DIMSTYLE
  2
OPO-SSTRICH
 70
     0
  3

  4

  5

  6
OBLIQUE
  7
OBLIQUE
 40
1.0
 41
2.0
 42
2.0
 43
0.0
 44
1.0
 45
0.0
 46
1.0
 47
0.0
 48
0.0
140
3.5
141
0.0
142
0.0
143
0.039370078740157
144
1.0
145
0.0
146
0.7114285714285716
147
1.0
 71
     0
 72
     0
 73
     0
 74
     0
 75
     0
 76
     0
 77
     1
 78
     8
170
     0
171
     2
172
     1
173
     1
174
     1
175
     0
176
   256
177
   256
178
   256
  0
ENDTAB
  0
ENDSEC
  0
SECTION
  2
BLOCKS
  0
BLOCK
  8
0
  2
$MODEL_SPACE
 70
     0
 10
0.0
 20
0.0
 30
0.0
  3
$MODEL_SPACE
  1

  0
ENDBLK
  5
1C
  8
0
  0
BLOCK
 67
     1
  8
0
  2
$PAPER_SPACE
 70
     0
 10
0.0
 20
0.0
 30
0.0
  3
$PAPER_SPACE
  1

  0
ENDBLK
  5
19
 67
     1
  8
0
  0
BLOCK
  8
0
  2
_OBLIQUE
 70
     0
 10
0.0
 20
0.0
 30
0.0
  3
_OBLIQUE
  1

  0
LINE
  5
204
  8
0
 62
     0
 10
-0.5
 20
-0.5
 30
0.0
 11
0.5
 21
0.5
 31
0.0
  0
ENDBLK
  5
206
  8
0
  0
BLOCK
  8
0
  2
NULLPUNKT
 70
     0
 10
0.0
 20
0.0
 30
0.0
  3
NULLPUNKT
  1

  0
SOLID
  5
254
  8
5
 10
0.0
 20
0.0
 30
0.0
 11
2.0
 21
0.0
 31
0.0
 12
0.0
 22
-2.0
 32
0.0
 13
0.0
 23
-2.0
 33
0.0
  0
SOLID
  5
255
  8
5
 10
0.0
 20
0.0
 30
0.0
 11
-2.0
 21
0.0
 31
0.0
 12
0.0
 22
2.0
 32
0.0
 13
0.0
 23
2.0
 33
0.0
  0
POLYLINE
  5
256
  8
5
 66
     1
 10
0.0
 20
0.0
 30
0.0
  0
VERTEX
  5
3F5
  8
5
 10
0.0
 20
2.0
 30
0.0
  0
VERTEX
  5
3F6
  8
5
 10
0.0
 20
-2.0
 30
0.0
  0
SEQEND
  5
3F7
  8
5
  0
POLYLINE
  5
257
  8
5
 66
     1
 10
0.0
 20
0.0
 30
0.0
  0
VERTEX
  5
3F8
  8
5
 10
-2.0
 20
0.0
 30
0.0
  0
VERTEX
  5
3F9
  8
5
 10
2.0
 20
0.0
 30
0.0
  0
SEQEND
  5
3FA
  8
5
  0
CIRCLE
  5
258
  8
5
 10
0.0
 20
0.0
 30
0.0
 40
2.0
  0
ENDBLK
  5
25A
  8
0
  0
BLOCK
  8
0
  2
*X2
 70
     1
 10
0.0
 20
0.0
 30
0.0
  3
*X2
  1

  0
LINE
  5
286
  8
0
 62
     0
 10
203.69838563739549
 20
-312.20672191630928
 30
0.0
 11
206.73172769788749
 21
-309.17337985581742
 31
0.0
  0
LINE
  5
287
  8
0
 62
     0
 10
202.00132936254789
 20
-312.20672191630928
 30
0.0
 11
204.1650697561881
 21
-310.04103649126341
 31
0.0
  0
LINE
  5
288
  8
0
 62
     0
 10
205.74080569068329
 20
-308.46530055974858
 30
0.0
 11
205.75833485821261
 21
-308.44971642064462
 31
0.0
  0
LINE
  5
289
  8
0
 62
     0
 10
200.30427308770021
 20
-312.20672191630928
 30
0.0
 11
203.03467142275321
 21
-309.47632358125622
 31
0.0
  0
LINE
  5
28A
  8
0
 62
     0
 10
198.60721681285241
 20
-312.20672191630928
 30
0.0
 11
202.18614328613191
 21
-308.62779544302992
 31
0.0
  0
LINE
  5
28B
  8
0
 62
     0
 10
196.91016053800479
 20
-312.20672191630928
 30
0.0
 11
199.33761514761909
 21
-309.77926730669498
 31
0.0
  0
LINE
  5
28C
  8
0
 62
     0
 10
195.21310426315699
 20
-312.20672191630928
 30
0.0
 11
198.48908701099759
 21
-308.93073916846862
 31
0.0
  0
LINE
  5
28D
  8
0
 62
     0
 10
193.51604798830931
 20
-312.20672191630928
 30
0.0
 11
195.64357189162629
 21
-310.07919801299232
 31
0.0
  0
LINE
  5
28E
  8
0
 62
     0
 10
191.8189917134616
 20
-312.20672191630928
 30
0.0
 11
194.7920307344657
 21
-309.23368289530521
 31
0.0
  0
LINE
  5
28F
  8
0
 62
     0
 10
190.12193543861389
 20
-312.20672191630928
 30
0.0
 11
193.9186001251509
 21
-308.41005722977229
 31
0.0
  0
LINE
  5
290
  8
0
 62
     0
 10
188.42487916376621
 20
-312.20672191630928
 30
0.0
 11
191.0949744608609
 21
-309.53662661921447
 31
0.0
  0
LINE
  5
291
  8
0
 62
     0
 10
186.72782288891841
 20
-312.20672191630928
 30
0.0
 11
190.24644632413521
 21
-308.68809848109248
 31
0.0
  0
LINE
  5
292
  8
0
 62
     0
 10
185.0307666140707
 20
-312.20672191630928
 30
0.0
 11
187.39791818559499
 21
-309.83957034478499
 31
0.0
  0
LINE
  5
293
  8
0
 62
     0
 10
183.33371033922299
 20
-312.20672191630928
 30
0.0
 11
186.54939004897361
 21
-308.99104220655869
 31
0.0
  0
LINE
  5
294
  8
0
 62
     0
 10
181.63665406437531
 20
-312.20672191630928
 30
0.0
 11
183.7196926896932
 21
-310.12368329099138
 31
0.0
  0
LINE
  5
295
  8
0
 62
     0
 10
171.73959778952729
 20
-320.40672191630961
 30
0.0
 11
173.24867350401129
 21
-318.89764620182558
 31
0.0
  0
LINE
  5
296
  8
0
 62
     0
 10
179.9395977895276
 20
-312.20672191630928
 30
0.0
 11
182.8523337738394
 21
-309.2939859319975
 31
0.0
  0
LINE
  5
297
  8
0
 62
     0
 10
170.04426063712779
 20
-320.4050027938614
 30
0.0
 11
174.7314572639315
 21
-315.71780616705769
 31
0.0
  0
LINE
  5
298
  8
0
 62
     0
 10
178.2425415146798
 20
-312.20672191630928
 30
0.0
 11
182.0024066528876
 21
-308.44685677810162
 31
0.0
  0
LINE
  5
299
  8
0
 62
     0
 10
171.04563622830551
 20
-317.70657092783591
 30
0.0
 11
176.2142410238516
 21
-312.5379661322898
 31
0.0
  0
LINE
  5
29A
  8
0
 62
     0
 10
176.54548523983209
 20
-312.20672191630928
 30
0.0
 11
179.15527749820379
 21
-309.59692965793761
 31
0.0
  0
LINE
  5
29B
  8
0
 62
     0
 10
172.52841998822561
 20
-314.52673089306819
 30
0.0
 11
178.306749360841
 21
-308.74840152045277
 31
0.0
  0
LINE
  5
29C
  8
0
 62
     0
 10
174.01120374814559
 20
-311.34689085830053
 30
0.0
 11
176.9513726901364
 21
-308.40672191630961
 31
0.0
  0
LINE
  5
29D
  8
0
 62
     0
 10
205.3954419122434
 20
-312.20672191630928
 30
0.0
 11
207.5802558345089
 21
-310.02190799404377
 31
0.0
  0
LINE
  5
29E
  8
0
 62
     0
 10
207.09249818709111
 20
-312.20672191630928
 30
0.0
 11
210.42878397302169
 21
-308.87043613037861
 31
0.0
  0
LINE
  5
29F
  8
0
 62
     0
 10
208.78955446193871
 20
-312.20672191630928
 30
0.0
 11
211.27731210964299
 21
-309.71896426860502
 31
0.0
  0
LINE
  5
2A0
  8
0
 62
     0
 10
210.48661073678639
 20
-312.20672191630928
 30
0.0
 11
214.1258402481557
 21
-308.56749240494003
 31
0.0
  0
LINE
  5
2A1
  8
0
 62
     0
 10
212.18366701163421
 20
-312.20672191630928
 30
0.0
 11
214.97436838477719
 21
-309.41602054316633
 31
0.0
  0
LINE
  5
2A2
  8
0
 62
     0
 10
213.88072328648181
 20
-312.20672191630928
 30
0.0
 11
215.93241208429399
 21
-310.15503311849722
 31
0.0
  0
LINE
  5
2A3
  8
0
 62
     0
 10
231.8332743238762
 20
-294.25417087891492
 30
0.0
 11
232.39770009054669
 21
-293.6897451122444
 31
0.0
  0
LINE
  5
2A4
  8
0
 62
     0
 10
215.57777956132961
 20
-312.20672191630928
 30
0.0
 11
218.67142465991139
 21
-309.11307681772752
 31
0.0
  0
LINE
  5
2A5
  8
0
 62
     0
 10
231.9667657426678
 20
-295.81773573497111
 30
0.0
 11
233.9623429992975
 21
-293.82215847834141
 31
0.0
  0
LINE
  5
2A6
  8
0
 62
     0
 10
217.27483583617729
 20
-312.20672191630928
 30
0.0
 11
219.51995279653281
 21
-309.96160495595382
 31
0.0
  0
LINE
  5
2A7
  8
0
 62
     0
 10
232.10025716145941
 20
-297.38130059102718
 30
0.0
 11
235.8027534663639
 21
-293.67880428612273
 31
0.0
  0
LINE
  5
2A8
  8
0
 62
     0
 10
218.971892111025
 20
-312.20672191630928
 30
0.0
 11
222.3684809350456
 21
-308.81013309228871
 31
0.0
  0
LINE
  5
2A9
  8
0
 62
     0
 10
234.9713119016314
 20
-296.20730212570288
 30
0.0
 11
236.69724225032809
 21
-294.48137177700619
 31
0.0
  0
LINE
  5
2AA
  8
0
 62
     0
 10
232.2337485802509
 20
-298.94486544708332
 30
0.0
 11
234.78711535359881
 21
-296.3914986737355
 31
0.0
  0
LINE
  5
2AB
  8
0
 62
     0
 10
220.66894838587271
 20
-312.20672191630928
 30
0.0
 11
223.21700907166701
 21
-309.65866123051501
 31
0.0
  0
LINE
  5
2AC
  8
0
 62
     0
 10
236.66894838587271
 20
-296.20672191630939
 30
0.0
 11
239.0789691709588
 21
-293.79670113122319
 31
0.0
  0
LINE
  5
2AD
  8
0
 62
     0
 10
232.36723999904251
 20
-300.50843030313951
 30
0.0
 11
234.78653514420529
 21
-298.08913515797673
 31
0.0
  0
LINE
  5
2AE
  8
0
 62
     0
 10
222.36600466072039
 20
-312.20672191630928
 30
0.0
 11
226.06553721018221
 21
-308.50718936684751
 31
0.0
  0
LINE
  5
2AF
  8
0
 62
     0
 10
238.36600466072039
 20
-296.20672191630939
 30
0.0
 11
240.9535574440319
 21
-293.6191691329978
 31
0.0
  0
LINE
  5
2B0
  8
0
 62
     0
 10
232.50073141783409
 20
-302.07199515919558
 30
0.0
 11
234.78653514420529
 21
-299.78619143282452
 31
0.0
  0
LINE
  5
2B1
  8
0
 62
     0
 10
224.06306093556819
 20
-312.20672191630928
 30
0.0
 11
226.91406534685379
 21
-309.35571750502368
 31
0.0
  0
LINE
  5
2B2
  8
0
 62
     0
 10
239.78653514420529
 20
-296.48324770767221
 30
0.0
 11
242.78574541238419
 21
-293.48403743949331
 31
0.0
  0
LINE
  5
2B3
  8
0
 62
     0
 10
232.6342228366257
 20
-303.63556001525183
 30
0.0
 11
234.78653514420529
 21
-301.48324770767221
 31
0.0
  0
LINE
  5
2B4
  8
0
 62
     0
 10
225.7601172104159
 20
-312.20672191630928
 30
0.0
 11
227.81443235928759
 21
-310.1524067674377
 31
0.0
  0
LINE
  5
2B5
  8
0
 62
     0
 10
239.78653514420529
 20
-298.18030398252
 30
0.0
 11
243.69573353545431
 21
-294.2711055912709
 31
0.0
  0
LINE
  5
2B6
  8
0
 62
     0
 10
232.7677142554173
 20
-305.1991248713079
 30
0.0
 11
234.78653514420529
 21
-303.18030398252
 31
0.0
  0
LINE
  5
2B7
  8
0
 62
     0
 10
227.4571734852635
 20
-312.20672191630928
 30
0.0
 11
234.78653514420529
 21
-304.87736025736763
 31
0.0
  0
LINE
  5
2B8
  8
0
 62
     0
 10
243.95717348526361
 20
-295.70672191630928
 30
0.0
 11
245.5630449681355
 21
-294.10085043343742
 31
0.0
  0
LINE
  5
2B9
  8
0
 62
     0
 10
239.78653514420529
 20
-299.87736025736768
 30
0.0
 11
241.78653514420529
 21
-297.87736025736763
 31
0.0
  0
LINE
  5
2BA
  8
0
 62
     0
 10
239.78653514420529
 20
-301.57441653221531
 30
0.0
 11
241.78653514420529
 21
-299.57441653221542
 31
0.0
  0
LINE
  5
2BB
  8
0
 62
     0
 10
245.65422976011121
 20
-295.70672191630928
 30
0.0
 11
248.10759246342261
 21
-293.25335921299802
 31
0.0
  0
LINE
  5
2BC
  8
0
 62
     0
 10
239.78653514420529
 20
-303.27147280706299
 30
0.0
 11
241.78653514420529
 21
-301.27147280706299
 31
0.0
  0
LINE
  5
2BD
  8
0
 62
     0
 10
247.35128603495889
 20
-295.70672191630928
 30
0.0
 11
249.754391960996
 21
-293.30361599027231
 31
0.0
  0
LINE
  5
2BE
  8
0
 62
     0
 10
239.78653514420529
 20
-304.96852908191079
 30
0.0
 11
241.78653514420529
 21
-302.96852908191079
 31
0.0
  0
LINE
  5
2BF
  8
0
 62
     0
 10
247.78653514420529
 20
-296.96852908191079
 30
0.0
 11
249.78653514420529
 21
-294.96852908191079
 31
0.0
  0
LINE
  5
2C0
  8
0
 62
     0
 10
239.78653514420529
 20
-306.66558535675853
 30
0.0
 11
241.78653514420529
 21
-304.66558535675853
 31
0.0
  0
LINE
  5
2C1
  8
0
 62
     0
 10
247.82604922486101
 20
-298.62607127610278
 30
0.0
 11
249.78653514420529
 21
-296.66558535675853
 31
0.0
  0
LINE
  5
2C2
  8
0
 62
     0
 10
239.78653514420529
 20
-308.36264163160621
 30
0.0
 11
241.78653514420529
 21
-306.36264163160621
 31
0.0
  0
LINE
  5
2C3
  8
0
 62
     0
 10
239.78653514420529
 20
-310.05969790645389
 30
0.0
 11
241.78653514420529
 21
-308.05969790645389
 31
0.0
  0
LINE
  5
2C4
  8
0
 62
     0
 10
239.78653514420529
 20
-311.75675418130157
 30
0.0
 11
241.8631893597011
 21
-309.68009996580582
 31
0.0
  0
LINE
  5
2C5
  8
0
 62
     0
 10
241.0336236840453
 20
-312.20672191630928
 30
0.0
 11
242.66737367806081
 21
-310.5729719222939
 31
0.0
  0
LINE
  5
2C6
  8
0
 62
     0
 10
242.73067995889301
 20
-312.20672191630928
 30
0.0
 11
244.23067995889301
 21
-310.70672191630928
 31
0.0
  0
LINE
  5
2C7
  8
0
 62
     0
 10
244.42773623374069
 20
-312.20672191630928
 30
0.0
 11
245.92773623374069
 21
-310.70672191630928
 31
0.0
  0
LINE
  5
2C8
  8
0
 62
     0
 10
247.78653514420529
 20
-308.84792300584468
 30
0.0
 11
248.918932901354
 21
-307.715525248696
 31
0.0
  0
LINE
  5
2C9
  8
0
 62
     0
 10
246.1247925085884
 20
-312.20672191630928
 30
0.0
 11
247.62945124820749
 21
-310.70206317669027
 31
0.0
  0
LINE
  5
2CA
  8
0
 62
     0
 10
247.7818764045862
 20
-310.54963802031159
 30
0.0
 11
249.7751646145941
 21
-308.55634981030369
 31
0.0
  0
LINE
  5
2CB
  8
0
 62
     0
 10
247.821848783436
 20
-312.20672191630928
 30
0.0
 11
249.78653514420529
 21
-310.2420355555401
 31
0.0
  0
LINE
  5
2CC
  8
0
 62
     0
 10
249.51890505828391
 20
-312.20672191630928
 30
0.0
 11
249.78653514420529
 21
-311.93909183038789
 31
0.0
  0
ENDBLK
  5
2CE
  8
0
  0
BLOCK
  8
0
  2
*D3
 70
     1
 10
0.0
 20
0.0
 30
0.0
  3
*D3
  1

  0
LINE
  5
31D
  8
1
 10
-4.9999999999995453
 20
-1.800000000000181
 30
0.0
 11
-4.9999999999995461
 21
-15.58667520371341
 31
0.0
  0
LINE
  5
31E
  8
1
 10
-84.999999999999545
 20
-10.16303230662629
 30
0.0
 11
-84.999999999999545
 21
-15.58667520371341
 31
0.0
  0
LINE
  5
31F
  8
1
 10
-3.9999999999995461
 20
-14.58667520371341
 30
0.0
 11
-85.999999999999545
 21
-14.58667520371341
 31
0.0
  0
INSERT
  5
320
  8
1
  2
_OBLIQUE
 10
-4.9999999999995461
 20
-14.58667520371341
 30
0.0
 41
2.0
 42
2.0
 43
2.0
  0
INSERT
  5
321
  8
1
  2
_OBLIQUE
 10
-84.999999999999545
 20
-14.58667520371341
 30
0.0
 41
2.0
 42
2.0
 43
2.0
 50
180.0
  0
TEXT
  5
322
  8
0
 10
-47.701398362891773
 20
-13.51982663618271
 30
0.0
 40
3.5
  1
80
  7
BESCHLAG
  0
POINT
  5
323
  8
DEFPOINTS
 62
     0
 10
-4.9999999999995453
 20
0.1999999999998181
 30
0.0
  0
POINT
  5
324
  8
DEFPOINTS
 62
     0
 10
-84.999999999999545
 20
-8.1630323066262918
 30
0.0
  0
POINT
  5
325
  8
DEFPOINTS
 62
     0
 10
-84.999999999999545
 20
-14.58667520371341
 30
0.0
  0
ENDBLK
  5
304
  8
0
  0
BLOCK
  8
0
  2
*D4
 70
     1
 10
0.0
 20
0.0
 30
0.0
  3
*D4
  1

  0
LINE
  5
326
  8
1
 10
-2.0
 20
0.0000000000000006
 30
0.0
 11
-29.996101264329809
 21
0.0000000000000085
 31
0.0
  0
LINE
  5
327
  8
1
 10
-7.0
 20
19.0
 30
0.0
 11
-29.996101264329809
 21
19.0
 31
0.0
  0
LINE
  5
328
  8
1
 10
-28.996101264329809
 20
-0.9999999999999918
 30
0.0
 11
-28.996101264329798
 21
20.0
 31
0.0
  0
INSERT
  5
329
  8
1
  2
_OBLIQUE
 10
-28.996101264329809
 20
0.0000000000000082
 30
0.0
 41
2.0
 42
2.0
 43
2.0
 50
270.0
  0
INSERT
  5
32A
  8
1
  2
_OBLIQUE
 10
-28.996101264329798
 20
19.0
 30
0.0
 41
2.0
 42
2.0
 43
2.0
 50
90.0
  0
TEXT
  5
32B
  8
0
 10
-30.0629498318605
 20
6.62193042291951
 30
0.0
 40
3.5
  1
19
 50
90.0
  7
BESCHLAG
  0
POINT
  5
32C
  8
DEFPOINTS
 62
     0
 10
0.0
 20
0.0
 30
0.0
  0
POINT
  5
32D
  8
DEFPOINTS
 62
     0
 10
-5.0
 20
19.0
 30
0.0
  0
POINT
  5
32E
  8
DEFPOINTS
 62
     0
 10
-28.996101264329798
 20
19.0
 30
0.0
  0
ENDBLK
  5
310
  8
0
  0
BLOCK
  8
0
  2
*D5
 70
     1
 10
0.0
 20
0.0
 30
0.0
  3
*D5
  1

  0
LINE
  5
32F
  8
1
 10
-0.0000000000000001
 20
-2.0
 30
0.0
 11
-0.0000000000000008
 21
-12.63390308443376
 31
0.0
  0
LINE
  5
330
  8
1
 10
-4.9999999999995453
 20
-2.0
 30
0.0
 11
-4.9999999999995461
 21
-12.63390308443376
 31
0.0
  0
LINE
  5
331
  8
1
 10
0.9999999999999992
 20
-11.63390308443376
 30
0.0
 11
-5.9999999999995461
 21
-11.63390308443376
 31
0.0
  0
INSERT
  5
332
  8
1
  2
_OBLIQUE
 10
-0.0000000000000007
 20
-11.63390308443376
 30
0.0
 41
2.0
 42
2.0
 43
2.0
  0
INSERT
  5
333
  8
1
  2
_OBLIQUE
 10
-4.9999999999995461
 20
-11.63390308443376
 30
0.0
 41
2.0
 42
2.0
 43
2.0
 50
180.0
  0
TEXT
  5
334
  8
0
 10
-3.863233287857891
 20
-10.57421686342421
 30
0.0
 40
3.5
  1
5
  7
BESCHLAG
  0
POINT
  5
335
  8
DEFPOINTS
 62
     0
 10
0.0
 20
0.0
 30
0.0
  0
POINT
  5
336
  8
DEFPOINTS
 62
     0
 10
-4.9999999999995453
 20
0.0
 30
0.0
  0
POINT
  5
337
  8
DEFPOINTS
 62
     0
 10
-4.9999999999995461
 20
-11.63390308443376
 30
0.0
  0
ENDBLK
  5
31C
  8
0
  0
ENDSEC
  0
SECTION
  2
ENTITIES
  0
INSERT
  5
25B
  8
5
  2
NULLPUNKT
 10
0.0
 20
0.0
 30
0.0
  0
DIMENSION
  5
2ED
  8
1
  2
*D3
 10
-84.999999999999545
 20
-14.58667520371341
 30
0.0
 11
-44.999999999999538
 21
-11.79966974668749
 31
0.0
 70
     0
 13
-4.9999999999995453
 23
0.1999999999998181
 33
0.0
 14
-84.999999999999545
 24
-8.1630323066262918
 34
0.0
  0
INSERT
  5
2EE
  8
2
  2
*X2
 10
-254.78653514420489
 20
312.20672191630939
 30
0.0
1001
ACAD
1000
HATCH
1002
{
1070
    16
1000
_U,I
1040
1.1999999999999991
1040
0.7853981633974483
1070
     0
1002
}
  0
TEXT
  5
2EF
  8
1
 10
-66.909858457457631
 20
5.8519935116992201
 30
0.0
 40
2.4999999499999999
  1
Hebgo 168/610
  0
POINT
  5
2F0
  8
5
 10
-12.99999999999954
 20
9.0
 30
0.0
  0
DIMENSION
  5
2F1
  8
1
  2
*D4
 10
-28.996101264329798
 20
19.0
 30
0.0
 11
-31.783106721355729
 21
9.5000000000000018
 31
0.0
 70
     0
 13
0.0
 23
0.0
 33
0.0
 14
-5.0
 24
19.0
 34
0.0
 50
90.0
  0
DIMENSION
  5
2F2
  8
1
  2
*D5
 10
-4.9999999999995461
 20
-11.63390308443376
 30
0.0
 11
-2.4999999999997731
 21
-8.8540599739289938
 31
0.0
 70
     0
 13
0.0
 23
0.0
 33
0.0
 14
-4.9999999999995453
 24
0.0
 34
0.0
  0
POLYLINE
  5
2F3
  8
6
 66
     1
 10
0.0
 20
0.0
 30
0.0
 70
     1
  0
VERTEX
  5
3FB
  8
6
 10
-5.3368948749675829
 20
10.73127422949255
 30
0.0
  0
VERTEX
  5
3FC
  8
6
 10
-5.3368948749675829
 20
6.604487272675442
 30
0.0
 42
-0.3542222137672995
  0
VERTEX
  5
3FD
  8
6
 10
-6.1816121342376391
 20
5.7595368650916043
 30
0.0
  0
VERTEX
  5
3FE
  8
6
 10
-7.6874124033556646
 20
5.7656596854378668
 30
0.0
 42
-0.343655940181943
  0
VERTEX
  5
3FF
  8
6
 10
-8.4954028194406401
 20
6.7024525759638891
 30
0.0
  0
VERTEX
  5
400
  8
6
 10
-8.4954028194406401
 20
10.994555904315121
 30
0.0
 42
-0.2923726044221553
  0
VERTEX
  5
401
  8
6
 10
-7.5894741771930958
 20
11.73541823270147
 30
0.0
  0
VERTEX
  5
402
  8
6
 10
-6.4754268127248897
 20
11.73541823270147
 30
0.0
 42
-0.345210202999001
  0
SEQEND
  5
403
  8
6
  0
POLYLINE
  5
2F4
  8
6
 66
     1
 10
0.0
 20
0.0
 30
0.0
 70
     1
  0
VERTEX
  5
404
  8
6
 10
-7.9645733500369706
 20
14.57119608155039
 30
0.0
 42
-0.4340228066750199
  0
VERTEX
  5
405
  8
6
 10
-7.5886087472297268
 20
14.58352619730908
 30
0.0
  0
VERTEX
  5
406
  8
6
 10
-6.9044764459895296
 20
13.541631748976441
 30
0.0
  0
VERTEX
  5
407
  8
6
 10
-5.3081677319298697
 20
13.541631748976441
 30
0.0
 42
0.2926708623625712
  0
VERTEX
  5
408
  8
6
 10
-5.0
 20
13.738913601115881
 30
0.0
  0
VERTEX
  5
409
  8
6
 10
-4.9944536243035591
 20
15.83364635148496
 30
0.0
 42
-0.4725495945331585
  0
VERTEX
  5
40A
  8
6
 10
-4.6671788696135081
 20
16.09396486672426
 30
0.0
 42
-0.1497715981737393
  0
VERTEX
  5
40B
  8
6
 10
-4.1001503031570792
 20
15.97066370913717
 30
0.0
 42
-0.1375660736324291
  0
VERTEX
  5
40C
  8
6
 10
-3.1201769859635529
 20
14.324593855250439
 30
0.0
 42
-0.3441417900027466
  0
VERTEX
  5
40D
  8
6
 10
-1.0409825036738309
 20
3.231504837627198
 30
0.0
 42
-1.013427136496432
  0
VERTEX
  5
40E
  8
6
 10
-2.1478947605314711
 20
3.8334873575583961
 30
0.0
 42
0.2618032337289678
  0
VERTEX
  5
40F
  8
6
 10
-3.0183791619047038
 20
11.55176326190894
 30
0.0
 42
1.48716411242179
  0
VERTEX
  5
410
  8
6
 10
-3.599184598927422
 20
11.75793379292895
 30
0.0
  0
VERTEX
  5
411
  8
6
 10
-3.4930842453884452
 20
4.37679850009863
 30
0.0
 42
-0.264033326694127
  0
VERTEX
  5
412
  8
6
 10
-4.6863308119268359
 20
2.4799342169922052
 30
0.0
 42
-0.4546962762195842
  0
VERTEX
  5
413
  8
6
 10
-4.9985962053369803
 20
2.6944361847406522
 30
0.0
  0
VERTEX
  5
414
  8
6
 10
-5.0014202752145129
 20
4.21558932317157
 30
0.0
 42
0.5545890291270417
  0
VERTEX
  5
415
  8
6
 10
-5.3339923549824562
 20
4.4812982008313611
 30
0.0
  0
VERTEX
  5
416
  8
6
 10
-6.7565044697848862
 20
4.4812982008313611
 30
0.0
 42
0.3795622521557158
  0
VERTEX
  5
417
  8
6
 10
-7.0786148827128272
 20
4.1920022938240891
 30
0.0
  0
VERTEX
  5
418
  8
6
 10
-7.6470693518899671
 20
1.988302440388906
 30
0.0
 42
-0.2098868600260434
  0
VERTEX
  5
419
  8
6
 10
-7.7512078497975381
 20
1.878368162248307
 30
0.0
 42
-0.3590346299987293
  0
VERTEX
  5
41A
  8
6
 10
-8.5677445710052762
 20
2.0367270500121322
 30
0.0
  0
VERTEX
  5
41B
  8
6
 10
-10.17988868376937
 20
4.932472775217092
 30
0.0
 42
-0.1375040557749069
  0
VERTEX
  5
41C
  8
6
 10
-10.318673288174971
 20
5.4877644907116974
 30
0.0
  0
VERTEX
  5
41D
  8
6
 10
-10.318673288174971
 20
11.35326205373712
 30
0.0
 42
-0.1555493545182818
  0
VERTEX
  5
41E
  8
6
 10
-9.798230954659175
 20
12.83381156946461
 30
0.0
  0
SEQEND
  5
41F
  8
6
  0
POLYLINE
  5
2F5
  8
5
 66
     1
 10
0.0
 20
0.0
 30
0.0
  0
VERTEX
  5
420
  8
5
 10
0.0
 20
-17.050471313595601
 30
0.0
  0
VERTEX
  5
421
  8
5
 10
0.0
 20
0.0
 30
0.0
  0
VERTEX
  5
422
  8
5
 10
-45.0
 20
0.0
 30
0.0
  0
VERTEX
  5
423
  8
5
 10
-45.0
 20
-4.4984250289921874
 30
0.0
  0
SEQEND
  5
424
  8
5
  0
LINE
  5
2F6
  8
6
  6
STRICHPUNKT
 10
-17.453173677787841
 20
19.325012432759191
 30
0.0
 11
-17.453173677787841
 21
-15.203712118815931
 31
0.0
  0
POLYLINE
  5
2F7
  8
4
 66
     1
 10
0.0
 20
0.0
 30
0.0
 70
     1
  0
VERTEX
  5
425
  8
4
 10
-82.241555202593418
 20
-8.2000000000002728
 30
0.0
  0
VERTEX
  5
426
  8
4
 10
-84.999999999999758
 20
-8.2000000000002728
 30
0.0
  0
VERTEX
  5
427
  8
4
 10
-79.404308102139794
 20
3.7999999999997272
 30
0.0
  0
VERTEX
  5
428
  8
4
 10
-24.987150812509299
 20
3.7999999999997272
 30
0.0
  0
VERTEX
  5
429
  8
4
 10
-21.99999999988858
 20
6.7871508117577832
 30
0.0
  0
VERTEX
  5
42A
  8
4
 10
-23.0
 20
18.5
 30
0.0
  0
VERTEX
  5
42B
  8
4
 10
-5.0
 20
19.0
 30
0.0
  0
VERTEX
  5
42C
  8
4
 10
-5.0
 20
0.0
 30
0.0
  0
VERTEX
  5
42D
  8
4
 10
-78.417832405722493
 20
0.0
 30
0.0
  0
SEQEND
  5
42E
  8
4
  0
POLYLINE
  5
2F8
  8
6
 66
     1
 10
0.0
 20
0.0
 30
0.0
 70
     1
  0
VERTEX
  5
42F
  8
6
 10
-26.041566400791449
 20
0.0
 30
0.0
  0
VERTEX
  5
430
  8
6
 10
-78.290418353560426
 20
0.0
 30
0.0
 42
0.2914734195860873
  0
VERTEX
  5
431
  8
6
 10
-78.47167991096785
 20
-0.1154763476520202
 30
0.0
  0
VERTEX
  5
432
  8
6
 10
-82.193092447871777
 20
-8.0960712871133182
 30
0.0
 42
-0.2914734195860845
  0
VERTEX
  5
433
  8
6
 10
-82.356227849538314
 20
-8.2000000000002728
 30
0.0
  0
VERTEX
  5
434
  8
6
 10
-84.717456596117927
 20
-8.2000000000002728
 30
0.0
 42
-0.5486187866266673
  0
VERTEX
  5
435
  8
6
 10
-84.880591997784677
 20
-7.9439287128866454
 30
0.0
  0
VERTEX
  5
436
  8
6
 10
-79.458155607385152
 20
3.6845236523481608
 30
0.0
 42
-0.2914734195860876
  0
VERTEX
  5
437
  8
6
 10
-79.276894049977727
 20
3.7999999999997272
 30
0.0
  0
VERTEX
  5
438
  8
6
 10
-76.904308099940863
 20
3.7999999999997272
 30
0.0
 42
-0.1989123673796559
  0
VERTEX
  5
439
  8
6
 10
-76.762886743703575
 20
3.7414213562369691
 30
0.0
  0
VERTEX
  5
43A
  8
6
 10
-75.187150812738992
 20
2.165685425045921
 30
0.0
 42
0.4142135621382669
  0
VERTEX
  5
43B
  8
6
 10
-74.621465388016745
 20
2.1656854248190021
 30
0.0
  0
VERTEX
  5
43C
  8
6
 10
-73.045729453521517
 20
3.7414213565607488
 30
0.0
 42
-0.4142135623730951
  0
VERTEX
  5
43D
  8
6
 10
-72.762886741046941
 20
3.7414213565607488
 30
0.0
  0
VERTEX
  5
43E
  8
6
 10
-71.187150812965911
 20
2.1656854254993041
 30
0.0
 42
0.4142135623730951
  0
VERTEX
  5
43F
  8
6
 10
-70.621465388016759
 20
2.165685425045921
 30
0.0
  0
VERTEX
  5
440
  8
6
 10
-69.045729453521517
 20
3.7414213565607488
 30
0.0
 42
-0.4142135623730951
  0
VERTEX
  5
441
  8
6
 10
-68.762886741046941
 20
3.7414213565607488
 30
0.0
  0
VERTEX
  5
442
  8
6
 10
-67.187150812965911
 20
2.1656854254993041
 30
0.0
 42
0.4142135623730951
  0
VERTEX
  5
443
  8
6
 10
-66.621465388016759
 20
2.165685425045921
 30
0.0
  0
VERTEX
  5
444
  8
6
 10
-65.045729453521517
 20
3.7414213565607488
 30
0.0
 42
-0.4142135623730951
  0
VERTEX
  5
445
  8
6
 10
-64.762886741046941
 20
3.7414213565607488
 30
0.0
  0
VERTEX
  5
446
  8
6
 10
-63.187150812965911
 20
2.1656854258867488
 30
0.0
 42
0.4142135627739689
  0
VERTEX
  5
447
  8
6
 10
-62.621465387629542
 20
2.1656854258203562
 30
0.0
  0
VERTEX
  5
448
  8
6
 10
-61.04572945860923
 20
3.7414213565607488
 30
0.0
 42
-0.4142135623730992
  0
VERTEX
  5
449
  8
6
 10
-60.762886746134647
 20
3.7414213565607488
 30
0.0
  0
VERTEX
  5
44A
  8
6
 10
-59.187150812578921
 20
2.1656854247253241
 30
0.0
 42
0.4142135619722258
  0
VERTEX
  5
44B
  8
6
 10
-58.621465388016759
 20
2.165685424658931
 30
0.0
  0
VERTEX
  5
44C
  8
6
 10
-57.04572945352151
 20
3.7414213565607488
 30
0.0
 42
-0.4142135623730951
  0
VERTEX
  5
44D
  8
6
 10
-56.762886741046941
 20
3.7414213565607488
 30
0.0
  0
VERTEX
  5
44E
  8
6
 10
-55.187150812965911
 20
2.1656854254993041
 30
0.0
 42
0.4142135623730951
  0
VERTEX
  5
44F
  8
6
 10
-54.621465388016752
 20
2.165685425045921
 30
0.0
  0
VERTEX
  5
450
  8
6
 10
-53.045729453521517
 20
3.7414213565607488
 30
0.0
 42
-0.4142135623730951
  0
VERTEX
  5
451
  8
6
 10
-52.762886741046941
 20
3.7414213565607488
 30
0.0
  0
VERTEX
  5
452
  8
6
 10
-51.187150812965911
 20
2.1656854254993041
 30
0.0
 42
0.4142135623730951
  0
VERTEX
  5
453
  8
6
 10
-50.621465388016759
 20
2.165685425045921
 30
0.0
  0
VERTEX
  5
454
  8
6
 10
-49.045729453521517
 20
3.7414213565607488
 30
0.0
 42
-0.4142135623730951
  0
VERTEX
  5
455
  8
6
 10
-48.762886741046941
 20
3.7414213565607488
 30
0.0
  0
VERTEX
  5
456
  8
6
 10
-47.187150812965911
 20
2.1656854254993041
 30
0.0
 42
0.4142135623730951
  0
VERTEX
  5
457
  8
6
 10
-46.621465388016759
 20
2.165685425045921
 30
0.0
  0
VERTEX
  5
458
  8
6
 10
-45.04572945352151
 20
3.7414213565607488
 30
0.0
 42
-0.4142135623730951
  0
VERTEX
  5
459
  8
6
 10
-44.762886741046941
 20
3.7414213565607488
 30
0.0
  0
VERTEX
  5
45A
  8
6
 10
-43.187150812965903
 20
2.1656854254993041
 30
0.0
 42
0.4142135623730951
  0
VERTEX
  5
45B
  8
6
 10
-42.621465388016979
 20
2.165685425045921
 30
0.0
  0
VERTEX
  5
45C
  8
6
 10
-41.045729453521737
 20
3.7414213565607488
 30
0.0
 42
-0.4142135623730951
  0
VERTEX
  5
45D
  8
6
 10
-40.762886741047161
 20
3.7414213565607488
 30
0.0
  0
VERTEX
  5
45E
  8
6
 10
-39.187150812966138
 20
2.1656854254993041
 30
0.0
 42
0.4142135623730951
  0
VERTEX
  5
45F
  8
6
 10
-38.621465388016979
 20
2.165685425045921
 30
0.0
  0
VERTEX
  5
460
  8
6
 10
-37.045729453521737
 20
3.7414213565607488
 30
0.0
 42
-0.4142135623730951
  0
VERTEX
  5
461
  8
6
 10
-36.762886741047161
 20
3.7414213565607488
 30
0.0
  0
VERTEX
  5
462
  8
6
 10
-35.187150812966138
 20
2.1656854254993041
 30
0.0
 42
0.4142135623730951
  0
VERTEX
  5
463
  8
6
 10
-34.621465388016979
 20
2.165685425045921
 30
0.0
  0
VERTEX
  5
464
  8
6
 10
-33.045729453521737
 20
3.7414213565607488
 30
0.0
 42
-0.4142135623730951
  0
VERTEX
  5
465
  8
6
 10
-32.762886741047168
 20
3.7414213565607488
 30
0.0
  0
VERTEX
  5
466
  8
6
 10
-31.187150812966131
 20
2.1656854254993041
 30
0.0
 42
0.4142135623730951
  0
VERTEX
  5
467
  8
6
 10
-30.621465388016979
 20
2.165685425045921
 30
0.0
  0
VERTEX
  5
468
  8
6
 10
-29.045729453521741
 20
3.7414213565607488
 30
0.0
 42
-0.4142135623730951
  0
VERTEX
  5
469
  8
6
 10
-28.762886741047168
 20
3.7414213565607488
 30
0.0
  0
VERTEX
  5
46A
  8
6
 10
-27.187150812966131
 20
2.1656854256852962
 30
0.0
 42
0.4142135625656104
  0
VERTEX
  5
46B
  8
6
 10
-26.621465387830991
 20
2.1656854254179052
 30
0.0
  0
VERTEX
  5
46C
  8
6
 10
-22.131530909288809
 20
6.6556199023948457
 30
0.0
 42
0.2211447953950451
  0
VERTEX
  5
46D
  8
6
 10
-22.015823523462132
 20
6.9724893569864426
 30
0.0
  0
VERTEX
  5
46E
  8
6
 10
-22.954952342140579
 20
17.972363577274329
 30
0.0
 42
-0.4311270769577655
  0
VERTEX
  5
46F
  8
6
 10
-22.470648252934549
 20
18.514704215196161
 30
0.0
  0
VERTEX
  5
470
  8
6
 10
-21.084441625139331
 20
18.553209954856811
 30
0.0
 42
-0.202523552024033
  0
VERTEX
  5
471
  8
6
 10
-20.939444105845261
 20
18.49665841146361
 30
0.0
  0
VERTEX
  5
472
  8
6
 10
-20.143371340736842
 20
17.722391711103221
 30
0.0
 42
0.4142135623730836
  0
VERTEX
  5
473
  8
6
 10
-19.860555894153549
 20
17.726318945994532
 30
0.0
  0
VERTEX
  5
474
  8
6
 10
-19.139444105845541
 20
18.467739770373552
 30
0.0
 42
-0.4142135623730939
  0
VERTEX
  5
475
  8
6
 10
-18.856628659262238
 20
18.471667005264859
 30
0.0
  0
VERTEX
  5
476
  8
6
 10
-18.06055589415336
 20
17.69740030490447
 30
0.0
 42
0.2025235520240524
  0
VERTEX
  5
477
  8
6
 10
-17.915558374859302
 20
17.640848761510821
 30
0.0
  0
VERTEX
  5
478
  8
6
 10
-17.08118926802581
 20
17.664025681145169
 30
0.0
 42
0.1953061662907211
  0
VERTEX
  5
479
  8
6
 10
-16.943371340736569
 20
17.724504459429681
 30
0.0
  0
VERTEX
  5
47A
  8
6
 10
-16.139444105845541
 20
18.551073103707029
 30
0.0
 42
-0.4142135623730831
  0
VERTEX
  5
47B
  8
6
 10
-15.85662865926224
 20
18.55500033859834
 30
0.0
  0
VERTEX
  5
47C
  8
6
 10
-15.14337134073684
 20
17.861280599991911
 30
0.0
 42
0.4142135623730836
  0
VERTEX
  5
47D
  8
6
 10
-14.860555894153549
 20
17.865207834883218
 30
0.0
  0
VERTEX
  5
47E
  8
6
 10
-14.13944410584554
 20
18.606628659262689
 30
0.0
 42
-0.4142135623730792
  0
VERTEX
  5
47F
  8
6
 10
-13.85662865926224
 20
18.610555894154
 30
0.0
  0
VERTEX
  5
480
  8
6
 10
-13.14337134073684
 20
17.916836155547571
 30
0.0
 42
0.4142135623730836
  0
VERTEX
  5
481
  8
6
 10
-12.86055589415354
 20
17.920763390438871
 30
0.0
  0
VERTEX
  5
482
  8
6
 10
-12.13944410584554
 20
18.662184214817891
 30
0.0
 42
-0.4142135623730836
  0
VERTEX
  5
483
  8
6
 10
-11.85662865926224
 20
18.666111449709199
 30
0.0
  0
VERTEX
  5
484
  8
6
 10
-11.14337134073684
 20
17.972391711103221
 30
0.0
 42
0.4142135623730798
  0
VERTEX
  5
485
  8
6
 10
-10.86055589415354
 20
17.976318945994532
 30
0.0
  0
VERTEX
  5
486
  8
6
 10
-10.13944410584554
 20
18.717739770373552
 30
0.0
 42
-0.4142135623730974
  0
VERTEX
  5
487
  8
6
 10
-9.8566286592622419
 20
18.721667005264859
 30
0.0
  0
VERTEX
  5
488
  8
6
 10
-9.1433713407368487
 20
18.027947266658881
 30
0.0
 42
0.4142135623730874
  0
VERTEX
  5
489
  8
6
 10
-8.8605558941535492
 20
18.03187450154973
 30
0.0
  0
VERTEX
  5
48A
  8
6
 10
-8.0566286592620582
 20
18.858443145827088
 30
0.0
 42
-0.1953061662907325
  0
VERTEX
  5
48B
  8
6
 10
-7.918810731972826
 20
18.918921924111601
 30
0.0
  0
VERTEX
  5
48C
  8
6
 10
-5.2055534134474319
 20
18.994290182959499
 30
0.0
 42
-0.422370983228467
  0
VERTEX
  5
48D
  8
6
 10
-4.9999999999995453
 20
18.794367298828998
 30
0.0
  0
VERTEX
  5
48E
  8
6
 10
-4.9999999999995453
 20
14.5
 30
0.0
 42
-0.4142135623730951
  0
VERTEX
  5
48F
  8
6
 10
-5.9999999999995453
 20
13.5
 30
0.0
  0
VERTEX
  5
490
  8
6
 10
-6.7999999999992724
 20
13.5
 30
0.0
 42
-0.4142135623730951
  0
VERTEX
  5
491
  8
6
 10
-6.9999999999995453
 20
13.699999999999809
 30
0.0
  0
VERTEX
  5
492
  8
6
 10
-6.9999999999995453
 20
16.29999999999972
 30
0.0
 42
0.4142135623730951
  0
VERTEX
  5
493
  8
6
 10
-7.1999999999993634
 20
16.5
 30
0.0
  0
VERTEX
  5
494
  8
6
 10
-11.49999999999954
 20
16.5
 30
0.0
 42
0.4142135623730951
  0
VERTEX
  5
495
  8
6
 10
-12.99999999999954
 20
15.0
 30
0.0
  0
VERTEX
  5
496
  8
6
 10
-12.99999999999954
 20
3.0
 30
0.0
 42
0.4142135623730951
  0
VERTEX
  5
497
  8
6
 10
-11.49999999999954
 20
1.5
 30
0.0
  0
VERTEX
  5
498
  8
6
 10
-7.1999999999993634
 20
1.5
 30
0.0
 42
0.4142135623730951
  0
VERTEX
  5
499
  8
6
 10
-6.9999999999995453
 20
1.6999999999998181
 30
0.0
  0
VERTEX
  5
49A
  8
6
 10
-6.9999999999995453
 20
4.2999999999997272
 30
0.0
 42
-0.4142135623730951
  0
VERTEX
  5
49B
  8
6
 10
-6.7999999999992724
 20
4.5
 30
0.0
  0
VERTEX
  5
49C
  8
6
 10
-5.9999999999995453
 20
4.5
 30
0.0
 42
-0.4142135623730951
  0
VERTEX
  5
49D
  8
6
 10
-4.9999999999995453
 20
3.5
 30
0.0
  0
VERTEX
  5
49E
  8
6
 10
-4.9999999999995453
 20
0.1999999999998181
 30
0.0
 42
-0.4142135623730951
  0
VERTEX
  5
49F
  8
6
 10
-5.1999999999993634
 20
0.0
 30
0.0
  0
VERTEX
  5
4A0
  8
6
 10
-14.799999999999271
 20
0.0
 30
0.0
 42
-0.4142135623730951
  0
VERTEX
  5
4A1
  8
6
 10
-14.99999999999954
 20
0.1999999999998181
 30
0.0
  0
VERTEX
  5
4A2
  8
6
 10
-14.99999999999954
 20
15.79999999999972
 30
0.0
 42
0.4142135623730934
  0
VERTEX
  5
4A3
  8
6
 10
-15.19999999999936
 20
16.0
 30
0.0
  0
VERTEX
  5
4A4
  8
6
 10
-19.799999999999269
 20
16.0
 30
0.0
 42
0.4142135623730951
  0
VERTEX
  5
4A5
  8
6
 10
-19.999999999999542
 20
15.79999999999972
 30
0.0
  0
VERTEX
  5
4A6
  8
6
 10
-19.999999999999542
 20
6.0415664007919068
 30
0.0
 42
-0.198912367379658
  0
VERTEX
  5
4A7
  8
6
 10
-20.058578643761852
 20
5.9001450445543924
 30
0.0
  0
VERTEX
  5
4A8
  8
6
 10
-25.900145044553931
 20
0.0585786437627576
 30
0.0
 42
-0.1989123673796573
  0
SEQEND
  5
4A9
  8
6
  0
VIEWPORT
  5
22
 67
     1
  8
0
 10
210.0
 20
170.2366863905325
 30
0.0
 40
420.0
 41
340.47337278106511
 68
     1
 69
     1
1001
ACAD
1000
MVIEW
1002
{
1070
    16
1010
0.0
1020
0.0
1030
0.0
1010
0.0
1020
0.0
1030
1.0
1040
0.0
1040
340.47337278106511
1040
210.0
1040
170.2366863905325
1040
50.0
1040
0.0
1040
0.0
1070
     0
1070
   100
1070
     1
1070
     1
1070
     0
1070
     0
1070
     0
1070
     0
1040
0.0
1040
0.0
1040
0.0
1040
5.0
1040
5.0
1040
10.0
1040
10.0
1070
     0
1002
{
1002
}
1002
}
  0
ENDSEC
  0
EOF
