  0
SECTION
  2
HEADER
  9
$ACADVER
  1
AC1009
  9
$INSBASE
 10
0.0
 20
0.0
 30
0.0
  9
$EXTMIN
 10
-32.226561664401743
 20
-11.65008458966622
 30
-0.0000000000000058
  9
$EXTMAX
 10
9.2468267065087275
 20
46.89788876205909
 30
0.0000000000000104
  9
$LIMMIN
 10
-150.0
 20
-150.0
  9
$LIMMAX
 10
150.0
 20
150.0
  9
$ORTHOMODE
 70
     0
  9
$REGENMODE
 70
     1
  9
$FILLMODE
 70
     1
  9
$QTEXTMODE
 70
     0
  9
$MIRRTEXT
 70
     0
  9
$DRAGMODE
 70
     2
  9
$LTSCALE
 40
1.0
  9
$OSMODE
 70
   111
  9
$ATTMODE
 70
     1
  9
$TEXTSIZE
 40
3.5
  9
$TRACEWID
 40
1.0
  9
$TEXTSTYLE
  7
BESCHLAG
  9
$CLAYER
  8
0
  9
$CELTYPE
  6
BYLAYER
  9
$CECOLOR
 62
   256
  9
$DIMSCALE
 40
1.0
  9
$DIMASZ
 40
2.0
  9
$DIMEXO
 40
2.0
  9
$DIMDLI
 40
0.0
  9
$DIMRND
 40
0.0
  9
$DIMDLE
 40
1.0
  9
$DIMEXE
 40
1.0
  9
$DIMTP
 40
0.0
  9
$DIMTM
 40
0.0
  9
$DIMTXT
 40
3.5
  9
$DIMCEN
 40
0.0
  9
$DIMTSZ
 40
0.0
  9
$DIMTOL
 70
     0
  9
$DIMLIM
 70
     0
  9
$DIMTIH
 70
     0
  9
$DIMTOH
 70
     0
  9
$DIMSE1
 70
     0
  9
$DIMSE2
 70
     0
  9
$DIMTAD
 70
     1
  9
$DIMZIN
 70
     8
  9
$DIMBLK
  1

  9
$DIMASO
 70
     1
  9
$DIMSHO
 70
     1
  9
$DIMPOST
  1

  9
$DIMAPOST
  1

  9
$DIMALT
 70
     0
  9
$DIMALTD
 70
     2
  9
$DIMALTF
 40
0.039370078740157
  9
$DIMLFAC
 40
1.0
  9
$DIMTOFL
 70
     1
  9
$DIMTVP
 40
0.0
  9
$DIMTIX
 70
     1
  9
$DIMSOXD
 70
     0
  9
$DIMSAH
 70
     1
  9
$DIMBLK1
  1
OBLIQUE
  9
$DIMBLK2
  1
OBLIQUE
  9
$DIMSTYLE
  2
OPO-SSTRICH
  9
$DIMCLRD
 70
   256
  9
$DIMCLRE
 70
   256
  9
$DIMCLRT
 70
   256
  9
$DIMTFAC
 40
0.7114285714285716
  9
$DIMGAP
 40
1.0
  9
$LUNITS
 70
     2
  9
$LUPREC
 70
     1
  9
$SKETCHINC
 40
1.0
  9
$FILLETRAD
 40
0.0
  9
$AUNITS
 70
     0
  9
$AUPREC
 70
     1
  9
$MENU
  1
D:\ACL_CGWG\CGTAB13
  9
$ELEVATION
 40
0.0
  9
$PELEVATION
 40
0.0
  9
$THICKNESS
 40
0.0
  9
$LIMCHECK
 70
     0
  9
$BLIPMODE
 70
     0
  9
$CHAMFERA
 40
1.0
  9
$CHAMFERB
 40
1.0
  9
$SKPOLY
 70
     0
  9
$TDCREATE
 40
2451739.8938874421
  9
$TDUPDATE
 40
2452087.6299535409
  9
$TDINDWG
 40
0.0027771991
  9
$TDUSRTIMER
 40
0.0027770139
  9
$USRTIMER
 70
     1
  9
$ANGBASE
 50
0.0
  9
$ANGDIR
 70
     0
  9
$PDMODE
 70
    35
  9
$PDSIZE
 40
5.0
  9
$PLINEWID
 40
0.0
  9
$COORDS
 70
     1
  9
$SPLFRAME
 70
     0
  9
$SPLINETYPE
 70
     6
  9
$SPLINESEGS
 70
     8
  9
$ATTDIA
 70
     1
  9
$ATTREQ
 70
     1
  9
$HANDLING
 70
-16383
  9
$HANDSEED
  5
475
  9
$SURFTAB1
 70
    12
  9
$SURFTAB2
 70
    12
  9
$SURFTYPE
 70
     6
  9
$SURFU
 70
    12
  9
$SURFV
 70
    12
  9
$UCSNAME
  2

  9
$UCSORG
 10
0.0
 20
0.0
 30
0.0
  9
$UCSXDIR
 10
1.0
 20
0.0
 30
0.0
  9
$UCSYDIR
 10
0.0
 20
1.0
 30
0.0
  9
$PUCSNAME
  2

  9
$PUCSORG
 10
0.0
 20
0.0
 30
0.0
  9
$PUCSXDIR
 10
1.0
 20
0.0
 30
0.0
  9
$PUCSYDIR
 10
0.0
 20
1.0
 30
0.0
  9
$USERI1
 70
     0
  9
$USERI2
 70
     0
  9
$USERI3
 70
     0
  9
$USERI4
 70
     0
  9
$USERI5
 70
     0
  9
$USERR1
 40
0.0
  9
$USERR2
 40
0.0
  9
$USERR3
 40
0.0
  9
$USERR4
 40
0.0
  9
$USERR5
 40
0.0
  9
$WORLDVIEW
 70
     1
  9
$SHADEDGE
 70
     3
  9
$SHADEDIF
 70
    70
  9
$TILEMODE
 70
     1
  9
$MAXACTVP
 70
    48
  9
$PLIMCHECK
 70
     0
  9
$PEXTMIN
 10
1.0000000000000000E+020
 20
1.0000000000000000E+020
 30
1.0000000000000000E+020
  9
$PEXTMAX
 10
-1.0000000000000000E+020
 20
-1.0000000000000000E+020
 30
-1.0000000000000000E+020
  9
$PLIMMIN
 10
0.0
 20
0.0
  9
$PLIMMAX
 10
420.0
 20
297.0
  9
$UNITMODE
 70
     0
  9
$VISRETAIN
 70
     1
  9
$PLINEGEN
 70
     0
  9
$PSLTSCALE
 70
     1
  0
ENDSEC
  0
SECTION
  2
TABLES
  0
TABLE
  2
VPORT
 70
     2
  0
VPORT
  2
*ACTIVE
 70
     0
 10
0.0
 20
0.0
 11
1.0
 21
1.0
 12
-11.489867478946501
 22
17.623902086196431
 13
0.0
 23
0.0
 14
0.5
 24
0.5
 15
10.0
 25
10.0
 16
0.0
 26
0.0
 36
1.0
 17
0.0
 27
0.0
 37
0.0
 40
59.023329021698729
 41
1.6070460704607039
 42
50.0
 43
0.0
 44
0.0
 50
0.0
 51
0.0
 71
     0
 72
   800
 73
     1
 74
     1
 75
     0
 76
     0
 77
     0
 78
     0
  0
ENDTAB
  0
TABLE
  2
LTYPE
 70
     1
  0
LTYPE
  2
CONTINUOUS
 70
     0
  3
_______________________________________________
 72
    65
 73
     2
 40
1.0
 49
1.0
 49
0.0
  0
ENDTAB
  0
TABLE
  2
LAYER
 70
     7
  0
LAYER
  2
0
 70
     0
 62
    30
  6
CONTINUOUS
  0
LAYER
  2
1
 70
     0
 62
     2
  6
CONTINUOUS
  0
LAYER
  2
2
 70
     0
 62
     9
  6
CONTINUOUS
  0
LAYER
  2
4
 70
     1
 62
     4
  6
CONTINUOUS
  0
LAYER
  2
5
 70
     0
 62
     1
  6
CONTINUOUS
  0
LAYER
  2
6
 70
     0
 62
     3
  6
CONTINUOUS
  0
LAYER
  2
DEFPOINTS
 70
     0
 62
     7
  6
CONTINUOUS
  0
ENDTAB
  0
TABLE
  2
STYLE
 70
     2
  0
STYLE
  2
STANDARD
 70
     0
 40
0.0
 41
1.0
 50
0.0
 71
     0
 42
2.5
  3
txt
  4

  0
STYLE
  2
BESCHLAG
 70
     0
 40
0.0
 41
1.0
 50
0.0
 71
     0
 42
3.5
  3
txt
  4

  0
ENDTAB
  0
TABLE
  2
VIEW
 70
     0
  0
ENDTAB
  0
TABLE
  2
UCS
 70
     0
  0
ENDTAB
  0
TABLE
  2
APPID
 70
     1
  0
APPID
  2
ACAD
 70
     0
  0
ENDTAB
  0
TABLE
  2
DIMSTYLE
 70
     1
  0
DIMSTYLE
  2
OPO-SSTRICH
 70
     0
  3

  4

  5

  6
OBLIQUE
  7
OBLIQUE
 40
1.0
 41
2.0
 42
2.0
 43
0.0
 44
1.0
 45
0.0
 46
1.0
 47
0.0
 48
0.0
140
3.5
141
0.0
142
0.0
143
0.039370078740157
144
1.0
145
0.0
146
0.7114285714285716
147
1.0
 71
     0
 72
     0
 73
     0
 74
     0
 75
     0
 76
     0
 77
     1
 78
     8
170
     0
171
     2
172
     1
173
     1
174
     1
175
     0
176
   256
177
   256
178
   256
  0
ENDTAB
  0
ENDSEC
  0
SECTION
  2
BLOCKS
  0
BLOCK
  8
0
  2
$MODEL_SPACE
 70
     0
 10
0.0
 20
0.0
 30
0.0
  3
$MODEL_SPACE
  1

  0
ENDBLK
  5
1C
  8
0
  0
BLOCK
 67
     1
  8
0
  2
$PAPER_SPACE
 70
     0
 10
0.0
 20
0.0
 30
0.0
  3
$PAPER_SPACE
  1

  0
ENDBLK
  5
19
 67
     1
  8
0
  0
BLOCK
  8
0
  2
_OBLIQUE
 70
     0
 10
0.0
 20
0.0
 30
0.0
  3
_OBLIQUE
  1

  0
LINE
  5
204
  8
0
 62
     0
 10
-0.5
 20
-0.5
 30
0.0
 11
0.5
 21
0.5
 31
0.0
  0
ENDBLK
  5
206
  8
0
  0
BLOCK
  8
0
  2
NULLPUNKT
 70
     0
 10
0.0
 20
0.0
 30
0.0
  3
NULLPUNKT
  1

  0
SOLID
  5
254
  8
5
 10
0.0
 20
0.0
 30
0.0
 11
2.0
 21
0.0
 31
0.0
 12
0.0
 22
-2.0
 32
0.0
 13
0.0
 23
-2.0
 33
0.0
  0
SOLID
  5
255
  8
5
 10
0.0
 20
0.0
 30
0.0
 11
-2.0
 21
0.0
 31
0.0
 12
0.0
 22
2.0
 32
0.0
 13
0.0
 23
2.0
 33
0.0
  0
POLYLINE
  5
256
  8
5
 66
     1
 10
0.0
 20
0.0
 30
0.0
  0
VERTEX
  5
3FE
  8
5
 10
0.0
 20
2.0
 30
0.0
  0
VERTEX
  5
3FF
  8
5
 10
0.0
 20
-2.0
 30
0.0
  0
SEQEND
  5
400
  8
5
  0
POLYLINE
  5
257
  8
5
 66
     1
 10
0.0
 20
0.0
 30
0.0
  0
VERTEX
  5
401
  8
5
 10
-2.0
 20
0.0
 30
0.0
  0
VERTEX
  5
402
  8
5
 10
2.0
 20
0.0
 30
0.0
  0
SEQEND
  5
403
  8
5
  0
CIRCLE
  5
258
  8
5
 10
0.0
 20
0.0
 30
0.0
 40
2.0
  0
ENDBLK
  5
25A
  8
0
  0
BLOCK
  8
0
  2
*X2
 70
     1
 10
0.0
 20
0.0
 30
0.0
  3
*X2
  1

  0
LINE
  5
29E
  8
0
 62
     0
 10
867.1598152497271
 20
-541.39689287387534
 30
0.0
 11
869.5689144433403
 21
-538.98779368026203
 31
0.0
  0
LINE
  5
29F
  8
0
 62
     0
 10
895.03653713249912
 20
-513.52017099110321
 30
0.0
 11
896.51208699113977
 21
-512.04462113246257
 31
0.0
  0
LINE
  5
2A0
  8
0
 62
     0
 10
887.12743793910352
 20
-521.42927018449893
 30
0.0
 11
889.12743793910329
 21
-519.42927018449905
 31
0.0
  0
LINE
  5
2A1
  8
0
 62
     0
 10
867.1274379391034
 20
-539.73221390965114
 30
0.0
 11
868.37185816849262
 21
-538.48779368026203
 31
0.0
  0
LINE
  5
2A2
  8
0
 62
     0
 10
893.37185816849262
 20
-513.4877936802618
 30
0.0
 11
895.35846946289359
 21
-511.50118238586089
 31
0.0
  0
LINE
  5
2A3
  8
0
 62
     0
 10
887.12743793910352
 20
-519.73221390965125
 30
0.0
 11
889.12743793910329
 21
-517.73221390965125
 31
0.0
  0
LINE
  5
2A4
  8
0
 62
     0
 10
887.12743793910352
 20
-518.03515763480345
 30
0.0
 11
889.12743793910329
 21
-516.03515763480345
 31
0.0
  0
LINE
  5
2A5
  8
0
 62
     0
 10
891.67480189364505
 20
-513.4877936802618
 30
0.0
 11
893.67480189364517
 21
-511.48779368026209
 31
0.0
  0
LINE
  5
2A6
  8
0
 62
     0
 10
887.12743793910352
 20
-516.33810135995577
 30
0.0
 11
891.97774561879737
 21
-511.48779368026209
 31
0.0
  0
LINE
  5
2A7
  8
0
 62
     0
 10
887.12743793910352
 20
-514.6410450851082
 30
0.0
 11
890.28068934394958
 21
-511.48779368026209
 31
0.0
  0
LINE
  5
2A8
  8
0
 62
     0
 10
887.12743793910352
 20
-512.94398881026041
 30
0.0
 11
888.58363306910178
 21
-511.48779368026209
 31
0.0
  0
LINE
  5
2A9
  8
0
 62
     0
 10
868.76597071818821
 20
-541.48779368026203
 30
0.0
 11
871.76597071818821
 21
-538.48779368026203
 31
0.0
  0
LINE
  5
2AA
  8
0
 62
     0
 10
895.12743793910329
 20
-515.12632645934684
 30
0.0
 11
897.09944132509361
 21
-513.15432307335652
 31
0.0
  0
LINE
  5
2AB
  8
0
 62
     0
 10
887.12743793910352
 20
-523.12632645934673
 30
0.0
 11
889.04670432875309
 21
-521.20706006969715
 31
0.0
  0
LINE
  5
2AC
  8
0
 62
     0
 10
870.46302699303578
 20
-541.48779368026203
 30
0.0
 11
872.96302699303567
 21
-538.98779368026203
 31
0.0
  0
LINE
  5
2AD
  8
0
 62
     0
 10
895.46302699303578
 20
-516.48779368026203
 30
0.0
 11
897.12743793910352
 21
-514.82338273419418
 31
0.0
  0
LINE
  5
2AE
  8
0
 62
     0
 10
873.3520274680925
 20
-538.59879320520531
 30
0.0
 11
873.4630269930359
 21
-538.48779368026203
 31
0.0
  0
LINE
  5
2AF
  8
0
 62
     0
 10
887.12743793910352
 20
-524.82338273419441
 30
0.0
 11
889.12743793910352
 21
-522.82338273419418
 31
0.0
  0
LINE
  5
2B0
  8
0
 62
     0
 10
872.16008326788358
 20
-541.48779368026203
 30
0.0
 11
874.9563742568597
 21
-538.69150269128579
 31
0.0
  0
LINE
  5
2B1
  8
0
 62
     0
 10
887.12743793910352
 20
-526.52043900904209
 30
0.0
 11
889.12743793910352
 21
-524.52043900904198
 31
0.0
  0
LINE
  5
2B2
  8
0
 62
     0
 10
873.85713954273115
 20
-541.48779368026203
 30
0.0
 11
876.85713954273126
 21
-538.48779368026203
 31
0.0
  0
LINE
  5
2B3
  8
0
 62
     0
 10
887.12743793910352
 20
-528.21749528388966
 30
0.0
 11
889.12743793910352
 21
-526.21749528388966
 31
0.0
  0
LINE
  5
2B4
  8
0
 62
     0
 10
875.55419581757894
 20
-541.48779368026203
 30
0.0
 11
878.10062946199844
 21
-538.94136003584254
 31
0.0
  0
LINE
  5
2B5
  8
0
 62
     0
 10
887.28236824077464
 20
-529.75962125706644
 30
0.0
 11
889.31961740347356
 21
-527.7223720943673
 31
0.0
  0
LINE
  5
2B6
  8
0
 62
     0
 10
877.25125209242685
 20
-541.48779368026203
 30
0.0
 11
880.25125209242685
 21
-538.48779368026203
 31
0.0
  0
LINE
  5
2B7
  8
0
 62
     0
 10
888.0599560294628
 20
-530.67908974322586
 30
0.0
 11
890.28975597784836
 21
-528.4492897948403
 31
0.0
  0
LINE
  5
2B8
  8
0
 62
     0
 10
878.94830836727442
 20
-541.48779368026203
 30
0.0
 11
881.44830836727442
 21
-538.98779368026203
 31
0.0
  0
LINE
  5
2B9
  8
0
 62
     0
 10
889.44830836727442
 20
-530.98779368026203
 30
0.0
 11
891.94830836727442
 21
-528.48779368026192
 31
0.0
  0
LINE
  5
2BA
  8
0
 62
     0
 10
880.6453646421221
 20
-541.48779368026203
 30
0.0
 11
883.64536464212222
 21
-538.48779368026203
 31
0.0
  0
LINE
  5
2BB
  8
0
 62
     0
 10
895.12743793910329
 20
-527.00572038328073
 30
0.0
 11
896.55115788828016
 21
-525.58200043410409
 31
0.0
  0
LINE
  5
2BC
  8
0
 62
     0
 10
891.14536464212222
 20
-530.98779368026203
 30
0.0
 11
893.64536464212222
 21
-528.48779368026192
 31
0.0
  0
LINE
  5
2BD
  8
0
 62
     0
 10
882.34242091696967
 20
-541.48779368026203
 30
0.0
 11
884.84242091696979
 21
-538.98779368026203
 31
0.0
  0
LINE
  5
2BE
  8
0
 62
     0
 10
892.84242091696979
 20
-530.98779368026203
 30
0.0
 11
897.12743793910329
 21
-526.7027766581283
 31
0.0
  0
LINE
  5
2BF
  8
0
 62
     0
 10
884.03947719181747
 20
-541.48779368026203
 30
0.0
 11
887.03947719181758
 21
-538.48779368026203
 31
0.0
  0
LINE
  5
2C0
  8
0
 62
     0
 10
894.21677804168075
 20
-531.31049283039874
 30
0.0
 11
897.12743793910329
 21
-528.3998329329761
 31
0.0
  0
LINE
  5
2C1
  8
0
 62
     0
 10
885.73653346666526
 20
-541.48779368026203
 30
0.0
 11
888.73653346666538
 21
-538.48779368026203
 31
0.0
  0
LINE
  5
2C2
  8
0
 62
     0
 10
894.98293796092582
 20
-532.24138918600147
 30
0.0
 11
897.12743793910329
 21
-530.09688920782378
 31
0.0
  0
LINE
  5
2C3
  8
0
 62
     0
 10
887.43358974151295
 20
-541.48779368026203
 30
0.0
 11
890.43358974151295
 21
-538.48779368026203
 31
0.0
  0
LINE
  5
2C4
  8
0
 62
     0
 10
895.12743793910352
 20
-533.79394548267157
 30
0.0
 11
897.12743793910329
 21
-531.79394548267135
 31
0.0
  0
LINE
  5
2C5
  8
0
 62
     0
 10
889.13064601636063
 20
-541.48779368026203
 30
0.0
 11
892.13064601636086
 21
-538.48779368026203
 31
0.0
  0
LINE
  5
2C6
  8
0
 62
     0
 10
895.12743793910352
 20
-535.49100175751914
 30
0.0
 11
897.12743793910329
 21
-533.49100175751914
 31
0.0
  0
LINE
  5
2C7
  8
0
 62
     0
 10
890.82770229120842
 20
-541.48779368026203
 30
0.0
 11
894.05668639351632
 21
-538.25880957795403
 31
0.0
  0
LINE
  5
2C8
  8
0
 62
     0
 10
894.89845383679551
 20
-537.41704213467483
 30
0.0
 11
897.12743793910329
 21
-535.18805803236683
 31
0.0
  0
LINE
  5
2C9
  8
0
 62
     0
 10
892.52475856605622
 20
-541.48779368026203
 30
0.0
 11
897.12743793910329
 21
-536.88511430721462
 31
0.0
  0
LINE
  5
2CA
  8
0
 62
     0
 10
894.22181484090402
 20
-541.48779368026203
 30
0.0
 11
897.12743793910329
 21
-538.58217058206242
 31
0.0
  0
LINE
  5
2CB
  8
0
 62
     0
 10
895.91887111575159
 20
-541.48779368026203
 30
0.0
 11
897.12743793910329
 21
-540.27922685690999
 31
0.0
  0
ENDBLK
  5
2CD
  8
0
  0
BLOCK
  8
0
  2
*D3
 70
     1
 10
0.0
 20
0.0
 30
0.0
  3
*D3
  1

  0
LINE
  5
31D
  8
1
 10
-10.0
 20
32.0
 30
0.0
 11
-10.0
 21
42.402011270621642
 31
0.0
  0
LINE
  5
31E
  8
1
 10
0.0000000000000001
 20
32.0
 30
0.0
 11
0.0000000000000008
 21
42.402011270621642
 31
0.0
  0
LINE
  5
31F
  8
1
 10
-11.0
 20
41.402011270621642
 30
0.0
 11
1.0
 21
41.402011270621642
 31
0.0
  0
INSERT
  5
320
  8
1
  2
_OBLIQUE
 10
-10.0
 20
41.402011270621642
 30
0.0
 41
2.0
 42
2.0
 43
2.0
 50
180.0
  0
INSERT
  5
321
  8
1
  2
_OBLIQUE
 10
0.0000000000000007
 20
41.402011270621642
 30
0.0
 41
2.0
 42
2.0
 43
2.0
  0
TEXT
  5
322
  8
0
 10
-7.8685197817189634
 20
42.468859838152341
 30
0.0
 40
3.5
  1
10
  7
BESCHLAG
  0
POINT
  5
323
  8
DEFPOINTS
 62
     0
 10
-10.0
 20
30.0
 30
0.0
  0
POINT
  5
324
  8
DEFPOINTS
 62
     0
 10
0.0
 20
30.0
 30
0.0
  0
POINT
  5
325
  8
DEFPOINTS
 62
     0
 10
0.0000000000000007
 20
41.402011270621642
 30
0.0
  0
ENDBLK
  5
2F8
  8
0
  0
BLOCK
  8
0
  2
*D4
 70
     1
 10
0.0
 20
0.0
 30
0.0
  3
*D4
  1

  0
LINE
  5
326
  8
1
 10
-30.0
 20
-2.0
 30
0.0
 11
-30.0
 21
-11.64181157443954
 31
0.0
  0
LINE
  5
327
  8
1
 10
-0.0000000000000001
 20
-2.0
 30
0.0
 11
-0.0000000000000007
 21
-11.64181157443954
 31
0.0
  0
LINE
  5
328
  8
1
 10
-31.0
 20
-10.64181157443954
 30
0.0
 11
0.9999999999999992
 21
-10.64181157443954
 31
0.0
  0
INSERT
  5
329
  8
1
  2
_OBLIQUE
 10
-30.0
 20
-10.64181157443954
 30
0.0
 41
2.0
 42
2.0
 43
2.0
 50
180.0
  0
INSERT
  5
32A
  8
1
  2
_OBLIQUE
 10
-0.0000000000000007
 20
-10.64181157443954
 30
0.0
 41
2.0
 42
2.0
 43
2.0
  0
TEXT
  5
32B
  8
0
 10
-17.704979536152791
 20
-9.5725755580684648
 30
0.0
 40
3.5
  1
30
  7
BESCHLAG
  0
POINT
  5
32C
  8
DEFPOINTS
 62
     0
 10
-30.0
 20
0.0
 30
0.0
  0
POINT
  5
32D
  8
DEFPOINTS
 62
     0
 10
0.0
 20
0.0
 30
0.0
  0
POINT
  5
32E
  8
DEFPOINTS
 62
     0
 10
-0.0000000000000007
 20
-10.64181157443954
 30
0.0
  0
ENDBLK
  5
304
  8
0
  0
BLOCK
  8
0
  2
*D5
 70
     1
 10
0.0
 20
0.0
 30
0.0
  3
*D5
  1

  0
LINE
  5
32F
  8
1
 10
-2.0
 20
0.0000000000000006
 30
0.0
 11
-22.657717910694831
 21
0.0000000000000064
 31
0.0
  0
LINE
  5
330
  8
1
 10
-12.0
 20
30.0
 30
0.0
 11
-22.657717910694821
 21
30.0
 31
0.0
  0
LINE
  5
331
  8
1
 10
-21.657717910694831
 20
-0.9999999999999939
 30
0.0
 11
-21.657717910694821
 21
31.0
 31
0.0
  0
INSERT
  5
332
  8
1
  2
_OBLIQUE
 10
-21.657717910694831
 20
0.0000000000000061
 30
0.0
 41
2.0
 42
2.0
 43
2.0
 50
270.0
  0
INSERT
  5
333
  8
1
  2
_OBLIQUE
 10
-21.657717910694821
 20
30.0
 30
0.0
 41
2.0
 42
2.0
 43
2.0
 50
90.0
  0
TEXT
  5
334
  8
0
 10
-22.7269539270659
 20
12.2950204638472
 30
0.0
 40
3.5
  1
30
 50
90.0
  7
BESCHLAG
  0
POINT
  5
335
  8
DEFPOINTS
 62
     0
 10
0.0
 20
0.0
 30
0.0
  0
POINT
  5
336
  8
DEFPOINTS
 62
     0
 10
-10.0
 20
30.0
 30
0.0
  0
POINT
  5
337
  8
DEFPOINTS
 62
     0
 10
-21.657717910694821
 20
30.0
 30
0.0
  0
ENDBLK
  5
310
  8
0
  0
BLOCK
  8
0
  2
*D6
 70
     1
 10
0.0
 20
0.0
 30
0.0
  3
*D6
  1

  0
LINE
  5
338
  8
1
 10
0.0000000000000001
 20
31.999999999999769
 30
0.0
 11
0.0000000000000008
 21
42.402011270621642
 31
0.0
  0
LINE
  5
339
  8
1
 10
5.0
 20
31.999999999999769
 30
0.0
 11
5.0
 21
42.402011270621642
 31
0.0
  0
LINE
  5
33A
  8
1
 10
-0.9999999999999992
 20
41.402011270621642
 30
0.0
 11
6.0
 21
41.402011270621642
 31
0.0
  0
INSERT
  5
33B
  8
1
  2
_OBLIQUE
 10
0.0000000000000007
 20
41.402011270621642
 30
0.0
 41
2.0
 42
2.0
 43
2.0
 50
180.0
  0
INSERT
  5
33C
  8
1
  2
_OBLIQUE
 10
5.0
 20
41.402011270621642
 30
0.0
 41
2.0
 42
2.0
 43
2.0
  0
TEXT
  5
33D
  8
0
 10
1.136766712141883
 20
42.461697491631192
 30
0.0
 40
3.5
  1
5
  7
BESCHLAG
  0
POINT
  5
33E
  8
DEFPOINTS
 62
     0
 10
0.0
 20
29.999999999999769
 30
0.0
  0
POINT
  5
33F
  8
DEFPOINTS
 62
     0
 10
5.0
 20
29.999999999999769
 30
0.0
  0
POINT
  5
340
  8
DEFPOINTS
 62
     0
 10
5.0
 20
41.402011270621642
 30
0.0
  0
ENDBLK
  5
31C
  8
0
  0
ENDSEC
  0
SECTION
  2
ENTITIES
  0
INSERT
  5
25B
  8
5
  2
NULLPUNKT
 10
0.0
 20
0.0
 30
0.0
  0
INSERT
  5
2E0
  8
2
  2
*X2
 10
-897.12743793910352
 20
541.48779368026203
 30
0.0
1001
ACAD
1000
HATCH
1002
{
1070
    16
1000
_U,I
1040
1.1999999999999991
1040
0.7853981633974483
1070
     0
1002
}
  0
POINT
  5
2E1
  8
5
 10
-8.0
 20
20.500000000608448
 30
0.0
  0
DIMENSION
  5
2E2
  8
1
  2
*D3
 10
0.0000000000000007
 20
41.402011270621642
 30
0.0
 11
-5.0
 21
44.189016727647562
 31
0.0
 70
     0
 13
-10.0
 23
30.0
 33
0.0
 14
0.0
 24
30.0
 34
0.0
  0
DIMENSION
  5
2E3
  8
1
  2
*D4
 10
-0.0000000000000007
 20
-10.64181157443954
 30
0.0
 11
-15.0
 21
-7.8536123929934307
 31
0.0
 70
     0
 13
-30.0
 23
0.0
 33
0.0
 14
0.0
 24
0.0
 34
0.0
  0
TEXT
  5
2E4
  8
1
 10
-32.2163420445047
 20
5.2454219833946354
 30
0.0
 40
2.4999999499999999
  1
Hebgo 171/610
  0
DIMENSION
  5
2E5
  8
1
  2
*D5
 10
-21.657717910694821
 20
30.0
 30
0.0
 11
-24.445917092140942
 21
15.0
 31
0.0
 70
     0
 13
0.0
 23
0.0
 33
0.0
 14
-10.0
 24
30.0
 34
0.0
 50
90.0
  0
POLYLINE
  5
2E6
  8
6
 66
     1
 10
0.0
 20
0.0
 30
0.0
 70
     1
  0
VERTEX
  5
404
  8
6
 10
-2.0
 20
5.0
 30
0.0
  0
VERTEX
  5
405
  8
6
 10
-2.0
 20
8.5
 30
0.0
 42
0.4142135623730951
  0
VERTEX
  5
406
  8
6
 10
-4.0
 20
10.5
 30
0.0
  0
VERTEX
  5
407
  8
6
 10
-8.0
 20
10.5
 30
0.0
 42
-0.4142135623730951
  0
VERTEX
  5
408
  8
6
 10
-10.0
 20
12.5
 30
0.0
  0
VERTEX
  5
409
  8
6
 10
-10.0
 20
29.799999999999951
 30
0.0
 42
-0.4142135623730951
  0
VERTEX
  5
40A
  8
6
 10
-9.7999999999999545
 20
30.0
 30
0.0
  0
VERTEX
  5
40B
  8
6
 10
-2.0
 20
30.0
 30
0.0
 42
-0.4142135623730951
  0
VERTEX
  5
40C
  8
6
 10
0.0
 20
28.0
 30
0.0
  0
VERTEX
  5
40D
  8
6
 10
0.0
 20
26.0
 30
0.0
 42
-0.4142135623730951
  0
VERTEX
  5
40E
  8
6
 10
-1.0
 20
25.0
 30
0.0
  0
VERTEX
  5
40F
  8
6
 10
-1.7999999999999541
 20
25.0
 30
0.0
 42
-0.4142135623730951
  0
VERTEX
  5
410
  8
6
 10
-2.0
 20
25.200000000000038
 30
0.0
  0
VERTEX
  5
411
  8
6
 10
-2.0
 20
27.799999999999951
 30
0.0
 42
0.4142135623730951
  0
VERTEX
  5
412
  8
6
 10
-2.1999999999998181
 20
28.0
 30
0.0
  0
VERTEX
  5
413
  8
6
 10
-6.5
 20
28.0
 30
0.0
 42
0.4142135623730951
  0
VERTEX
  5
414
  8
6
 10
-8.0
 20
26.5
 30
0.0
  0
VERTEX
  5
415
  8
6
 10
-8.0
 20
20.841421356314861
 30
0.0
 42
-0.1989123677245883
  0
VERTEX
  5
416
  8
6
 10
-8.0292893219752841
 20
20.770710678102429
 30
0.0
  0
VERTEX
  5
417
  8
6
 10
-8.2292893218811969
 20
20.570710678727199
 30
0.0
 42
0.4142135623730951
  0
VERTEX
  5
418
  8
6
 10
-8.2292893218811969
 20
20.429289322489922
 30
0.0
  0
VERTEX
  5
419
  8
6
 10
-8.0292893217874735
 20
20.229289321865281
 30
0.0
 42
-0.1989123670347116
  0
VERTEX
  5
41A
  8
6
 10
-8.0
 20
20.158578643840428
 30
0.0
  0
VERTEX
  5
41B
  8
6
 10
-8.0
 20
14.5
 30
0.0
 42
0.4142135623730951
  0
VERTEX
  5
41C
  8
6
 10
-6.5
 20
13.0
 30
0.0
  0
VERTEX
  5
41D
  8
6
 10
-2.1999999999998181
 20
13.0
 30
0.0
 42
0.4142135623730951
  0
VERTEX
  5
41E
  8
6
 10
-2.0
 20
13.20000000000004
 30
0.0
  0
VERTEX
  5
41F
  8
6
 10
-2.0
 20
15.799999999999949
 30
0.0
 42
-0.4142135623730951
  0
VERTEX
  5
420
  8
6
 10
-1.7999999999999541
 20
16.0
 30
0.0
  0
VERTEX
  5
421
  8
6
 10
-1.0
 20
16.0
 30
0.0
 42
-0.4142135623730951
  0
VERTEX
  5
422
  8
6
 10
0.0
 20
15.0
 30
0.0
  0
VERTEX
  5
423
  8
6
 10
0.0
 20
0.1999999999998181
 30
0.0
 42
-0.4142135623730951
  0
VERTEX
  5
424
  8
6
 10
-0.1999999999998181
 20
0.0
 30
0.0
  0
VERTEX
  5
425
  8
6
 10
-29.799999999999951
 20
0.0
 30
0.0
 42
-0.4142135623730951
  0
VERTEX
  5
426
  8
6
 10
-30.0
 20
0.1999999999998181
 30
0.0
  0
VERTEX
  5
427
  8
6
 10
-30.0
 20
2.5
 30
0.0
  0
VERTEX
  5
428
  8
6
 10
-29.711324865405
 20
3.0
 30
0.0
  0
VERTEX
  5
429
  8
6
 10
-28.288675134594762
 20
3.0
 30
0.0
  0
VERTEX
  5
42A
  8
6
 10
-28.0
 20
2.5
 30
0.0
  0
VERTEX
  5
42B
  8
6
 10
-27.0
 20
2.5
 30
0.0
  0
VERTEX
  5
42C
  8
6
 10
-26.711324865405
 20
3.0
 30
0.0
  0
VERTEX
  5
42D
  8
6
 10
-25.288675134594769
 20
3.0
 30
0.0
  0
VERTEX
  5
42E
  8
6
 10
-25.0
 20
2.5
 30
0.0
  0
VERTEX
  5
42F
  8
6
 10
-24.0
 20
2.5
 30
0.0
  0
VERTEX
  5
430
  8
6
 10
-23.711324865405
 20
3.0
 30
0.0
  0
VERTEX
  5
431
  8
6
 10
-22.288675134594762
 20
3.0
 30
0.0
  0
VERTEX
  5
432
  8
6
 10
-22.0
 20
2.5
 30
0.0
  0
VERTEX
  5
433
  8
6
 10
-21.0
 20
2.5
 30
0.0
  0
VERTEX
  5
434
  8
6
 10
-20.711324865405
 20
3.0
 30
0.0
  0
VERTEX
  5
435
  8
6
 10
-19.288675134594769
 20
3.0
 30
0.0
  0
VERTEX
  5
436
  8
6
 10
-19.0
 20
2.5
 30
0.0
  0
VERTEX
  5
437
  8
6
 10
-18.0
 20
2.5
 30
0.0
  0
VERTEX
  5
438
  8
6
 10
-17.711324865405
 20
3.0
 30
0.0
  0
VERTEX
  5
439
  8
6
 10
-16.288675134594769
 20
3.0
 30
0.0
  0
VERTEX
  5
43A
  8
6
 10
-16.0
 20
2.5
 30
0.0
  0
VERTEX
  5
43B
  8
6
 10
-15.0
 20
2.5
 30
0.0
  0
VERTEX
  5
43C
  8
6
 10
-14.711324865405
 20
3.0
 30
0.0
  0
VERTEX
  5
43D
  8
6
 10
-13.28867513459476
 20
3.0
 30
0.0
  0
VERTEX
  5
43E
  8
6
 10
-13.0
 20
2.5
 30
0.0
  0
VERTEX
  5
43F
  8
6
 10
-12.0
 20
2.5
 30
0.0
  0
VERTEX
  5
440
  8
6
 10
-11.711324865405
 20
3.0
 30
0.0
  0
VERTEX
  5
441
  8
6
 10
-4.0
 20
3.0
 30
0.0
 42
0.4142135623730951
  0
SEQEND
  5
442
  8
6
  0
POLYLINE
  5
2E7
  8
4
 66
     1
 10
0.0
 20
0.0
 30
0.0
 70
     1
  0
VERTEX
  5
443
  8
4
 10
0.0
 20
0.0
 30
0.0
  0
VERTEX
  5
444
  8
4
 10
0.0
 20
30.0
 30
0.0
  0
VERTEX
  5
445
  8
4
 10
-10.0
 20
30.0
 30
0.0
  0
VERTEX
  5
446
  8
4
 10
-10.0
 20
10.5
 30
0.0
  0
VERTEX
  5
447
  8
4
 10
-2.0
 20
10.5
 30
0.0
  0
VERTEX
  5
448
  8
4
 10
-2.0
 20
3.0
 30
0.0
  0
VERTEX
  5
449
  8
4
 10
-30.0
 20
3.0
 30
0.0
  0
VERTEX
  5
44A
  8
4
 10
-30.0
 20
0.0
 30
0.0
  0
SEQEND
  5
44B
  8
4
  0
DIMENSION
  5
2E8
  8
1
  2
*D6
 10
5.0
 20
41.402011270621642
 30
0.0
 11
2.5
 21
44.181854381126414
 31
0.0
 70
     0
 13
0.0
 23
29.999999999999769
 33
0.0
 14
5.0
 24
29.999999999999769
 34
0.0
  0
POLYLINE
  5
2E9
  8
5
 66
     1
 10
0.0
 20
0.0
 30
0.0
  0
VERTEX
  5
44C
  8
5
 10
9.2449054883427362
 20
15.0
 30
0.0
  0
VERTEX
  5
44D
  8
5
 10
5.0
 20
15.0
 30
0.0
  0
VERTEX
  5
44E
  8
5
 10
5.0
 20
41.419596266785668
 30
0.0
  0
SEQEND
  5
44F
  8
5
  0
POINT
  5
2EA
  8
5
 10
-8.0
 20
20.500000000608448
 30
0.0
  0
POLYLINE
  5
2EB
  8
6
 66
     1
 10
0.0
 20
0.0
 30
0.0
 70
     1
  0
VERTEX
  5
450
  8
6
 10
-0.3368948749680385
 20
22.231274230101231
 30
0.0
  0
VERTEX
  5
451
  8
6
 10
-0.3368948749680385
 20
18.10448727328389
 30
0.0
 42
-0.3542222137672995
  0
VERTEX
  5
452
  8
6
 10
-1.181612134238093
 20
17.259536865700049
 30
0.0
  0
VERTEX
  5
453
  8
6
 10
-2.6874124033561202
 20
17.265659686046309
 30
0.0
 42
-0.343655940181943
  0
VERTEX
  5
454
  8
6
 10
-3.4954028194410962
 20
18.202452576572568
 30
0.0
  0
VERTEX
  5
455
  8
6
 10
-3.4954028194410962
 20
22.494555904923569
 30
0.0
 42
-0.2923726044221553
  0
VERTEX
  5
456
  8
6
 10
-2.589474177193551
 20
23.235418233309922
 30
0.0
  0
VERTEX
  5
457
  8
6
 10
-1.4754268127253449
 20
23.235418233309922
 30
0.0
 42
-0.345210202999001
  0
SEQEND
  5
458
  8
6
  0
POLYLINE
  5
2EC
  8
6
 66
     1
 10
0.0
 20
0.0
 30
0.0
 70
     1
  0
VERTEX
  5
459
  8
6
 10
-2.9645733500374258
 20
26.071196082158849
 30
0.0
 42
-0.4340228066750199
  0
VERTEX
  5
45A
  8
6
 10
-2.5886087472304089
 20
26.083526197917529
 30
0.0
  0
VERTEX
  5
45B
  8
6
 10
-1.904476445989985
 20
25.041631749584891
 30
0.0
  0
VERTEX
  5
45C
  8
6
 10
-0.3081677319305527
 20
25.041631749584891
 30
0.0
 42
0.2926708623625712
  0
VERTEX
  5
45D
  8
6
 10
-0.0000000000004547
 20
25.238913601724331
 30
0.0
  0
VERTEX
  5
45E
  8
6
 10
0.0055463756957579
 20
27.33364635209341
 30
0.0
 42
-0.4725495945331585
  0
VERTEX
  5
45F
  8
6
 10
0.3328211303860371
 20
27.593964867332708
 30
0.0
 42
-0.1497715981737393
  0
VERTEX
  5
460
  8
6
 10
0.899849696842466
 20
27.47066370974585
 30
0.0
 42
-0.1375660736324291
  0
VERTEX
  5
461
  8
6
 10
1.8798230140359911
 20
25.824593855859121
 30
0.0
 42
-0.3441417900027466
  0
VERTEX
  5
462
  8
6
 10
3.9590174963254858
 20
14.731504838235869
 30
0.0
 42
-1.013427136496432
  0
VERTEX
  5
463
  8
6
 10
2.8521052394680728
 20
15.333487358166851
 30
0.0
 42
0.2618032337289678
  0
VERTEX
  5
464
  8
6
 10
1.981620838094841
 20
23.051763262517621
 30
0.0
 42
1.48716411242179
  0
VERTEX
  5
465
  8
6
 10
1.4008154010721221
 20
23.257933793537401
 30
0.0
  0
VERTEX
  5
466
  8
6
 10
1.506915754610872
 20
15.8767985007073
 30
0.0
 42
-0.264033326694127
  0
VERTEX
  5
467
  8
6
 10
0.3136691880727085
 20
13.97993421760088
 30
0.0
 42
-0.4546962762195842
  0
VERTEX
  5
468
  8
6
 10
0.0014037946625649
 20
14.194436185349099
 30
0.0
  0
VERTEX
  5
469
  8
6
 10
-0.0014202752149686
 20
15.71558932378025
 30
0.0
 42
0.5545890291270417
  0
VERTEX
  5
46A
  8
6
 10
-0.3339923549829109
 20
15.98129820143981
 30
0.0
  0
VERTEX
  5
46B
  8
6
 10
-1.75650446978534
 20
15.98129820143981
 30
0.0
 42
0.3795622521557158
  0
VERTEX
  5
46C
  8
6
 10
-2.0786148827132811
 20
15.692002294432539
 30
0.0
  0
VERTEX
  5
46D
  8
6
 10
-2.6470693518904218
 20
13.488302440997581
 30
0.0
 42
-0.2098868600260434
  0
VERTEX
  5
46E
  8
6
 10
-2.7512078497979919
 20
13.37836816285675
 30
0.0
 42
-0.3590346299987293
  0
VERTEX
  5
46F
  8
6
 10
-3.5677445710057318
 20
13.536727050620581
 30
0.0
  0
VERTEX
  5
470
  8
6
 10
-5.1798886837700593
 20
16.432472775825541
 30
0.0
 42
-0.1375040557749069
  0
VERTEX
  5
471
  8
6
 10
-5.3186732881754324
 20
16.987764491320139
 30
0.0
  0
VERTEX
  5
472
  8
6
 10
-5.3186732881754324
 20
22.853262054345802
 30
0.0
 42
-0.1555493545182818
  0
VERTEX
  5
473
  8
6
 10
-4.7982309546596289
 20
24.333811570073291
 30
0.0
  0
SEQEND
  5
474
  8
6
  0
VIEWPORT
  5
22
 67
     1
  8
0
 10
210.0
 20
170.2366863905325
 30
0.0
 40
420.0
 41
340.47337278106511
 68
     1
 69
     1
1001
ACAD
1000
MVIEW
1002
{
1070
    16
1010
0.0
1020
0.0
1030
0.0
1010
0.0
1020
0.0
1030
1.0
1040
0.0
1040
340.47337278106511
1040
210.0
1040
170.2366863905325
1040
50.0
1040
0.0
1040
0.0
1070
     0
1070
   100
1070
     1
1070
     1
1070
     0
1070
     0
1070
     0
1070
     0
1040
0.0
1040
0.0
1040
0.0
1040
5.0
1040
5.0
1040
10.0
1040
10.0
1070
     0
1002
{
1002
}
1002
}
  0
ENDSEC
  0
EOF
