  0
SECTION
  2
HEADER
  9
$ACADVER
  1
AC1009
  9
$INSBASE
 10
0.0
 20
0.0
 30
0.0
  9
$EXTMIN
 10
-30.60150062735363
 20
-12.95471105602882
 30
-0.0000000000112498
  9
$EXTMAX
 10
15.792847221941759
 20
16.799927301239219
 30
0.0000000000002956
  9
$LIMMIN
 10
-150.0
 20
-150.0
  9
$LIMMAX
 10
150.0
 20
150.0
  9
$ORTHOMODE
 70
     0
  9
$REGENMODE
 70
     1
  9
$FILLMODE
 70
     1
  9
$QTEXTMODE
 70
     0
  9
$MIRRTEXT
 70
     0
  9
$DRAGMODE
 70
     2
  9
$LTSCALE
 40
2.0
  9
$OSMODE
 70
   111
  9
$ATTMODE
 70
     1
  9
$TEXTSIZE
 40
3.5
  9
$TRACEWID
 40
1.0
  9
$TEXTSTYLE
  7
BESCHLAG
  9
$CLAYER
  8
0
  9
$CELTYPE
  6
BYLAYER
  9
$CECOLOR
 62
   256
  9
$DIMSCALE
 40
1.0
  9
$DIMASZ
 40
2.0
  9
$DIMEXO
 40
2.0
  9
$DIMDLI
 40
0.0
  9
$DIMRND
 40
0.0
  9
$DIMDLE
 40
1.0
  9
$DIMEXE
 40
1.0
  9
$DIMTP
 40
0.0
  9
$DIMTM
 40
0.0
  9
$DIMTXT
 40
3.5
  9
$DIMCEN
 40
0.0
  9
$DIMTSZ
 40
0.0
  9
$DIMTOL
 70
     0
  9
$DIMLIM
 70
     0
  9
$DIMTIH
 70
     0
  9
$DIMTOH
 70
     0
  9
$DIMSE1
 70
     0
  9
$DIMSE2
 70
     0
  9
$DIMTAD
 70
     1
  9
$DIMZIN
 70
     8
  9
$DIMBLK
  1

  9
$DIMASO
 70
     1
  9
$DIMSHO
 70
     1
  9
$DIMPOST
  1

  9
$DIMAPOST
  1

  9
$DIMALT
 70
     0
  9
$DIMALTD
 70
     2
  9
$DIMALTF
 40
0.039370078740157
  9
$DIMLFAC
 40
1.0
  9
$DIMTOFL
 70
     1
  9
$DIMTVP
 40
0.0
  9
$DIMTIX
 70
     1
  9
$DIMSOXD
 70
     0
  9
$DIMSAH
 70
     1
  9
$DIMBLK1
  1
OBLIQUE
  9
$DIMBLK2
  1
OBLIQUE
  9
$DIMSTYLE
  2
OPO-SSTRICH
  9
$DIMCLRD
 70
   256
  9
$DIMCLRE
 70
   256
  9
$DIMCLRT
 70
   256
  9
$DIMTFAC
 40
0.7114285714285716
  9
$DIMGAP
 40
1.0
  9
$LUNITS
 70
     2
  9
$LUPREC
 70
     1
  9
$SKETCHINC
 40
1.0
  9
$FILLETRAD
 40
0.0
  9
$AUNITS
 70
     0
  9
$AUPREC
 70
     1
  9
$MENU
  1
D:\ACL_CGWG\CGTAB13
  9
$ELEVATION
 40
0.0
  9
$PELEVATION
 40
0.0
  9
$THICKNESS
 40
0.0
  9
$LIMCHECK
 70
     0
  9
$BLIPMODE
 70
     0
  9
$CHAMFERA
 40
1.0
  9
$CHAMFERB
 40
1.0
  9
$SKPOLY
 70
     0
  9
$TDCREATE
 40
2451739.8620193051
  9
$TDUPDATE
 40
2452086.735999953
  9
$TDINDWG
 40
0.0008137384
  9
$TDUSRTIMER
 40
0.0008137384
  9
$USRTIMER
 70
     1
  9
$ANGBASE
 50
0.0
  9
$ANGDIR
 70
     0
  9
$PDMODE
 70
    35
  9
$PDSIZE
 40
5.0
  9
$PLINEWID
 40
0.0
  9
$COORDS
 70
     1
  9
$SPLFRAME
 70
     0
  9
$SPLINETYPE
 70
     6
  9
$SPLINESEGS
 70
     8
  9
$ATTDIA
 70
     1
  9
$ATTREQ
 70
     1
  9
$HANDLING
 70
-16383
  9
$HANDSEED
  5
439
  9
$SURFTAB1
 70
    12
  9
$SURFTAB2
 70
    12
  9
$SURFTYPE
 70
     6
  9
$SURFU
 70
    12
  9
$SURFV
 70
    12
  9
$UCSNAME
  2

  9
$UCSORG
 10
0.0
 20
0.0
 30
0.0
  9
$UCSXDIR
 10
1.0
 20
0.0
 30
0.0
  9
$UCSYDIR
 10
0.0
 20
1.0
 30
0.0
  9
$PUCSNAME
  2

  9
$PUCSORG
 10
0.0
 20
0.0
 30
0.0
  9
$PUCSXDIR
 10
1.0
 20
0.0
 30
0.0
  9
$PUCSYDIR
 10
0.0
 20
1.0
 30
0.0
  9
$USERI1
 70
     0
  9
$USERI2
 70
     0
  9
$USERI3
 70
     0
  9
$USERI4
 70
     0
  9
$USERI5
 70
     0
  9
$USERR1
 40
0.0
  9
$USERR2
 40
0.0
  9
$USERR3
 40
0.0
  9
$USERR4
 40
0.0
  9
$USERR5
 40
0.0
  9
$WORLDVIEW
 70
     1
  9
$SHADEDGE
 70
     3
  9
$SHADEDIF
 70
    70
  9
$TILEMODE
 70
     1
  9
$MAXACTVP
 70
    48
  9
$PLIMCHECK
 70
     0
  9
$PEXTMIN
 10
1.0000000000000000E+020
 20
1.0000000000000000E+020
 30
1.0000000000000000E+020
  9
$PEXTMAX
 10
-1.0000000000000000E+020
 20
-1.0000000000000000E+020
 30
-1.0000000000000000E+020
  9
$PLIMMIN
 10
0.0
 20
0.0
  9
$PLIMMAX
 10
420.0
 20
297.0
  9
$UNITMODE
 70
     0
  9
$VISRETAIN
 70
     1
  9
$PLINEGEN
 70
     0
  9
$PSLTSCALE
 70
     1
  0
ENDSEC
  0
SECTION
  2
TABLES
  0
TABLE
  2
VPORT
 70
     2
  0
VPORT
  2
*ACTIVE
 70
     0
 10
0.0
 20
0.0
 11
1.0
 21
1.0
 12
-7.4043267027059319
 22
1.922608122605197
 13
0.0
 23
0.0
 14
0.5
 24
0.5
 15
10.0
 25
10.0
 16
0.0
 26
0.0
 36
1.0
 17
0.0
 27
0.0
 37
0.0
 40
29.996218641630168
 41
1.6070460704607039
 42
50.0
 43
0.0
 44
0.0
 50
0.0
 51
0.0
 71
     0
 72
   800
 73
     1
 74
     1
 75
     0
 76
     0
 77
     0
 78
     0
  0
ENDTAB
  0
TABLE
  2
LTYPE
 70
     2
  0
LTYPE
  2
CONTINUOUS
 70
     0
  3
_______________________________________________
 72
    65
 73
     2
 40
1.0
 49
1.0
 49
0.0
  0
LTYPE
  2
STRICHPUNKT
 70
     0
  3
__ . __ . __ . __ . __ . __ . __ . __ . __ . __
 72
    65
 73
     4
 40
1.0
 49
0.5
 49
-0.25
 49
0.0
 49
-0.25
  0
ENDTAB
  0
TABLE
  2
LAYER
 70
     7
  0
LAYER
  2
0
 70
     0
 62
    30
  6
CONTINUOUS
  0
LAYER
  2
1
 70
     0
 62
     2
  6
CONTINUOUS
  0
LAYER
  2
2
 70
     0
 62
     9
  6
CONTINUOUS
  0
LAYER
  2
4
 70
     1
 62
     4
  6
CONTINUOUS
  0
LAYER
  2
5
 70
     0
 62
     1
  6
CONTINUOUS
  0
LAYER
  2
6
 70
     0
 62
     3
  6
CONTINUOUS
  0
LAYER
  2
DEFPOINTS
 70
     0
 62
     7
  6
CONTINUOUS
  0
ENDTAB
  0
TABLE
  2
STYLE
 70
     2
  0
STYLE
  2
STANDARD
 70
     0
 40
0.0
 41
1.0
 50
0.0
 71
     0
 42
2.5
  3
txt
  4

  0
STYLE
  2
BESCHLAG
 70
     0
 40
0.0
 41
1.0
 50
0.0
 71
     0
 42
3.5
  3
txt
  4

  0
ENDTAB
  0
TABLE
  2
VIEW
 70
     0
  0
ENDTAB
  0
TABLE
  2
UCS
 70
     0
  0
ENDTAB
  0
TABLE
  2
APPID
 70
     1
  0
APPID
  2
ACAD
 70
     0
  0
ENDTAB
  0
TABLE
  2
DIMSTYLE
 70
     1
  0
DIMSTYLE
  2
OPO-SSTRICH
 70
     0
  3

  4

  5

  6
OBLIQUE
  7
OBLIQUE
 40
1.0
 41
2.0
 42
2.0
 43
0.0
 44
1.0
 45
0.0
 46
1.0
 47
0.0
 48
0.0
140
3.5
141
0.0
142
0.0
143
0.039370078740157
144
1.0
145
0.0
146
0.7114285714285716
147
1.0
 71
     0
 72
     0
 73
     0
 74
     0
 75
     0
 76
     0
 77
     1
 78
     8
170
     0
171
     2
172
     1
173
     1
174
     1
175
     0
176
   256
177
   256
178
   256
  0
ENDTAB
  0
ENDSEC
  0
SECTION
  2
BLOCKS
  0
BLOCK
  8
0
  2
$MODEL_SPACE
 70
     0
 10
0.0
 20
0.0
 30
0.0
  3
$MODEL_SPACE
  1

  0
ENDBLK
  5
1C
  8
0
  0
BLOCK
 67
     1
  8
0
  2
$PAPER_SPACE
 70
     0
 10
0.0
 20
0.0
 30
0.0
  3
$PAPER_SPACE
  1

  0
ENDBLK
  5
19
 67
     1
  8
0
  0
BLOCK
  8
0
  2
_OBLIQUE
 70
     0
 10
0.0
 20
0.0
 30
0.0
  3
_OBLIQUE
  1

  0
LINE
  5
204
  8
0
 62
     0
 10
-0.5
 20
-0.5
 30
0.0
 11
0.5
 21
0.5
 31
0.0
  0
ENDBLK
  5
206
  8
0
  0
BLOCK
  8
0
  2
NULLPUNKT
 70
     0
 10
0.0
 20
0.0
 30
0.0
  3
NULLPUNKT
  1

  0
SOLID
  5
254
  8
5
 10
0.0
 20
0.0
 30
0.0
 11
2.0
 21
0.0
 31
0.0
 12
0.0
 22
-2.0
 32
0.0
 13
0.0
 23
-2.0
 33
0.0
  0
SOLID
  5
255
  8
5
 10
0.0
 20
0.0
 30
0.0
 11
-2.0
 21
0.0
 31
0.0
 12
0.0
 22
2.0
 32
0.0
 13
0.0
 23
2.0
 33
0.0
  0
POLYLINE
  5
256
  8
5
 66
     1
 10
0.0
 20
0.0
 30
0.0
  0
VERTEX
  5
3EC
  8
5
 10
0.0
 20
2.0
 30
0.0
  0
VERTEX
  5
3ED
  8
5
 10
0.0
 20
-2.0
 30
0.0
  0
SEQEND
  5
3EE
  8
5
  0
POLYLINE
  5
257
  8
5
 66
     1
 10
0.0
 20
0.0
 30
0.0
  0
VERTEX
  5
3EF
  8
5
 10
-2.0
 20
0.0
 30
0.0
  0
VERTEX
  5
3F0
  8
5
 10
2.0
 20
0.0
 30
0.0
  0
SEQEND
  5
3F1
  8
5
  0
CIRCLE
  5
258
  8
5
 10
0.0
 20
0.0
 30
0.0
 40
2.0
  0
ENDBLK
  5
25A
  8
0
  0
BLOCK
  8
0
  2
*X2
 70
     1
 10
0.0
 20
0.0
 30
0.0
  3
*X2
  1

  0
LINE
  5
29E
  8
0
 62
     0
 10
259.19583903817181
 20
-673.73262128897511
 30
0.0
 11
260.46830305478159
 21
-672.46015727236534
 31
0.0
  0
LINE
  5
29F
  8
0
 62
     0
 10
258.74829779460271
 20
-672.76594897017105
 30
0.0
 11
260.24456251605233
 21
-671.26968424872143
 31
0.0
  0
LINE
  5
2A0
  8
0
 62
     0
 10
261.55408949240848
 20
-669.96015727236511
 30
0.0
 11
262.17677112082367
 21
-669.33747564395003
 31
0.0
  0
LINE
  5
2A1
  8
0
 62
     0
 10
258.74456251605238
 20
-671.35547068634833
 30
0.0
 11
261.51282280959072
 21
-668.58721039280988
 31
0.0
  0
LINE
  5
2A2
  8
0
 62
     0
 10
258.74456251605238
 20
-669.94125712397522
 30
0.0
 11
260.22566236766238
 21
-668.46015727236511
 31
0.0
  0
LINE
  5
2A3
  8
0
 62
     0
 10
260.18374985086513
 20
-674.15892403865485
 30
0.0
 11
261.88251661715469
 21
-672.46015727236511
 31
0.0
  0
LINE
  5
2A4
  8
0
 62
     0
 10
261.59673017952713
 20
-674.16015727236595
 30
0.0
 11
263.2967301795278
 21
-672.46015727236511
 31
0.0
  0
LINE
  5
2A5
  8
0
 62
     0
 10
263.01094374190012
 20
-674.16015727236595
 30
0.0
 11
264.71094374190091
 21
-672.46015727236511
 31
0.0
  0
LINE
  5
2A6
  8
0
 62
     0
 10
264.42515730427323
 20
-674.16015727236595
 30
0.0
 11
264.79456251605279
 21
-673.79075206058644
 31
0.0
  0
ENDBLK
  5
2A8
  8
0
  0
BLOCK
  8
0
  2
*X3
 70
     1
 10
0.0
 20
0.0
 30
0.0
  3
*X3
  1

  0
LINE
  5
2AA
  8
0
 62
     0
 10
268.66779799139249
 20
-674.16015727236595
 30
0.0
 11
270.36779799139327
 21
-672.46015727236522
 31
0.0
  0
LINE
  5
2AB
  8
0
 62
     0
 10
272.24456251605233
 20
-670.58339274770606
 30
0.0
 11
273.5700315177441
 21
-669.25792374601451
 31
0.0
  0
LINE
  5
2AC
  8
0
 62
     0
 10
267.69456251605283
 20
-673.71917918533268
 30
0.0
 11
268.95358442902022
 21
-672.46015727236522
 31
0.0
  0
LINE
  5
2AD
  8
0
 62
     0
 10
271.53966519371011
 20
-669.87407650767534
 30
0.0
 11
272.83324236883772
 21
-668.58049933254767
 31
0.0
  0
LINE
  5
2AE
  8
0
 62
     0
 10
270.24456251605233
 20
-669.75496562295996
 30
0.0
 11
271.53936193852581
 21
-668.46016620048647
 31
0.0
  0
LINE
  5
2AF
  8
0
 62
     0
 10
270.0820115537656
 20
-674.16015727236595
 30
0.0
 11
271.78201155376638
 21
-672.46015727236522
 31
0.0
  0
LINE
  5
2B0
  8
0
 62
     0
 10
272.24456251605233
 20
-671.99760631007916
 30
0.0
 11
273.74456251605233
 21
-670.49760631007928
 31
0.0
  0
LINE
  5
2B1
  8
0
 62
     0
 10
271.4962251161387
 20
-674.16015727236595
 30
0.0
 11
273.74456251605233
 21
-671.91181987245227
 31
0.0
  0
LINE
  5
2B2
  8
0
 62
     0
 10
272.24456251605233
 20
-674.82603343482549
 30
0.0
 11
273.74456251605233
 21
-673.32603343482549
 31
0.0
  0
LINE
  5
2B3
  8
0
 62
     0
 10
272.24456251605233
 20
-676.2402469971986
 30
0.0
 11
273.74456251605233
 21
-674.74024699719848
 31
0.0
  0
LINE
  5
2B4
  8
0
 62
     0
 10
272.24456251605233
 20
-677.6544605595717
 30
0.0
 11
273.74456251605233
 21
-676.15446055957159
 31
0.0
  0
ENDBLK
  5
2B6
  8
0
  0
BLOCK
  8
0
  2
*D4
 70
     1
 10
0.0
 20
0.0
 30
0.0
  3
*D4
  1

  0
LINE
  5
30B
  8
1
 10
-16.0
 20
0.0000000000000006
 30
0.0
 11
-26.148205171320111
 21
0.0000000000000034
 31
0.0
  0
LINE
  5
30C
  8
1
 10
-15.999999999999989
 20
11.0
 30
0.0
 11
-26.148205171320111
 21
11.0
 31
0.0
  0
LINE
  5
30D
  8
1
 10
-25.148205171320122
 20
-0.9999999999999968
 30
0.0
 11
-25.148205171320111
 21
12.0
 31
0.0
  0
INSERT
  5
30E
  8
1
  2
_OBLIQUE
 10
-25.148205171320122
 20
0.0000000000000032
 30
0.0
 41
2.0
 42
2.0
 43
2.0
 50
270.0
  0
INSERT
  5
30F
  8
1
  2
_OBLIQUE
 10
-25.148205171320111
 20
11.0
 30
0.0
 41
2.0
 42
2.0
 43
2.0
 50
90.0
  0
TEXT
  5
310
  8
0
 10
-26.15536751784126
 20
2.963335607094133
 30
0.0
 40
3.5
  1
11
 50
90.0
  7
BESCHLAG
  0
POINT
  5
311
  8
DEFPOINTS
 62
     0
 10
-14.0
 20
0.0
 30
0.0
  0
POINT
  5
312
  8
DEFPOINTS
 62
     0
 10
-14.0
 20
11.0
 30
0.0
  0
POINT
  5
313
  8
DEFPOINTS
 62
     0
 10
-25.148205171320111
 20
11.0
 30
0.0
  0
ENDBLK
  5
2E6
  8
0
  0
BLOCK
  8
0
  2
*D5
 70
     1
 10
0.0
 20
0.0
 30
0.0
  3
*D5
  1

  0
LINE
  5
314
  8
1
 10
3.5
 20
-4.0
 30
0.0
 11
14.49108027497981
 21
-4.0000000000000027
 31
0.0
  0
LINE
  5
315
  8
1
 10
3.5
 20
5.7000000000007258
 30
0.0
 11
14.49108027497982
 21
5.7000000000007232
 31
0.0
  0
LINE
  5
316
  8
1
 10
13.49108027497981
 20
-5.0000000000000018
 30
0.0
 11
13.49108027497982
 21
6.700000000000724
 31
0.0
  0
INSERT
  5
317
  8
1
  2
_OBLIQUE
 10
13.49108027497981
 20
-4.0000000000000018
 30
0.0
 41
2.0
 42
2.0
 43
2.0
 50
270.0
  0
INSERT
  5
318
  8
1
  2
_OBLIQUE
 10
13.49108027497982
 20
5.700000000000724
 30
0.0
 41
2.0
 42
2.0
 43
2.0
 50
90.0
  0
TEXT
  5
319
  8
0
 10
12.42423170744912
 20
-2.0185197817186
 30
0.0
 40
3.5
  1
10
 50
90.0
  7
BESCHLAG
  0
POINT
  5
31A
  8
DEFPOINTS
 62
     0
 10
1.5
 20
-4.0
 30
0.0
  0
POINT
  5
31B
  8
DEFPOINTS
 62
     0
 10
1.5
 20
5.7000000000007267
 30
0.0
  0
POINT
  5
31C
  8
DEFPOINTS
 62
     0
 10
13.49108027497982
 20
5.700000000000724
 30
0.0
  0
ENDBLK
  5
2F2
  8
0
  0
BLOCK
  8
0
  2
*D6
 70
     1
 10
0.0
 20
0.0
 30
0.0
  3
*D6
  1

  0
LINE
  5
31D
  8
1
 10
3.5
 20
5.7000000000007258
 30
0.0
 11
14.49108027497982
 21
5.7000000000007232
 31
0.0
  0
LINE
  5
31E
  8
1
 10
3.5
 20
11.0
 30
0.0
 11
14.49108027497982
 21
10.999999999999989
 31
0.0
  0
LINE
  5
31F
  8
1
 10
13.49108027497982
 20
4.700000000000724
 30
0.0
 11
13.49108027497982
 21
11.999999999999989
 31
0.0
  0
INSERT
  5
320
  8
1
  2
_OBLIQUE
 10
13.49108027497982
 20
5.700000000000724
 30
0.0
 41
2.0
 42
2.0
 43
2.0
 50
270.0
  0
INSERT
  5
321
  8
1
  2
_OBLIQUE
 10
13.49108027497982
 20
10.999999999999989
 30
0.0
 41
2.0
 42
2.0
 43
2.0
 50
90.0
  0
TEXT
  5
322
  8
0
 10
12.431394053970269
 20
6.9867667121422459
 30
0.0
 40
3.5
  1
5
 50
90.0
  7
BESCHLAG
  0
POINT
  5
323
  8
DEFPOINTS
 62
     0
 10
1.5
 20
5.7000000000007267
 30
0.0
  0
POINT
  5
324
  8
DEFPOINTS
 62
     0
 10
1.5
 20
11.0
 30
0.0
  0
POINT
  5
325
  8
DEFPOINTS
 62
     0
 10
13.49108027497982
 20
10.999999999999989
 30
0.0
  0
ENDBLK
  5
2FE
  8
0
  0
BLOCK
  8
0
  2
*D7
 70
     1
 10
0.0
 20
0.0
 30
0.0
  3
*D7
  1

  0
LINE
  5
326
  8
1
 10
-14.0
 20
-2.0
 30
0.0
 11
-14.0
 21
-12.938549070548779
 31
0.0
  0
LINE
  5
327
  8
1
 10
-0.0000000000000001
 20
-2.0
 30
0.0
 11
-0.0000000000000008
 21
-12.938549070548779
 31
0.0
  0
LINE
  5
328
  8
1
 10
-15.0
 20
-11.938549070548779
 30
0.0
 11
0.9999999999999992
 21
-11.938549070548779
 31
0.0
  0
INSERT
  5
329
  8
1
  2
_OBLIQUE
 10
-14.0
 20
-11.938549070548779
 30
0.0
 41
2.0
 42
2.0
 43
2.0
 50
180.0
  0
INSERT
  5
32A
  8
1
  2
_OBLIQUE
 10
-0.0000000000000007
 20
-11.938549070548779
 30
0.0
 41
2.0
 42
2.0
 43
2.0
  0
TEXT
  5
32B
  8
0
 10
-9.8673260572987722
 20
-10.931386724027639
 30
0.0
 40
3.5
  1
14
  7
BESCHLAG
  0
POINT
  5
32C
  8
DEFPOINTS
 62
     0
 10
-14.0
 20
0.0
 30
0.0
  0
POINT
  5
32D
  8
DEFPOINTS
 62
     0
 10
0.0
 20
0.0
 30
0.0
  0
POINT
  5
32E
  8
DEFPOINTS
 62
     0
 10
-0.0000000000000007
 20
-11.938549070548779
 30
0.0
  0
ENDBLK
  5
30A
  8
0
  0
ENDSEC
  0
SECTION
  2
ENTITIES
  0
INSERT
  5
25B
  8
5
  2
NULLPUNKT
 10
0.0
 20
0.0
 30
0.0
  0
LINE
  5
2CC
  8
6
 10
-7.4499999999993634
 20
1.7000000000007269
 30
0.0
 11
-7.4499999999993634
 21
0.0
 31
0.0
  0
INSERT
  5
2CD
  8
2
  2
*X2
 10
-272.24456251605233
 20
674.16015727236595
 30
0.0
1001
ACAD
1000
HATCH
1002
{
1070
    16
1000
_U,I
1040
1.0
1040
0.7853981633974483
1070
     0
1002
}
  0
LINE
  5
2CE
  8
6
 10
-4.5499999999994989
 20
1.7000000000007269
 30
0.0
 11
-4.5499999999994989
 21
0.0
 31
0.0
  0
INSERT
  5
2CF
  8
2
  2
*X3
 10
-272.24456251605233
 20
674.16015727236595
 30
0.0
1001
ACAD
1000
HATCH
1002
{
1070
    16
1000
_U,I
1040
1.0
1040
0.7853981633974483
1070
     0
1002
}
  0
TEXT
  5
2D0
  8
1
 10
-8.1027868996779944
 20
13.62472097335035
 30
0.0
 40
2.5
  1
Hebgo 120/620
  0
POLYLINE
  5
2D1
  8
5
 66
     1
 10
0.0
 20
0.0
 30
0.0
  0
VERTEX
  5
3F2
  8
5
 10
-10.0
 20
16.0
 30
0.0
  0
VERTEX
  5
3F3
  8
5
 10
-10.0
 20
11.0
 30
0.0
  0
VERTEX
  5
3F4
  8
5
 10
5.0000000000002274
 20
11.0
 30
0.0
  0
SEQEND
  5
3F5
  8
5
  0
LINE
  5
2D2
  8
6
  6
STRICHPUNKT
 10
-5.9999999999995453
 20
2.2107971577788699
 30
0.0
 11
-5.9999999999995453
 21
-5.2998218061419493
 31
0.0
  0
POLYLINE
  5
2D3
  8
4
 66
     1
 10
0.0
 20
0.0
 30
0.0
 70
     1
  0
VERTEX
  5
3F6
  8
4
 10
-13.5
 20
5.7000000000007267
 30
0.0
  0
VERTEX
  5
3F7
  8
4
 10
-13.5
 20
0.0
 30
0.0
  0
VERTEX
  5
3F8
  8
4
 10
0.0
 20
0.0
 30
0.0
  0
VERTEX
  5
3F9
  8
4
 10
0.0
 20
-4.0
 30
0.0
  0
VERTEX
  5
3FA
  8
4
 10
1.5
 20
-4.0
 30
0.0
  0
VERTEX
  5
3FB
  8
4
 10
1.5
 20
5.7000000000007267
 30
0.0
  0
SEQEND
  5
3FC
  8
4
  0
POLYLINE
  5
2D4
  8
6
 66
     1
 10
0.0
 20
0.0
 30
0.0
 70
     1
  0
VERTEX
  5
3FD
  8
6
 10
-10.0
 20
4.3500000000003629
 30
0.0
  0
VERTEX
  5
3FE
  8
6
 10
-10.0
 20
4.4100000000007631
 30
0.0
 42
0.4142135623730951
  0
VERTEX
  5
3FF
  8
6
 10
-11.28999999999996
 20
5.7000000000007267
 30
0.0
  0
VERTEX
  5
400
  8
6
 10
-13.299999999999271
 20
5.7000000000007267
 30
0.0
 42
0.4142135623730951
  0
VERTEX
  5
401
  8
6
 10
-13.5
 20
5.5
 30
0.0
  0
VERTEX
  5
402
  8
6
 10
-13.5
 20
1.5
 30
0.0
 42
0.4142135623730951
  0
VERTEX
  5
403
  8
6
 10
-12.0
 20
0.0
 30
0.0
  0
VERTEX
  5
404
  8
6
 10
-0.1999999999998181
 20
0.0
 30
0.0
 42
-0.4142135623730951
  0
VERTEX
  5
405
  8
6
 10
0.0
 20
-0.1999999999998181
 30
0.0
  0
VERTEX
  5
406
  8
6
 10
0.0
 20
-3.799999999999272
 30
0.0
 42
0.4142135623730951
  0
VERTEX
  5
407
  8
6
 10
0.2000000000007276
 20
-4.0
 30
0.0
  0
VERTEX
  5
408
  8
6
 10
0.2100000000000364
 20
-4.0
 30
0.0
 42
0.4142135623730951
  0
VERTEX
  5
409
  8
6
 10
1.5
 20
-2.709999999999126
 30
0.0
  0
VERTEX
  5
40A
  8
6
 10
1.5
 20
4.2000000000007267
 30
0.0
 42
0.4142135623730951
  0
VERTEX
  5
40B
  8
6
 10
0.0
 20
5.7000000000007267
 30
0.0
  0
VERTEX
  5
40C
  8
6
 10
-0.7100000000000364
 20
5.7000000000007267
 30
0.0
 42
0.4142135623730951
  0
VERTEX
  5
40D
  8
6
 10
-2.0
 20
4.4100000000007631
 30
0.0
  0
VERTEX
  5
40E
  8
6
 10
-2.0
 20
4.3500000000003629
 30
0.0
 42
0.4142135623731992
  0
VERTEX
  5
40F
  8
6
 10
-1.8499999999994541
 20
4.2000000000007267
 30
0.0
  0
VERTEX
  5
410
  8
6
 10
-0.1999999999998181
 20
4.2000000000007267
 30
0.0
 42
-0.4142135623730953
  0
VERTEX
  5
411
  8
6
 10
0.0
 20
4.0
 30
0.0
  0
VERTEX
  5
412
  8
6
 10
0.0
 20
1.900000000000545
 30
0.0
 42
-0.4142135623730951
  0
VERTEX
  5
413
  8
6
 10
-0.1999999999998181
 20
1.7000000000007269
 30
0.0
  0
VERTEX
  5
414
  8
6
 10
-11.799999999999271
 20
1.7000000000007269
 30
0.0
 42
-0.4142135623730951
  0
VERTEX
  5
415
  8
6
 10
-12.0
 20
1.900000000000545
 30
0.0
  0
VERTEX
  5
416
  8
6
 10
-12.0
 20
4.0
 30
0.0
 42
-0.4142135623730951
  0
VERTEX
  5
417
  8
6
 10
-11.799999999999271
 20
4.2000000000007267
 30
0.0
  0
VERTEX
  5
418
  8
6
 10
-10.149999999999631
 20
4.2000000000007267
 30
0.0
 42
0.414213562373069
  0
SEQEND
  5
419
  8
6
  0
POLYLINE
  5
2D5
  8
5
 66
     1
 10
0.0
 20
0.0
 30
0.0
  0
VERTEX
  5
41A
  8
5
 10
-14.0
 20
16.0
 30
0.0
  0
VERTEX
  5
41B
  8
5
 10
-14.0
 20
0.0
 30
0.0
  0
VERTEX
  5
41C
  8
5
 10
0.0
 20
0.0
 30
0.0
  0
VERTEX
  5
41D
  8
5
 10
0.0
 20
-5.0
 30
0.0
  0
SEQEND
  5
41E
  8
5
  0
POLYLINE
  5
2D6
  8
6
 66
     1
 10
0.0
 20
0.0
 30
0.0
 70
     1
  0
VERTEX
  5
41F
  8
6
 10
-8.6530003338393726
 20
1.868568730953484
 30
0.0
 42
-0.6415838065530063
  0
VERTEX
  5
420
  8
6
 10
-3.277428192754086
 20
2.2511450355123079
 30
0.0
 42
0.5157822426877657
  0
VERTEX
  5
421
  8
6
 10
-1.967071452781965
 20
2.1646397704521401
 30
0.0
  0
VERTEX
  5
422
  8
6
 10
-1.170073930112721
 20
3.5312963554024459
 30
0.0
  0
VERTEX
  5
423
  8
6
 10
-1.170073930112721
 20
4.2000000000007267
 30
0.0
  0
VERTEX
  5
424
  8
6
 10
-2.0042169211283181
 20
4.2000000000007267
 30
0.0
  0
VERTEX
  5
425
  8
6
 10
-2.0042169211283181
 20
5.6376330714751921
 30
0.0
 42
0.2542712822039416
  0
VERTEX
  5
426
  8
6
 10
-1.0565388818549759
 20
7.192743080729997
 30
0.0
 42
0.2243409163654158
  0
VERTEX
  5
427
  8
6
 10
-2.0904168210681742
 20
9.4837110967437184
 30
0.0
 42
0.1232367553219718
  0
VERTEX
  5
428
  8
6
 10
-4.2060073510733673
 20
10.661776120404051
 30
0.0
 42
0.0700993617324612
  0
VERTEX
  5
429
  8
6
 10
-9.9299613213356661
 20
10.816719112125149
 30
0.0
 42
0.9870930961173433
  0
VERTEX
  5
42A
  8
6
 10
-9.832128683938663
 20
10.16142117316258
 30
0.0
 42
-0.0371998225987245
  0
VERTEX
  5
42B
  8
6
 10
-5.3677691077359659
 20
10.01876466866951
 30
0.0
 42
-0.1320069700909351
  0
VERTEX
  5
42C
  8
6
 10
-3.5180186582688289
 20
9.035959640571491
 30
0.0
 42
-0.1105408410528704
  0
VERTEX
  5
42D
  8
6
 10
-2.6476203577990409
 20
7.9760618005352617
 30
0.0
 42
-0.2870603126370058
  0
VERTEX
  5
42E
  8
6
 10
-2.925142717206199
 20
7.0069122906697876
 30
0.0
 42
-0.1002807908351088
  0
VERTEX
  5
42F
  8
6
 10
-4.1774008314105231
 20
6.547225698645434
 30
0.0
 42
-0.0333497571445928
  0
VERTEX
  5
430
  8
6
 10
-8.8016517009295967
 20
6.0856420716195307
 30
0.0
 42
0.4545352424188308
  0
VERTEX
  5
431
  8
6
 10
-9.5046987900709592
 20
5.5836041512034171
 30
0.0
  0
VERTEX
  5
432
  8
6
 10
-10.076710360756801
 20
4.1020842178513703
 30
0.0
 42
-0.3791917245757989
  0
VERTEX
  5
433
  8
6
 10
-10.751755708782181
 20
3.935814583422597
 30
0.0
  0
VERTEX
  5
434
  8
6
 10
-11.462730079795611
 20
4.1957958123275603
 30
0.0
  0
VERTEX
  5
435
  8
6
 10
-11.85853683499772
 20
3.7836108879664598
 30
0.0
  0
VERTEX
  5
436
  8
6
 10
-11.868431994156699
 20
3.605547041511727
 30
0.0
  0
VERTEX
  5
437
  8
6
 10
-10.83115162746207
 20
1.868568730953484
 30
0.0
  0
SEQEND
  5
438
  8
6
  0
DIMENSION
  5
2D7
  8
1
  2
*D4
 10
-25.148205171320111
 20
11.0
 30
0.0
 11
-27.90536751784126
 21
5.4999999999999991
 31
0.0
 70
     0
 13
-14.0
 23
0.0
 33
0.0
 14
-14.0
 24
11.0
 34
0.0
 50
90.0
  0
DIMENSION
  5
2D8
  8
1
  2
*D5
 10
13.49108027497982
 20
5.700000000000724
 30
0.0
 11
10.70407481795389
 21
0.8500000000003629
 31
0.0
 70
     0
  1
10
 13
1.5
 23
-4.0
 33
0.0
 14
1.5
 24
5.7000000000007267
 34
0.0
 50
90.0
  0
DIMENSION
  5
2D9
  8
1
  2
*D6
 10
13.49108027497982
 20
10.999999999999989
 30
0.0
 11
10.71123716447504
 21
8.3500000000003638
 31
0.0
 70
     0
  1
5
 13
1.5
 23
5.7000000000007267
 33
0.0
 14
1.5
 24
11.0
 34
0.0
 50
90.0
  0
DIMENSION
  5
2DA
  8
1
  2
*D7
 10
-0.0000000000000007
 20
-11.938549070548779
 30
0.0
 11
-7.0
 21
-9.1813867240276412
 31
0.0
 70
     0
 13
-14.0
 23
0.0
 33
0.0
 14
0.0
 24
0.0
 34
0.0
  0
VIEWPORT
  5
22
 67
     1
  8
0
 10
210.0
 20
170.2366863905325
 30
0.0
 40
420.0
 41
340.47337278106511
 68
     1
 69
     1
1001
ACAD
1000
MVIEW
1002
{
1070
    16
1010
0.0
1020
0.0
1030
0.0
1010
0.0
1020
0.0
1030
1.0
1040
0.0
1040
340.47337278106511
1040
210.0
1040
170.2366863905325
1040
50.0
1040
0.0
1040
0.0
1070
     0
1070
   100
1070
     1
1070
     1
1070
     0
1070
     0
1070
     0
1070
     0
1040
0.0
1040
0.0
1040
0.0
1040
5.0
1040
5.0
1040
10.0
1040
10.0
1070
     0
1002
{
1002
}
1002
}
  0
ENDSEC
  0
EOF
