  0
SECTION
  2
HEADER
  9
$ACADVER
  1
AC1009
  9
$INSBASE
 10
0.0
 20
0.0
 30
0.0
  9
$EXTMIN
 10
-107.420057147455
 20
-16.69430694209268
 30
0.0
  9
$EXTMAX
 10
13.65989439923737
 20
33.221869650242752
 30
0.0
  9
$LIMMIN
 10
-150.0
 20
-150.0
  9
$LIMMAX
 10
150.0
 20
150.0
  9
$ORTHOMODE
 70
     0
  9
$REGENMODE
 70
     1
  9
$FILLMODE
 70
     1
  9
$QTEXTMODE
 70
     0
  9
$MIRRTEXT
 70
     0
  9
$DRAGMODE
 70
     2
  9
$LTSCALE
 40
0.5
  9
$OSMODE
 70
   111
  9
$ATTMODE
 70
     1
  9
$TEXTSIZE
 40
3.5
  9
$TRACEWID
 40
1.0
  9
$TEXTSTYLE
  7
BESCHLAG
  9
$CLAYER
  8
0
  9
$CELTYPE
  6
BYLAYER
  9
$CECOLOR
 62
   256
  9
$DIMSCALE
 40
1.0
  9
$DIMASZ
 40
2.0
  9
$DIMEXO
 40
2.0
  9
$DIMDLI
 40
0.0
  9
$DIMRND
 40
0.0
  9
$DIMDLE
 40
1.0
  9
$DIMEXE
 40
1.0
  9
$DIMTP
 40
0.0
  9
$DIMTM
 40
0.0
  9
$DIMTXT
 40
3.5
  9
$DIMCEN
 40
0.0
  9
$DIMTSZ
 40
0.0
  9
$DIMTOL
 70
     0
  9
$DIMLIM
 70
     0
  9
$DIMTIH
 70
     0
  9
$DIMTOH
 70
     0
  9
$DIMSE1
 70
     0
  9
$DIMSE2
 70
     0
  9
$DIMTAD
 70
     1
  9
$DIMZIN
 70
     8
  9
$DIMBLK
  1

  9
$DIMASO
 70
     1
  9
$DIMSHO
 70
     1
  9
$DIMPOST
  1

  9
$DIMAPOST
  1

  9
$DIMALT
 70
     0
  9
$DIMALTD
 70
     2
  9
$DIMALTF
 40
0.039370078740157
  9
$DIMLFAC
 40
1.0
  9
$DIMTOFL
 70
     1
  9
$DIMTVP
 40
0.0
  9
$DIMTIX
 70
     1
  9
$DIMSOXD
 70
     0
  9
$DIMSAH
 70
     1
  9
$DIMBLK1
  1
OBLIQUE
  9
$DIMBLK2
  1
OBLIQUE
  9
$DIMSTYLE
  2
OPO-SSTRICH
  9
$DIMCLRD
 70
   256
  9
$DIMCLRE
 70
   256
  9
$DIMCLRT
 70
   256
  9
$DIMTFAC
 40
0.7114285714285716
  9
$DIMGAP
 40
1.0
  9
$LUNITS
 70
     2
  9
$LUPREC
 70
     1
  9
$SKETCHINC
 40
1.0
  9
$FILLETRAD
 40
0.0
  9
$AUNITS
 70
     0
  9
$AUPREC
 70
     1
  9
$MENU
  1
D:\ACL_CGWG\CGTAB13
  9
$ELEVATION
 40
0.0
  9
$PELEVATION
 40
0.0
  9
$THICKNESS
 40
0.0
  9
$LIMCHECK
 70
     0
  9
$BLIPMODE
 70
     0
  9
$CHAMFERA
 40
1.0
  9
$CHAMFERB
 40
1.0
  9
$SKPOLY
 70
     0
  9
$TDCREATE
 40
2451739.8889601389
  9
$TDUPDATE
 40
2452087.620881354
  9
$TDINDWG
 40
0.0014109606
  9
$TDUSRTIMER
 40
0.0014107755
  9
$USRTIMER
 70
     1
  9
$ANGBASE
 50
0.0
  9
$ANGDIR
 70
     0
  9
$PDMODE
 70
    35
  9
$PDSIZE
 40
5.0
  9
$PLINEWID
 40
0.0
  9
$COORDS
 70
     1
  9
$SPLFRAME
 70
     0
  9
$SPLINETYPE
 70
     6
  9
$SPLINESEGS
 70
     8
  9
$ATTDIA
 70
     1
  9
$ATTREQ
 70
     1
  9
$HANDLING
 70
-16383
  9
$HANDSEED
  5
52E
  9
$SURFTAB1
 70
    12
  9
$SURFTAB2
 70
    12
  9
$SURFTYPE
 70
     6
  9
$SURFU
 70
    12
  9
$SURFV
 70
    12
  9
$UCSNAME
  2

  9
$UCSORG
 10
0.0
 20
0.0
 30
0.0
  9
$UCSXDIR
 10
1.0
 20
0.0
 30
0.0
  9
$UCSYDIR
 10
0.0
 20
1.0
 30
0.0
  9
$PUCSNAME
  2

  9
$PUCSORG
 10
0.0
 20
0.0
 30
0.0
  9
$PUCSXDIR
 10
1.0
 20
0.0
 30
0.0
  9
$PUCSYDIR
 10
0.0
 20
1.0
 30
0.0
  9
$USERI1
 70
     0
  9
$USERI2
 70
     0
  9
$USERI3
 70
     0
  9
$USERI4
 70
     0
  9
$USERI5
 70
     0
  9
$USERR1
 40
0.0
  9
$USERR2
 40
0.0
  9
$USERR3
 40
0.0
  9
$USERR4
 40
0.0
  9
$USERR5
 40
0.0
  9
$WORLDVIEW
 70
     1
  9
$SHADEDGE
 70
     3
  9
$SHADEDIF
 70
    70
  9
$TILEMODE
 70
     1
  9
$MAXACTVP
 70
    48
  9
$PLIMCHECK
 70
     0
  9
$PEXTMIN
 10
1.0000000000000000E+020
 20
1.0000000000000000E+020
 30
1.0000000000000000E+020
  9
$PEXTMAX
 10
-1.0000000000000000E+020
 20
-1.0000000000000000E+020
 30
-1.0000000000000000E+020
  9
$PLIMMIN
 10
0.0
 20
0.0
  9
$PLIMMAX
 10
420.0
 20
297.0
  9
$UNITMODE
 70
     0
  9
$VISRETAIN
 70
     1
  9
$PLINEGEN
 70
     0
  9
$PSLTSCALE
 70
     1
  0
ENDSEC
  0
SECTION
  2
TABLES
  0
TABLE
  2
VPORT
 70
     2
  0
VPORT
  2
*ACTIVE
 70
     0
 10
0.0
 20
0.0
 11
1.0
 21
1.0
 12
-46.886443447887928
 22
9.5490402666555561
 13
0.0
 23
0.0
 14
0.5
 24
0.5
 15
10.0
 25
10.0
 16
0.0
 26
0.0
 36
1.0
 17
0.0
 27
0.0
 37
0.0
 40
75.783189164232752
 41
1.6070460704607039
 42
50.0
 43
0.0
 44
0.0
 50
0.0
 51
0.0
 71
     0
 72
   800
 73
     1
 74
     1
 75
     0
 76
     0
 77
     0
 78
     0
  0
ENDTAB
  0
TABLE
  2
LTYPE
 70
     2
  0
LTYPE
  2
CONTINUOUS
 70
     0
  3
_______________________________________________
 72
    65
 73
     2
 40
1.0
 49
1.0
 49
0.0
  0
LTYPE
  2
MITTE
 70
     0
  3
Mitte ____ _ ____ _ ____ _ ____ _ ____ _ ____
 72
    65
 73
     4
 40
50.799999999999997
 49
31.75
 49
-6.3499999999999988
 49
6.3499999999999988
 49
-6.3499999999999988
  0
ENDTAB
  0
TABLE
  2
LAYER
 70
     7
  0
LAYER
  2
0
 70
     0
 62
    30
  6
CONTINUOUS
  0
LAYER
  2
1
 70
     0
 62
     2
  6
CONTINUOUS
  0
LAYER
  2
2
 70
     0
 62
     9
  6
CONTINUOUS
  0
LAYER
  2
4
 70
     1
 62
     4
  6
CONTINUOUS
  0
LAYER
  2
5
 70
     0
 62
     1
  6
CONTINUOUS
  0
LAYER
  2
6
 70
     0
 62
     3
  6
CONTINUOUS
  0
LAYER
  2
DEFPOINTS
 70
     0
 62
     7
  6
CONTINUOUS
  0
ENDTAB
  0
TABLE
  2
STYLE
 70
     2
  0
STYLE
  2
STANDARD
 70
     0
 40
0.0
 41
1.0
 50
0.0
 71
     0
 42
2.5
  3
txt
  4

  0
STYLE
  2
BESCHLAG
 70
     0
 40
0.0
 41
1.0
 50
0.0
 71
     0
 42
3.5
  3
txt
  4

  0
ENDTAB
  0
TABLE
  2
VIEW
 70
     0
  0
ENDTAB
  0
TABLE
  2
UCS
 70
     0
  0
ENDTAB
  0
TABLE
  2
APPID
 70
     1
  0
APPID
  2
ACAD
 70
     0
  0
ENDTAB
  0
TABLE
  2
DIMSTYLE
 70
     1
  0
DIMSTYLE
  2
OPO-SSTRICH
 70
     0
  3

  4

  5

  6
OBLIQUE
  7
OBLIQUE
 40
1.0
 41
2.0
 42
2.0
 43
0.0
 44
1.0
 45
0.0
 46
1.0
 47
0.0
 48
0.0
140
3.5
141
0.0
142
0.0
143
0.039370078740157
144
1.0
145
0.0
146
0.7114285714285716
147
1.0
 71
     0
 72
     0
 73
     0
 74
     0
 75
     0
 76
     0
 77
     1
 78
     8
170
     0
171
     2
172
     1
173
     1
174
     1
175
     0
176
   256
177
   256
178
   256
  0
ENDTAB
  0
ENDSEC
  0
SECTION
  2
BLOCKS
  0
BLOCK
  8
0
  2
$MODEL_SPACE
 70
     0
 10
0.0
 20
0.0
 30
0.0
  3
$MODEL_SPACE
  1

  0
ENDBLK
  5
1C
  8
0
  0
BLOCK
 67
     1
  8
0
  2
$PAPER_SPACE
 70
     0
 10
0.0
 20
0.0
 30
0.0
  3
$PAPER_SPACE
  1

  0
ENDBLK
  5
19
 67
     1
  8
0
  0
BLOCK
  8
0
  2
_OBLIQUE
 70
     0
 10
0.0
 20
0.0
 30
0.0
  3
_OBLIQUE
  1

  0
LINE
  5
204
  8
0
 62
     0
 10
-0.5
 20
-0.5
 30
0.0
 11
0.5
 21
0.5
 31
0.0
  0
ENDBLK
  5
206
  8
0
  0
BLOCK
  8
0
  2
NULLPUNKT
 70
     0
 10
0.0
 20
0.0
 30
0.0
  3
NULLPUNKT
  1

  0
SOLID
  5
254
  8
5
 10
0.0
 20
0.0
 30
0.0
 11
2.0
 21
0.0
 31
0.0
 12
0.0
 22
-2.0
 32
0.0
 13
0.0
 23
-2.0
 33
0.0
  0
SOLID
  5
255
  8
5
 10
0.0
 20
0.0
 30
0.0
 11
-2.0
 21
0.0
 31
0.0
 12
0.0
 22
2.0
 32
0.0
 13
0.0
 23
2.0
 33
0.0
  0
POLYLINE
  5
256
  8
5
 66
     1
 10
0.0
 20
0.0
 30
0.0
  0
VERTEX
  5
42E
  8
5
 10
0.0
 20
2.0
 30
0.0
  0
VERTEX
  5
42F
  8
5
 10
0.0
 20
-2.0
 30
0.0
  0
SEQEND
  5
430
  8
5
  0
POLYLINE
  5
257
  8
5
 66
     1
 10
0.0
 20
0.0
 30
0.0
  0
VERTEX
  5
431
  8
5
 10
-2.0
 20
0.0
 30
0.0
  0
VERTEX
  5
432
  8
5
 10
2.0
 20
0.0
 30
0.0
  0
SEQEND
  5
433
  8
5
  0
CIRCLE
  5
258
  8
5
 10
0.0
 20
0.0
 30
0.0
 40
2.0
  0
ENDBLK
  5
25A
  8
0
  0
BLOCK
  8
0
  2
*X2
 70
     1
 10
0.0
 20
0.0
 30
0.0
  3
*X2
  1

  0
LINE
  5
292
  8
0
 62
     0
 10
811.18457594501422
 20
-157.83455699303019
 30
0.0
 11
814.65282029718492
 21
-154.3663126408596
 31
0.0
  0
LINE
  5
293
  8
0
 62
     0
 10
809.2181532703197
 20
-158.10392339287719
 30
0.0
 11
812.00083461610359
 21
-155.32124204709331
 31
0.0
  0
LINE
  5
294
  8
0
 62
     0
 10
807.25173059562485
 20
-158.37328979272419
 30
0.0
 11
810.03596150957935
 21
-155.58905887876969
 31
0.0
  0
LINE
  5
295
  8
0
 62
     0
 10
805.28530792093011
 20
-158.6426561925712
 30
0.0
 11
808.07108840305534
 21
-155.85687571044599
 31
0.0
  0
LINE
  5
296
  8
0
 62
     0
 10
803.31888524623548
 20
-158.9120225924182
 30
0.0
 11
806.10621529653145
 21
-156.12469254212229
 31
0.0
  0
LINE
  5
297
  8
0
 62
     0
 10
801.35246257154063
 20
-159.1813889922652
 30
0.0
 11
804.14134219000721
 21
-156.3925093737987
 31
0.0
  0
LINE
  5
298
  8
0
 62
     0
 10
799.38603989684589
 20
-159.4507553921122
 30
0.0
 11
802.17646908348331
 21
-156.660326205475
 31
0.0
  0
LINE
  5
299
  8
0
 62
     0
 10
797.41961722215115
 20
-159.72012179195929
 30
0.0
 11
800.21159597695907
 21
-156.9281430371513
 31
0.0
  0
LINE
  5
29A
  8
0
 62
     0
 10
795.45319454745641
 20
-159.98948819180629
 30
0.0
 11
798.24672287043506
 21
-157.19595986882771
 31
0.0
  0
LINE
  5
29B
  8
0
 62
     0
 10
793.48677187276166
 20
-160.25885459165329
 30
0.0
 11
796.28184976391105
 21
-157.46377670050401
 31
0.0
  0
LINE
  5
29C
  8
0
 62
     0
 10
791.52034919806704
 20
-160.52822099150029
 30
0.0
 11
794.31697665738704
 21
-157.7315935321804
 31
0.0
  0
LINE
  5
29D
  8
0
 62
     0
 10
789.55392652337241
 20
-160.79758739134729
 30
0.0
 11
792.35210355086303
 21
-157.9994103638567
 31
0.0
  0
LINE
  5
29E
  8
0
 62
     0
 10
787.58750384867767
 20
-161.06695379119429
 30
0.0
 11
790.38723044433891
 21
-158.267227195533
 31
0.0
  0
LINE
  5
29F
  8
0
 62
     0
 10
785.62108117398282
 20
-161.3363201910413
 30
0.0
 11
788.42235733781479
 21
-158.53504402720941
 31
0.0
  0
LINE
  5
2A0
  8
0
 62
     0
 10
783.65465849928808
 20
-161.6056865908883
 30
0.0
 11
787.2770987598999
 21
-157.98324633027659
 31
0.0
  0
LINE
  5
2A1
  8
0
 62
     0
 10
781.68823582459345
 20
-161.8750529907353
 30
0.0
 11
785.30366782120348
 21
-158.25962099412541
 31
0.0
  0
LINE
  5
2A2
  8
0
 62
     0
 10
779.72181314989882
 20
-162.1444193905823
 30
0.0
 11
783.33023688250694
 21
-158.53599565797421
 31
0.0
  0
LINE
  5
2A3
  8
0
 62
     0
 10
777.75539047520385
 20
-162.4137857904293
 30
0.0
 11
781.35680594381029
 21
-158.8123703218231
 31
0.0
  0
LINE
  5
2A4
  8
0
 62
     0
 10
775.78896780050923
 20
-162.6831521902763
 30
0.0
 11
779.38337500511375
 21
-159.08874498567181
 31
0.0
  0
LINE
  5
2A5
  8
0
 62
     0
 10
769.32390505484943
 20
-167.4511586610887
 30
0.0
 11
770.64726797701496
 21
-166.12779573892311
 31
0.0
  0
LINE
  5
2A6
  8
0
 62
     0
 10
773.74900152712326
 20
-163.02606218881471
 30
0.0
 11
777.40994406641721
 21
-159.36511964952081
 31
0.0
  0
LINE
  5
2A7
  8
0
 62
     0
 10
768.15432413035535
 20
-166.9236833107347
 30
0.0
 11
775.43651312772067
 21
-159.64149431336949
 31
0.0
  0
LINE
  5
2A8
  8
0
 62
     0
 10
768.68528434937207
 20
-164.69566681687061
 30
0.0
 11
773.4020176346794
 21
-159.9789335315632
 31
0.0
  0
LINE
  5
2A9
  8
0
 62
     0
 10
769.08806766856185
 20
-162.5958272228329
 30
0.0
 11
769.48790554012339
 21
-162.19598935127149
 31
0.0
  0
LINE
  5
2AA
  8
0
 62
     0
 10
770.77827649131905
 20
-160.90561840007561
 30
0.0
 11
770.97435864689214
 21
-160.7095362445026
 31
0.0
  0
LINE
  5
2AB
  8
0
 62
     0
 10
813.15099861970907
 20
-157.56519059318319
 30
0.0
 11
816.62625123588157
 21
-154.08993797701069
 31
0.0
  0
LINE
  5
2AC
  8
0
 62
     0
 10
815.11742129440358
 20
-157.29582419333619
 30
0.0
 11
818.59968217457811
 21
-153.81356331316181
 31
0.0
  0
LINE
  5
2AD
  8
0
 62
     0
 10
817.08384396909833
 20
-157.02645779348919
 30
0.0
 11
820.57311311327464
 21
-153.53718864931301
 31
0.0
  0
LINE
  5
2AE
  8
0
 62
     0
 10
819.05026664379318
 20
-156.75709139364221
 30
0.0
 11
821.82520014872398
 21
-153.9821578887115
 31
0.0
  0
LINE
  5
2AF
  8
0
 62
     0
 10
821.01668931848792
 20
-156.48772499379521
 30
0.0
 11
823.78852600276934
 21
-153.71588830951359
 31
0.0
  0
LINE
  5
2B0
  8
0
 62
     0
 10
822.98311199318266
 20
-156.2183585939481
 30
0.0
 11
825.74785643033147
 21
-153.45361415679929
 31
0.0
  0
LINE
  5
2B1
  8
0
 62
     0
 10
824.94953466787717
 20
-155.94899219410121
 30
0.0
 11
827.70718685789336
 21
-153.19134000408491
 31
0.0
  0
LINE
  5
2B2
  8
0
 62
     0
 10
826.91595734257214
 20
-155.67962579425409
 30
0.0
 11
829.6665172854556
 21
-152.92906585137061
 31
0.0
  0
LINE
  5
2B3
  8
0
 62
     0
 10
828.88238001726677
 20
-155.41025939440709
 30
0.0
 11
831.62584771301761
 21
-152.66679169865631
 31
0.0
  0
LINE
  5
2B4
  8
0
 62
     0
 10
848.13749050564161
 20
-136.15514890603251
 30
0.0
 11
849.84148075058522
 21
-134.45115866108861
 31
0.0
  0
LINE
  5
2B5
  8
0
 62
     0
 10
830.84880269196151
 20
-155.14089299456009
 30
0.0
 11
833.58517814057961
 21
-152.40451754594201
 31
0.0
  0
LINE
  5
2B6
  8
0
 62
     0
 10
850.0385370254329
 20
-135.9511586610887
 30
0.0
 11
851.53853702543302
 21
-134.45115866108861
 31
0.0
  0
LINE
  5
2B7
  8
0
 62
     0
 10
848.38264006868417
 20
-137.6070556178374
 30
0.0
 11
849.63749050564161
 21
-136.35220518088011
 31
0.0
  0
LINE
  5
2B8
  8
0
 62
     0
 10
832.81522536665625
 20
-154.87152659471309
 30
0.0
 11
835.54450856814174
 21
-152.1422433932276
 31
0.0
  0
LINE
  5
2B9
  8
0
 62
     0
 10
851.7355933002807
 20
-135.9511586610887
 30
0.0
 11
853.23559330028058
 21
-134.45115866108861
 31
0.0
  0
LINE
  5
2BA
  8
0
 62
     0
 10
834.78164804135088
 20
-154.60216019486609
 30
0.0
 11
837.50383899570375
 21
-151.8799692405133
 31
0.0
  0
LINE
  5
2BB
  8
0
 62
     0
 10
852.13749050564149
 20
-137.2463177305755
 30
0.0
 11
854.93264957512838
 21
-134.45115866108861
 31
0.0
  0
LINE
  5
2BC
  8
0
 62
     0
 10
836.74807071604562
 20
-154.33279379501909
 30
0.0
 11
839.46316942326575
 21
-151.61769508779901
 31
0.0
  0
LINE
  5
2BD
  8
0
 62
     0
 10
852.13749050564149
 20
-138.94337400542329
 30
0.0
 11
855.98359817780874
 21
-135.09726633325599
 31
0.0
  0
LINE
  5
2BE
  8
0
 62
     0
 10
838.71449339074036
 20
-154.06342739517211
 30
0.0
 11
841.42249985082788
 21
-151.35542093508471
 31
0.0
  0
LINE
  5
2BF
  8
0
 62
     0
 10
854.74764049170892
 20
-138.03028029420361
 30
0.0
 11
858.32676212482374
 21
-134.45115866108861
 31
0.0
  0
LINE
  5
2C0
  8
0
 62
     0
 10
852.13749050564149
 20
-140.64043028027109
 30
0.0
 11
854.21661213875643
 21
-138.56130864715601
 31
0.0
  0
LINE
  5
2C1
  8
0
 62
     0
 10
840.6809160654351
 20
-153.79406099532511
 30
0.0
 11
843.38183027838988
 21
-151.0931467823703
 31
0.0
  0
LINE
  5
2C2
  8
0
 62
     0
 10
856.52381839967154
 20
-137.95115866108861
 30
0.0
 11
860.02381839967154
 21
-134.45115866108861
 31
0.0
  0
LINE
  5
2C3
  8
0
 62
     0
 10
852.13749050564149
 20
-142.33748655511869
 30
0.0
 11
854.13749050564161
 21
-140.3374865551186
 31
0.0
  0
LINE
  5
2C4
  8
0
 62
     0
 10
837.13749050564161
 20
-159.0345428299664
 30
0.0
 11
838.72087467451934
 21
-157.4511586610887
 31
0.0
  0
LINE
  5
2C5
  8
0
 62
     0
 10
858.22087467451934
 20
-137.95115866108861
 30
0.0
 11
861.17918259008047
 21
-134.99285074552751
 31
0.0
  0
LINE
  5
2C6
  8
0
 62
     0
 10
842.64733874012984
 20
-153.52469459547811
 30
0.0
 11
845.34116070595189
 21
-150.830872629656
 31
0.0
  0
LINE
  5
2C7
  8
0
 62
     0
 10
852.13749050564149
 20
-144.03454282996651
 30
0.0
 11
854.13749050564161
 21
-142.03454282996631
 31
0.0
  0
LINE
  5
2C8
  8
0
 62
     0
 10
848.13749050564161
 20
-148.03454282996631
 30
0.0
 11
849.63749050564161
 21
-146.53454282996651
 31
0.0
  0
LINE
  5
2C9
  8
0
 62
     0
 10
838.41793094936691
 20
-159.45115866108861
 30
0.0
 11
840.41793094936679
 21
-157.4511586610887
 31
0.0
  0
LINE
  5
2CA
  8
0
 62
     0
 10
859.91793094936713
 20
-137.95115866108861
 30
0.0
 11
863.02771072750431
 21
-134.84137888295129
 31
0.0
  0
LINE
  5
2CB
  8
0
 62
     0
 10
843.96445420668863
 20
-153.904635403767
 30
0.0
 11
849.91853067409784
 21
-147.95055893635779
 31
0.0
  0
LINE
  5
2CC
  8
0
 62
     0
 10
852.13749050564149
 20
-145.73159910481411
 30
0.0
 11
854.13749050564161
 21
-143.73159910481399
 31
0.0
  0
LINE
  5
2CD
  8
0
 62
     0
 10
840.18526581579772
 20
-159.38088006950571
 30
0.0
 11
842.11498722421459
 21
-157.4511586610887
 31
0.0
  0
LINE
  5
2CE
  8
0
 62
     0
 10
861.6149872242147
 20
-137.95115866108861
 30
0.0
 11
864.87623886492815
 21
-134.68990702037519
 31
0.0
  0
LINE
  5
2CF
  8
0
 62
     0
 10
844.13749050564172
 20
-155.42865537966179
 30
0.0
 11
851.6149872242147
 21
-147.9511586610887
 31
0.0
  0
LINE
  5
2D0
  8
0
 62
     0
 10
852.13749050564149
 20
-147.42865537966179
 30
0.0
 11
854.13749050564161
 21
-145.42865537966171
 31
0.0
  0
LINE
  5
2D1
  8
0
 62
     0
 10
841.81348891330924
 20
-159.4497132468419
 30
0.0
 11
846.14612623571543
 21
-155.1170759244358
 31
0.0
  0
LINE
  5
2D2
  8
0
 62
     0
 10
863.31204349906238
 20
-137.95115866108861
 30
0.0
 11
866.81204349906238
 21
-134.45115866108861
 31
0.0
  0
LINE
  5
2D3
  8
0
 62
     0
 10
851.3120434990625
 20
-149.9511586610887
 30
0.0
 11
854.13749050564161
 21
-147.1257116545095
 31
0.0
  0
LINE
  5
2D4
  8
0
 62
     0
 10
843.5338350166071
 20
-159.42642341839161
 30
0.0
 11
843.61275526294446
 21
-159.3475031720543
 31
0.0
  0
LINE
  5
2D5
  8
0
 62
     0
 10
865.00909977391018
 20
-137.95115866108861
 30
0.0
 11
868.13749050564149
 21
-134.8227679293571
 31
0.0
  0
LINE
  5
2D6
  8
0
 62
     0
 10
843.64728341408772
 20
-159.3129750209111
 30
0.0
 11
846.13749050564161
 21
-156.82276792935721
 31
0.0
  0
LINE
  5
2D7
  8
0
 62
     0
 10
845.23463267699015
 20
-159.42268203285639
 30
0.0
 11
846.13749050564161
 21
-158.51982420420501
 31
0.0
  0
LINE
  5
2D8
  8
0
 62
     0
 10
866.06924499064155
 20
-138.58806971920501
 30
0.0
 11
868.13749050564149
 21
-136.51982420420489
 31
0.0
  0
LINE
  5
2D9
  8
0
 62
     0
 10
866.13749050564149
 20
-140.21688047905261
 30
0.0
 11
868.13749050564149
 21
-138.21688047905249
 31
0.0
  0
LINE
  5
2DA
  8
0
 62
     0
 10
866.13749050564149
 20
-141.9139367539004
 30
0.0
 11
868.13749050564149
 21
-139.91393675390029
 31
0.0
  0
LINE
  5
2DB
  8
0
 62
     0
 10
866.13749050564149
 20
-143.61099302874811
 30
0.0
 11
868.13749050564149
 21
-141.61099302874811
 31
0.0
  0
LINE
  5
2DC
  8
0
 62
     0
 10
866.13749050564149
 20
-145.30804930359579
 30
0.0
 11
868.13749050564149
 21
-143.30804930359571
 31
0.0
  0
LINE
  5
2DD
  8
0
 62
     0
 10
866.13749050564149
 20
-147.00510557844351
 30
0.0
 11
868.13749050564149
 21
-145.00510557844351
 31
0.0
  0
LINE
  5
2DE
  8
0
 62
     0
 10
866.13749050564149
 20
-148.70216185329119
 30
0.0
 11
868.13749050564149
 21
-146.7021618532911
 31
0.0
  0
LINE
  5
2DF
  8
0
 62
     0
 10
866.13749050564149
 20
-150.3992181281389
 30
0.0
 11
868.13749050564149
 21
-148.39921812813881
 31
0.0
  0
LINE
  5
2E0
  8
0
 62
     0
 10
859.13749050564149
 20
-159.09627440298681
 30
0.0
 11
860.78260624753955
 21
-157.4511586610887
 31
0.0
  0
LINE
  5
2E1
  8
0
 62
     0
 10
866.13749050564149
 20
-152.09627440298669
 30
0.0
 11
868.13749050564149
 21
-150.09627440298661
 31
0.0
  0
LINE
  5
2E2
  8
0
 62
     0
 10
860.48551367397181
 20
-159.44530750950409
 30
0.0
 11
860.63163935405703
 21
-159.2991818294189
 31
0.0
  0
LINE
  5
2E3
  8
0
 62
     0
 10
866.13749050564149
 20
-153.79333067783429
 30
0.0
 11
868.13749050564149
 21
-151.79333067783429
 31
0.0
  0
LINE
  5
2E4
  8
0
 62
     0
 10
860.64121986983912
 20
-159.28960131363669
 30
0.0
 11
862.47966252238734
 21
-157.4511586610887
 31
0.0
  0
LINE
  5
2E5
  8
0
 62
     0
 10
862.21705007182561
 20
-159.410827386498
 30
0.0
 11
864.17671879723503
 21
-157.4511586610887
 31
0.0
  0
LINE
  5
2E6
  8
0
 62
     0
 10
866.13749050564149
 20
-155.49038695268209
 30
0.0
 11
868.13749050564149
 21
-153.490386952682
 31
0.0
  0
LINE
  5
2E7
  8
0
 62
     0
 10
863.87377507208259
 20
-159.45115866108861
 30
0.0
 11
865.87629535183714
 21
-157.44863838133409
 31
0.0
  0
LINE
  5
2E8
  8
0
 62
     0
 10
866.13497022588706
 20
-157.18996350728429
 30
0.0
 11
868.13749050564149
 21
-155.18744322752971
 31
0.0
  0
LINE
  5
2E9
  8
0
 62
     0
 10
865.66672316169615
 20
-159.35526684632291
 30
0.0
 11
868.13749050564149
 21
-156.88449950237739
 31
0.0
  0
LINE
  5
2EA
  8
0
 62
     0
 10
867.27719345422315
 20
-159.4418528286437
 30
0.0
 11
868.13749050564149
 21
-158.58155577722519
 31
0.0
  0
ENDBLK
  5
2EC
  8
0
  0
BLOCK
  8
0
  2
*D3
 70
     1
 10
0.0
 20
0.0
 30
0.0
  3
*D3
  1

  0
LINE
  5
34D
  8
1
 10
-25.000000000000341
 20
4.9705341727740233
 30
0.0
 11
-25.000000000000341
 21
-12.652600376446109
 31
0.0
  0
LINE
  5
34E
  8
1
 10
-100.0
 20
-10.0
 30
0.0
 11
-100.0
 21
-12.652600376446109
 31
0.0
  0
LINE
  5
34F
  8
1
 10
-24.000000000000341
 20
-11.652600376446109
 30
0.0
 11
-101.0
 21
-11.652600376446109
 31
0.0
  0
INSERT
  5
350
  8
1
  2
_OBLIQUE
 10
-25.000000000000341
 20
-11.652600376446109
 30
0.0
 41
2.0
 42
2.0
 43
2.0
  0
INSERT
  5
351
  8
1
  2
_OBLIQUE
 10
-100.0
 20
-11.652600376446109
 30
0.0
 41
2.0
 42
2.0
 43
2.0
 50
180.0
  0
TEXT
  5
352
  8
0
 10
-65.237210095498128
 20
-10.59291415543656
 30
0.0
 40
3.5
  1
75
  7
BESCHLAG
  0
POINT
  5
353
  8
DEFPOINTS
 62
     0
 10
-25.000000000000341
 20
6.9705341727740233
 30
0.0
  0
POINT
  5
354
  8
DEFPOINTS
 62
     0
 10
-100.0
 20
-8.0
 30
0.0
  0
POINT
  5
355
  8
DEFPOINTS
 62
     0
 10
-100.0
 20
-11.652600376446109
 30
0.0
  0
ENDBLK
  5
328
  8
0
  0
BLOCK
  8
0
  2
*D4
 70
     1
 10
0.0
 20
0.0
 30
0.0
  3
*D4
  1

  0
LINE
  5
356
  8
1
 10
-20.000000000000451
 20
6.9705341727740233
 30
0.0
 11
-20.000000000000451
 21
-12.652600376446109
 31
0.0
  0
LINE
  5
357
  8
1
 10
-25.000000000000451
 20
6.9705341727740233
 30
0.0
 11
-25.000000000000451
 21
-12.652600376446109
 31
0.0
  0
LINE
  5
358
  8
1
 10
-19.000000000000451
 20
-11.652600376446109
 30
0.0
 11
-26.000000000000451
 21
-11.652600376446109
 31
0.0
  0
INSERT
  5
359
  8
1
  2
_OBLIQUE
 10
-20.000000000000451
 20
-11.652600376446109
 30
0.0
 41
2.0
 42
2.0
 43
2.0
  0
INSERT
  5
35A
  8
1
  2
_OBLIQUE
 10
-25.000000000000451
 20
-11.652600376446109
 30
0.0
 41
2.0
 42
2.0
 43
2.0
 50
180.0
  0
TEXT
  5
35B
  8
0
 10
-23.86323328785857
 20
-10.59291415543656
 30
0.0
 40
3.5
  1
5
  7
BESCHLAG
  0
POINT
  5
35C
  8
DEFPOINTS
 62
     0
 10
-20.000000000000451
 20
8.9705341727740233
 30
0.0
  0
POINT
  5
35D
  8
DEFPOINTS
 62
     0
 10
-25.000000000000451
 20
8.9705341727740233
 30
0.0
  0
POINT
  5
35E
  8
DEFPOINTS
 62
     0
 10
-25.000000000000451
 20
-11.652600376446109
 30
0.0
  0
ENDBLK
  5
334
  8
0
  0
BLOCK
  8
0
  2
*D5
 70
     1
 10
0.0
 20
0.0
 30
0.0
  3
*D5
  1

  0
LINE
  5
35F
  8
1
 10
-0.0000000000000001
 20
-2.0
 30
0.0
 11
-0.0000000000000008
 21
-12.652600376445889
 31
0.0
  0
LINE
  5
360
  8
1
 10
-20.000000000000679
 20
-1.999999999999545
 30
0.0
 11
-20.000000000000679
 21
-12.652600376445889
 31
0.0
  0
LINE
  5
361
  8
1
 10
0.9999999999999992
 20
-11.65260037644588
 30
0.0
 11
-21.000000000000679
 21
-11.65260037644588
 31
0.0
  0
TEXT
  5
362
  8
0
 10
-9.2065020157192663
 20
-9.8727572659411145
 30
0.0
 40
3.5
  1
20
  7
BESCHLAG
  0
INSERT
  5
363
  8
1
  2
_OBLIQUE
 10
-0.0000000000000007
 20
-11.65260037644588
 30
0.0
 41
2.0
 42
2.0
 43
2.0
  0
INSERT
  5
364
  8
1
  2
_OBLIQUE
 10
-20.000000000000679
 20
-11.65260037644588
 30
0.0
 41
2.0
 42
2.0
 43
2.0
 50
180.0
  0
POINT
  5
365
  8
DEFPOINTS
 62
     0
 10
0.0
 20
0.0
 30
0.0
  0
POINT
  5
366
  8
DEFPOINTS
 62
     0
 10
-20.000000000000679
 20
0.0000000000004547
 30
0.0
  0
POINT
  5
367
  8
DEFPOINTS
 62
     0
 10
-20.000000000000679
 20
-11.65260037644588
 30
0.0
  0
ENDBLK
  5
340
  8
0
  0
BLOCK
  8
0
  2
*D6
 70
     1
 10
0.0
 20
0.0
 30
0.0
  3
*D6
  1

  0
LINE
  5
368
  8
1
 10
2.0
 20
-0.0000000000000006
 30
0.0
 11
13.659894399237359
 21
-0.0000000000000039
 31
0.0
  0
LINE
  5
369
  8
1
 10
2.0
 20
25.0
 30
0.0
 11
13.65989439923737
 21
25.0
 31
0.0
  0
LINE
  5
36A
  8
1
 10
12.659894399237359
 20
-1.0000000000000031
 30
0.0
 11
12.65989439923737
 21
25.999999999999989
 31
0.0
  0
INSERT
  5
36B
  8
1
  2
_OBLIQUE
 10
12.659894399237359
 20
-0.0000000000000036
 30
0.0
 41
2.0
 42
2.0
 43
2.0
 50
270.0
  0
INSERT
  5
36C
  8
1
  2
_OBLIQUE
 10
12.65989439923737
 20
25.0
 30
0.0
 41
2.0
 42
2.0
 43
2.0
 50
90.0
  0
TEXT
  5
36D
  8
0
 10
11.59304583170667
 20
9.806957708049115
 30
0.0
 40
3.5
  1
25
 50
90.0
  7
BESCHLAG
  0
POINT
  5
36E
  8
DEFPOINTS
 62
     0
 10
0.0
 20
0.0
 30
0.0
  0
POINT
  5
36F
  8
DEFPOINTS
 62
     0
 10
0.0
 20
25.0
 30
0.0
  0
POINT
  5
370
  8
DEFPOINTS
 62
     0
 10
12.65989439923737
 20
25.0
 30
0.0
  0
ENDBLK
  5
34C
  8
0
  0
ENDSEC
  0
SECTION
  2
ENTITIES
  0
INSERT
  5
25B
  8
5
  2
NULLPUNKT
 10
0.0
 20
0.0
 30
0.0
  0
DIMENSION
  5
30E
  8
1
  2
*D3
 10
-100.0
 20
-11.652600376446109
 30
0.0
 11
-62.500000000000171
 21
-8.8727572659413418
 31
0.0
 70
     0
 13
-25.000000000000341
 23
6.9705341727740233
 33
0.0
 14
-100.0
 24
-8.0
 34
0.0
  0
INSERT
  5
30F
  8
2
  2
*X2
 10
-868.13749050564149
 20
159.45115866108861
 30
0.0
1001
ACAD
1000
HATCH
1002
{
1070
    16
1000
_U,I
1040
1.1999999999999991
1040
0.7853981633974483
1070
     0
1002
}
  0
POINT
  5
310
  8
5
 10
-16.0
 20
17.499999999999769
 30
0.0
  0
DIMENSION
  5
311
  8
1
  2
*D4
 10
-25.000000000000451
 20
-11.652600376446109
 30
0.0
 11
-22.500000000000451
 21
-8.8727572659413418
 31
0.0
 70
     0
 13
-20.000000000000451
 23
8.9705341727740233
 33
0.0
 14
-25.000000000000451
 24
8.9705341727740233
 34
0.0
  0
POINT
  5
312
  8
5
 10
-16.0
 20
17.499999999999769
 30
0.0
  0
POLYLINE
  5
313
  8
5
 66
     1
 10
0.0
 20
0.0
 30
0.0
  0
VERTEX
  5
434
  8
5
 10
-29.24490548834342
 20
13.99999999999954
 30
0.0
  0
VERTEX
  5
435
  8
5
 10
-25.000000000000451
 20
13.99999999999954
 30
0.0
  0
VERTEX
  5
436
  8
5
 10
-25.000000000000451
 20
28.999999999999542
 30
0.0
  0
VERTEX
  5
437
  8
5
 10
-0.0000000000002274
 20
28.999999999999542
 30
0.0
  0
VERTEX
  5
438
  8
5
 10
-0.0000000000002274
 20
33.221869650242752
 30
0.0
  0
SEQEND
  5
439
  8
5
  0
POLYLINE
  5
314
  8
6
 66
     1
 10
0.0
 20
0.0
 30
0.0
 70
     1
  0
VERTEX
  5
43A
  8
6
 10
-16.0
 20
14.81332508894342
 30
0.0
 42
-0.6415838065530063
  0
VERTEX
  5
43B
  8
6
 10
-16.382576304559048
 20
20.188897230028712
 30
0.0
 42
0.5157822426877657
  0
VERTEX
  5
43C
  8
6
 10
-16.29607103949888
 20
21.499253970000598
 30
0.0
  0
VERTEX
  5
43D
  8
6
 10
-17.66272762444941
 20
22.296251492670081
 30
0.0
  0
VERTEX
  5
43E
  8
6
 10
-18.33143126904724
 20
22.296251492670081
 30
0.0
  0
VERTEX
  5
43F
  8
6
 10
-18.33143126904724
 20
21.462108501654249
 30
0.0
  0
VERTEX
  5
440
  8
6
 10
-19.769064340521702
 20
21.462108501654249
 30
0.0
 42
0.2542712822039416
  0
VERTEX
  5
441
  8
6
 10
-21.324174349776509
 20
22.409786540927819
 30
0.0
 42
0.239805045364585
  0
VERTEX
  5
442
  8
6
 10
-23.54436281299763
 20
21.382543598282378
 30
0.0
 42
0.0952903634792644
  0
VERTEX
  5
443
  8
6
 10
-24.475062639754011
 20
19.2603180717092
 30
0.0
 42
0.0700993617324612
  0
VERTEX
  5
444
  8
6
 10
-24.630005631475111
 20
13.536364101447131
 30
0.0
 42
0.9870930961173433
  0
VERTEX
  5
445
  8
6
 10
-23.974707692512538
 20
13.63419673884413
 30
0.0
 42
-0.0371998225987245
  0
VERTEX
  5
446
  8
6
 10
-23.832051188019239
 20
18.098556315046601
 30
0.0
 42
-0.0985543060514419
  0
VERTEX
  5
447
  8
6
 10
-23.045553951585578
 20
20.052019351940078
 30
0.0
 42
-0.1211139390109317
  0
VERTEX
  5
448
  8
6
 10
-22.107493069581771
 20
20.81870506498376
 30
0.0
 42
-0.2870603126370058
  0
VERTEX
  5
449
  8
6
 10
-21.138343559716748
 20
20.541182705576599
 30
0.0
 42
-0.1002807908351088
  0
VERTEX
  5
44A
  8
6
 10
-20.67865696769217
 20
19.288924591372052
 30
0.0
 42
-0.0333497571445928
  0
VERTEX
  5
44B
  8
6
 10
-20.217073340666499
 20
14.664673721852971
 30
0.0
 42
0.4545352424188308
  0
VERTEX
  5
44C
  8
6
 10
-19.71503542025016
 20
13.96162663271161
 30
0.0
  0
VERTEX
  5
44D
  8
6
 10
-18.23351548689811
 20
13.389615062025991
 30
0.0
 42
-0.3791917245757989
  0
VERTEX
  5
44E
  8
6
 10
-18.067245852469341
 20
12.71456971400039
 30
0.0
  0
VERTEX
  5
44F
  8
6
 10
-18.3272270813743
 20
12.00359534298695
 30
0.0
  0
VERTEX
  5
450
  8
6
 10
-17.9150421570132
 20
11.607788587784849
 30
0.0
  0
VERTEX
  5
451
  8
6
 10
-17.73697831055847
 20
11.59789342862609
 30
0.0
  0
VERTEX
  5
452
  8
6
 10
-16.0
 20
12.63517379532049
 30
0.0
  0
SEQEND
  5
453
  8
6
  0
DIMENSION
  5
315
  8
1
  2
*D5
 10
-20.000000000000679
 20
-11.65260037644588
 30
0.0
 11
-6.5325593144914356
 21
-8.1526003764458892
 31
0.0
 70
   128
 13
0.0
 23
0.0
 33
0.0
 14
-20.000000000000679
 24
0.0000000000004547
 34
0.0
  0
DIMENSION
  5
316
  8
1
  2
*D6
 10
12.65989439923737
 20
25.0
 30
0.0
 11
9.8728889422114463
 21
12.5
 31
0.0
 70
     0
 13
0.0
 23
0.0
 33
0.0
 14
0.0
 24
25.0
 34
0.0
 50
90.0
  0
LINE
  5
317
  8
6
  6
MITTE
 10
-11.80000000000018
 20
25.762450134982601
 30
0.0
 11
-11.80000000000018
 21
-16.69430694209268
 31
0.0
  0
TEXT
  5
318
  8
1
 10
-78.903091401088204
 20
7.7656793407450087
 30
0.0
 40
2.5
  1
Hebgo 165/620
  0
POLYLINE
  5
319
  8
5
 66
     1
 10
0.0
 20
0.0
 30
0.0
  0
VERTEX
  5
454
  8
5
 10
-53.00000000000022
 20
-11.96316912996212
 30
0.0
  0
VERTEX
  5
455
  8
5
 10
-53.00000000000022
 20
0.0
 30
0.0
  0
VERTEX
  5
456
  8
5
 10
-107.420057147455
 20
-11.16044264222
 30
0.0
  0
SEQEND
  5
457
  8
5
  0
POLYLINE
  5
31A
  8
6
 66
     1
 10
0.0
 20
0.0
 30
0.0
 70
     1
  0
VERTEX
  5
458
  8
6
 10
-31.0
 20
0.5
 30
0.0
 42
-0.4142135623730951
  0
VERTEX
  5
459
  8
6
 10
-29.5
 20
2.0
 30
0.0
  0
VERTEX
  5
45A
  8
6
 10
-25.0
 20
2.0
 30
0.0
 42
0.4142135623730951
  0
VERTEX
  5
45B
  8
6
 10
-24.0
 20
3.0
 30
0.0
  0
VERTEX
  5
45C
  8
6
 10
-24.0
 20
4.9842679442244844
 30
0.0
 42
0.4546727690147105
  0
VERTEX
  5
45D
  8
6
 10
-25.135715572434489
 20
5.97501578469587
 30
0.0
  0
VERTEX
  5
45E
  8
6
 10
-93.637863190441294
 20
-3.4086112061368108
 30
0.0
 42
0.3709336552558493
  0
VERTEX
  5
45F
  8
6
 10
-97.699548765231157
 20
-8.0
 30
0.0
  0
VERTEX
  5
460
  8
6
 10
-100.0
 20
-8.0
 30
0.0
 42
-0.142358815383233
  0
VERTEX
  5
461
  8
6
 10
-98.931526481938832
 20
-4.242075289711237
 30
0.0
  0
VERTEX
  5
462
  8
6
 10
-99.089560035298064
 20
-2.7710621740493471
 30
0.0
  0
VERTEX
  5
463
  8
6
 10
-97.599180000639763
 20
-2.6822051398230542
 30
0.0
  0
VERTEX
  5
464
  8
6
 10
-97.313779669058235
 20
-1.222002592479839
 30
0.0
  0
VERTEX
  5
465
  8
6
 10
-95.864032600731434
 20
-1.5720543878496751
 30
0.0
  0
VERTEX
  5
466
  8
6
 10
-95.165393276246505
 20
-0.2579836701604563
 30
0.0
  0
VERTEX
  5
467
  8
6
 10
-93.945492979330297
 20
-1.023516920788097
 30
0.0
  0
VERTEX
  5
468
  8
6
 10
-93.942412022448934
 20
-1.023096979109595
 30
0.0
  0
VERTEX
  5
469
  8
6
 10
-93.086627320397824
 20
0.1027949090109814
 30
0.0
  0
VERTEX
  5
46A
  8
6
 10
-91.960735432277261
 20
-0.7529897930401149
 30
0.0
  0
VERTEX
  5
46B
  8
6
 10
-91.104950730226378
 20
0.3729020950804625
 30
0.0
  0
VERTEX
  5
46C
  8
6
 10
-89.979058842106042
 20
-0.4828826069706338
 30
0.0
  0
VERTEX
  5
46D
  8
6
 10
-89.123274140054946
 20
0.6430092811499435
 30
0.0
  0
VERTEX
  5
46E
  8
6
 10
-87.997382251934354
 20
-0.2127754209009254
 30
0.0
  0
VERTEX
  5
46F
  8
6
 10
-87.141597549883485
 20
0.9131164672194245
 30
0.0
  0
VERTEX
  5
470
  8
6
 10
-86.015705661762922
 20
0.0573317651685557
 30
0.0
  0
VERTEX
  5
471
  8
6
 10
-85.159920959712039
 20
1.183223653289132
 30
0.0
  0
VERTEX
  5
472
  8
6
 10
-84.034029071591476
 20
0.3274389512380367
 30
0.0
  0
VERTEX
  5
473
  8
6
 10
-83.178244369540593
 20
1.4533308393586131
 30
0.0
  0
VERTEX
  5
474
  8
6
 10
-82.052352481419788
 20
0.5975461373075177
 30
0.0
  0
VERTEX
  5
475
  8
6
 10
-81.196567779369147
 20
1.7234380254280941
 30
0.0
  0
VERTEX
  5
476
  8
6
 10
-80.070675891248356
 20
0.8676533233772261
 30
0.0
  0
VERTEX
  5
477
  8
6
 10
-54.804299366562191
 20
4.31151994576362
 30
0.0
  0
VERTEX
  5
478
  8
6
 10
-53.948514664511549
 20
5.4374118338841981
 30
0.0
  0
VERTEX
  5
479
  8
6
 10
-52.822622776390972
 20
4.5816271318333293
 30
0.0
  0
VERTEX
  5
47A
  8
6
 10
-51.966838074340103
 20
5.7075190199536792
 30
0.0
  0
VERTEX
  5
47B
  8
6
 10
-50.840946186219298
 20
4.8517343179028103
 30
0.0
  0
VERTEX
  5
47C
  8
6
 10
-49.98516148416843
 20
5.9776262060233867
 30
0.0
  0
VERTEX
  5
47D
  8
6
 10
-48.859269596047852
 20
5.1218415039722913
 30
0.0
  0
VERTEX
  5
47E
  8
6
 10
-48.00348489399699
 20
6.2477333920928677
 30
0.0
  0
VERTEX
  5
47F
  8
6
 10
-46.877593005876399
 20
5.3919486900417724
 30
0.0
  0
VERTEX
  5
480
  8
6
 10
-44.89591641570496
 20
5.6620558761114799
 30
0.0
  0
VERTEX
  5
481
  8
6
 10
-21.728568855131471
 20
8.7632155205560593
 30
0.0
 42
0.3748796585741096
  0
VERTEX
  5
482
  8
6
 10
-20.0
 20
10.744711201498831
 30
0.0
  0
VERTEX
  5
483
  8
6
 10
-20.0
 20
12.5
 30
0.0
 42
-0.4142135623730959
  0
VERTEX
  5
484
  8
6
 10
-19.0
 20
13.5
 30
0.0
  0
VERTEX
  5
485
  8
6
 10
-18.800000000000178
 20
13.5
 30
0.0
 42
-0.4142135623730951
  0
VERTEX
  5
486
  8
6
 10
-18.5
 20
13.199999999999809
 30
0.0
  0
VERTEX
  5
487
  8
6
 10
-18.5
 20
11.799999999999949
 30
0.0
 42
0.4142135623730951
  0
VERTEX
  5
488
  8
6
 10
-18.200000000000269
 20
11.5
 30
0.0
  0
VERTEX
  5
489
  8
6
 10
-16.300000000000178
 20
11.5
 30
0.0
 42
0.4142135623730951
  0
VERTEX
  5
48A
  8
6
 10
-16.0
 20
11.799999999999949
 30
0.0
  0
VERTEX
  5
48B
  8
6
 10
-16.0
 20
23.199999999999822
 30
0.0
 42
0.4142135623730951
  0
VERTEX
  5
48C
  8
6
 10
-16.300000000000178
 20
23.5
 30
0.0
  0
VERTEX
  5
48D
  8
6
 10
-18.200000000000269
 20
23.5
 30
0.0
 42
0.4142135623730951
  0
VERTEX
  5
48E
  8
6
 10
-18.5
 20
23.199999999999822
 30
0.0
  0
VERTEX
  5
48F
  8
6
 10
-18.5
 20
21.799999999999951
 30
0.0
 42
-0.4142135623730951
  0
VERTEX
  5
490
  8
6
 10
-18.800000000000178
 20
21.499999999999989
 30
0.0
  0
VERTEX
  5
491
  8
6
 10
-19.0
 20
21.499999999999989
 30
0.0
 42
-0.4142135623730951
  0
VERTEX
  5
492
  8
6
 10
-20.0
 20
22.5
 30
0.0
  0
VERTEX
  5
493
  8
6
 10
-20.0
 20
24.699999999999811
 30
0.0
 42
-0.4142135623730951
  0
VERTEX
  5
494
  8
6
 10
-19.700000000000269
 20
25.0
 30
0.0
  0
VERTEX
  5
495
  8
6
 10
-12.80000000000018
 20
25.0
 30
0.0
  0
VERTEX
  5
496
  8
6
 10
-11.80000000000018
 20
24.0
 30
0.0
  0
VERTEX
  5
497
  8
6
 10
-10.80000000000018
 20
25.0
 30
0.0
  0
VERTEX
  5
498
  8
6
 10
-7.5
 20
25.0
 30
0.0
  0
VERTEX
  5
499
  8
6
 10
-6.5
 20
24.0
 30
0.0
  0
VERTEX
  5
49A
  8
6
 10
-5.5
 20
25.0
 30
0.0
  0
VERTEX
  5
49B
  8
6
 10
-4.5
 20
24.0
 30
0.0
  0
VERTEX
  5
49C
  8
6
 10
-3.5
 20
25.0
 30
0.0
  0
VERTEX
  5
49D
  8
6
 10
-2.5
 20
24.0
 30
0.0
  0
VERTEX
  5
49E
  8
6
 10
-1.5
 20
25.0
 30
0.0
  0
VERTEX
  5
49F
  8
6
 10
-0.3000000000001819
 20
25.0
 30
0.0
 42
-0.4142135623730951
  0
VERTEX
  5
4A0
  8
6
 10
0.0
 20
24.699999999999811
 30
0.0
  0
VERTEX
  5
4A1
  8
6
 10
0.0
 20
0.5
 30
0.0
  0
VERTEX
  5
4A2
  8
6
 10
0.0
 20
0.1999999999998181
 30
0.0
 42
-0.4142135623730951
  0
VERTEX
  5
4A3
  8
6
 10
-0.2000000000002728
 20
0.0
 30
0.0
  0
VERTEX
  5
4A4
  8
6
 10
-0.3000000000001819
 20
0.0
 30
0.0
 42
-0.4142135623730951
  0
VERTEX
  5
4A5
  8
6
 10
-0.5
 20
0.1999999999998181
 30
0.0
 42
-0.4142135623730951
  0
VERTEX
  5
4A6
  8
6
 10
-0.7000000000002729
 20
0.0
 30
0.0
  0
VERTEX
  5
4A7
  8
6
 10
-0.8000000000001818
 20
0.0
 30
0.0
 42
-0.4142135623730951
  0
VERTEX
  5
4A8
  8
6
 10
-1.0
 20
0.1999999999998181
 30
0.0
 42
-0.4142135623730951
  0
VERTEX
  5
4A9
  8
6
 10
-1.200000000000272
 20
0.0
 30
0.0
  0
VERTEX
  5
4AA
  8
6
 10
-1.300000000000181
 20
0.0
 30
0.0
 42
-0.4142135623730951
  0
VERTEX
  5
4AB
  8
6
 10
-1.5
 20
0.1999999999998181
 30
0.0
 42
-0.4142135623730951
  0
VERTEX
  5
4AC
  8
6
 10
-1.700000000000272
 20
0.0
 30
0.0
  0
VERTEX
  5
4AD
  8
6
 10
-1.800000000000181
 20
0.0
 30
0.0
 42
-0.4142135623730951
  0
VERTEX
  5
4AE
  8
6
 10
-2.0
 20
0.1999999999998181
 30
0.0
 42
-0.4142135623730951
  0
VERTEX
  5
4AF
  8
6
 10
-2.200000000000272
 20
0.0
 30
0.0
  0
VERTEX
  5
4B0
  8
6
 10
-2.300000000000181
 20
0.0
 30
0.0
 42
-0.4142135623730898
  0
VERTEX
  5
4B1
  8
6
 10
-2.5
 20
0.1999999999998181
 30
0.0
 42
-0.4142135623730951
  0
VERTEX
  5
4B2
  8
6
 10
-2.700000000000272
 20
0.0
 30
0.0
  0
VERTEX
  5
4B3
  8
6
 10
-2.800000000000181
 20
0.0
 30
0.0
 42
-0.4142135623730951
  0
VERTEX
  5
4B4
  8
6
 10
-3.0
 20
0.1999999999998181
 30
0.0
 42
-0.4142135623730951
  0
VERTEX
  5
4B5
  8
6
 10
-3.200000000000272
 20
0.0
 30
0.0
  0
VERTEX
  5
4B6
  8
6
 10
-3.300000000000181
 20
0.0
 30
0.0
 42
-0.4142135623730951
  0
VERTEX
  5
4B7
  8
6
 10
-3.5
 20
0.1999999999998181
 30
0.0
 42
-0.4142135623730951
  0
VERTEX
  5
4B8
  8
6
 10
-3.700000000000272
 20
0.0
 30
0.0
  0
VERTEX
  5
4B9
  8
6
 10
-3.800000000000181
 20
0.0
 30
0.0
 42
-0.4142135623730951
  0
VERTEX
  5
4BA
  8
6
 10
-4.0
 20
0.1999999999998181
 30
0.0
 42
-0.4142135623730951
  0
VERTEX
  5
4BB
  8
6
 10
-4.200000000000272
 20
0.0
 30
0.0
  0
VERTEX
  5
4BC
  8
6
 10
-4.300000000000181
 20
0.0
 30
0.0
 42
-0.4142135623730951
  0
VERTEX
  5
4BD
  8
6
 10
-4.5
 20
0.1999999999998181
 30
0.0
 42
-0.4142135623730951
  0
VERTEX
  5
4BE
  8
6
 10
-4.700000000000272
 20
0.0
 30
0.0
  0
VERTEX
  5
4BF
  8
6
 10
-4.800000000000181
 20
0.0
 30
0.0
 42
-0.4142135623730951
  0
VERTEX
  5
4C0
  8
6
 10
-5.0
 20
0.1999999999998181
 30
0.0
 42
-0.4142135623730951
  0
VERTEX
  5
4C1
  8
6
 10
-5.200000000000272
 20
0.0
 30
0.0
  0
VERTEX
  5
4C2
  8
6
 10
-5.300000000000181
 20
0.0
 30
0.0
 42
-0.4142135623730951
  0
VERTEX
  5
4C3
  8
6
 10
-5.5
 20
0.1999999999998181
 30
0.0
 42
-0.4142135623730951
  0
VERTEX
  5
4C4
  8
6
 10
-5.700000000000272
 20
0.0
 30
0.0
  0
VERTEX
  5
4C5
  8
6
 10
-5.800000000000181
 20
0.0
 30
0.0
 42
-0.4142135623730951
  0
VERTEX
  5
4C6
  8
6
 10
-6.0
 20
0.1999999999998181
 30
0.0
 42
-0.4142135623730951
  0
VERTEX
  5
4C7
  8
6
 10
-6.200000000000272
 20
0.0
 30
0.0
  0
VERTEX
  5
4C8
  8
6
 10
-6.300000000000181
 20
0.0
 30
0.0
 42
-0.4142135623730951
  0
VERTEX
  5
4C9
  8
6
 10
-6.5
 20
0.1999999999998181
 30
0.0
 42
-0.4142135623730951
  0
VERTEX
  5
4CA
  8
6
 10
-6.700000000000272
 20
0.0
 30
0.0
  0
VERTEX
  5
4CB
  8
6
 10
-6.800000000000181
 20
0.0
 30
0.0
 42
-0.4142135623730951
  0
VERTEX
  5
4CC
  8
6
 10
-7.0
 20
0.1999999999998181
 30
0.0
 42
-0.4142135623730951
  0
VERTEX
  5
4CD
  8
6
 10
-7.200000000000272
 20
0.0
 30
0.0
  0
VERTEX
  5
4CE
  8
6
 10
-7.300000000000181
 20
0.0
 30
0.0
 42
-0.4142135623730951
  0
VERTEX
  5
4CF
  8
6
 10
-7.5
 20
0.1999999999998181
 30
0.0
 42
-0.4142135623730951
  0
VERTEX
  5
4D0
  8
6
 10
-7.700000000000272
 20
0.0
 30
0.0
  0
VERTEX
  5
4D1
  8
6
 10
-7.800000000000181
 20
0.0
 30
0.0
 42
-0.4142135623730951
  0
VERTEX
  5
4D2
  8
6
 10
-8.0
 20
0.1999999999998181
 30
0.0
 42
-0.4142135623730951
  0
VERTEX
  5
4D3
  8
6
 10
-8.2000000000002728
 20
0.0
 30
0.0
  0
VERTEX
  5
4D4
  8
6
 10
-8.3000000000001801
 20
0.0
 30
0.0
 42
-0.4142135623730951
  0
VERTEX
  5
4D5
  8
6
 10
-8.5
 20
0.1999999999998181
 30
0.0
 42
-0.4142135623730951
  0
VERTEX
  5
4D6
  8
6
 10
-8.7000000000002728
 20
0.0
 30
0.0
  0
VERTEX
  5
4D7
  8
6
 10
-8.8000000000001801
 20
0.0
 30
0.0
 42
-0.4142135623730951
  0
VERTEX
  5
4D8
  8
6
 10
-9.0
 20
0.2000000000000455
 30
0.0
  0
VERTEX
  5
4D9
  8
6
 10
-9.0
 20
0.5
 30
0.0
 42
-0.4142135623730951
  0
VERTEX
  5
4DA
  8
6
 10
-7.5
 20
2.0
 30
0.0
  0
VERTEX
  5
4DB
  8
6
 10
-2.300000000000181
 20
2.0
 30
0.0
 42
0.4142135623730951
  0
VERTEX
  5
4DC
  8
6
 10
-2.0
 20
2.2999999999999541
 30
0.0
  0
VERTEX
  5
4DD
  8
6
 10
-2.0
 20
20.5
 30
0.0
 42
0.4142135623730951
  0
VERTEX
  5
4DE
  8
6
 10
-3.0
 20
21.499999999999989
 30
0.0
  0
VERTEX
  5
4DF
  8
6
 10
-13.0
 20
21.499999999999989
 30
0.0
 42
0.4142135623730953
  0
VERTEX
  5
4E0
  8
6
 10
-14.0
 20
20.5
 30
0.0
  0
VERTEX
  5
4E1
  8
6
 10
-14.0
 20
11.5
 30
0.0
 42
-0.4142135623730951
  0
VERTEX
  5
4E2
  8
6
 10
-16.0
 20
9.5
 30
0.0
  0
VERTEX
  5
4E3
  8
6
 10
-17.662001434778169
 20
9.5
 30
0.0
  0
VERTEX
  5
4E4
  8
6
 10
-21.26776695296666
 20
5.894234481811508
 30
0.0
 42
0.1989123673796584
  0
VERTEX
  5
4E5
  8
6
 10
-22.0
 20
4.1264675288450681
 30
0.0
  0
VERTEX
  5
4E6
  8
6
 10
-22.0
 20
0.5
 30
0.0
  0
VERTEX
  5
4E7
  8
6
 10
-22.0
 20
0.1999999999998181
 30
0.0
 42
-0.4142135623730951
  0
VERTEX
  5
4E8
  8
6
 10
-22.200000000000269
 20
0.0
 30
0.0
  0
VERTEX
  5
4E9
  8
6
 10
-22.300000000000178
 20
0.0
 30
0.0
 42
-0.4142135623730951
  0
VERTEX
  5
4EA
  8
6
 10
-22.5
 20
0.1999999999998181
 30
0.0
 42
-0.4142135623730951
  0
VERTEX
  5
4EB
  8
6
 10
-22.700000000000269
 20
0.0
 30
0.0
  0
VERTEX
  5
4EC
  8
6
 10
-22.800000000000178
 20
0.0
 30
0.0
 42
-0.4142135623730951
  0
VERTEX
  5
4ED
  8
6
 10
-23.0
 20
0.1999999999998181
 30
0.0
 42
-0.4142135623730951
  0
VERTEX
  5
4EE
  8
6
 10
-23.200000000000269
 20
0.0
 30
0.0
  0
VERTEX
  5
4EF
  8
6
 10
-23.300000000000178
 20
0.0
 30
0.0
 42
-0.4142135623730951
  0
VERTEX
  5
4F0
  8
6
 10
-23.5
 20
0.1999999999998181
 30
0.0
 42
-0.4142135623730951
  0
VERTEX
  5
4F1
  8
6
 10
-23.700000000000269
 20
0.0
 30
0.0
  0
VERTEX
  5
4F2
  8
6
 10
-23.800000000000178
 20
0.0
 30
0.0
 42
-0.4142135623730951
  0
VERTEX
  5
4F3
  8
6
 10
-24.0
 20
0.1999999999998181
 30
0.0
 42
-0.4142135623730951
  0
VERTEX
  5
4F4
  8
6
 10
-24.200000000000269
 20
0.0
 30
0.0
  0
VERTEX
  5
4F5
  8
6
 10
-24.300000000000178
 20
0.0
 30
0.0
 42
-0.4142135623730898
  0
VERTEX
  5
4F6
  8
6
 10
-24.5
 20
0.1999999999998181
 30
0.0
 42
-0.4142135623730951
  0
VERTEX
  5
4F7
  8
6
 10
-24.700000000000269
 20
0.0
 30
0.0
  0
VERTEX
  5
4F8
  8
6
 10
-24.800000000000178
 20
0.0
 30
0.0
 42
-0.4142135623730951
  0
VERTEX
  5
4F9
  8
6
 10
-25.0
 20
0.1999999999998181
 30
0.0
 42
-0.4142135623730951
  0
VERTEX
  5
4FA
  8
6
 10
-25.200000000000269
 20
0.0
 30
0.0
  0
VERTEX
  5
4FB
  8
6
 10
-25.300000000000178
 20
0.0
 30
0.0
 42
-0.4142135623730951
  0
VERTEX
  5
4FC
  8
6
 10
-25.5
 20
0.1999999999998181
 30
0.0
 42
-0.4142135623730951
  0
VERTEX
  5
4FD
  8
6
 10
-25.700000000000269
 20
0.0
 30
0.0
  0
VERTEX
  5
4FE
  8
6
 10
-25.800000000000178
 20
0.0
 30
0.0
 42
-0.4142135623730951
  0
VERTEX
  5
4FF
  8
6
 10
-26.0
 20
0.1999999999998181
 30
0.0
 42
-0.4142135623730951
  0
VERTEX
  5
500
  8
6
 10
-26.200000000000269
 20
0.0
 30
0.0
  0
VERTEX
  5
501
  8
6
 10
-26.300000000000178
 20
0.0
 30
0.0
 42
-0.4142135623730951
  0
VERTEX
  5
502
  8
6
 10
-26.5
 20
0.1999999999998181
 30
0.0
 42
-0.4142135623730951
  0
VERTEX
  5
503
  8
6
 10
-26.700000000000269
 20
0.0
 30
0.0
  0
VERTEX
  5
504
  8
6
 10
-26.800000000000178
 20
0.0
 30
0.0
 42
-0.4142135623730951
  0
VERTEX
  5
505
  8
6
 10
-27.0
 20
0.1999999999998181
 30
0.0
 42
-0.4142135623730951
  0
VERTEX
  5
506
  8
6
 10
-27.200000000000269
 20
0.0
 30
0.0
  0
VERTEX
  5
507
  8
6
 10
-27.300000000000178
 20
0.0
 30
0.0
 42
-0.4142135623730951
  0
VERTEX
  5
508
  8
6
 10
-27.5
 20
0.1999999999998181
 30
0.0
 42
-0.4142135623730951
  0
VERTEX
  5
509
  8
6
 10
-27.700000000000269
 20
0.0
 30
0.0
  0
VERTEX
  5
50A
  8
6
 10
-27.800000000000178
 20
0.0
 30
0.0
 42
-0.4142135623730951
  0
VERTEX
  5
50B
  8
6
 10
-28.0
 20
0.1999999999998181
 30
0.0
 42
-0.4142135623730951
  0
VERTEX
  5
50C
  8
6
 10
-28.200000000000269
 20
0.0
 30
0.0
  0
VERTEX
  5
50D
  8
6
 10
-28.300000000000178
 20
0.0
 30
0.0
 42
-0.4142135623730951
  0
VERTEX
  5
50E
  8
6
 10
-28.5
 20
0.1999999999998181
 30
0.0
 42
-0.4142135623730951
  0
VERTEX
  5
50F
  8
6
 10
-28.700000000000269
 20
0.0
 30
0.0
  0
VERTEX
  5
510
  8
6
 10
-28.800000000000178
 20
0.0
 30
0.0
 42
-0.4142135623730951
  0
VERTEX
  5
511
  8
6
 10
-29.0
 20
0.1999999999998181
 30
0.0
 42
-0.4142135623730951
  0
VERTEX
  5
512
  8
6
 10
-29.200000000000269
 20
0.0
 30
0.0
  0
VERTEX
  5
513
  8
6
 10
-29.300000000000178
 20
0.0
 30
0.0
 42
-0.4142135623730951
  0
VERTEX
  5
514
  8
6
 10
-29.5
 20
0.1999999999998181
 30
0.0
 42
-0.4142135623730951
  0
VERTEX
  5
515
  8
6
 10
-29.700000000000269
 20
0.0
 30
0.0
  0
VERTEX
  5
516
  8
6
 10
-29.800000000000178
 20
0.0
 30
0.0
 42
-0.4142135623730951
  0
VERTEX
  5
517
  8
6
 10
-30.0
 20
0.1999999999998181
 30
0.0
 42
-0.4142135623730951
  0
VERTEX
  5
518
  8
6
 10
-30.200000000000269
 20
0.0
 30
0.0
  0
VERTEX
  5
519
  8
6
 10
-30.300000000000178
 20
0.0
 30
0.0
 42
-0.4142135623730951
  0
VERTEX
  5
51A
  8
6
 10
-30.5
 20
0.1999999999998181
 30
0.0
 42
-0.4142135623730951
  0
VERTEX
  5
51B
  8
6
 10
-30.700000000000269
 20
0.0
 30
0.0
  0
VERTEX
  5
51C
  8
6
 10
-30.800000000000178
 20
0.0
 30
0.0
 42
-0.4142135623730951
  0
VERTEX
  5
51D
  8
6
 10
-31.0
 20
0.2000000000000455
 30
0.0
  0
SEQEND
  5
51E
  8
6
  0
POLYLINE
  5
31B
  8
4
 66
     1
 10
0.0
 20
0.0
 30
0.0
  0
VERTEX
  5
51F
  8
4
 10
-97.699548765231157
 20
-8.0
 30
0.0
  0
VERTEX
  5
520
  8
4
 10
-100.0000000000004
 20
-8.0
 30
0.0
  0
VERTEX
  5
521
  8
4
 10
-100.0000000000004
 20
-1.834907631615124
 30
0.0
  0
VERTEX
  5
522
  8
4
 10
-20.000000000000451
 20
8.9705341727742507
 30
0.0
  0
VERTEX
  5
523
  8
4
 10
-20.0
 20
25.0
 30
0.0
  0
VERTEX
  5
524
  8
4
 10
0.0
 20
25.0
 30
0.0
  0
VERTEX
  5
525
  8
4
 10
0.0
 20
0.0
 30
0.0
  0
VERTEX
  5
526
  8
4
 10
-31.0
 20
0.0
 30
0.0
  0
VERTEX
  5
527
  8
4
 10
-31.0
 20
2.0
 30
0.0
  0
SEQEND
  5
528
  8
4
  0
POLYLINE
  5
31C
  8
5
 66
     1
 10
0.0
 20
0.0
 30
0.0
  0
VERTEX
  5
529
  8
5
 10
0.0
 20
-11.986154265019421
 30
0.0
  0
VERTEX
  5
52A
  8
5
 10
0.0
 20
0.0
 30
0.0
  0
VERTEX
  5
52B
  8
5
 10
-48.00000000000022
 20
0.0
 30
0.0
  0
VERTEX
  5
52C
  8
5
 10
-48.00000000000022
 20
-11.986154265019421
 30
0.0
  0
SEQEND
  5
52D
  8
5
  0
VIEWPORT
  5
22
 67
     1
  8
0
 10
210.0
 20
170.2366863905325
 30
0.0
 40
420.0
 41
340.47337278106511
 68
     1
 69
     1
1001
ACAD
1000
MVIEW
1002
{
1070
    16
1010
0.0
1020
0.0
1030
0.0
1010
0.0
1020
0.0
1030
1.0
1040
0.0
1040
340.47337278106511
1040
210.0
1040
170.2366863905325
1040
50.0
1040
0.0
1040
0.0
1070
     0
1070
   100
1070
     1
1070
     1
1070
     0
1070
     0
1070
     0
1070
     0
1040
0.0
1040
0.0
1040
0.0
1040
5.0
1040
5.0
1040
10.0
1040
10.0
1070
     0
1002
{
1002
}
1002
}
  0
ENDSEC
  0
EOF
