  0
SECTION
  2
HEADER
  9
$ACADVER
  1
AC1015
  9
$ACADMAINTVER
 70
    13
  9
$DWGCODEPAGE
  3
ANSI_1252
  9
$INSBASE
 10
0.0
 20
0.0
 30
0.0
  9
$EXTMIN
 10
-88.78417833961259
 20
-12.92523463458042
 30
0.0
  9
$EXTMAX
 10
19.93210134677974
 20
56.75027456593829
 30
0.0
  9
$LIMMIN
 10
-150.0
 20
-150.0
  9
$LIMMAX
 10
150.0
 20
150.0
  9
$ORTHOMODE
 70
     0
  9
$REGENMODE
 70
     1
  9
$FILLMODE
 70
     1
  9
$QTEXTMODE
 70
     0
  9
$MIRRTEXT
 70
     0
  9
$LTSCALE
 40
1.0
  9
$ATTMODE
 70
     1
  9
$TEXTSIZE
 40
3.5
  9
$TRACEWID
 40
1.0
  9
$TEXTSTYLE
  7
Beschlag
  9
$CLAYER
  8
2
  9
$CELTYPE
  6
BYLAYER
  9
$CECOLOR
 62
   256
  9
$CELTSCALE
 40
1.0
  9
$DISPSILH
 70
     1
  9
$DIMSCALE
 40
1.0
  9
$DIMASZ
 40
2.0
  9
$DIMEXO
 40
2.0
  9
$DIMDLI
 40
0.0
  9
$DIMRND
 40
0.0
  9
$DIMDLE
 40
1.0
  9
$DIMEXE
 40
1.0
  9
$DIMTP
 40
0.0
  9
$DIMTM
 40
0.0
  9
$DIMTXT
 40
3.5
  9
$DIMCEN
 40
0.0
  9
$DIMTSZ
 40
0.0
  9
$DIMTOL
 70
     0
  9
$DIMLIM
 70
     0
  9
$DIMTIH
 70
     0
  9
$DIMTOH
 70
     0
  9
$DIMSE1
 70
     0
  9
$DIMSE2
 70
     0
  9
$DIMTAD
 70
     1
  9
$DIMZIN
 70
     8
  9
$DIMBLK
  1

  9
$DIMASO
 70
     1
  9
$DIMSHO
 70
     1
  9
$DIMPOST
  1

  9
$DIMAPOST
  1

  9
$DIMALT
 70
     0
  9
$DIMALTD
 70
     2
  9
$DIMALTF
 40
0.039370078740157
  9
$DIMLFAC
 40
1.0
  9
$DIMTOFL
 70
     1
  9
$DIMTVP
 40
0.0
  9
$DIMTIX
 70
     1
  9
$DIMSOXD
 70
     0
  9
$DIMSAH
 70
     1
  9
$DIMBLK1
  1
Oblique
  9
$DIMBLK2
  1
Oblique
  9
$DIMSTYLE
  2
OPO-SSTRICH
  9
$DIMCLRD
 70
   256
  9
$DIMCLRE
 70
   256
  9
$DIMCLRT
 70
   256
  9
$DIMTFAC
 40
0.7114285714285716
  9
$DIMGAP
 40
1.0
  9
$DIMJUST
 70
     0
  9
$DIMSD1
 70
     0
  9
$DIMSD2
 70
     0
  9
$DIMTOLJ
 70
     1
  9
$DIMTZIN
 70
     8
  9
$DIMALTZ
 70
     8
  9
$DIMALTTZ
 70
     8
  9
$DIMUPT
 70
     0
  9
$DIMDEC
 70
     1
  9
$DIMTDEC
 70
     1
  9
$DIMALTU
 70
     2
  9
$DIMALTTD
 70
     2
  9
$DIMTXSTY
  7
Beschlag
  9
$DIMAUNIT
 70
     0
  9
$DIMADEC
 70
     1
  9
$DIMALTRND
 40
0.0
  9
$DIMAZIN
 70
     2
  9
$DIMDSEP
 70
    46
  9
$DIMATFIT
 70
     3
  9
$DIMFRAC
 70
     0
  9
$DIMLDRBLK
  1
Oblique
  9
$DIMLUNIT
 70
     2
  9
$DIMLWD
 70
    -2
  9
$DIMLWE
 70
    -2
  9
$DIMTMOVE
 70
     2
  9
$LUNITS
 70
     2
  9
$LUPREC
 70
     1
  9
$SKETCHINC
 40
1.0
  9
$FILLETRAD
 40
0.0
  9
$AUNITS
 70
     0
  9
$AUPREC
 70
     1
  9
$MENU
  1
D:\ACL_CGWG\CGTAB13
  9
$ELEVATION
 40
0.0
  9
$PELEVATION
 40
0.0
  9
$THICKNESS
 40
0.0
  9
$LIMCHECK
 70
     0
  9
$CHAMFERA
 40
1.0
  9
$CHAMFERB
 40
1.0
  9
$CHAMFERC
 40
1.0
  9
$CHAMFERD
 40
0.7853981633974483
  9
$SKPOLY
 70
     0
  9
$TDCREATE
 40
2451739.894842118
  9
$TDUCREATE
 40
2451739.853175451
  9
$TDUPDATE
 40
2452243.472716042
  9
$TDUUPDATE
 40
2452243.431049375
  9
$TDINDWG
 40
0.0114925694
  9
$TDUSRTIMER
 40
0.0114925694
  9
$USRTIMER
 70
     1
  9
$ANGBASE
 50
0.0
  9
$ANGDIR
 70
     0
  9
$PDMODE
 70
    35
  9
$PDSIZE
 40
5.0
  9
$PLINEWID
 40
0.0
  9
$SPLFRAME
 70
     0
  9
$SPLINETYPE
 70
     6
  9
$SPLINESEGS
 70
     8
  9
$HANDSEED
  5
56B
  9
$SURFTAB1
 70
    12
  9
$SURFTAB2
 70
    12
  9
$SURFTYPE
 70
     6
  9
$SURFU
 70
    12
  9
$SURFV
 70
    12
  9
$UCSBASE
  2

  9
$UCSNAME
  2

  9
$UCSORG
 10
0.0
 20
0.0
 30
0.0
  9
$UCSXDIR
 10
1.0
 20
0.0
 30
0.0
  9
$UCSYDIR
 10
0.0
 20
1.0
 30
0.0
  9
$UCSORTHOREF
  2

  9
$UCSORTHOVIEW
 70
     0
  9
$UCSORGTOP
 10
0.0
 20
0.0
 30
0.0
  9
$UCSORGBOTTOM
 10
0.0
 20
0.0
 30
0.0
  9
$UCSORGLEFT
 10
0.0
 20
0.0
 30
0.0
  9
$UCSORGRIGHT
 10
0.0
 20
0.0
 30
0.0
  9
$UCSORGFRONT
 10
0.0
 20
0.0
 30
0.0
  9
$UCSORGBACK
 10
0.0
 20
0.0
 30
0.0
  9
$PUCSBASE
  2

  9
$PUCSNAME
  2

  9
$PUCSORG
 10
0.0
 20
0.0
 30
0.0
  9
$PUCSXDIR
 10
1.0
 20
0.0
 30
0.0
  9
$PUCSYDIR
 10
0.0
 20
1.0
 30
0.0
  9
$PUCSORTHOREF
  2

  9
$PUCSORTHOVIEW
 70
     0
  9
$PUCSORGTOP
 10
0.0
 20
0.0
 30
0.0
  9
$PUCSORGBOTTOM
 10
0.0
 20
0.0
 30
0.0
  9
$PUCSORGLEFT
 10
0.0
 20
0.0
 30
0.0
  9
$PUCSORGRIGHT
 10
0.0
 20
0.0
 30
0.0
  9
$PUCSORGFRONT
 10
0.0
 20
0.0
 30
0.0
  9
$PUCSORGBACK
 10
0.0
 20
0.0
 30
0.0
  9
$USERI1
 70
     0
  9
$USERI2
 70
     0
  9
$USERI3
 70
     0
  9
$USERI4
 70
     0
  9
$USERI5
 70
     0
  9
$USERR1
 40
0.0
  9
$USERR2
 40
0.0
  9
$USERR3
 40
0.0
  9
$USERR4
 40
0.0
  9
$USERR5
 40
0.0
  9
$WORLDVIEW
 70
     1
  9
$SHADEDGE
 70
     3
  9
$SHADEDIF
 70
    70
  9
$TILEMODE
 70
     1
  9
$MAXACTVP
 70
    48
  9
$PINSBASE
 10
0.0
 20
0.0
 30
0.0
  9
$PLIMCHECK
 70
     0
  9
$PEXTMIN
 10
1.000000000000000E+20
 20
1.000000000000000E+20
 30
1.000000000000000E+20
  9
$PEXTMAX
 10
-1.000000000000000E+20
 20
-1.000000000000000E+20
 30
-1.000000000000000E+20
  9
$PLIMMIN
 10
0.0
 20
0.0
  9
$PLIMMAX
 10
420.0
 20
297.0
  9
$UNITMODE
 70
     0
  9
$VISRETAIN
 70
     1
  9
$PLINEGEN
 70
     0
  9
$PSLTSCALE
 70
     1
  9
$TREEDEPTH
 70
  3020
  9
$CMLSTYLE
  2
STANDARD
  9
$CMLJUST
 70
     0
  9
$CMLSCALE
 40
1.0
  9
$PROXYGRAPHICS
 70
     1
  9
$MEASUREMENT
 70
     1
  9
$CELWEIGHT
370
    -1
  9
$ENDCAPS
280
     0
  9
$JOINSTYLE
280
     0
  9
$LWDISPLAY
290
     0
  9
$INSUNITS
 70
     0
  9
$HYPERLINKBASE
  1

  9
$STYLESHEET
  1
Hebgo Laser.ctb
  9
$XEDIT
290
     1
  9
$CEPSNTYPE
380
     0
  9
$PSTYLEMODE
290
     1
  9
$FINGERPRINTGUID
  2
{DEF6964E-5F8B-11D3-8AEE-0008C71A8CF4}
  9
$VERSIONGUID
  2
{255AA3D1-43AC-422D-A1F3-CF4558DDC6EC}
  9
$EXTNAMES
290
     1
  9
$PSVPSCALE
 40
0.0
  9
$OLESTARTUP
290
     0
  0
ENDSEC
  0
SECTION
  2
CLASSES
  0
CLASS
  1
ACDBDICTIONARYWDFLT
  2
AcDbDictionaryWithDefault
  3
AutoCAD 2000
 90
        0
280
     0
281
     0
  0
CLASS
  1
ACDBPLACEHOLDER
  2
AcDbPlaceHolder
  3
AutoCAD 2000
 90
        0
280
     0
281
     0
  0
CLASS
  1
LAYOUT
  2
AcDbLayout
  3
AutoCAD 2000
 90
        0
280
     0
281
     0
  0
CLASS
  1
DICTIONARYVAR
  2
AcDbDictionaryVar
  3
AutoCAD 2000
 90
        0
280
     0
281
     0
  0
CLASS
  1
LONG_TRANSACTION
  2
AcDbLongTransaction
  3
AutoCAD 2000
 90
    32768
280
     0
281
     0
  0
CLASS
  1
LWPOLYLINE
  2
AcDbPolyline
  3
AutoCAD 2000
 90
    32768
280
     0
281
     1
  0
CLASS
  1
HATCH
  2
AcDbHatch
  3
AutoCAD 2000
 90
    32768
280
     0
281
     1
  0
CLASS
  1
XRECORD
  2
AcDbXrecord
  3
AutoCAD 2000
 90
    32768
280
     0
281
     0
  0
CLASS
  1
PLOTSETTINGS
  2
AcDbPlotSettings
  3
AutoCAD 2000
 90
        0
280
     0
281
     0
  0
CLASS
  1
LONG_TRANSACTION
  2
AcDbLongTransaction
  3
AutoCAD 2000
 90
    32768
280
     0
281
     0
  0
CLASS
  1
LWPOLYLINE
  2
AcDbPolyline
  3
AutoCAD 2000
 90
    32768
280
     0
281
     1
  0
CLASS
  1
HATCH
  2
AcDbHatch
  3
AutoCAD 2000
 90
    32768
280
     0
281
     1
  0
CLASS
  1
XRECORD
  2
AcDbXrecord
  3
AutoCAD 2000
 90
    32768
280
     0
281
     0
  0
CLASS
  1
LONG_TRANSACTION
  2
AcDbLongTransaction
  3
AutoCAD 2000
 90
    32768
280
     0
281
     0
  0
CLASS
  1
LWPOLYLINE
  2
AcDbPolyline
  3
AutoCAD 2000
 90
    32768
280
     0
281
     1
  0
CLASS
  1
HATCH
  2
AcDbHatch
  3
AutoCAD 2000
 90
    32768
280
     0
281
     1
  0
CLASS
  1
XRECORD
  2
AcDbXrecord
  3
AutoCAD 2000
 90
    32768
280
     0
281
     0
  0
CLASS
  1
LONG_TRANSACTION
  2
AcDbLongTransaction
  3
AutoCAD 2000
 90
    32768
280
     0
281
     0
  0
CLASS
  1
LWPOLYLINE
  2
AcDbPolyline
  3
AutoCAD 2000
 90
    32768
280
     0
281
     1
  0
CLASS
  1
HATCH
  2
AcDbHatch
  3
AutoCAD 2000
 90
    32768
280
     0
281
     1
  0
CLASS
  1
XRECORD
  2
AcDbXrecord
  3
AutoCAD 2000
 90
    32768
280
     0
281
     0
  0
CLASS
  1
LONG_TRANSACTION
  2
AcDbLongTransaction
  3
AutoCAD 2000
 90
    32768
280
     0
281
     0
  0
CLASS
  1
LWPOLYLINE
  2
AcDbPolyline
  3
AutoCAD 2000
 90
    32768
280
     0
281
     1
  0
CLASS
  1
HATCH
  2
AcDbHatch
  3
AutoCAD 2000
 90
    32768
280
     0
281
     1
  0
CLASS
  1
XRECORD
  2
AcDbXrecord
  3
AutoCAD 2000
 90
    32768
280
     0
281
     0
  0
CLASS
  1
LONG_TRANSACTION
  2
AcDbLongTransaction
  3
AutoCAD 2000
 90
    32768
280
     0
281
     0
  0
CLASS
  1
LWPOLYLINE
  2
AcDbPolyline
  3
AutoCAD 2000
 90
    32768
280
     0
281
     1
  0
CLASS
  1
HATCH
  2
AcDbHatch
  3
AutoCAD 2000
 90
    32768
280
     0
281
     1
  0
CLASS
  1
XRECORD
  2
AcDbXrecord
  3
AutoCAD 2000
 90
    32768
280
     0
281
     0
  0
CLASS
  1
SORTENTSTABLE
  2
AcDbSortentsTable
  3
AutoCAD 2000
 90
        0
280
     0
281
     0
  0
ENDSEC
  0
SECTION
  2
TABLES
  0
TABLE
  2
VPORT
  5
8
330
0
100
AcDbSymbolTable
 70
     2
  0
VPORT
  5
56A
330
8
100
AcDbSymbolTableRecord
100
AcDbViewportTableRecord
  2
*Active
 70
     0
 10
0.0
 20
0.0
 11
1.0
 21
1.0
 12
-34.43527155839285
 22
21.91543651502052
 13
0.0
 23
0.0
 14
0.5
 24
0.5
 15
10.0
 25
10.0
 16
0.0
 26
0.0
 36
1.0
 17
0.0
 27
0.0
 37
0.0
 40
70.23900720278636
 41
1.581486310299869
 42
50.0
 43
0.0
 44
0.0
 50
0.0
 51
0.0
 71
     0
 72
   800
 73
     1
 74
     1
 75
     0
 76
     0
 77
     0
 78
     0
281
     0
 65
     1
110
0.0
120
0.0
130
0.0
111
1.0
121
0.0
131
0.0
112
0.0
122
1.0
132
0.0
 79
     0
146
0.0
  0
ENDTAB
  0
TABLE
  2
LTYPE
  5
5
330
0
100
AcDbSymbolTable
 70
     1
  0
LTYPE
  5
14
330
5
100
AcDbSymbolTableRecord
100
AcDbLinetypeTableRecord
  2
BYBLOCK
 70
     0
  3

 72
    65
 73
     0
 40
0.0
  0
LTYPE
  5
15
330
5
100
AcDbSymbolTableRecord
100
AcDbLinetypeTableRecord
  2
BYLAYER
 70
     0
  3

 72
    65
 73
     0
 40
0.0
  0
LTYPE
  5
16
330
5
100
AcDbSymbolTableRecord
100
AcDbLinetypeTableRecord
  2
CONTINUOUS
 70
     0
  3
_______________________________________________
 72
    65
 73
     2
 40
1.0
 49
1.0
 74
     0
 49
0.0
 74
     0
  0
ENDTAB
  0
TABLE
  2
LAYER
  5
2
330
0
100
AcDbSymbolTable
 70
     7
  0
LAYER
  5
F
330
2
100
AcDbSymbolTableRecord
100
AcDbLayerTableRecord
  2
0
 70
     0
 62
    30
  6
CONTINUOUS
370
    -3
390
F3
  0
LAYER
  5
120
330
2
100
AcDbSymbolTableRecord
100
AcDbLayerTableRecord
  2
1
 70
     0
 62
     2
  6
CONTINUOUS
370
    -3
390
F3
  0
LAYER
  5
121
330
2
100
AcDbSymbolTableRecord
100
AcDbLayerTableRecord
  2
2
 70
     0
 62
     9
  6
CONTINUOUS
370
    -3
390
F3
  0
LAYER
  5
123
330
2
100
AcDbSymbolTableRecord
100
AcDbLayerTableRecord
  2
4
 70
     1
 62
     4
  6
CONTINUOUS
370
    -3
390
F3
  0
LAYER
  5
124
330
2
100
AcDbSymbolTableRecord
100
AcDbLayerTableRecord
  2
5
 70
     0
 62
     1
  6
CONTINUOUS
370
    -3
390
F3
  0
LAYER
  5
125
330
2
100
AcDbSymbolTableRecord
100
AcDbLayerTableRecord
  2
6
 70
     0
 62
     3
  6
CONTINUOUS
370
    35
390
F3
  0
LAYER
  5
207
330
2
100
AcDbSymbolTableRecord
100
AcDbLayerTableRecord
  2
Defpoints
 70
     0
 62
     7
  6
CONTINUOUS
290
     0
370
    -3
390
F3
  0
ENDTAB
  0
TABLE
  2
STYLE
  5
3
330
0
100
AcDbSymbolTable
 70
     2
  0
STYLE
  5
10
330
3
100
AcDbSymbolTableRecord
100
AcDbTextStyleTableRecord
  2
STANDARD
 70
     0
 40
0.0
 41
1.0
 50
0.0
 71
     0
 42
2.5
  3
ARIAL.TTF
  4

1001
ACAD
1000
Arial
1071
       34
  0
STYLE
  5
12B
330
3
100
AcDbSymbolTableRecord
100
AcDbTextStyleTableRecord
  2
Beschlag
 70
     0
 40
0.0
 41
1.0
 50
0.0
 71
     0
 42
3.5
  3
ARIAL.TTF
  4

1001
ACAD
1000
Arial
1071
       34
  0
ENDTAB
  0
TABLE
  2
VIEW
  5
6
330
0
100
AcDbSymbolTable
 70
     0
  0
ENDTAB
  0
TABLE
  2
UCS
  5
7
330
0
100
AcDbSymbolTable
 70
     0
  0
ENDTAB
  0
TABLE
  2
APPID
  5
9
330
0
100
AcDbSymbolTable
 70
     1
  0
APPID
  5
11
330
9
100
AcDbSymbolTableRecord
100
AcDbRegAppTableRecord
  2
ACAD
 70
     0
  0
ENDTAB
  0
TABLE
  2
DIMSTYLE
  5
A
330
0
100
AcDbSymbolTable
 70
     1
100
AcDbDimStyleTable
 71
     0
  0
DIMSTYLE
105
209
102
{ACAD_REACTORS
330
2F0
330
2F3
330
2F5
330
2F9
102
}
330
A
100
AcDbSymbolTableRecord
100
AcDbDimStyleTableRecord
  2
OPO-SSTRICH
 70
     0
 41
2.0
 42
2.0
 43
0.0
 44
1.0
 46
1.0
 73
     0
 74
     0
 77
     1
 78
     8
 79
     2
140
3.5
141
0.0
143
0.039370078740157
146
0.7114285714285716
147
1.0
172
     1
173
     1
174
     1
176
   256
177
   256
178
   256
179
     1
271
     1
272
     1
279
     2
284
     8
285
     8
286
     8
340
12B
341
203
343
203
344
203
  0
ENDTAB
  0
TABLE
  2
BLOCK_RECORD
  5
1
330
0
100
AcDbSymbolTable
 70
     7
  0
BLOCK_RECORD
  5
1A
102
{ACAD_XDICTIONARY
360
1F6
102
}
330
1
100
AcDbSymbolTableRecord
100
AcDbBlockTableRecord
  2
*MODEL_SPACE
340
F6
  0
BLOCK_RECORD
  5
17
102
{ACAD_XDICTIONARY
360
1F4
102
}
330
1
100
AcDbSymbolTableRecord
100
AcDbBlockTableRecord
  2
*PAPER_SPACE
340
F7
  0
BLOCK_RECORD
  5
203
330
1
100
AcDbSymbolTableRecord
100
AcDbBlockTableRecord
  2
_Oblique
340
0
102
{BLKREFS
331
335
331
336
331
33E
331
33F
331
347
331
348
331
350
331
351
102
}
  0
BLOCK_RECORD
  5
253
330
1
100
AcDbSymbolTableRecord
100
AcDbBlockTableRecord
  2
NullPunkt
340
0
102
{BLKREFS
331
25B
102
}
  0
BLOCK_RECORD
  5
29D
330
1
100
AcDbSymbolTableRecord
100
AcDbBlockTableRecord
  2
*X2
340
0
102
{BLKREFS
331
2EE
102
}
  0
BLOCK_RECORD
  5
302
330
1
100
AcDbSymbolTableRecord
100
AcDbBlockTableRecord
  2
*D3
340
0
  0
BLOCK_RECORD
  5
30E
330
1
100
AcDbSymbolTableRecord
100
AcDbBlockTableRecord
  2
*D4
340
0
  0
BLOCK_RECORD
  5
31A
330
1
100
AcDbSymbolTableRecord
100
AcDbBlockTableRecord
  2
*D5
340
0
  0
BLOCK_RECORD
  5
326
330
1
100
AcDbSymbolTableRecord
100
AcDbBlockTableRecord
  2
*D6
340
0
  0
ENDTAB
  0
ENDSEC
  0
SECTION
  2
BLOCKS
  0
BLOCK
  5
1B
330
1A
100
AcDbEntity
  8
0
100
AcDbBlockBegin
  2
*MODEL_SPACE
 70
     0
 10
0.0
 20
0.0
 30
0.0
  3
*MODEL_SPACE
  1

  0
ENDBLK
  5
1C
330
1A
100
AcDbEntity
  8
0
100
AcDbBlockEnd
  0
BLOCK
  5
18
330
17
100
AcDbEntity
 67
     1
  8
0
100
AcDbBlockBegin
  2
*PAPER_SPACE
 70
     0
 10
0.0
 20
0.0
 30
0.0
  3
*PAPER_SPACE
  1

  0
ENDBLK
  5
19
330
17
100
AcDbEntity
 67
     1
  8
0
100
AcDbBlockEnd
  0
BLOCK
  5
205
330
203
100
AcDbEntity
  8
0
100
AcDbBlockBegin
  2
_Oblique
 70
     0
 10
0.0
 20
0.0
 30
0.0
  3
_Oblique
  1

  0
LINE
  5
204
330
203
100
AcDbEntity
  8
0
 62
     0
370
    -2
100
AcDbLine
 10
-0.5
 20
-0.5
 30
0.0
 11
0.5
 21
0.5
 31
0.0
  0
ENDBLK
  5
206
330
203
100
AcDbEntity
  8
0
100
AcDbBlockEnd
  0
BLOCK
  5
259
330
253
100
AcDbEntity
  8
0
100
AcDbBlockBegin
  2
NullPunkt
 70
     0
 10
0.0
 20
0.0
 30
0.0
  3
NullPunkt
  1

  0
SOLID
  5
254
330
253
100
AcDbEntity
  8
5
100
AcDbTrace
 10
0.0
 20
0.0
 30
0.0
 11
2.0
 21
0.0
 31
0.0
 12
0.0
 22
-2.0
 32
0.0
 13
0.0
 23
-2.0
 33
0.0
  0
SOLID
  5
255
330
253
100
AcDbEntity
  8
5
100
AcDbTrace
 10
0.0
 20
0.0
 30
0.0
 11
-2.0
 21
0.0
 31
0.0
 12
0.0
 22
2.0
 32
0.0
 13
0.0
 23
2.0
 33
0.0
  0
LWPOLYLINE
  5
256
330
253
100
AcDbEntity
  8
5
100
AcDbPolyline
 90
        2
 70
     0
 43
0.0
 10
0.0
 20
2.0
 10
0.0
 20
-2.0
  0
LWPOLYLINE
  5
257
330
253
100
AcDbEntity
  8
5
100
AcDbPolyline
 90
        2
 70
     0
 43
0.0
 10
-2.0
 20
0.0
 10
2.0
 20
0.0
  0
CIRCLE
  5
258
330
253
100
AcDbEntity
  8
5
100
AcDbCircle
 10
0.0
 20
0.0
 30
0.0
 40
2.0
  0
ENDBLK
  5
25A
330
253
100
AcDbEntity
  8
0
100
AcDbBlockEnd
  0
BLOCK
  5
2D1
330
29D
100
AcDbEntity
  8
0
100
AcDbBlockBegin
  2
*X2
 70
     1
 10
0.0
 20
0.0
 30
0.0
  3
*X2
  1

  0
LINE
  5
29E
330
29D
100
AcDbEntity
  8
0
 62
     0
100
AcDbLine
 10
1053.900127023562
 20
-456.4799575909026
 30
0.0
 11
1054.935680452266
 21
-455.4444041621992
 31
0.0
  0
LINE
  5
29F
330
29D
100
AcDbEntity
  8
0
 62
     0
100
AcDbLine
 10
1077.400127023562
 20
-432.9799575909026
 30
0.0
 11
1079.900127023562
 21
-430.4799575909026
 31
0.0
  0
LINE
  5
2A0
330
29D
100
AcDbEntity
  8
0
 62
     0
100
AcDbLine
 10
1077.400127023562
 20
-431.2829013160548
 30
0.0
 11
1079.900127023562
 21
-428.7829013160548
 31
0.0
  0
LINE
  5
2A1
330
29D
100
AcDbEntity
  8
0
 62
     0
100
AcDbLine
 10
1082.738624177418
 20
-425.9444041621992
 30
0.0
 11
1083.900127023562
 21
-424.782901316055
 31
0.0
  0
LINE
  5
2A2
330
29D
100
AcDbEntity
  8
0
 62
     0
100
AcDbLine
 10
1077.400127023562
 20
-429.5858450412071
 30
0.0
 11
1079.900127023562
 21
-427.085845041207
 31
0.0
  0
LINE
  5
2A3
330
29D
100
AcDbEntity
  8
0
 62
     0
100
AcDbLine
 10
1082.500127023562
 20
-424.4858450412071
 30
0.0
 11
1083.900127023562
 21
-423.0858450412072
 31
0.0
  0
LINE
  5
2A4
330
29D
100
AcDbEntity
  8
0
 62
     0
100
AcDbLine
 10
1077.400127023562
 20
-427.8887887663596
 30
0.0
 11
1079.900127023562
 21
-425.3887887663595
 31
0.0
  0
LINE
  5
2A5
330
29D
100
AcDbEntity
  8
0
 62
     0
100
AcDbLine
 10
1081.344511627723
 20
-423.9444041621991
 30
0.0
 11
1083.344511627723
 21
-421.9444041621992
 31
0.0
  0
LINE
  5
2A6
330
29D
100
AcDbEntity
  8
0
 62
     0
100
AcDbLine
 10
1077.400127023562
 20
-426.1917324915118
 30
0.0
 11
1081.647455352875
 21
-421.9444041621992
 31
0.0
  0
LINE
  5
2A7
330
29D
100
AcDbEntity
  8
0
 62
     0
100
AcDbLine
 10
1077.400127023562
 20
-424.494676216664
 30
0.0
 11
1079.950399078027
 21
-421.9444041621992
 31
0.0
  0
LINE
  5
2A8
330
29D
100
AcDbEntity
  8
0
 62
     0
100
AcDbLine
 10
1077.400127023562
 20
-422.7976199418163
 30
0.0
 11
1078.253342803179
 21
-421.9444041621992
 31
0.0
  0
LINE
  5
2A9
330
29D
100
AcDbEntity
  8
0
 62
     0
100
AcDbLine
 10
1053.900127023562
 20
-458.1770138657503
 30
0.0
 11
1056.632736727114
 21
-455.4444041621992
 31
0.0
  0
LINE
  5
2AA
330
29D
100
AcDbEntity
  8
0
 62
     0
100
AcDbLine
 10
1077.400127023562
 20
-434.6770138657504
 30
0.0
 11
1079.900127023562
 21
-432.1770138657504
 31
0.0
  0
LINE
  5
2AB
330
29D
100
AcDbEntity
  8
0
 62
     0
100
AcDbLine
 10
1053.900127023562
 20
-459.8740701405981
 30
0.0
 11
1058.329793001961
 21
-455.4444041621992
 31
0.0
  0
LINE
  5
2AC
330
29D
100
AcDbEntity
  8
0
 62
     0
100
AcDbLine
 10
1077.400127023562
 20
-436.3740701405982
 30
0.0
 11
1079.900127023562
 21
-433.8740701405981
 31
0.0
  0
LINE
  5
2AD
330
29D
100
AcDbEntity
  8
0
 62
     0
100
AcDbLine
 10
1053.900127023562
 20
-461.5711264154456
 30
0.0
 11
1055.900127023562
 21
-459.5711264154456
 31
0.0
  0
LINE
  5
2AE
330
29D
100
AcDbEntity
  8
0
 62
     0
100
AcDbLine
 10
1077.963488150186
 20
-437.5077652888224
 30
0.0
 11
1079.900127023562
 21
-435.5711264154456
 31
0.0
  0
LINE
  5
2AF
330
29D
100
AcDbEntity
  8
0
 62
     0
100
AcDbLine
 10
1057.526849276809
 20
-457.9444041621993
 30
0.0
 11
1060.026849276809
 21
-455.4444041621992
 31
0.0
  0
LINE
  5
2B0
330
29D
100
AcDbEntity
  8
0
 62
     0
100
AcDbLine
 10
1055.223905551656
 20
-461.9444041621992
 30
0.0
 11
1056.623905551656
 21
-460.5444041621991
 31
0.0
  0
LINE
  5
2B1
330
29D
100
AcDbEntity
  8
0
 62
     0
100
AcDbLine
 10
1082.500127023562
 20
-434.6681826902935
 30
0.0
 11
1083.183048597766
 21
-433.9852611160895
 31
0.0
  0
LINE
  5
2B2
330
29D
100
AcDbEntity
  8
0
 62
     0
100
AcDbLine
 10
1059.223905551657
 20
-457.9444041621993
 30
0.0
 11
1061.56201628743
 21
-455.6062934264262
 31
0.0
  0
LINE
  5
2B3
330
29D
100
AcDbEntity
  8
0
 62
     0
100
AcDbLine
 10
1078.812016287609
 20
-438.3562934262463
 30
0.0
 11
1081.223905551657
 21
-435.9444041621991
 31
0.0
  0
LINE
  5
2B4
330
29D
100
AcDbEntity
  8
0
 62
     0
100
AcDbLine
 10
1056.921183539483
 20
-461.9441824492206
 30
0.0
 11
1057.899905310584
 21
-460.9654606781199
 31
0.0
  0
LINE
  5
2B5
330
29D
100
AcDbEntity
  8
0
 62
     0
100
AcDbLine
 10
1079.660544425033
 20
-439.2048215636701
 30
0.0
 11
1083.900127023562
 21
-434.9652389651413
 31
0.0
  0
LINE
  5
2B6
330
29D
100
AcDbEntity
  8
0
 62
     0
100
AcDbLine
 10
1060.920961826504
 20
-457.9444041621993
 30
0.0
 11
1063.420961826504
 21
-455.4444041621992
 31
0.0
  0
LINE
  5
2B7
330
29D
100
AcDbEntity
  8
0
 62
     0
100
AcDbLine
 10
1062.618018101352
 20
-457.9444041621993
 30
0.0
 11
1065.118018101352
 21
-455.4444041621992
 31
0.0
  0
LINE
  5
2B8
330
29D
100
AcDbEntity
  8
0
 62
     0
100
AcDbLine
 10
1080.509072562457
 20
-440.0533497010939
 30
0.0
 11
1083.900127023562
 21
-436.662295239989
 31
0.0
  0
LINE
  5
2B9
330
29D
100
AcDbEntity
  8
0
 62
     0
100
AcDbLine
 10
1064.3150743762
 20
-457.9444041621993
 30
0.0
 11
1066.8150743762
 21
-455.4444041621992
 31
0.0
  0
LINE
  5
2BA
330
29D
100
AcDbEntity
  8
0
 62
     0
100
AcDbLine
 10
1080.600127023562
 20
-441.6593515148364
 30
0.0
 11
1083.900127023562
 21
-438.3593515148368
 31
0.0
  0
LINE
  5
2BB
330
29D
100
AcDbEntity
  8
0
 62
     0
100
AcDbLine
 10
1066.012130651047
 20
-457.9444041621993
 30
0.0
 11
1068.512130651047
 21
-455.4444041621992
 31
0.0
  0
LINE
  5
2BC
330
29D
100
AcDbEntity
  8
0
 62
     0
100
AcDbLine
 10
1080.600127023562
 20
-443.3564077896839
 30
0.0
 11
1083.900127023562
 21
-440.0564077896842
 31
0.0
  0
LINE
  5
2BD
330
29D
100
AcDbEntity
  8
0
 62
     0
100
AcDbLine
 10
1067.708990429318
 20
-457.9446006587764
 30
0.0
 11
1069.554656974729
 21
-456.0989341133655
 31
0.0
  0
LINE
  5
2BE
330
29D
100
AcDbEntity
  8
0
 62
     0
100
AcDbLine
 10
1080.600127023562
 20
-445.0534640645317
 30
0.0
 11
1083.900127023562
 21
-441.753464064532
 31
0.0
  0
LINE
  5
2BF
330
29D
100
AcDbEntity
  8
0
 62
     0
100
AcDbLine
 10
1065.990599500768
 20
-461.3600478621742
 30
0.0
 11
1066.806243200743
 21
-460.5444041621991
 31
0.0
  0
LINE
  5
2C0
330
29D
100
AcDbEntity
  8
0
 62
     0
100
AcDbLine
 10
1080.600127023562
 20
-446.7505203393795
 30
0.0
 11
1083.900127023562
 21
-443.4505203393798
 31
0.0
  0
LINE
  5
2C1
330
29D
100
AcDbEntity
  8
0
 62
     0
100
AcDbLine
 10
1067.900127023562
 20
-459.4505203393797
 30
0.0
 11
1070.403185112153
 21
-456.9474622507894
 31
0.0
  0
LINE
  5
2C2
330
29D
100
AcDbEntity
  8
0
 62
     0
100
AcDbLine
 10
1067.103299475591
 20
-461.9444041621992
 30
0.0
 11
1071.251713249577
 21
-457.7959903882132
 31
0.0
  0
LINE
  5
2C3
330
29D
100
AcDbEntity
  8
0
 62
     0
100
AcDbLine
 10
1080.600127023562
 20
-448.4475766142272
 30
0.0
 11
1083.900127023562
 21
-445.1475766142276
 31
0.0
  0
LINE
  5
2C4
330
29D
100
AcDbEntity
  8
0
 62
     0
100
AcDbLine
 10
1068.800355750438
 20
-461.9444041621992
 30
0.0
 11
1072.100241387001
 21
-458.6445185256371
 31
0.0
  0
LINE
  5
2C5
330
29D
100
AcDbEntity
  8
0
 62
     0
100
AcDbLine
 10
1080.600127023562
 20
-450.144632889075
 30
0.0
 11
1083.900127023562
 21
-446.8446328890753
 31
0.0
  0
LINE
  5
2C6
330
29D
100
AcDbEntity
  8
0
 62
     0
100
AcDbLine
 10
1070.497412025286
 20
-461.9444041621992
 30
0.0
 11
1073.797412025286
 21
-458.6444041621991
 31
0.0
  0
LINE
  5
2C7
330
29D
100
AcDbEntity
  8
0
 62
     0
100
AcDbLine
 10
1080.600127023562
 20
-451.8416891639225
 30
0.0
 11
1083.900127023562
 21
-448.5416891639228
 31
0.0
  0
LINE
  5
2C8
330
29D
100
AcDbEntity
  8
0
 62
     0
100
AcDbLine
 10
1072.194468300134
 20
-461.9444041621992
 30
0.0
 11
1075.494468300134
 21
-458.6444041621991
 31
0.0
  0
LINE
  5
2C9
330
29D
100
AcDbEntity
  8
0
 62
     0
100
AcDbLine
 10
1080.600127023562
 20
-453.5387454387703
 30
0.0
 11
1083.900127023562
 21
-450.2387454387706
 31
0.0
  0
LINE
  5
2CA
330
29D
100
AcDbEntity
  8
0
 62
     0
100
AcDbLine
 10
1073.891524574981
 20
-461.9444041621992
 30
0.0
 11
1077.191524574982
 21
-458.6444041621991
 31
0.0
  0
LINE
  5
2CB
330
29D
100
AcDbEntity
  8
0
 62
     0
100
AcDbLine
 10
1080.600127023562
 20
-455.235801713618
 30
0.0
 11
1083.900127023562
 21
-451.9358017136183
 31
0.0
  0
LINE
  5
2CC
330
29D
100
AcDbEntity
  8
0
 62
     0
100
AcDbLine
 10
1075.588580849829
 20
-461.9444041621992
 30
0.0
 11
1083.900127023562
 21
-453.6328579884662
 31
0.0
  0
LINE
  5
2CD
330
29D
100
AcDbEntity
  8
0
 62
     0
100
AcDbLine
 10
1077.285637124677
 20
-461.9444041621992
 30
0.0
 11
1083.900127023562
 21
-455.3299142633139
 31
0.0
  0
LINE
  5
2CE
330
29D
100
AcDbEntity
  8
0
 62
     0
100
AcDbLine
 10
1078.982693399525
 20
-461.9444041621992
 30
0.0
 11
1083.900127023562
 21
-457.0269705381614
 31
0.0
  0
LINE
  5
2CF
330
29D
100
AcDbEntity
  8
0
 62
     0
100
AcDbLine
 10
1080.679749674372
 20
-461.9444041621992
 30
0.0
 11
1083.900127023562
 21
-458.7240268130092
 31
0.0
  0
LINE
  5
2D0
330
29D
100
AcDbEntity
  8
0
 62
     0
100
AcDbLine
 10
1082.37680594922
 20
-461.9444041621992
 30
0.0
 11
1083.900127023562
 21
-460.4210830878569
 31
0.0
  0
ENDBLK
  5
2D2
330
29D
100
AcDbEntity
  8
0
100
AcDbBlockEnd
  0
BLOCK
  5
30C
330
302
100
AcDbEntity
  8
0
100
AcDbBlockBegin
  2
*D3
 70
     1
 10
0.0
 20
0.0
 30
0.0
  3
*D3
  1

  0
LINE
  5
332
330
302
100
AcDbEntity
  8
1
370
    -2
100
AcDbLine
 10
0.0000000000000001
 20
41.99999999999886
 30
0.0
 11
0.0000000000000008
 21
52.26425819486053
 31
0.0
  0
LINE
  5
333
330
302
100
AcDbEntity
  8
1
370
    -2
100
AcDbLine
 10
5.0
 20
41.99999999999886
 30
0.0
 11
5.0
 21
52.26425819486053
 31
0.0
  0
LINE
  5
334
330
302
100
AcDbEntity
  8
1
370
    -2
100
AcDbLine
 10
-0.9999999999999992
 20
51.26425819486053
 30
0.0
 11
6.0
 21
51.26425819486053
 31
0.0
  0
INSERT
  5
335
330
302
100
AcDbEntity
  8
1
370
    -2
100
AcDbBlockReference
  2
_Oblique
 10
0.0000000000000007
 20
51.26425819486053
 30
0.0
 41
2.0
 42
2.0
 43
2.0
 50
180.0
  0
INSERT
  5
336
330
302
100
AcDbEntity
  8
1
370
    -2
100
AcDbBlockReference
  2
_Oblique
 10
5.0
 20
51.26425819486053
 30
0.0
 41
2.0
 42
2.0
 43
2.0
  0
MTEXT
  5
337
330
302
100
AcDbEntity
  8
1
100
AcDbMText
 10
2.5
 20
54.0441013053653
 30
0.0
 40
3.5
 41
0.0
 71
     5
 72
     1
  1
\A1;5
  7
Beschlag
 73
     1
 44
1.0
  0
POINT
  5
338
330
302
100
AcDbEntity
  8
Defpoints
 62
     0
100
AcDbPoint
 10
0.0
 20
39.99999999999886
 30
0.0
  0
POINT
  5
339
330
302
100
AcDbEntity
  8
Defpoints
 62
     0
100
AcDbPoint
 10
5.0
 20
39.99999999999886
 30
0.0
  0
POINT
  5
33A
330
302
100
AcDbEntity
  8
Defpoints
 62
     0
100
AcDbPoint
 10
5.0
 20
51.26425819486053
 30
0.0
  0
ENDBLK
  5
30D
330
302
100
AcDbEntity
  8
0
100
AcDbBlockEnd
  0
BLOCK
  5
318
330
30E
100
AcDbEntity
  8
0
100
AcDbBlockBegin
  2
*D4
 70
     1
 10
0.0
 20
0.0
 30
0.0
  3
*D4
  1

  0
LINE
  5
33B
330
30E
100
AcDbEntity
  8
1
370
    -2
100
AcDbLine
 10
0.0000000000000001
 20
42.0
 30
0.0
 11
0.0000000000000008
 21
52.26425819486076
 31
0.0
  0
LINE
  5
33C
330
30E
100
AcDbEntity
  8
1
370
    -2
100
AcDbLine
 10
-7.0
 20
42.0
 30
0.0
 11
-6.999999999999999
 21
52.26425819486076
 31
0.0
  0
LINE
  5
33D
330
30E
100
AcDbEntity
  8
1
370
    -2
100
AcDbLine
 10
1.0
 20
51.26425819486076
 30
0.0
 11
-7.999999999999999
 21
51.26425819486076
 31
0.0
  0
INSERT
  5
33E
330
30E
100
AcDbEntity
  8
1
370
    -2
100
AcDbBlockReference
  2
_Oblique
 10
0.0000000000000007
 20
51.26425819486076
 30
0.0
 41
2.0
 42
2.0
 43
2.0
  0
INSERT
  5
33F
330
30E
100
AcDbEntity
  8
1
370
    -2
100
AcDbBlockReference
  2
_Oblique
 10
-6.999999999999999
 20
51.26425819486076
 30
0.0
 41
2.0
 42
2.0
 43
2.0
 50
180.0
  0
MTEXT
  5
340
330
30E
100
AcDbEntity
  8
1
100
AcDbMText
 10
-3.499999999999999
 20
54.01425819486076
 30
0.0
 40
3.5
 41
0.0
 71
     5
 72
     1
  1
\A1;7
  7
Beschlag
 73
     1
 44
1.0
  0
POINT
  5
341
330
30E
100
AcDbEntity
  8
Defpoints
 62
     0
100
AcDbPoint
 10
0.0
 20
40.0
 30
0.0
  0
POINT
  5
342
330
30E
100
AcDbEntity
  8
Defpoints
 62
     0
100
AcDbPoint
 10
-7.0
 20
40.0
 30
0.0
  0
POINT
  5
343
330
30E
100
AcDbEntity
  8
Defpoints
 62
     0
100
AcDbPoint
 10
-6.999999999999999
 20
51.26425819486076
 30
0.0
  0
ENDBLK
  5
319
330
30E
100
AcDbEntity
  8
0
100
AcDbBlockEnd
  0
BLOCK
  5
324
330
31A
100
AcDbEntity
  8
0
100
AcDbBlockBegin
  2
*D5
 70
     1
 10
0.0
 20
0.0
 30
0.0
  3
*D5
  1

  0
LINE
  5
344
330
31A
100
AcDbEntity
  8
1
370
    -2
100
AcDbLine
 10
-30.0
 20
-2.0
 30
0.0
 11
-30.0
 21
-12.92523463458042
 31
0.0
  0
LINE
  5
345
330
31A
100
AcDbEntity
  8
1
370
    -2
100
AcDbLine
 10
-0.0000000000000001
 20
-2.0
 30
0.0
 11
-0.0000000000000008
 21
-12.92523463458042
 31
0.0
  0
LINE
  5
346
330
31A
100
AcDbEntity
  8
1
370
    -2
100
AcDbLine
 10
-31.0
 20
-11.92523463458041
 30
0.0
 11
0.9999999999999992
 21
-11.92523463458041
 31
0.0
  0
INSERT
  5
347
330
31A
100
AcDbEntity
  8
1
370
    -2
100
AcDbBlockReference
  2
_Oblique
 10
-30.0
 20
-11.92523463458041
 30
0.0
 41
2.0
 42
2.0
 43
2.0
 50
180.0
  0
INSERT
  5
348
330
31A
100
AcDbEntity
  8
1
370
    -2
100
AcDbBlockReference
  2
_Oblique
 10
-0.0000000000000007
 20
-11.92523463458041
 30
0.0
 41
2.0
 42
2.0
 43
2.0
  0
MTEXT
  5
349
330
31A
100
AcDbEntity
  8
1
100
AcDbMText
 10
-15.0
 20
-9.137035453134307
 30
0.0
 40
3.5
 41
0.0
 71
     5
 72
     1
  1
\A1;30
  7
Beschlag
 73
     1
 44
1.0
  0
POINT
  5
34A
330
31A
100
AcDbEntity
  8
Defpoints
 62
     0
100
AcDbPoint
 10
-30.0
 20
0.0
 30
0.0
  0
POINT
  5
34B
330
31A
100
AcDbEntity
  8
Defpoints
 62
     0
100
AcDbPoint
 10
0.0
 20
0.0
 30
0.0
  0
POINT
  5
34C
330
31A
100
AcDbEntity
  8
Defpoints
 62
     0
100
AcDbPoint
 10
-0.0000000000000007
 20
-11.92523463458041
 30
0.0
  0
ENDBLK
  5
325
330
31A
100
AcDbEntity
  8
0
100
AcDbBlockEnd
  0
BLOCK
  5
330
330
326
100
AcDbEntity
  8
0
100
AcDbBlockBegin
  2
*D6
 70
     1
 10
0.0
 20
0.0
 30
0.0
  3
*D6
  1

  0
LINE
  5
34D
330
326
100
AcDbEntity
  8
1
370
    -2
100
AcDbLine
 10
-2.0
 20
0.0000000000000006
 30
0.0
 11
-20.10846832030075
 21
0.0000000000000057
 31
0.0
  0
LINE
  5
34E
330
326
100
AcDbEntity
  8
1
370
    -2
100
AcDbLine
 10
-8.5
 20
40.0
 30
0.0
 11
-20.10846832030074
 21
40.0
 31
0.0
  0
LINE
  5
34F
330
326
100
AcDbEntity
  8
1
370
    -2
100
AcDbLine
 10
-19.10846832030075
 20
-0.9999999999999944
 30
0.0
 11
-19.10846832030074
 21
41.0
 31
0.0
  0
INSERT
  5
350
330
326
100
AcDbEntity
  8
1
370
    -2
100
AcDbBlockReference
  2
_Oblique
 10
-19.10846832030075
 20
0.0000000000000054
 30
0.0
 41
2.0
 42
2.0
 43
2.0
 50
270.0
  0
INSERT
  5
351
330
326
100
AcDbEntity
  8
1
370
    -2
100
AcDbBlockReference
  2
_Oblique
 10
-19.10846832030074
 20
40.0
 30
0.0
 41
2.0
 42
2.0
 43
2.0
 50
90.0
  0
MTEXT
  5
352
330
326
100
AcDbEntity
  8
1
100
AcDbMText
 10
-21.89547377732667
 20
20.0
 30
0.0
 40
3.5
 41
0.0
 71
     5
 72
     1
  1
\A1;40
  7
Beschlag
 11
0.0000000000000001
 21
1.0
 31
0.0
 73
     1
 44
1.0
  0
POINT
  5
353
330
326
100
AcDbEntity
  8
Defpoints
 62
     0
100
AcDbPoint
 10
0.0
 20
0.0
 30
0.0
  0
POINT
  5
354
330
326
100
AcDbEntity
  8
Defpoints
 62
     0
100
AcDbPoint
 10
-6.5
 20
40.0
 30
0.0
  0
POINT
  5
355
330
326
100
AcDbEntity
  8
Defpoints
 62
     0
100
AcDbPoint
 10
-19.10846832030074
 20
40.0
 30
0.0
  0
ENDBLK
  5
331
330
326
100
AcDbEntity
  8
0
100
AcDbBlockEnd
  0
ENDSEC
  0
SECTION
  2
ENTITIES
  0
INSERT
  5
25B
330
1A
100
AcDbEntity
  8
5
100
AcDbBlockReference
  2
NullPunkt
 10
0.0
 20
0.0
 30
0.0
  0
TEXT
  5
2ED
330
1A
100
AcDbEntity
  8
1
100
AcDbText
 10
-71.41405760912857
 20
-7.092525818997614
 30
0.0
 40
2.49999995
  1
Hebgo 906
100
AcDbText
  0
INSERT
  5
2EE
330
1A
100
AcDbEntity
  8
2
100
AcDbBlockReference
  2
*X2
 10
-1083.900127023562
 20
461.9444041621992
 30
0.0
1001
ACAD
1000
HATCH
1002
{
1070
    16
1000
_U,I
1040
1.199999999999999
1040
0.7853981633974483
1070
     0
1002
}
  0
LWPOLYLINE
  5
2EF
330
1A
100
AcDbEntity
  8
5
100
AcDbPolyline
 90
        3
 70
     0
 43
0.0
 10
5.0
 20
48.88387920552077
 10
5.0
 20
15.0
 10
19.93210134677974
 20
15.0
  0
DIMENSION
  5
2F0
330
1A
100
AcDbEntity
  8
1
100
AcDbDimension
  2
*D3
 10
5.0
 20
51.26425819486053
 30
0.0
 11
2.5
 21
54.0441013053653
 31
0.0
 70
    32
 71
     5
 42
-1.0
  3
OPO-SSTRICH
100
AcDbAlignedDimension
 13
0.0
 23
39.99999999999886
 33
0.0
 14
5.0
 24
39.99999999999886
 34
0.0
100
AcDbRotatedDimension
  0
LWPOLYLINE
  5
2F1
102
{ACAD_REACTORS
330
55E
102
}
330
1A
100
AcDbEntity
  8
6
100
AcDbPolyline
 90
       25
 70
     1
 43
0.0
 10
-4.0
 20
29.31332508894366
 42
0.6415838065530063
 10
-3.61742369544072
 20
34.68889723002871
 42
-0.5157822426877657
 10
-3.703928960500888
 20
35.99925397000083
 10
-2.337272375550583
 20
36.7962514926703
 10
-1.668568730952756
 20
36.7962514926703
 10
-1.668568730952756
 20
35.96210850165425
 10
-0.2309356594782912
 20
35.96210850165425
 42
-0.2542712822039416
 10
1.324174349776512
 20
36.90978654092805
 42
-0.239805045364585
 10
3.54436281299786
 20
35.88254359828261
 42
-0.0952903634792644
 10
4.475062639754014
 20
33.76031807170943
 42
-0.0700993617324612
 10
4.630005631475341
 20
28.03636410144713
 42
-0.9870930961173433
 10
3.974707692512765
 20
28.13419673884414
 42
0.0371998225987245
 10
3.832051188019249
 20
32.59855631504683
 42
0.0985543060514419
 10
3.045553951585588
 20
34.55201935194031
 42
0.1211139390109317
 10
2.107493069581778
 20
35.31870506498376
 42
0.2870603126370058
 10
1.138343559716759
 20
35.0411827055766
 42
0.1002807908351088
 10
0.6786569676924046
 20
33.78892459137205
 42
0.0333497571445928
 10
0.2170733406665022
 20
29.1646737218532
 42
-0.4545352424188308
 10
-0.2849645797496123
 20
28.46162663271161
 10
-1.766484513101659
 20
27.88961506202599
 42
0.3791917245757989
 10
-1.932754147530431
 20
27.21456971400062
 10
-1.672772918625469
 20
26.50359534298695
 10
-2.084957842986568
 20
26.10778858778508
 10
-2.263021689441302
 20
26.09789342862632
 10
-4.0
 20
27.13517379532049
  0
DIMENSION
  5
2F3
330
1A
100
AcDbEntity
  8
1
100
AcDbDimension
  2
*D4
 10
-6.999999999999999
 20
51.26425819486076
 30
0.0
 11
-3.499999999999999
 21
54.01425819486076
 31
0.0
 70
    32
 71
     5
 42
-1.0
  3
OPO-SSTRICH
100
AcDbAlignedDimension
 13
0.0
 23
40.0
 33
0.0
 14
-7.0
 24
40.0
 34
0.0
100
AcDbRotatedDimension
  0
TEXT
  5
2F4
330
1A
100
AcDbEntity
  8
1
100
AcDbText
 10
-30.54952824514845
 20
11.67519116845437
 30
0.0
 40
2.49999995
  1
Hebgo 180/620
100
AcDbText
  0
DIMENSION
  5
2F5
330
1A
100
AcDbEntity
  8
1
100
AcDbDimension
  2
*D5
 10
-0.0000000000000007
 20
-11.92523463458041
 30
0.0
 11
-15.0
 21
-9.137035453134307
 31
0.0
 70
    32
 71
     5
 42
-1.0
  3
OPO-SSTRICH
100
AcDbAlignedDimension
 13
-30.0
 23
0.0
 33
0.0
 14
0.0
 24
0.0
 34
0.0
100
AcDbRotatedDimension
  0
LWPOLYLINE
  5
2F6
330
1A
100
AcDbEntity
  8
4
100
AcDbPolyline
 90
       11
 70
     1
 43
0.0
 10
-30.0
 20
0.0
 10
-30.0
 20
6.5
 10
-15.0
 20
6.5
 10
-11.79999999999972
 20
3.300000000000181
 10
-6.5
 20
3.300000000000181
 10
-3.299999999999727
 20
6.5
 10
-3.299999999999727
 20
21.80000000000018
 10
-6.5
 20
25.0
 10
-6.5
 20
40.0
 10
0.0
 20
40.0
 10
0.0
 20
0.0
  0
LWPOLYLINE
  5
2F7
330
1A
100
AcDbEntity
  8
6
100
AcDbPolyline
 90
       53
 70
     1
 43
0.0
 10
-3.299999999999727
 20
6.5
 10
-6.5
 20
3.300000000000181
 10
-11.79999999999972
 20
3.300000000000181
 10
-15.0
 20
6.5
 10
-21.45857864383651
 20
6.5
 42
0.1989123670509405
 10
-21.52928932186568
 20
6.470710678207979
 10
-21.92928932296717
 20
6.070710678118757
 42
-0.4142135623730907
 10
-22.07071067920469
 20
6.070710678118757
 10
-22.47071067811839
 20
6.470710678118848
 42
0.198912367379658
 10
-22.54142135623715
 20
6.5
 10
-29.79999999999972
 20
6.5
 42
0.4142135623730951
 10
-30.0
 20
6.300000000000181
 10
-30.0
 20
0.1999999999998181
 42
0.4142135623730951
 10
-29.79999999999972
 20
0.0
 10
-27.0
 20
0.0
 42
0.4142135623730951
 10
-26.0
 20
1.0
 10
-26.0
 20
1.199999999999818
 42
0.4142135623730951
 10
-26.19999999999981
 20
1.40000000000009
 10
-27.79999999999972
 20
1.40000000000009
 42
-0.4142135623730951
 10
-28.0
 20
1.599999999999909
 10
-28.0
 20
3.800000000000181
 42
-0.4142135623730988
 10
-27.79999999999972
 20
4.0
 10
-16.19999999999981
 20
4.0
 42
-0.4142135623730951
 10
-16.0
 20
3.800000000000181
 10
-16.0
 20
1.599999999999909
 42
-0.4142135623730914
 10
-16.19999999999981
 20
1.40000000000009
 10
-17.79999999999972
 20
1.40000000000009
 42
0.4142135623730951
 10
-18.0
 20
1.199999999999818
 10
-18.0
 20
1.0
 42
0.4142135623730948
 10
-17.0
 20
0.0
 10
0.0
 20
0.0
 10
0.0
 20
27.0
 42
0.4142135623730948
 10
-1.0
 20
28.0
 10
-1.199999999999818
 20
28.0
 42
0.4142135623730951
 10
-1.40000000000009
 20
27.80000000000018
 10
-1.40000000000009
 20
26.19999999999981
 42
-0.4142135623730951
 10
-1.599999999999909
 20
26.0
 10
-3.799999999999727
 20
26.0
 42
-0.4142135623730951
 10
-4.0
 20
26.19999999999981
 10
-4.0
 20
37.80000000000018
 42
-0.4142135623730944
 10
-3.799999999999727
 20
38.0
 10
-1.599999999999909
 20
38.0
 42
-0.4142135623730951
 10
-1.40000000000009
 20
37.80000000000018
 10
-1.40000000000009
 20
36.19999999999981
 42
0.4142135623730951
 10
-1.199999999999818
 20
36.0
 10
-1.0
 20
36.0
 42
0.4142135623730951
 10
0.0
 20
37.0
 10
0.0
 20
39.80000000000018
 42
0.4142135623730951
 10
-0.1999999999998181
 20
40.0
 10
-6.299999999999727
 20
40.0
 42
0.4142135623730951
 10
-6.5
 20
39.80000000000018
 10
-6.5
 20
25.0
 10
-3.299999999999727
 20
21.80000000000018
  0
DIMENSION
  5
2F9
330
1A
100
AcDbEntity
  8
1
100
AcDbDimension
  2
*D6
 10
-19.10846832030074
 20
40.0
 30
0.0
 11
-21.89547377732667
 21
20.0
 31
0.0
 70
    32
 71
     5
 42
-1.0
  3
OPO-SSTRICH
100
AcDbAlignedDimension
 13
0.0
 23
0.0
 33
0.0
 14
-6.5
 24
40.0
 34
0.0
 50
90.0
100
AcDbRotatedDimension
  0
LWPOLYLINE
  5
2FA
330
1A
100
AcDbEntity
  8
6
100
AcDbPolyline
 90
       19
 70
     1
 43
0.0
 10
-16.49999999999954
 20
3.700000000000045
 10
-23.17818298123734
 20
3.699999999999931
 42
0.2979024853978631
 10
-25.01028880616786
 20
2.502114858518211
 10
-26.25084982368105
 20
0.0023065905892281
 42
-0.2979024853978892
 10
-26.70887627991374
 20
-0.2971646947812587
 10
-29.75020276315899
 20
-0.2971646947812587
 42
-0.4142135623730951
 10
-30.25020276315899
 20
0.2028353052187413
 10
-30.25020276315899
 20
6.024998256854928
 42
-0.1564024178525488
 10
-30.1569728135978
 20
6.315752665361515
 10
-28.1876165628555
 20
8.072143522514352
 10
-29.51882007820222
 20
9.564757739493643
 10
-31.59060439905647
 20
7.717015342571244
 42
0.1880239795834631
 10
-32.25020276315899
 20
6.024998256801609
 10
-32.25020276315899
 20
0.2028353052187413
 42
0.4142135623730951
 10
-29.75020276315899
 20
-2.297164694781258
 10
-26.70887627993295
 20
-2.297164694781258
 42
0.2906967135076304
 10
-24.44614220032076
 20
-0.860195496329652
 10
-23.17561326788029
 20
1.700000000000159
 10
-16.49999999999954
 20
1.700000000000045
  0
LWPOLYLINE
  5
2FB
330
1A
100
AcDbEntity
  8
6
100
AcDbPolyline
 90
       10
 70
     0
 43
0.0
 10
-16.49999999999954
 20
3.200000000000045
 10
-23.17818298123734
 20
3.199999999999931
 42
0.2999244947259431
 10
-24.55669100147531
 20
2.291367599834416
 10
-25.79855064551884
 20
-0.2110574820134161
 42
-0.294080808329901
 10
-26.70887627991374
 20
-0.7971646947812588
 10
-29.75020276315899
 20
-0.7971646947812588
 42
-0.4142135623730951
 10
-30.75020276315899
 20
0.2028353052187413
 10
-30.75020276315899
 20
6.024998256854928
 42
-0.1731346391236261
 10
-30.52415300667689
 20
6.658244670591216
 10
-28.52041744169218
 20
8.445297076759175
  0
LWPOLYLINE
  5
2FC
330
1A
100
AcDbEntity
  8
6
100
AcDbPolyline
 90
       10
 70
     0
 43
0.0
 10
-16.49999999999954
 20
2.700000000000045
 10
-23.17818298123529
 20
2.700000000000045
 42
0.3033220033015464
 10
-24.10202791421045
 20
2.082766952356564
 10
-25.34727970797007
 20
-0.4264935239518764
 42
-0.2923904282578467
 10
-26.70887627993613
 20
-1.297164694781258
 10
-29.75020276315899
 20
-1.297164694781258
 42
-0.4142135623730951
 10
-31.25020276315899
 20
0.2028353052187413
 10
-31.25020276315899
 20
6.024998256816502
 42
-0.1805621658660177
 10
-30.88328541323858
 20
7.007914177938232
 10
-28.85321832052886
 20
8.818450631003997
  0
LWPOLYLINE
  5
2FD
330
1A
100
AcDbEntity
  8
6
100
AcDbPolyline
 90
       10
 70
     0
 43
0.0
 10
-16.49999999999954
 20
2.200000000000045
 10
-23.1781829812354
 20
2.200000000000045
 42
0.3110176465481184
 10
-23.6453053348506
 20
1.878316310637501
 10
-24.89654092879595
 20
-0.6430018983962782
 42
-0.2913835292343037
 10
-26.70887627993067
 20
-1.797164694781258
 10
-29.75020276315899
 20
-1.797164694781258
 42
-0.4142135623730951
 10
-31.75020276315899
 20
0.2028353052187413
 10
-31.75020276315899
 20
6.02499825676864
 42
-0.184995633674859
 10
-31.23826845854944
 20
7.36128433627789
 10
-29.18601919936554
 20
9.19160418524882
  0
LWPOLYLINE
  5
2FE
330
1A
100
AcDbEntity
  8
6
100
AcDbPolyline
 90
       18
 70
     0
 43
0.0
 10
-29.70020276315926
 20
-0.2971646947812587
 10
-43.90502207413248
 20
-0.297164694781145
 10
-53.59124566468835
 20
4.853396223599133
 42
0.2418206986979301
 10
-57.24625281558179
 20
4.90524628449566
 10
-66.55294295811359
 20
0.2902407400135871
 10
-75.89152629727607
 20
4.921061496674269
 42
0.2343261328240422
 10
-79.44559500044988
 20
4.921061496674155
 10
-88.78417833961259
 20
0.2902407400135871
 10
-87.89566116381923
 20
-1.501556466234887
 10
-78.55707782465618
 20
3.129264290425794
 42
-0.2343261328239351
 10
-76.78004347306966
 20
3.12926429042568
 10
-67.44146013390684
 20
-1.501556466234887
 42
0.2343261328239322
 10
-65.66442578232045
 20
-1.501556466234887
 10
-56.35773563978841
 20
3.113449078247185
 42
-0.2418206986978837
 10
-54.53023206434181
 20
3.087524047798865
 10
-44.84400847378583
 20
-2.063036870581527
 42
0.1227907796755793
 10
-43.90502207413283
 20
-2.297164694781258
 10
-29.70020276315926
 20
-2.297164694781258
  0
LWPOLYLINE
  5
2FF
330
1A
100
AcDbEntity
  8
6
100
AcDbPolyline
 90
       10
 70
     0
 43
0.0
 10
-29.70020276315926
 20
-1.797164694781258
 10
-43.90502207413237
 20
-1.797164694781145
 42
-0.1227907796755781
 10
-44.60926187387213
 20
-1.621568826631687
 10
-54.29548546442845
 20
3.528992091748932
 42
0.2418206986979325
 10
-56.57986493373698
 20
3.561398379809133
 10
-65.88655507626845
 20
-1.053607164672712
 42
-0.2343261328240303
 10
-67.21933083995896
 20
-1.053607164672598
 10
-76.5579141791211
 20
3.577213591987742
 42
0.2343261328240438
 10
-78.77920711860497
 20
3.577213591987742
 10
-88.11779045776757
 20
-1.053607164672826
 42
-0.2343261328240571
  0
LWPOLYLINE
  5
300
330
1A
100
AcDbEntity
  8
6
100
AcDbPolyline
 90
       10
 70
     0
 43
0.0
 10
-29.70020276315926
 20
-1.297164694781258
 10
-43.90502207413272
 20
-1.297164694781145
 42
-0.1227907796755804
 10
-44.3745152739591
 20
-1.180100782681392
 10
-54.06073886451498
 20
3.970460135698999
 42
0.2418206986979378
 10
-56.80199422768521
 20
4.009347681371309
 10
-66.10868437021668
 20
-0.6056578631105367
 42
-0.2343261328240147
 10
-66.9972015460105
 20
-0.6056578631105367
 10
-76.33578488517276
 20
4.025162893549918
 42
0.2343261328240469
 10
-79.00133641255331
 20
4.025162893549918
 10
-88.3399197517159
 20
-0.6056578631106504
 42
-0.2343261328240553
  0
LWPOLYLINE
  5
301
330
1A
100
AcDbEntity
  8
6
100
AcDbPolyline
 90
       10
 70
     0
 43
0.0
 10
-29.70020276315926
 20
-0.7971646947812588
 10
-43.90502207413272
 20
-0.7971646947811451
 42
-0.1227907796755586
 10
-44.13976867404573
 20
-0.7386327387313259
 10
-53.82599226460161
 20
4.411928179649066
 42
0.2418206986979313
 10
-57.02412352163344
 20
4.457296982933485
 10
-66.3308136641649
 20
-0.1577085615483611
 42
-0.2343261328240752
 10
-66.77507225206227
 20
-0.1577085615483611
 10
-76.11365559122441
 20
4.473112195112094
 42
0.2343261328240394
 10
-79.22346570650154
 20
4.473112195112094
 10
-88.56204904566425
 20
-0.1577085615484748
 42
-0.2343261328240224
  0
HATCH
  5
55E
330
1A
100
AcDbEntity
  8
2
100
AcDbHatch
 10
0.0
 20
0.0
 30
0.0
210
0.0
220
0.0
230
1.0
  2
SOLID
 70
     1
 71
     1
 91
        1
 92
        1
 93
       25
 72
     2
 10
-5.041141082414362
 20
32.0888224225602
 40
2.964348191829611
 50
290.5620098819689
 51
421.2963039183294
 73
     1
 72
     2
 10
-3.194510219138885
 20
35.37485029027769
 40
0.8058457726529558
 50
121.6552493171519
 51
230.7907695055226
 73
     0
 72
     1
 10
-3.703928960500888
 20
35.99925397000083
 11
-2.337272375550583
 21
36.7962514926703
 72
     1
 10
-2.337272375550583
 20
36.7962514926703
 11
-1.668568730952756
 21
36.7962514926703
 72
     1
 10
-1.668568730952756
 20
36.7962514926703
 11
-1.668568730952756
 21
35.96210850165425
 72
     1
 10
-1.668568730952756
 20
35.96210850165425
 11
-0.2309356594782912
 21
35.96210850165425
 72
     2
 10
1.418136337420525
 20
35.00581540706016
 40
1.906288260920734
 50
210.1093479731476
 51
267.1747149707558
 73
     0
 72
     2
 10
1.424938443852346
 20
34.21469169665082
 40
2.696977868337933
 50
267.8588250913528
 51
321.7995094555544
 73
     0
 72
     2
 10
-1.507516677248269
 20
32.40185554206357
 40
6.134873733719005
 50
325.4335959378149
 51
347.2067953253585
 73
     0
 72
     2
 10
-15.76087091776406
 20
30.34847297663724
 40
20.52154219100149
 50
350.4297500653656
 51
366.4691026640803
 73
     0
 72
     2
 10
4.302992147933776
 20
28.08953700197374
 40
0.3313082790520067
 50
9.235555060215423
 51
187.7469469606414
 73
     0
 72
     2
 10
-26.05766179816065
 20
29.4089855862956
 40
30.05941289895592
 50
357.5694158526709
 51
366.0910578108336
 73
     1
 72
     2
 10
-1.468362888434267
 20
31.59958007822248
 40
5.393731816062635
 50
10.67341033399145
 51
33.18768798001345
 73
     1
 72
     2
 10
1.017166421455127
 20
33.02744627693881
 40
2.537455227862805
 50
36.9291914669263
 51
64.55192379650843
 73
     1
 72
     2
 10
1.844695324821682
 20
34.40546545706608
 40
0.9502995507315748
 50
73.94607120712018
 51
138.0127579300831
 73
     1
 72
     2
 10
3.998985239656119
 20
33.2805794612577
 40
3.359016910483263
 50
148.3894708454617
 51
171.2955569879689
 73
     1
 72
     2
 10
35.07411241989977
 20
28.02047525590047
 40
34.87581344572028
 50
170.4795449421769
 51
178.1199145547333
 73
     1
 72
     2
 10
-0.3407402863140386
 20
29.03222875520422
 40
0.5733216476253405
 50
346.6432595171687
 51
444.4171389458275
 73
     0
 72
     1
 10
-0.2849645797496123
 20
28.46162663271161
 11
-1.766484513101659
 21
27.88961506202599
 72
     2
 10
-1.468556800171686
 20
27.45823331948266
 40
0.5242624628288809
 50
124.6303506301378
 51
207.6956020789765
 73
     1
 72
     1
 10
-1.932754147530431
 20
27.21456971400062
 11
-1.672772918625469
 21
26.50359534298695
 72
     1
 10
-1.672772918625469
 20
26.50359534298695
 11
-2.084957842986568
 21
26.10778858778508
 72
     1
 10
-2.084957842986568
 20
26.10778858778508
 11
-2.263021689441302
 21
26.09789342862632
 72
     1
 10
-2.263021689441302
 20
26.09789342862632
 11
-4.0
 21
27.13517379532049
 72
     1
 10
-4.0
 20
27.13517379532049
 11
-4.0
 21
29.31332508894366
 97
        1
330
2F1
 75
     0
 76
     1
 98
        1
 10
0.0
 20
0.0
  0
VIEWPORT
  5
22
330
17
100
AcDbEntity
 67
     1
  8
0
100
AcDbViewport
 10
210.0
 20
170.2366863905325
 30
0.0
 40
420.0
 41
340.4733727810651
 68
     1
 69
     1
 12
210.0
 22
170.2366863905325
 13
0.0
 23
0.0
 14
5.0
 24
5.0
 15
10.0
 25
10.0
 16
0.0
 26
0.0
 36
1.0
 17
0.0
 27
0.0
 37
0.0
 42
50.0
 43
0.0
 44
0.0
 45
340.4733727810651
 50
0.0
 51
0.0
 72
   100
 90
    32800
  1

281
     0
 71
     1
 74
     0
110
0.0
120
0.0
130
0.0
111
1.0
121
0.0
131
0.0
112
0.0
122
1.0
132
0.0
 79
     0
146
0.0
  0
ENDSEC
  0
SECTION
  2
OBJECTS
  0
DICTIONARY
  5
C
330
0
100
AcDbDictionary
281
     1
  3
ACAD_GROUP
350
D
  3
ACAD_LAYOUT
350
F4
  3
ACAD_MLINESTYLE
350
E
  3
ACAD_PLOTSETTINGS
350
F5
  3
ACAD_PLOTSTYLENAME
350
F2
  3
AcDbVariableDictionary
350
136
  3
DWGPROPS
350
520
  0
DICTIONARY
  5
1F6
330
1A
100
AcDbDictionary
280
     1
281
     1
  3
ACAD_LAYOUTSELFREF
360
550
  3
ACAD_SORTENTS
360
55F
  0
DICTIONARY
  5
1F4
330
17
100
AcDbDictionary
280
     1
281
     1
  3
ACAD_LAYOUTSELFREF
360
54F
  0
DICTIONARY
  5
D
102
{ACAD_REACTORS
330
C
102
}
330
C
100
AcDbDictionary
281
     1
  0
DICTIONARY
  5
F4
102
{ACAD_REACTORS
330
C
102
}
330
C
100
AcDbDictionary
281
     1
  3
Layout1
350
F7
  3
Model
350
F6
  0
DICTIONARY
  5
E
102
{ACAD_REACTORS
330
C
102
}
330
C
100
AcDbDictionary
281
     1
  3
STANDARD
350
13
  0
DICTIONARY
  5
F5
102
{ACAD_REACTORS
330
C
102
}
330
C
100
AcDbDictionary
281
     1
  3
e Plot 1zu1
350
25C
  3
e Plot angepasst
350
25D
  3
Laser A4
350
25E
  0
ACDBDICTIONARYWDFLT
  5
F2
102
{ACAD_REACTORS
330
C
102
}
330
C
100
AcDbDictionary
281
     1
  3
Normal
350
F3
100
AcDbDictionaryWithDefault
340
F3
  0
DICTIONARY
  5
136
102
{ACAD_REACTORS
330
C
102
}
330
C
100
AcDbDictionary
281
     1
  3
DIMASSOC
350
561
  3
SORTENTS
350
137
  0
XRECORD
  5
520
102
{ACAD_REACTORS
330
C
102
}
330
C
100
AcDbXrecord
280
     1
  1
DWGPROPS COOKIE
  2
Datenaufbau HEBGO
  3
Format 14/2000 mit DWF-Format
  4
robert koch cad-support, ch-2540 grenchen
  6
Anpassung für DWF Format und ^M^JZeichnungsvorschau, ^M^Jrobert koch cad-support, ch-2540 grenchen
  7

  8
robert koch
  9

300
=
301
=
302
=
303
=
304
=
305
=
306
=
307
=
308
=
309
=
 40
0.0068281134259259
 41
2451739.894842118
 42
2452087.636482488
  1

 90
        0
  0
XRECORD
  5
550
102
{ACAD_REACTORS
330
1F6
102
}
330
1F6
100
AcDbXrecord
280
     1
340
1A
  0
SORTENTSTABLE
  5
55F
102
{ACAD_REACTORS
330
1F6
102
}
330
1F6
100
AcDbSortentsTable
330
1A
331
2F5
  5
2F6
331
25B
  5
2ED
331
2FD
  5
2FE
331
2F0
  5
2F1
331
2EF
  5
2F0
331
300
  5
301
331
2F3
  5
2F4
331
2FB
  5
2FC
331
2ED
  5
2EE
331
2F6
  5
2F7
331
2FE
  5
2FF
331
2F1
  5
2F3
331
2F9
  5
2FA
331
301
  5
55E
331
2F4
  5
2F5
331
2FC
  5
2FD
331
2EE
  5
2EF
331
2F7
  5
2F9
331
2FF
  5
300
331
55E
  5
25B
331
2FA
  5
2FB
  0
XRECORD
  5
54F
102
{ACAD_REACTORS
330
1F4
102
}
330
1F4
100
AcDbXrecord
280
     1
340
17
  0
LAYOUT
  5
F7
102
{ACAD_REACTORS
330
F4
102
}
330
F4
100
AcDbPlotSettings
  1

  2
D:\AC2000\ACAD2000\plotters\DesignJet 650C test A3.pc3
  4

  6

 40
0.0
 41
0.0
 42
0.0
 43
0.0
 44
0.0
 45
0.0
 46
0.0
 47
0.0
 48
0.0
 49
0.0
140
0.0
141
0.0
142
1.0
143
1.0
 70
   688
 72
     0
 73
     0
 74
     5
  7
Hebgo Laser.ctb
 75
    16
147
1.0
148
0.0
149
0.0
100
AcDbLayout
  1
Layout1
 70
     1
 71
     1
 10
0.0
 20
0.0
 11
420.0
 21
297.0
 12
0.0
 22
0.0
 32
0.0
 14
1.000000000000000E+20
 24
1.000000000000000E+20
 34
1.000000000000000E+20
 15
-1.000000000000000E+20
 25
-1.000000000000000E+20
 35
-1.000000000000000E+20
146
0.0
 13
0.0
 23
0.0
 33
0.0
 16
1.0
 26
0.0
 36
0.0
 17
0.0
 27
1.0
 37
0.0
 76
     0
330
17
331
22
  0
LAYOUT
  5
F6
102
{ACAD_REACTORS
330
F4
102
}
330
F4
100
AcDbPlotSettings
  1

  2
2 Xerox N24.pc3
  4
A4
  6

 40
7.143749713897705
 41
6.170062541961669
 42
7.736404418945312
 43
7.14373779296875
 44
209.9733276367187
 45
296.9683227539062
 46
27.85
 47
33.09
 48
0.0
 49
0.0
140
0.0
141
0.0
142
1.0
143
0.5
 70
 28340
 72
     1
 73
     1
 74
     1
  7
Hebgo Laser.ctb
 75
    27
147
2.0
148
88.80615157401905
149
12.93182287240836
100
AcDbLayout
  1
Model
 70
     1
 71
     0
 10
0.0
 20
0.0
 11
12.0
 21
9.0
 12
0.0
 22
0.0
 32
0.0
 14
0.0
 24
0.0
 34
0.0
 15
0.0
 25
0.0
 35
0.0
146
0.0
 13
0.0
 23
0.0
 33
0.0
 16
1.0
 26
0.0
 36
0.0
 17
0.0
 27
1.0
 37
0.0
 76
     0
330
1A
  0
MLINESTYLE
  5
13
102
{ACAD_REACTORS
330
E
102
}
330
E
100
AcDbMlineStyle
  2
STANDARD
 70
     0
  3

 62
     0
 51
90.0
 52
90.0
 71
     2
 49
0.5
 62
   256
  6
BYLAYER
 49
-0.5
 62
   256
  6
BYLAYER
  0
PLOTSETTINGS
  5
25C
102
{ACAD_REACTORS
330
F5
102
}
330
F5
100
AcDbPlotSettings
  1
e Plot 1zu1
  2
DWF ePlot.pc3
  4
UserDefinedMetric (210.00 x 297.00MM)
  6

 40
13.0
 41
13.0
 42
13.0
 43
13.0
 44
210.0
 45
297.0
 46
58.27
 47
107.6999999999999
 48
0.0
 49
0.0
140
0.0
141
0.0
142
1.0
143
1.0
 70
  1716
 72
     1
 73
     0
 74
     1
  7
OPO_DWF.ctb
 75
    16
147
1.0
148
17.16613684218157
149
24.55902015156925
  0
PLOTSETTINGS
  5
25D
102
{ACAD_REACTORS
330
F5
102
}
330
F5
100
AcDbPlotSettings
  1
e Plot angepasst
  2
DWF ePlot.pc3
  4
UserDefinedMetric (210.00 x 297.00MM)
  6

 40
13.0
 41
13.0
 42
13.0
 43
13.0
 44
210.0
 45
297.0
 46
0.0
 47
59.67
 48
0.0
 49
0.0
140
0.0
141
0.0
142
1.0
143
0.3665841129351039
 70
  1716
 72
     1
 73
     0
 74
     1
  7
OPO_DWF.ctb
 75
     0
147
2.727886901571834
148
17.16613684218157
149
24.55902015156925
  0
PLOTSETTINGS
  5
25E
102
{ACAD_REACTORS
330
F5
102
}
330
F5
100
AcDbPlotSettings
  1
Laser A4
  2
4 Xerox XL.pc3
  4
A4
  6

 40
5.111750125885009
 41
5.11176061630249
 42
5.111740112304687
 43
5.11175537109375
 44
209.9733276367187
 45
296.9259948730469
 46
0.0
 47
43.47999999999999
 48
0.0
 49
0.0
140
0.0
141
0.0
142
1.0
143
0.020166824766453
 70
  1716
 72
     1
 73
     0
 74
     1
  7
OPO.ctb
 75
     0
147
49.58638811913882
148
2.014159285479877
149
2.014159285479877
  0
ACDBPLACEHOLDER
  5
F3
102
{ACAD_REACTORS
330
F2
102
}
330
F2
  0
DICTIONARYVAR
  5
561
102
{ACAD_REACTORS
330
136
102
}
330
136
100
DictionaryVariables
280
     0
  1
1
  0
DICTIONARYVAR
  5
137
102
{ACAD_REACTORS
330
136
102
}
330
136
100
DictionaryVariables
280
     0
  1
127
  0
ENDSEC
  0
EOF
