  0
SECTION
  2
HEADER
  9
$ACADVER
  1
AC1009
  9
$INSBASE
 10
0.0
 20
0.0
 30
0.0
  9
$EXTMIN
 10
-36.048888329007688
 20
-11.94763097673137
 30
-0.0000000000000058
  9
$EXTMAX
 10
9.2468267065087275
 20
66.764832144562206
 30
0.0000000000000104
  9
$LIMMIN
 10
-150.0
 20
-150.0
  9
$LIMMAX
 10
150.0
 20
150.0
  9
$ORTHOMODE
 70
     0
  9
$REGENMODE
 70
     1
  9
$FILLMODE
 70
     1
  9
$QTEXTMODE
 70
     0
  9
$MIRRTEXT
 70
     0
  9
$DRAGMODE
 70
     2
  9
$LTSCALE
 40
1.0
  9
$OSMODE
 70
   111
  9
$ATTMODE
 70
     1
  9
$TEXTSIZE
 40
3.5
  9
$TRACEWID
 40
1.0
  9
$TEXTSTYLE
  7
BESCHLAG
  9
$CLAYER
  8
0
  9
$CELTYPE
  6
BYLAYER
  9
$CECOLOR
 62
   256
  9
$DIMSCALE
 40
1.0
  9
$DIMASZ
 40
2.0
  9
$DIMEXO
 40
2.0
  9
$DIMDLI
 40
0.0
  9
$DIMRND
 40
0.0
  9
$DIMDLE
 40
1.0
  9
$DIMEXE
 40
1.0
  9
$DIMTP
 40
0.0
  9
$DIMTM
 40
0.0
  9
$DIMTXT
 40
3.5
  9
$DIMCEN
 40
0.0
  9
$DIMTSZ
 40
0.0
  9
$DIMTOL
 70
     0
  9
$DIMLIM
 70
     0
  9
$DIMTIH
 70
     0
  9
$DIMTOH
 70
     0
  9
$DIMSE1
 70
     0
  9
$DIMSE2
 70
     0
  9
$DIMTAD
 70
     1
  9
$DIMZIN
 70
     8
  9
$DIMBLK
  1

  9
$DIMASO
 70
     1
  9
$DIMSHO
 70
     1
  9
$DIMPOST
  1

  9
$DIMAPOST
  1

  9
$DIMALT
 70
     0
  9
$DIMALTD
 70
     2
  9
$DIMALTF
 40
0.039370078740157
  9
$DIMLFAC
 40
1.0
  9
$DIMTOFL
 70
     1
  9
$DIMTVP
 40
0.0
  9
$DIMTIX
 70
     1
  9
$DIMSOXD
 70
     0
  9
$DIMSAH
 70
     1
  9
$DIMBLK1
  1
OBLIQUE
  9
$DIMBLK2
  1
OBLIQUE
  9
$DIMSTYLE
  2
OPO-SSTRICH
  9
$DIMCLRD
 70
   256
  9
$DIMCLRE
 70
   256
  9
$DIMCLRT
 70
   256
  9
$DIMTFAC
 40
0.7114285714285716
  9
$DIMGAP
 40
1.0
  9
$LUNITS
 70
     2
  9
$LUPREC
 70
     1
  9
$SKETCHINC
 40
1.0
  9
$FILLETRAD
 40
0.0
  9
$AUNITS
 70
     0
  9
$AUPREC
 70
     1
  9
$MENU
  1
D:\ACL_CGWG\CGTAB13
  9
$ELEVATION
 40
0.0
  9
$PELEVATION
 40
0.0
  9
$THICKNESS
 40
0.0
  9
$LIMCHECK
 70
     0
  9
$BLIPMODE
 70
     0
  9
$CHAMFERA
 40
1.0
  9
$CHAMFERB
 40
1.0
  9
$SKPOLY
 70
     0
  9
$TDCREATE
 40
2451739.9000383331
  9
$TDUPDATE
 40
2452087.634632153
  9
$TDINDWG
 40
0.0028112963
  9
$TDUSRTIMER
 40
0.0028111111
  9
$USRTIMER
 70
     1
  9
$ANGBASE
 50
0.0
  9
$ANGDIR
 70
     0
  9
$PDMODE
 70
    35
  9
$PDSIZE
 40
5.0
  9
$PLINEWID
 40
0.0
  9
$COORDS
 70
     1
  9
$SPLFRAME
 70
     0
  9
$SPLINETYPE
 70
     6
  9
$SPLINESEGS
 70
     8
  9
$ATTDIA
 70
     1
  9
$ATTREQ
 70
     1
  9
$HANDLING
 70
-16383
  9
$HANDSEED
  5
46A
  9
$SURFTAB1
 70
    12
  9
$SURFTAB2
 70
    12
  9
$SURFTYPE
 70
     6
  9
$SURFU
 70
    12
  9
$SURFV
 70
    12
  9
$UCSNAME
  2

  9
$UCSORG
 10
0.0
 20
0.0
 30
0.0
  9
$UCSXDIR
 10
1.0
 20
0.0
 30
0.0
  9
$UCSYDIR
 10
0.0
 20
1.0
 30
0.0
  9
$PUCSNAME
  2

  9
$PUCSORG
 10
0.0
 20
0.0
 30
0.0
  9
$PUCSXDIR
 10
1.0
 20
0.0
 30
0.0
  9
$PUCSYDIR
 10
0.0
 20
1.0
 30
0.0
  9
$USERI1
 70
     0
  9
$USERI2
 70
     0
  9
$USERI3
 70
     0
  9
$USERI4
 70
     0
  9
$USERI5
 70
     0
  9
$USERR1
 40
0.0
  9
$USERR2
 40
0.0
  9
$USERR3
 40
0.0
  9
$USERR4
 40
0.0
  9
$USERR5
 40
0.0
  9
$WORLDVIEW
 70
     1
  9
$SHADEDGE
 70
     3
  9
$SHADEDIF
 70
    70
  9
$TILEMODE
 70
     1
  9
$MAXACTVP
 70
    48
  9
$PLIMCHECK
 70
     0
  9
$PEXTMIN
 10
1.0000000000000000E+020
 20
1.0000000000000000E+020
 30
1.0000000000000000E+020
  9
$PEXTMAX
 10
-1.0000000000000000E+020
 20
-1.0000000000000000E+020
 30
-1.0000000000000000E+020
  9
$PLIMMIN
 10
0.0
 20
0.0
  9
$PLIMMAX
 10
420.0
 20
297.0
  9
$UNITMODE
 70
     0
  9
$VISRETAIN
 70
     1
  9
$PLINEGEN
 70
     0
  9
$PSLTSCALE
 70
     1
  0
ENDSEC
  0
SECTION
  2
TABLES
  0
TABLE
  2
VPORT
 70
     2
  0
VPORT
  2
*ACTIVE
 70
     0
 10
0.0
 20
0.0
 11
1.0
 21
1.0
 12
-13.40103081124948
 22
27.408600583915408
 13
0.0
 23
0.0
 14
0.5
 24
0.5
 15
10.0
 25
10.0
 16
0.0
 26
0.0
 36
1.0
 17
0.0
 27
0.0
 37
0.0
 40
79.351535893590949
 41
1.6070460704607039
 42
50.0
 43
0.0
 44
0.0
 50
0.0
 51
0.0
 71
     0
 72
   800
 73
     1
 74
     1
 75
     0
 76
     0
 77
     0
 78
     0
  0
ENDTAB
  0
TABLE
  2
LTYPE
 70
     1
  0
LTYPE
  2
CONTINUOUS
 70
     0
  3
_______________________________________________
 72
    65
 73
     2
 40
1.0
 49
1.0
 49
0.0
  0
ENDTAB
  0
TABLE
  2
LAYER
 70
     7
  0
LAYER
  2
0
 70
     0
 62
    30
  6
CONTINUOUS
  0
LAYER
  2
1
 70
     0
 62
     2
  6
CONTINUOUS
  0
LAYER
  2
2
 70
     0
 62
     9
  6
CONTINUOUS
  0
LAYER
  2
4
 70
     1
 62
     4
  6
CONTINUOUS
  0
LAYER
  2
5
 70
     0
 62
     1
  6
CONTINUOUS
  0
LAYER
  2
6
 70
     0
 62
     3
  6
CONTINUOUS
  0
LAYER
  2
DEFPOINTS
 70
     0
 62
     7
  6
CONTINUOUS
  0
ENDTAB
  0
TABLE
  2
STYLE
 70
     2
  0
STYLE
  2
STANDARD
 70
     0
 40
0.0
 41
1.0
 50
0.0
 71
     0
 42
2.5
  3
txt
  4

  0
STYLE
  2
BESCHLAG
 70
     0
 40
0.0
 41
1.0
 50
0.0
 71
     0
 42
3.5
  3
txt
  4

  0
ENDTAB
  0
TABLE
  2
VIEW
 70
     0
  0
ENDTAB
  0
TABLE
  2
UCS
 70
     0
  0
ENDTAB
  0
TABLE
  2
APPID
 70
     1
  0
APPID
  2
ACAD
 70
     0
  0
ENDTAB
  0
TABLE
  2
DIMSTYLE
 70
     1
  0
DIMSTYLE
  2
OPO-SSTRICH
 70
     0
  3

  4

  5

  6
OBLIQUE
  7
OBLIQUE
 40
1.0
 41
2.0
 42
2.0
 43
0.0
 44
1.0
 45
0.0
 46
1.0
 47
0.0
 48
0.0
140
3.5
141
0.0
142
0.0
143
0.039370078740157
144
1.0
145
0.0
146
0.7114285714285716
147
1.0
 71
     0
 72
     0
 73
     0
 74
     0
 75
     0
 76
     0
 77
     1
 78
     8
170
     0
171
     2
172
     1
173
     1
174
     1
175
     0
176
   256
177
   256
178
   256
  0
ENDTAB
  0
ENDSEC
  0
SECTION
  2
BLOCKS
  0
BLOCK
  8
0
  2
$MODEL_SPACE
 70
     0
 10
0.0
 20
0.0
 30
0.0
  3
$MODEL_SPACE
  1

  0
ENDBLK
  5
1C
  8
0
  0
BLOCK
 67
     1
  8
0
  2
$PAPER_SPACE
 70
     0
 10
0.0
 20
0.0
 30
0.0
  3
$PAPER_SPACE
  1

  0
ENDBLK
  5
19
 67
     1
  8
0
  0
BLOCK
  8
0
  2
_OBLIQUE
 70
     0
 10
0.0
 20
0.0
 30
0.0
  3
_OBLIQUE
  1

  0
LINE
  5
204
  8
0
 62
     0
 10
-0.5
 20
-0.5
 30
0.0
 11
0.5
 21
0.5
 31
0.0
  0
ENDBLK
  5
206
  8
0
  0
BLOCK
  8
0
  2
NULLPUNKT
 70
     0
 10
0.0
 20
0.0
 30
0.0
  3
NULLPUNKT
  1

  0
SOLID
  5
254
  8
5
 10
0.0
 20
0.0
 30
0.0
 11
2.0
 21
0.0
 31
0.0
 12
0.0
 22
-2.0
 32
0.0
 13
0.0
 23
-2.0
 33
0.0
  0
SOLID
  5
255
  8
5
 10
0.0
 20
0.0
 30
0.0
 11
-2.0
 21
0.0
 31
0.0
 12
0.0
 22
2.0
 32
0.0
 13
0.0
 23
2.0
 33
0.0
  0
POLYLINE
  5
256
  8
5
 66
     1
 10
0.0
 20
0.0
 30
0.0
  0
VERTEX
  5
403
  8
5
 10
0.0
 20
2.0
 30
0.0
  0
VERTEX
  5
404
  8
5
 10
0.0
 20
-2.0
 30
0.0
  0
SEQEND
  5
405
  8
5
  0
POLYLINE
  5
257
  8
5
 66
     1
 10
0.0
 20
0.0
 30
0.0
  0
VERTEX
  5
406
  8
5
 10
-2.0
 20
0.0
 30
0.0
  0
VERTEX
  5
407
  8
5
 10
2.0
 20
0.0
 30
0.0
  0
SEQEND
  5
408
  8
5
  0
CIRCLE
  5
258
  8
5
 10
0.0
 20
0.0
 30
0.0
 40
2.0
  0
ENDBLK
  5
25A
  8
0
  0
BLOCK
  8
0
  2
*X2
 70
     1
 10
0.0
 20
0.0
 30
0.0
  3
*X2
  1

  0
LINE
  5
29E
  8
0
 62
     0
 10
1510.702672428293
 20
-513.88546346502881
 30
0.0
 11
1512.835979368622
 21
-511.75215652470041
 31
0.0
  0
LINE
  5
29F
  8
0
 62
     0
 10
1510.0359793686221
 20
-512.85510024985285
 30
0.0
 11
1512.835979368622
 21
-510.05510024985261
 31
0.0
  0
LINE
  5
2A0
  8
0
 62
     0
 10
1510.0359793686221
 20
-511.158043975005
 30
0.0
 11
1512.835979368622
 21
-508.35804397500488
 31
0.0
  0
LINE
  5
2A1
  8
0
 62
     0
 10
1510.0359793686221
 20
-509.4609877001576
 30
0.0
 11
1512.835979368622
 21
-506.66098770015748
 31
0.0
  0
LINE
  5
2A2
  8
0
 62
     0
 10
1510.0359793686221
 20
-507.76393142530969
 30
0.0
 11
1512.835979368622
 21
-504.96393142530968
 31
0.0
  0
LINE
  5
2A3
  8
0
 62
     0
 10
1515.6092308302859
 20
-502.19067996364498
 30
0.0
 11
1516.835979368622
 21
-500.96393142530951
 31
0.0
  0
LINE
  5
2A4
  8
0
 62
     0
 10
1510.0359793686221
 20
-506.06687515046201
 30
0.0
 11
1512.835979368622
 21
-503.26687515046177
 31
0.0
  0
LINE
  5
2A5
  8
0
 62
     0
 10
1515.4359793686219
 20
-500.66687515046169
 30
0.0
 11
1516.835979368622
 21
-499.26687515046171
 31
0.0
  0
LINE
  5
2A6
  8
0
 62
     0
 10
1510.0359793686221
 20
-504.36981887561433
 30
0.0
 11
1512.835979368622
 21
-501.56981887561409
 31
0.0
  0
LINE
  5
2A7
  8
0
 62
     0
 10
1514.187027838879
 20
-500.21877040535719
 30
0.0
 11
1516.187027838879
 21
-498.2187704053573
 31
0.0
  0
LINE
  5
2A8
  8
0
 62
     0
 10
1510.0359793686221
 20
-502.67276260076642
 30
0.0
 11
1514.4899715640311
 21
-498.2187704053573
 31
0.0
  0
LINE
  5
2A9
  8
0
 62
     0
 10
1510.0359793686221
 20
-500.97570632591902
 30
0.0
 11
1512.7929152891829
 21
-498.2187704053573
 31
0.0
  0
LINE
  5
2AA
  8
0
 62
     0
 10
1510.0359793686221
 20
-499.27865005107122
 30
0.0
 11
1511.0958590143359
 21
-498.2187704053573
 31
0.0
  0
LINE
  5
2AB
  8
0
 62
     0
 10
1511.551200565717
 20
-514.73399160245265
 30
0.0
 11
1514.0664217628121
 21
-512.2187704053573
 31
0.0
  0
LINE
  5
2AC
  8
0
 62
     0
 10
1515.4359793686219
 20
-510.84921279954813
 30
0.0
 11
1516.0444503216211
 21
-510.24074184654887
 31
0.0
  0
LINE
  5
2AD
  8
0
 62
     0
 10
1512.3997287031409
 20
-515.58251973987649
 30
0.0
 11
1516.8335231905401
 21
-511.14872525247762
 31
0.0
  0
LINE
  5
2AE
  8
0
 62
     0
 10
1513.2482567907809
 20
-516.43104792708357
 30
0.0
 11
1516.835979368622
 21
-512.84332534924317
 31
0.0
  0
LINE
  5
2AF
  8
0
 62
     0
 10
1513.335979368622
 20
-518.0403816240912
 30
0.0
 11
1516.835979368622
 21
-514.54038162409108
 31
0.0
  0
LINE
  5
2B0
  8
0
 62
     0
 10
1486.835979368622
 20
-546.23743789893888
 30
0.0
 11
1488.154646862203
 21
-544.91877040535735
 31
0.0
  0
LINE
  5
2B1
  8
0
 62
     0
 10
1513.335979368622
 20
-519.73743789893899
 30
0.0
 11
1516.835979368622
 21
-516.23743789893888
 31
0.0
  0
LINE
  5
2B2
  8
0
 62
     0
 10
1488.583684178921
 20
-544.48973308863947
 30
0.0
 11
1488.854646862203
 21
-544.2187704053573
 31
0.0
  0
LINE
  5
2B3
  8
0
 62
     0
 10
1486.8363713955339
 20
-547.93410214687469
 30
0.0
 11
1490.158721965418
 21
-544.61175157699051
 31
0.0
  0
LINE
  5
2B4
  8
0
 62
     0
 10
1513.335979368622
 20
-521.43449417378667
 30
0.0
 11
1516.835979368622
 21
-517.93449417378656
 31
0.0
  0
LINE
  5
2B5
  8
0
 62
     0
 10
1488.2487594118991
 20
-548.2187704053573
 30
0.0
 11
1491.548759411899
 21
-544.91877040535735
 31
0.0
  0
LINE
  5
2B6
  8
0
 62
     0
 10
1513.335979368622
 20
-523.13155044863436
 30
0.0
 11
1516.835979368622
 21
-519.63155044863424
 31
0.0
  0
LINE
  5
2B7
  8
0
 62
     0
 10
1492.2283291259789
 20
-544.23920069127689
 30
0.0
 11
1492.2487594118991
 21
-544.2187704053573
 31
0.0
  0
LINE
  5
2B8
  8
0
 62
     0
 10
1489.9458156867461
 20
-548.2187704053573
 30
0.0
 11
1493.619964468664
 21
-544.5446216234393
 31
0.0
  0
LINE
  5
2B9
  8
0
 62
     0
 10
1513.335979368622
 20
-524.82860672348204
 30
0.0
 11
1516.835979368622
 21
-521.32860672348193
 31
0.0
  0
LINE
  5
2BA
  8
0
 62
     0
 10
1491.642871961594
 20
-548.2187704053573
 30
0.0
 11
1494.9428719615939
 21
-544.91877040535735
 31
0.0
  0
LINE
  5
2BB
  8
0
 62
     0
 10
1513.335979368622
 20
-526.52566299832972
 30
0.0
 11
1516.835979368622
 21
-523.02566299832961
 31
0.0
  0
LINE
  5
2BC
  8
0
 62
     0
 10
1493.3399282364419
 20
-548.2187704053573
 30
0.0
 11
1497.0812069719109
 21
-544.47749166988808
 31
0.0
  0
LINE
  5
2BD
  8
0
 62
     0
 10
1513.335979368622
 20
-528.22271927317752
 30
0.0
 11
1516.835979368622
 21
-524.7227192731774
 31
0.0
  0
LINE
  5
2BE
  8
0
 62
     0
 10
1495.03698451129
 20
-548.2187704053573
 30
0.0
 11
1498.33698451129
 21
-544.91877040535735
 31
0.0
  0
LINE
  5
2BF
  8
0
 62
     0
 10
1513.335979368622
 20
-529.9197755480252
 30
0.0
 11
1516.835979368622
 21
-526.41977554802509
 31
0.0
  0
LINE
  5
2C0
  8
0
 62
     0
 10
1496.7340407861379
 20
-548.2187704053573
 30
0.0
 11
1500.542449475158
 21
-544.41036171633709
 31
0.0
  0
LINE
  5
2C1
  8
0
 62
     0
 10
1513.335979368622
 20
-531.61683182287311
 30
0.0
 11
1516.835979368622
 21
-528.11683182287288
 31
0.0
  0
LINE
  5
2C2
  8
0
 62
     0
 10
1498.4310970609849
 20
-548.2187704053573
 30
0.0
 11
1501.7310970609849
 21
-544.91877040535735
 31
0.0
  0
LINE
  5
2C3
  8
0
 62
     0
 10
1513.335979368622
 20
-533.31388809772045
 30
0.0
 11
1516.835979368622
 21
-529.81388809772045
 31
0.0
  0
LINE
  5
2C4
  8
0
 62
     0
 10
1500.1281533358331
 20
-548.2187704053573
 30
0.0
 11
1504.003691978404
 21
-544.34323176278576
 31
0.0
  0
LINE
  5
2C5
  8
0
 62
     0
 10
1513.335979368622
 20
-535.01094437256825
 30
0.0
 11
1516.835979368622
 21
-531.51094437256825
 31
0.0
  0
LINE
  5
2C6
  8
0
 62
     0
 10
1501.825209610681
 20
-548.2187704053573
 30
0.0
 11
1505.1252096106809
 21
-544.91877040535735
 31
0.0
  0
LINE
  5
2C7
  8
0
 62
     0
 10
1513.335979368622
 20
-536.70800064741616
 30
0.0
 11
1516.835979368622
 21
-533.20800064741604
 31
0.0
  0
LINE
  5
2C8
  8
0
 62
     0
 10
1503.522265885528
 20
-548.2187704053573
 30
0.0
 11
1507.522265885528
 21
-544.2187704053573
 31
0.0
  0
LINE
  5
2C9
  8
0
 62
     0
 10
1513.335979368622
 20
-538.40505692226384
 30
0.0
 11
1516.835979368622
 21
-534.90505692226373
 31
0.0
  0
LINE
  5
2CA
  8
0
 62
     0
 10
1505.2193221603759
 20
-548.2187704053573
 30
0.0
 11
1509.2193221603759
 21
-544.2187704053573
 31
0.0
  0
LINE
  5
2CB
  8
0
 62
     0
 10
1513.335979368622
 20
-540.10211319711163
 30
0.0
 11
1516.835979368622
 21
-536.60211319711152
 31
0.0
  0
LINE
  5
2CC
  8
0
 62
     0
 10
1506.916378435224
 20
-548.2187704053573
 30
0.0
 11
1516.835979368622
 21
-538.29916947195886
 31
0.0
  0
LINE
  5
2CD
  8
0
 62
     0
 10
1508.613434710071
 20
-548.2187704053573
 30
0.0
 11
1516.835979368622
 21
-539.99622574680666
 31
0.0
  0
LINE
  5
2CE
  8
0
 62
     0
 10
1510.3104909849189
 20
-548.2187704053573
 30
0.0
 11
1516.835979368622
 21
-541.69328202165445
 31
0.0
  0
LINE
  5
2CF
  8
0
 62
     0
 10
1512.0075472597671
 20
-548.2187704053573
 30
0.0
 11
1516.835979368622
 21
-543.39033829650236
 31
0.0
  0
LINE
  5
2D0
  8
0
 62
     0
 10
1513.704603534615
 20
-548.2187704053573
 30
0.0
 11
1516.835979368622
 21
-545.08739457135005
 31
0.0
  0
LINE
  5
2D1
  8
0
 62
     0
 10
1515.401659809462
 20
-548.2187704053573
 30
0.0
 11
1516.835979368622
 21
-546.78445084619761
 31
0.0
  0
ENDBLK
  5
2D3
  8
0
  0
BLOCK
  8
0
  2
*D3
 70
     1
 10
0.0
 20
0.0
 30
0.0
  3
*D3
  1

  0
LINE
  5
321
  8
1
 10
0.0000000000000001
 20
52.0
 30
0.0
 11
0.0000000000000008
 21
62.264258194860531
 31
0.0
  0
LINE
  5
322
  8
1
 10
-7.0
 20
52.0
 30
0.0
 11
-6.9999999999999991
 21
62.264258194860531
 31
0.0
  0
LINE
  5
323
  8
1
 10
1.0
 20
61.264258194860531
 30
0.0
 11
-7.9999999999999991
 21
61.264258194860531
 31
0.0
  0
INSERT
  5
324
  8
1
  2
_OBLIQUE
 10
0.0000000000000007
 20
61.264258194860531
 30
0.0
 41
2.0
 42
2.0
 43
2.0
  0
INSERT
  5
325
  8
1
  2
_OBLIQUE
 10
-6.9999999999999991
 20
61.264258194860531
 30
0.0
 41
2.0
 42
2.0
 43
2.0
 50
180.0
  0
TEXT
  5
326
  8
0
 10
-4.8644270122783082
 20
62.264258194860531
 30
0.0
 40
3.5
  1
7
  7
BESCHLAG
  0
POINT
  5
327
  8
DEFPOINTS
 62
     0
 10
0.0
 20
50.0
 30
0.0
  0
POINT
  5
328
  8
DEFPOINTS
 62
     0
 10
-7.0
 20
50.0
 30
0.0
  0
POINT
  5
329
  8
DEFPOINTS
 62
     0
 10
-6.9999999999999991
 20
61.264258194860531
 30
0.0
  0
ENDBLK
  5
2FC
  8
0
  0
BLOCK
  8
0
  2
*D4
 70
     1
 10
0.0
 20
0.0
 30
0.0
  3
*D4
  1

  0
LINE
  5
32A
  8
1
 10
-2.0
 20
0.0000000000000006
 30
0.0
 11
-19.492996527514379
 21
0.0000000000000055
 31
0.0
  0
LINE
  5
32B
  8
1
 10
-8.8000000000001801
 20
50.0
 30
0.0
 11
-19.492996527514372
 21
50.0
 31
0.0
  0
LINE
  5
32C
  8
1
 10
-18.492996527514379
 20
-0.9999999999999948
 30
0.0
 11
-18.492996527514379
 21
51.000000000000007
 31
0.0
  0
INSERT
  5
32D
  8
1
  2
_OBLIQUE
 10
-18.492996527514379
 20
0.0000000000000052
 30
0.0
 41
2.0
 42
2.0
 43
2.0
 50
270.0
  0
INSERT
  5
32E
  8
1
  2
_OBLIQUE
 10
-18.492996527514379
 20
50.0
 30
0.0
 41
2.0
 42
2.0
 43
2.0
 50
90.0
  0
TEXT
  5
32F
  8
0
 10
-19.55984509504508
 20
22.296214188267388
 30
0.0
 40
3.5
  1
50
 50
90.0
  7
BESCHLAG
  0
POINT
  5
330
  8
DEFPOINTS
 62
     0
 10
0.0
 20
0.0
 30
0.0
  0
POINT
  5
331
  8
DEFPOINTS
 62
     0
 10
-6.800000000000181
 20
50.0
 30
0.0
  0
POINT
  5
332
  8
DEFPOINTS
 62
     0
 10
-18.492996527514379
 20
50.0
 30
0.0
  0
ENDBLK
  5
308
  8
0
  0
BLOCK
  8
0
  2
*D5
 70
     1
 10
0.0
 20
0.0
 30
0.0
  3
*D5
  1

  0
LINE
  5
333
  8
1
 10
-30.0
 20
-2.0
 30
0.0
 11
-30.0
 21
-11.92541035247995
 31
0.0
  0
LINE
  5
334
  8
1
 10
-0.0000000000000001
 20
-2.0
 30
0.0
 11
-0.0000000000000007
 21
-11.92541035247995
 31
0.0
  0
LINE
  5
335
  8
1
 10
-31.0
 20
-10.92541035247995
 30
0.0
 11
0.9999999999999992
 21
-10.92541035247995
 31
0.0
  0
INSERT
  5
336
  8
1
  2
_OBLIQUE
 10
-30.0
 20
-10.92541035247995
 30
0.0
 41
2.0
 42
2.0
 43
2.0
 50
180.0
  0
INSERT
  5
337
  8
1
  2
_OBLIQUE
 10
-0.0000000000000007
 20
-10.92541035247995
 30
0.0
 41
2.0
 42
2.0
 43
2.0
  0
TEXT
  5
338
  8
0
 10
-17.704979536152791
 20
-9.8561743361088787
 30
0.0
 40
3.5
  1
30
  7
BESCHLAG
  0
POINT
  5
339
  8
DEFPOINTS
 62
     0
 10
-30.0
 20
0.0
 30
0.0
  0
POINT
  5
33A
  8
DEFPOINTS
 62
     0
 10
0.0
 20
0.0
 30
0.0
  0
POINT
  5
33B
  8
DEFPOINTS
 62
     0
 10
-0.0000000000000007
 20
-10.92541035247995
 30
0.0
  0
ENDBLK
  5
314
  8
0
  0
BLOCK
  8
0
  2
*D6
 70
     1
 10
0.0
 20
0.0
 30
0.0
  3
*D6
  1

  0
LINE
  5
33C
  8
1
 10
0.0000000000000001
 20
52.0
 30
0.0
 11
0.0000000000000008
 21
62.264258194860531
 31
0.0
  0
LINE
  5
33D
  8
1
 10
5.0
 20
52.0
 30
0.0
 11
5.0
 21
62.264258194860531
 31
0.0
  0
LINE
  5
33E
  8
1
 10
-0.9999999999999992
 20
61.264258194860531
 30
0.0
 11
6.0
 21
61.264258194860531
 31
0.0
  0
INSERT
  5
33F
  8
1
  2
_OBLIQUE
 10
0.0000000000000007
 20
61.264258194860531
 30
0.0
 41
2.0
 42
2.0
 43
2.0
 50
180.0
  0
INSERT
  5
340
  8
1
  2
_OBLIQUE
 10
5.0
 20
61.264258194860531
 30
0.0
 41
2.0
 42
2.0
 43
2.0
  0
TEXT
  5
341
  8
0
 10
1.136766712141883
 20
62.323944415870081
 30
0.0
 40
3.5
  1
5
  7
BESCHLAG
  0
POINT
  5
342
  8
DEFPOINTS
 62
     0
 10
0.0
 20
50.0
 30
0.0
  0
POINT
  5
343
  8
DEFPOINTS
 62
     0
 10
5.0
 20
50.0
 30
0.0
  0
POINT
  5
344
  8
DEFPOINTS
 62
     0
 10
5.0
 20
61.264258194860531
 30
0.0
  0
ENDBLK
  5
320
  8
0
  0
ENDSEC
  0
SECTION
  2
ENTITIES
  0
INSERT
  5
25B
  8
5
  2
NULLPUNKT
 10
0.0
 20
0.0
 30
0.0
  0
INSERT
  5
2E5
  8
2
  2
*X2
 10
-1516.835979368622
 20
548.2187704053573
 30
0.0
1001
ACAD
1000
HATCH
1002
{
1070
    16
1000
_U,I
1040
1.1999999999999991
1040
0.7853981633974483
1070
     0
1002
}
  0
DIMENSION
  5
2E6
  8
1
  2
*D3
 10
-6.9999999999999991
 20
61.264258194860531
 30
0.0
 11
-3.4999999999999991
 21
64.014258194860531
 31
0.0
 70
     0
 13
0.0
 23
50.0
 33
0.0
 14
-7.0
 24
50.0
 34
0.0
  0
POINT
  5
2E7
  8
5
 10
-4.0
 20
42.0
 30
0.0
  0
TEXT
  5
2E8
  8
1
 10
-36.03718854438727
 20
13.011975804843919
 30
0.0
 40
2.4999999499999999
  1
Hebgo 190/620
  0
POLYLINE
  5
2E9
  8
6
 66
     1
 10
0.0
 20
0.0
 30
0.0
 70
     1
  0
VERTEX
  5
409
  8
6
 10
-0.3000000000001819
 20
0.0
 30
0.0
  0
VERTEX
  5
40A
  8
6
 10
-29.699999999999811
 20
0.0
 30
0.0
 42
-0.4142135623730951
  0
VERTEX
  5
40B
  8
6
 10
-30.0
 20
0.2999999999999545
 30
0.0
  0
VERTEX
  5
40C
  8
6
 10
-30.0
 20
3.0
 30
0.0
 42
-0.4142135623730964
  0
VERTEX
  5
40D
  8
6
 10
-29.699999999999811
 20
3.2999999999999541
 30
0.0
  0
VERTEX
  5
40E
  8
6
 10
-28.5
 20
3.2999999999999541
 30
0.0
  0
VERTEX
  5
40F
  8
6
 10
-28.095854811567278
 20
4.0
 30
0.0
  0
VERTEX
  5
410
  8
6
 10
-26.904145188432722
 20
4.0
 30
0.0
  0
VERTEX
  5
411
  8
6
 10
-26.5
 20
3.2999999999999541
 30
0.0
  0
VERTEX
  5
412
  8
6
 10
-25.0
 20
3.2999999999999541
 30
0.0
  0
VERTEX
  5
413
  8
6
 10
-24.595854811567271
 20
4.0
 30
0.0
  0
VERTEX
  5
414
  8
6
 10
-23.404145188432722
 20
4.0
 30
0.0
  0
VERTEX
  5
415
  8
6
 10
-23.0
 20
3.2999999999999541
 30
0.0
  0
VERTEX
  5
416
  8
6
 10
-21.499999999999989
 20
3.2999999999999541
 30
0.0
  0
VERTEX
  5
417
  8
6
 10
-21.095854811567271
 20
4.0
 30
0.0
  0
VERTEX
  5
418
  8
6
 10
-19.904145188432722
 20
4.0
 30
0.0
  0
VERTEX
  5
419
  8
6
 10
-19.5
 20
3.2999999999999541
 30
0.0
  0
VERTEX
  5
41A
  8
6
 10
-18.0
 20
3.2999999999999541
 30
0.0
  0
VERTEX
  5
41B
  8
6
 10
-17.595854811567278
 20
4.0
 30
0.0
  0
VERTEX
  5
41C
  8
6
 10
-16.404145188432722
 20
4.0
 30
0.0
  0
VERTEX
  5
41D
  8
6
 10
-16.0
 20
3.2999999999999541
 30
0.0
  0
VERTEX
  5
41E
  8
6
 10
-14.5
 20
3.2999999999999541
 30
0.0
  0
VERTEX
  5
41F
  8
6
 10
-14.095854811567269
 20
4.0
 30
0.0
  0
VERTEX
  5
420
  8
6
 10
-12.90414518843272
 20
4.0
 30
0.0
  0
VERTEX
  5
421
  8
6
 10
-12.5
 20
3.2999999999999541
 30
0.0
  0
VERTEX
  5
422
  8
6
 10
-11.0
 20
3.2999999999999541
 30
0.0
  0
VERTEX
  5
423
  8
6
 10
-10.595854811567269
 20
4.0
 30
0.0
  0
VERTEX
  5
424
  8
6
 10
-7.1242640687119092
 20
4.0
 30
0.0
 42
0.1989123673796575
  0
VERTEX
  5
425
  8
6
 10
-6.912132034356091
 20
4.0878679656441363
 30
0.0
  0
VERTEX
  5
426
  8
6
 10
-3.5878679656439081
 20
7.4121320343558628
 30
0.0
 42
0.1989123673796587
  0
VERTEX
  5
427
  8
6
 10
-3.5
 20
7.6242640687119092
 30
0.0
  0
VERTEX
  5
428
  8
6
 10
-3.5
 20
31.575735931287909
 30
0.0
 42
0.1989123673796548
  0
VERTEX
  5
429
  8
6
 10
-3.5878679656439081
 20
31.787867965643951
 30
0.0
  0
VERTEX
  5
42A
  8
6
 10
-6.7121320343558182
 20
34.912132034355857
 30
0.0
 42
-0.1989123673796564
  0
VERTEX
  5
42B
  8
6
 10
-6.800000000000181
 20
35.124264068711909
 30
0.0
  0
VERTEX
  5
42C
  8
6
 10
-6.800000000000181
 20
49.699999999999811
 30
0.0
 42
-0.4142135623730951
  0
VERTEX
  5
42D
  8
6
 10
-6.5
 20
50.0
 30
0.0
  0
VERTEX
  5
42E
  8
6
 10
-0.3000000000001819
 20
50.0
 30
0.0
 42
-0.4142135623730979
  0
VERTEX
  5
42F
  8
6
 10
0.0
 20
49.699999999999811
 30
0.0
  0
VERTEX
  5
430
  8
6
 10
0.0
 20
47.0
 30
0.0
 42
-0.4142135623730951
  0
VERTEX
  5
431
  8
6
 10
-1.0
 20
46.0
 30
0.0
  0
VERTEX
  5
432
  8
6
 10
-1.0999999999999091
 20
46.0
 30
0.0
 42
-0.4142135623730951
  0
VERTEX
  5
433
  8
6
 10
-1.4000000000000901
 20
46.299999999999947
 30
0.0
  0
VERTEX
  5
434
  8
6
 10
-1.4000000000000901
 20
47.699999999999811
 30
0.0
 42
0.4142135623730951
  0
VERTEX
  5
435
  8
6
 10
-1.700000000000272
 20
48.0
 30
0.0
  0
VERTEX
  5
436
  8
6
 10
-3.6999999999998181
 20
48.0
 30
0.0
 42
0.4142135623730951
  0
VERTEX
  5
437
  8
6
 10
-4.0
 20
47.699999999999811
 30
0.0
  0
VERTEX
  5
438
  8
6
 10
-4.0
 20
36.299999999999947
 30
0.0
 42
0.4142135623730951
  0
VERTEX
  5
439
  8
6
 10
-3.6999999999998181
 20
36.0
 30
0.0
  0
VERTEX
  5
43A
  8
6
 10
-1.700000000000272
 20
36.0
 30
0.0
 42
0.4142135623730951
  0
VERTEX
  5
43B
  8
6
 10
-1.4000000000000901
 20
36.299999999999947
 30
0.0
  0
VERTEX
  5
43C
  8
6
 10
-1.4000000000000901
 20
37.699999999999811
 30
0.0
 42
-0.4142135623730951
  0
VERTEX
  5
43D
  8
6
 10
-1.0999999999999091
 20
38.0
 30
0.0
  0
VERTEX
  5
43E
  8
6
 10
-1.0
 20
38.0
 30
0.0
 42
-0.4142135623730951
  0
VERTEX
  5
43F
  8
6
 10
0.0
 20
37.0
 30
0.0
  0
VERTEX
  5
440
  8
6
 10
0.0
 20
0.2999999999999545
 30
0.0
 42
-0.4142135623730951
  0
SEQEND
  5
441
  8
6
  0
POLYLINE
  5
2EA
  8
4
 66
     1
 10
0.0
 20
0.0
 30
0.0
 70
     1
  0
VERTEX
  5
442
  8
4
 10
0.0
 20
0.0
 30
0.0
  0
VERTEX
  5
443
  8
4
 10
-30.0
 20
0.0
 30
0.0
  0
VERTEX
  5
444
  8
4
 10
-30.0
 20
4.0
 30
0.0
  0
VERTEX
  5
445
  8
4
 10
-7.0
 20
4.0
 30
0.0
  0
VERTEX
  5
446
  8
4
 10
-3.5
 20
7.5
 30
0.0
  0
VERTEX
  5
447
  8
4
 10
-3.5
 20
31.699999999999822
 30
0.0
  0
VERTEX
  5
448
  8
4
 10
-6.800000000000181
 20
35.0
 30
0.0
  0
VERTEX
  5
449
  8
4
 10
-6.800000000000181
 20
50.0
 30
0.0
  0
VERTEX
  5
44A
  8
4
 10
0.0
 20
50.0
 30
0.0
  0
SEQEND
  5
44B
  8
4
  0
DIMENSION
  5
2EB
  8
1
  2
*D4
 10
-18.492996527514379
 20
50.0
 30
0.0
 11
-21.280001984540309
 21
25.0
 31
0.0
 70
     0
 13
0.0
 23
0.0
 33
0.0
 14
-6.800000000000181
 24
50.0
 34
0.0
 50
90.0
  0
DIMENSION
  5
2EC
  8
1
  2
*D5
 10
-0.0000000000000007
 20
-10.92541035247995
 30
0.0
 11
-15.0
 21
-8.1372111710338455
 31
0.0
 70
     0
 13
-30.0
 23
0.0
 33
0.0
 14
0.0
 24
0.0
 34
0.0
  0
DIMENSION
  5
2ED
  8
1
  2
*D6
 10
5.0
 20
61.264258194860531
 30
0.0
 11
2.5
 21
64.044101305365302
 31
0.0
 70
     0
 13
0.0
 23
50.0
 33
0.0
 14
5.0
 24
50.0
 34
0.0
  0
POLYLINE
  5
2EE
  8
5
 66
     1
 10
0.0
 20
0.0
 30
0.0
  0
VERTEX
  5
44C
  8
5
 10
9.2449054883429653
 20
35.0
 30
0.0
  0
VERTEX
  5
44D
  8
5
 10
5.0
 20
35.0
 30
0.0
  0
VERTEX
  5
44E
  8
5
 10
5.0
 20
55.546043805017
 30
0.0
  0
SEQEND
  5
44F
  8
5
  0
POLYLINE
  5
2EF
  8
6
 66
     1
 10
0.0
 20
0.0
 30
0.0
 70
     1
  0
VERTEX
  5
450
  8
6
 10
-4.0
 20
39.313325088943657
 30
0.0
 42
0.6415838065530063
  0
VERTEX
  5
451
  8
6
 10
-3.6174236954411749
 20
44.688897230028942
 30
0.0
 42
-0.5157822426877657
  0
VERTEX
  5
452
  8
6
 10
-3.7039289605013428
 20
45.999253970000836
 30
0.0
  0
VERTEX
  5
453
  8
6
 10
-2.3372723755505831
 20
46.796251492670308
 30
0.0
  0
VERTEX
  5
454
  8
6
 10
-1.6685687309527559
 20
46.796251492670308
 30
0.0
  0
VERTEX
  5
455
  8
6
 10
-1.6685687309527559
 20
45.962108501654477
 30
0.0
  0
VERTEX
  5
456
  8
6
 10
-0.2309356594782912
 20
45.962108501654477
 30
0.0
 42
-0.2542712822039416
  0
VERTEX
  5
457
  8
6
 10
1.3241743497765119
 20
46.909786540928053
 30
0.0
 42
-0.239805045364585
  0
VERTEX
  5
458
  8
6
 10
3.544362812997405
 20
45.882543598282609
 30
0.0
 42
-0.0952903634792644
  0
VERTEX
  5
459
  8
6
 10
4.4750626397540136
 20
43.760318071709428
 30
0.0
 42
-0.0700993617324612
  0
VERTEX
  5
45A
  8
6
 10
4.6300056314748872
 20
38.036364101447361
 30
0.0
 42
-0.9870930961173433
  0
VERTEX
  5
45B
  8
6
 10
3.974707692512311
 20
38.134196738844359
 30
0.0
 42
0.0371998225987245
  0
VERTEX
  5
45C
  8
6
 10
3.8320511880192489
 20
42.598556315046842
 30
0.0
 42
0.0985543060514419
  0
VERTEX
  5
45D
  8
6
 10
3.0455539515855881
 20
44.552019351940316
 30
0.0
 42
0.1211139390109317
  0
VERTEX
  5
45E
  8
6
 10
2.107493069581778
 20
45.318705064983988
 30
0.0
 42
0.2870603126370058
  0
VERTEX
  5
45F
  8
6
 10
1.138343559716759
 20
45.041182705576823
 30
0.0
 42
0.1002807908351088
  0
VERTEX
  5
460
  8
6
 10
0.6786569676919499
 20
43.788924591372279
 30
0.0
 42
0.0333497571445928
  0
VERTEX
  5
461
  8
6
 10
0.2170733406665022
 20
39.164673721853198
 30
0.0
 42
-0.4545352424188308
  0
VERTEX
  5
462
  8
6
 10
-0.284964579750067
 20
38.461626632711841
 30
0.0
  0
VERTEX
  5
463
  8
6
 10
-1.766484513102113
 20
37.889615062026223
 30
0.0
 42
0.3791917245757989
  0
VERTEX
  5
464
  8
6
 10
-1.932754147530886
 20
37.214569714000618
 30
0.0
  0
VERTEX
  5
465
  8
6
 10
-1.672772918625923
 20
36.503595342987182
 30
0.0
  0
VERTEX
  5
466
  8
6
 10
-2.084957842987023
 20
36.10778858778508
 30
0.0
  0
VERTEX
  5
467
  8
6
 10
-2.2630216894417572
 20
36.097893428626321
 30
0.0
  0
VERTEX
  5
468
  8
6
 10
-4.0
 20
37.135173795320718
 30
0.0
  0
SEQEND
  5
469
  8
6
  0
POINT
  5
2F0
  8
5
 10
-4.0
 20
42.0
 30
0.0
  0
VIEWPORT
  5
22
 67
     1
  8
0
 10
210.0
 20
170.2366863905325
 30
0.0
 40
420.0
 41
340.47337278106511
 68
     1
 69
     1
1001
ACAD
1000
MVIEW
1002
{
1070
    16
1010
0.0
1020
0.0
1030
0.0
1010
0.0
1020
0.0
1030
1.0
1040
0.0
1040
340.47337278106511
1040
210.0
1040
170.2366863905325
1040
50.0
1040
0.0
1040
0.0
1070
     0
1070
   100
1070
     1
1070
     1
1070
     0
1070
     0
1070
     0
1070
     0
1040
0.0
1040
0.0
1040
0.0
1040
5.0
1040
5.0
1040
10.0
1040
10.0
1070
     0
1002
{
1002
}
1002
}
  0
ENDSEC
  0
EOF
