  0
SECTION
  2
HEADER
  9
$ACADVER
  1
AC1009
  9
$INSBASE
 10
0.0
 20
0.0
 30
0.0
  9
$EXTMIN
 10
-88.784178339612595
 20
-12.92523463458042
 30
0.0
  9
$EXTMAX
 10
19.932101346779739
 20
56.750274565938291
 30
0.0
  9
$LIMMIN
 10
-150.0
 20
-150.0
  9
$LIMMAX
 10
150.0
 20
150.0
  9
$ORTHOMODE
 70
     0
  9
$REGENMODE
 70
     1
  9
$FILLMODE
 70
     1
  9
$QTEXTMODE
 70
     0
  9
$MIRRTEXT
 70
     0
  9
$DRAGMODE
 70
     2
  9
$LTSCALE
 40
1.0
  9
$OSMODE
 70
   111
  9
$ATTMODE
 70
     1
  9
$TEXTSIZE
 40
3.5
  9
$TRACEWID
 40
1.0
  9
$TEXTSTYLE
  7
BESCHLAG
  9
$CLAYER
  8
0
  9
$CELTYPE
  6
BYLAYER
  9
$CECOLOR
 62
   256
  9
$DIMSCALE
 40
1.0
  9
$DIMASZ
 40
2.0
  9
$DIMEXO
 40
2.0
  9
$DIMDLI
 40
0.0
  9
$DIMRND
 40
0.0
  9
$DIMDLE
 40
1.0
  9
$DIMEXE
 40
1.0
  9
$DIMTP
 40
0.0
  9
$DIMTM
 40
0.0
  9
$DIMTXT
 40
3.5
  9
$DIMCEN
 40
0.0
  9
$DIMTSZ
 40
0.0
  9
$DIMTOL
 70
     0
  9
$DIMLIM
 70
     0
  9
$DIMTIH
 70
     0
  9
$DIMTOH
 70
     0
  9
$DIMSE1
 70
     0
  9
$DIMSE2
 70
     0
  9
$DIMTAD
 70
     1
  9
$DIMZIN
 70
     8
  9
$DIMBLK
  1

  9
$DIMASO
 70
     1
  9
$DIMSHO
 70
     1
  9
$DIMPOST
  1

  9
$DIMAPOST
  1

  9
$DIMALT
 70
     0
  9
$DIMALTD
 70
     2
  9
$DIMALTF
 40
0.039370078740157
  9
$DIMLFAC
 40
1.0
  9
$DIMTOFL
 70
     1
  9
$DIMTVP
 40
0.0
  9
$DIMTIX
 70
     1
  9
$DIMSOXD
 70
     0
  9
$DIMSAH
 70
     1
  9
$DIMBLK1
  1
OBLIQUE
  9
$DIMBLK2
  1
OBLIQUE
  9
$DIMSTYLE
  2
OPO-SSTRICH
  9
$DIMCLRD
 70
   256
  9
$DIMCLRE
 70
   256
  9
$DIMCLRT
 70
   256
  9
$DIMTFAC
 40
0.7114285714285716
  9
$DIMGAP
 40
1.0
  9
$LUNITS
 70
     2
  9
$LUPREC
 70
     1
  9
$SKETCHINC
 40
1.0
  9
$FILLETRAD
 40
0.0
  9
$AUNITS
 70
     0
  9
$AUPREC
 70
     1
  9
$MENU
  1
D:\ACL_CGWG\CGTAB13
  9
$ELEVATION
 40
0.0
  9
$PELEVATION
 40
0.0
  9
$THICKNESS
 40
0.0
  9
$LIMCHECK
 70
     0
  9
$BLIPMODE
 70
     0
  9
$CHAMFERA
 40
1.0
  9
$CHAMFERB
 40
1.0
  9
$SKPOLY
 70
     0
  9
$TDCREATE
 40
2451739.894842118
  9
$TDUPDATE
 40
2452087.6312609832
  9
$TDINDWG
 40
0.001606956
  9
$TDUSRTIMER
 40
0.001606956
  9
$USRTIMER
 70
     1
  9
$ANGBASE
 50
0.0
  9
$ANGDIR
 70
     0
  9
$PDMODE
 70
    35
  9
$PDSIZE
 40
5.0
  9
$PLINEWID
 40
0.0
  9
$COORDS
 70
     1
  9
$SPLFRAME
 70
     0
  9
$SPLINETYPE
 70
     6
  9
$SPLINESEGS
 70
     8
  9
$ATTDIA
 70
     1
  9
$ATTREQ
 70
     1
  9
$HANDLING
 70
-16383
  9
$HANDSEED
  5
520
  9
$SURFTAB1
 70
    12
  9
$SURFTAB2
 70
    12
  9
$SURFTYPE
 70
     6
  9
$SURFU
 70
    12
  9
$SURFV
 70
    12
  9
$UCSNAME
  2

  9
$UCSORG
 10
0.0
 20
0.0
 30
0.0
  9
$UCSXDIR
 10
1.0
 20
0.0
 30
0.0
  9
$UCSYDIR
 10
0.0
 20
1.0
 30
0.0
  9
$PUCSNAME
  2

  9
$PUCSORG
 10
0.0
 20
0.0
 30
0.0
  9
$PUCSXDIR
 10
1.0
 20
0.0
 30
0.0
  9
$PUCSYDIR
 10
0.0
 20
1.0
 30
0.0
  9
$USERI1
 70
     0
  9
$USERI2
 70
     0
  9
$USERI3
 70
     0
  9
$USERI4
 70
     0
  9
$USERI5
 70
     0
  9
$USERR1
 40
0.0
  9
$USERR2
 40
0.0
  9
$USERR3
 40
0.0
  9
$USERR4
 40
0.0
  9
$USERR5
 40
0.0
  9
$WORLDVIEW
 70
     1
  9
$SHADEDGE
 70
     3
  9
$SHADEDIF
 70
    70
  9
$TILEMODE
 70
     1
  9
$MAXACTVP
 70
    48
  9
$PLIMCHECK
 70
     0
  9
$PEXTMIN
 10
1.0000000000000000E+020
 20
1.0000000000000000E+020
 30
1.0000000000000000E+020
  9
$PEXTMAX
 10
-1.0000000000000000E+020
 20
-1.0000000000000000E+020
 30
-1.0000000000000000E+020
  9
$PLIMMIN
 10
0.0
 20
0.0
  9
$PLIMMAX
 10
420.0
 20
297.0
  9
$UNITMODE
 70
     0
  9
$VISRETAIN
 70
     1
  9
$PLINEGEN
 70
     0
  9
$PSLTSCALE
 70
     1
  0
ENDSEC
  0
SECTION
  2
TABLES
  0
TABLE
  2
VPORT
 70
     2
  0
VPORT
  2
*ACTIVE
 70
     0
 10
0.0
 20
0.0
 11
1.0
 21
1.0
 12
-34.435271558392849
 22
21.91543651502052
 13
0.0
 23
0.0
 14
0.5
 24
0.5
 15
10.0
 25
10.0
 16
0.0
 26
0.0
 36
1.0
 17
0.0
 27
0.0
 37
0.0
 40
70.260374137035242
 41
1.6070460704607039
 42
50.0
 43
0.0
 44
0.0
 50
0.0
 51
0.0
 71
     0
 72
   800
 73
     1
 74
     1
 75
     0
 76
     0
 77
     0
 78
     0
  0
ENDTAB
  0
TABLE
  2
LTYPE
 70
     1
  0
LTYPE
  2
CONTINUOUS
 70
     0
  3
_______________________________________________
 72
    65
 73
     2
 40
1.0
 49
1.0
 49
0.0
  0
ENDTAB
  0
TABLE
  2
LAYER
 70
     7
  0
LAYER
  2
0
 70
     0
 62
    30
  6
CONTINUOUS
  0
LAYER
  2
1
 70
     0
 62
     2
  6
CONTINUOUS
  0
LAYER
  2
2
 70
     0
 62
     9
  6
CONTINUOUS
  0
LAYER
  2
4
 70
     1
 62
     4
  6
CONTINUOUS
  0
LAYER
  2
5
 70
     0
 62
     1
  6
CONTINUOUS
  0
LAYER
  2
6
 70
     0
 62
     3
  6
CONTINUOUS
  0
LAYER
  2
DEFPOINTS
 70
     0
 62
     7
  6
CONTINUOUS
  0
ENDTAB
  0
TABLE
  2
STYLE
 70
     2
  0
STYLE
  2
STANDARD
 70
     0
 40
0.0
 41
1.0
 50
0.0
 71
     0
 42
2.5
  3
txt
  4

  0
STYLE
  2
BESCHLAG
 70
     0
 40
0.0
 41
1.0
 50
0.0
 71
     0
 42
3.5
  3
txt
  4

  0
ENDTAB
  0
TABLE
  2
VIEW
 70
     0
  0
ENDTAB
  0
TABLE
  2
UCS
 70
     0
  0
ENDTAB
  0
TABLE
  2
APPID
 70
     1
  0
APPID
  2
ACAD
 70
     0
  0
ENDTAB
  0
TABLE
  2
DIMSTYLE
 70
     1
  0
DIMSTYLE
  2
OPO-SSTRICH
 70
     0
  3

  4

  5

  6
OBLIQUE
  7
OBLIQUE
 40
1.0
 41
2.0
 42
2.0
 43
0.0
 44
1.0
 45
0.0
 46
1.0
 47
0.0
 48
0.0
140
3.5
141
0.0
142
0.0
143
0.039370078740157
144
1.0
145
0.0
146
0.7114285714285716
147
1.0
 71
     0
 72
     0
 73
     0
 74
     0
 75
     0
 76
     0
 77
     1
 78
     8
170
     0
171
     2
172
     1
173
     1
174
     1
175
     0
176
   256
177
   256
178
   256
  0
ENDTAB
  0
ENDSEC
  0
SECTION
  2
BLOCKS
  0
BLOCK
  8
0
  2
$MODEL_SPACE
 70
     0
 10
0.0
 20
0.0
 30
0.0
  3
$MODEL_SPACE
  1

  0
ENDBLK
  5
1C
  8
0
  0
BLOCK
 67
     1
  8
0
  2
$PAPER_SPACE
 70
     0
 10
0.0
 20
0.0
 30
0.0
  3
$PAPER_SPACE
  1

  0
ENDBLK
  5
19
 67
     1
  8
0
  0
BLOCK
  8
0
  2
_OBLIQUE
 70
     0
 10
0.0
 20
0.0
 30
0.0
  3
_OBLIQUE
  1

  0
LINE
  5
204
  8
0
 62
     0
 10
-0.5
 20
-0.5
 30
0.0
 11
0.5
 21
0.5
 31
0.0
  0
ENDBLK
  5
206
  8
0
  0
BLOCK
  8
0
  2
NULLPUNKT
 70
     0
 10
0.0
 20
0.0
 30
0.0
  3
NULLPUNKT
  1

  0
SOLID
  5
254
  8
5
 10
0.0
 20
0.0
 30
0.0
 11
2.0
 21
0.0
 31
0.0
 12
0.0
 22
-2.0
 32
0.0
 13
0.0
 23
-2.0
 33
0.0
  0
SOLID
  5
255
  8
5
 10
0.0
 20
0.0
 30
0.0
 11
-2.0
 21
0.0
 31
0.0
 12
0.0
 22
2.0
 32
0.0
 13
0.0
 23
2.0
 33
0.0
  0
POLYLINE
  5
256
  8
5
 66
     1
 10
0.0
 20
0.0
 30
0.0
  0
VERTEX
  5
451
  8
5
 10
0.0
 20
2.0
 30
0.0
  0
VERTEX
  5
452
  8
5
 10
0.0
 20
-2.0
 30
0.0
  0
SEQEND
  5
453
  8
5
  0
POLYLINE
  5
257
  8
5
 66
     1
 10
0.0
 20
0.0
 30
0.0
  0
VERTEX
  5
454
  8
5
 10
-2.0
 20
0.0
 30
0.0
  0
VERTEX
  5
455
  8
5
 10
2.0
 20
0.0
 30
0.0
  0
SEQEND
  5
456
  8
5
  0
CIRCLE
  5
258
  8
5
 10
0.0
 20
0.0
 30
0.0
 40
2.0
  0
ENDBLK
  5
25A
  8
0
  0
BLOCK
  8
0
  2
*X2
 70
     1
 10
0.0
 20
0.0
 30
0.0
  3
*X2
  1

  0
LINE
  5
29E
  8
0
 62
     0
 10
1053.9001270235619
 20
-456.47995759090259
 30
0.0
 11
1054.9356804522661
 21
-455.44440416219919
 31
0.0
  0
LINE
  5
29F
  8
0
 62
     0
 10
1077.4001270235619
 20
-432.97995759090259
 30
0.0
 11
1079.9001270235619
 21
-430.47995759090259
 31
0.0
  0
LINE
  5
2A0
  8
0
 62
     0
 10
1077.4001270235619
 20
-431.28290131605479
 30
0.0
 11
1079.9001270235619
 21
-428.78290131605479
 31
0.0
  0
LINE
  5
2A1
  8
0
 62
     0
 10
1082.7386241774179
 20
-425.94440416219919
 30
0.0
 11
1083.9001270235619
 21
-424.78290131605502
 31
0.0
  0
LINE
  5
2A2
  8
0
 62
     0
 10
1077.4001270235619
 20
-429.58584504120711
 30
0.0
 11
1079.9001270235619
 21
-427.08584504120699
 31
0.0
  0
LINE
  5
2A3
  8
0
 62
     0
 10
1082.5001270235621
 20
-424.48584504120709
 30
0.0
 11
1083.9001270235619
 21
-423.08584504120722
 31
0.0
  0
LINE
  5
2A4
  8
0
 62
     0
 10
1077.4001270235619
 20
-427.8887887663596
 30
0.0
 11
1079.9001270235619
 21
-425.38878876635948
 31
0.0
  0
LINE
  5
2A5
  8
0
 62
     0
 10
1081.344511627723
 20
-423.94440416219908
 30
0.0
 11
1083.344511627723
 21
-421.94440416219919
 31
0.0
  0
LINE
  5
2A6
  8
0
 62
     0
 10
1077.4001270235619
 20
-426.1917324915118
 30
0.0
 11
1081.6474553528751
 21
-421.94440416219919
 31
0.0
  0
LINE
  5
2A7
  8
0
 62
     0
 10
1077.4001270235619
 20
-424.494676216664
 30
0.0
 11
1079.950399078027
 21
-421.94440416219919
 31
0.0
  0
LINE
  5
2A8
  8
0
 62
     0
 10
1077.4001270235619
 20
-422.79761994181632
 30
0.0
 11
1078.2533428031791
 21
-421.94440416219919
 31
0.0
  0
LINE
  5
2A9
  8
0
 62
     0
 10
1053.9001270235619
 20
-458.17701386575033
 30
0.0
 11
1056.632736727114
 21
-455.44440416219919
 31
0.0
  0
LINE
  5
2AA
  8
0
 62
     0
 10
1077.4001270235619
 20
-434.67701386575038
 30
0.0
 11
1079.9001270235619
 21
-432.17701386575038
 31
0.0
  0
LINE
  5
2AB
  8
0
 62
     0
 10
1053.9001270235619
 20
-459.87407014059812
 30
0.0
 11
1058.329793001961
 21
-455.44440416219919
 31
0.0
  0
LINE
  5
2AC
  8
0
 62
     0
 10
1077.4001270235619
 20
-436.37407014059818
 30
0.0
 11
1079.9001270235619
 21
-433.87407014059812
 31
0.0
  0
LINE
  5
2AD
  8
0
 62
     0
 10
1053.9001270235619
 20
-461.57112641544558
 30
0.0
 11
1055.9001270235619
 21
-459.57112641544558
 31
0.0
  0
LINE
  5
2AE
  8
0
 62
     0
 10
1077.9634881501861
 20
-437.50776528882238
 30
0.0
 11
1079.9001270235619
 21
-435.57112641544558
 31
0.0
  0
LINE
  5
2AF
  8
0
 62
     0
 10
1057.5268492768089
 20
-457.94440416219931
 30
0.0
 11
1060.0268492768089
 21
-455.44440416219919
 31
0.0
  0
LINE
  5
2B0
  8
0
 62
     0
 10
1055.2239055516559
 20
-461.94440416219919
 30
0.0
 11
1056.623905551656
 21
-460.5444041621991
 31
0.0
  0
LINE
  5
2B1
  8
0
 62
     0
 10
1082.5001270235621
 20
-434.66818269029352
 30
0.0
 11
1083.1830485977659
 21
-433.98526111608948
 31
0.0
  0
LINE
  5
2B2
  8
0
 62
     0
 10
1059.223905551657
 20
-457.94440416219931
 30
0.0
 11
1061.56201628743
 21
-455.60629342642619
 31
0.0
  0
LINE
  5
2B3
  8
0
 62
     0
 10
1078.8120162876089
 20
-438.35629342624628
 30
0.0
 11
1081.223905551657
 21
-435.94440416219908
 31
0.0
  0
LINE
  5
2B4
  8
0
 62
     0
 10
1056.9211835394831
 20
-461.94418244922059
 30
0.0
 11
1057.899905310584
 21
-460.96546067811988
 31
0.0
  0
LINE
  5
2B5
  8
0
 62
     0
 10
1079.6605444250331
 20
-439.20482156367012
 30
0.0
 11
1083.9001270235619
 21
-434.96523896514128
 31
0.0
  0
LINE
  5
2B6
  8
0
 62
     0
 10
1060.920961826504
 20
-457.94440416219931
 30
0.0
 11
1063.420961826504
 21
-455.44440416219919
 31
0.0
  0
LINE
  5
2B7
  8
0
 62
     0
 10
1062.6180181013519
 20
-457.94440416219931
 30
0.0
 11
1065.1180181013519
 21
-455.44440416219919
 31
0.0
  0
LINE
  5
2B8
  8
0
 62
     0
 10
1080.509072562457
 20
-440.05334970109391
 30
0.0
 11
1083.9001270235619
 21
-436.66229523998902
 31
0.0
  0
LINE
  5
2B9
  8
0
 62
     0
 10
1064.3150743762001
 20
-457.94440416219931
 30
0.0
 11
1066.8150743762001
 21
-455.44440416219919
 31
0.0
  0
LINE
  5
2BA
  8
0
 62
     0
 10
1080.600127023562
 20
-441.65935151483637
 30
0.0
 11
1083.9001270235619
 21
-438.35935151483682
 31
0.0
  0
LINE
  5
2BB
  8
0
 62
     0
 10
1066.0121306510471
 20
-457.94440416219931
 30
0.0
 11
1068.5121306510471
 21
-455.44440416219919
 31
0.0
  0
LINE
  5
2BC
  8
0
 62
     0
 10
1080.600127023562
 20
-443.35640778968389
 30
0.0
 11
1083.9001270235619
 21
-440.05640778968422
 31
0.0
  0
LINE
  5
2BD
  8
0
 62
     0
 10
1067.708990429318
 20
-457.94460065877638
 30
0.0
 11
1069.5546569747289
 21
-456.09893411336549
 31
0.0
  0
LINE
  5
2BE
  8
0
 62
     0
 10
1080.600127023562
 20
-445.05346406453168
 30
0.0
 11
1083.9001270235619
 21
-441.75346406453201
 31
0.0
  0
LINE
  5
2BF
  8
0
 62
     0
 10
1065.990599500768
 20
-461.36004786217421
 30
0.0
 11
1066.806243200743
 21
-460.5444041621991
 31
0.0
  0
LINE
  5
2C0
  8
0
 62
     0
 10
1080.600127023562
 20
-446.75052033937948
 30
0.0
 11
1083.9001270235619
 21
-443.45052033937981
 31
0.0
  0
LINE
  5
2C1
  8
0
 62
     0
 10
1067.9001270235619
 20
-459.45052033937969
 30
0.0
 11
1070.4031851121531
 21
-456.94746225078939
 31
0.0
  0
LINE
  5
2C2
  8
0
 62
     0
 10
1067.103299475591
 20
-461.94440416219919
 30
0.0
 11
1071.2517132495771
 21
-457.79599038821323
 31
0.0
  0
LINE
  5
2C3
  8
0
 62
     0
 10
1080.600127023562
 20
-448.44757661422722
 30
0.0
 11
1083.9001270235619
 21
-445.1475766142276
 31
0.0
  0
LINE
  5
2C4
  8
0
 62
     0
 10
1068.800355750438
 20
-461.94440416219919
 30
0.0
 11
1072.100241387001
 21
-458.64451852563712
 31
0.0
  0
LINE
  5
2C5
  8
0
 62
     0
 10
1080.600127023562
 20
-450.14463288907501
 30
0.0
 11
1083.9001270235619
 21
-446.84463288907529
 31
0.0
  0
LINE
  5
2C6
  8
0
 62
     0
 10
1070.4974120252859
 20
-461.94440416219919
 30
0.0
 11
1073.7974120252859
 21
-458.64440416219912
 31
0.0
  0
LINE
  5
2C7
  8
0
 62
     0
 10
1080.600127023562
 20
-451.84168916392252
 30
0.0
 11
1083.9001270235619
 21
-448.5416891639228
 31
0.0
  0
LINE
  5
2C8
  8
0
 62
     0
 10
1072.1944683001341
 20
-461.94440416219919
 30
0.0
 11
1075.494468300134
 21
-458.64440416219912
 31
0.0
  0
LINE
  5
2C9
  8
0
 62
     0
 10
1080.600127023562
 20
-453.53874543877032
 30
0.0
 11
1083.9001270235619
 21
-450.23874543877059
 31
0.0
  0
LINE
  5
2CA
  8
0
 62
     0
 10
1073.8915245749811
 20
-461.94440416219919
 30
0.0
 11
1077.1915245749819
 21
-458.64440416219912
 31
0.0
  0
LINE
  5
2CB
  8
0
 62
     0
 10
1080.600127023562
 20
-455.235801713618
 30
0.0
 11
1083.9001270235619
 21
-451.93580171361828
 31
0.0
  0
LINE
  5
2CC
  8
0
 62
     0
 10
1075.588580849829
 20
-461.94440416219919
 30
0.0
 11
1083.9001270235619
 21
-453.63285798846618
 31
0.0
  0
LINE
  5
2CD
  8
0
 62
     0
 10
1077.2856371246769
 20
-461.94440416219919
 30
0.0
 11
1083.9001270235619
 21
-455.32991426331392
 31
0.0
  0
LINE
  5
2CE
  8
0
 62
     0
 10
1078.982693399525
 20
-461.94440416219919
 30
0.0
 11
1083.9001270235619
 21
-457.02697053816138
 31
0.0
  0
LINE
  5
2CF
  8
0
 62
     0
 10
1080.679749674372
 20
-461.94440416219919
 30
0.0
 11
1083.9001270235619
 21
-458.72402681300917
 31
0.0
  0
LINE
  5
2D0
  8
0
 62
     0
 10
1082.3768059492199
 20
-461.94440416219919
 30
0.0
 11
1083.9001270235619
 21
-460.42108308785691
 31
0.0
  0
ENDBLK
  5
2D2
  8
0
  0
BLOCK
  8
0
  2
*D3
 70
     1
 10
0.0
 20
0.0
 30
0.0
  3
*D3
  1

  0
LINE
  5
332
  8
1
 10
0.0000000000000001
 20
41.999999999998863
 30
0.0
 11
0.0000000000000008
 21
52.264258194860531
 31
0.0
  0
LINE
  5
333
  8
1
 10
5.0
 20
41.999999999998863
 30
0.0
 11
5.0
 21
52.264258194860531
 31
0.0
  0
LINE
  5
334
  8
1
 10
-0.9999999999999992
 20
51.264258194860531
 30
0.0
 11
6.0
 21
51.264258194860531
 31
0.0
  0
INSERT
  5
335
  8
1
  2
_OBLIQUE
 10
0.0000000000000007
 20
51.264258194860531
 30
0.0
 41
2.0
 42
2.0
 43
2.0
 50
180.0
  0
INSERT
  5
336
  8
1
  2
_OBLIQUE
 10
5.0
 20
51.264258194860531
 30
0.0
 41
2.0
 42
2.0
 43
2.0
  0
TEXT
  5
337
  8
0
 10
1.136766712141883
 20
52.323944415870081
 30
0.0
 40
3.5
  1
5
  7
BESCHLAG
  0
POINT
  5
338
  8
DEFPOINTS
 62
     0
 10
0.0
 20
39.999999999998863
 30
0.0
  0
POINT
  5
339
  8
DEFPOINTS
 62
     0
 10
5.0
 20
39.999999999998863
 30
0.0
  0
POINT
  5
33A
  8
DEFPOINTS
 62
     0
 10
5.0
 20
51.264258194860531
 30
0.0
  0
ENDBLK
  5
30D
  8
0
  0
BLOCK
  8
0
  2
*D4
 70
     1
 10
0.0
 20
0.0
 30
0.0
  3
*D4
  1

  0
LINE
  5
33B
  8
1
 10
0.0000000000000001
 20
42.0
 30
0.0
 11
0.0000000000000008
 21
52.264258194860759
 31
0.0
  0
LINE
  5
33C
  8
1
 10
-7.0
 20
42.0
 30
0.0
 11
-6.9999999999999991
 21
52.264258194860759
 31
0.0
  0
LINE
  5
33D
  8
1
 10
1.0
 20
51.264258194860759
 30
0.0
 11
-7.9999999999999991
 21
51.264258194860759
 31
0.0
  0
INSERT
  5
33E
  8
1
  2
_OBLIQUE
 10
0.0000000000000007
 20
51.264258194860759
 30
0.0
 41
2.0
 42
2.0
 43
2.0
  0
INSERT
  5
33F
  8
1
  2
_OBLIQUE
 10
-6.9999999999999991
 20
51.264258194860759
 30
0.0
 41
2.0
 42
2.0
 43
2.0
 50
180.0
  0
TEXT
  5
340
  8
0
 10
-4.8644270122783082
 20
52.264258194860759
 30
0.0
 40
3.5
  1
7
  7
BESCHLAG
  0
POINT
  5
341
  8
DEFPOINTS
 62
     0
 10
0.0
 20
40.0
 30
0.0
  0
POINT
  5
342
  8
DEFPOINTS
 62
     0
 10
-7.0
 20
40.0
 30
0.0
  0
POINT
  5
343
  8
DEFPOINTS
 62
     0
 10
-6.9999999999999991
 20
51.264258194860759
 30
0.0
  0
ENDBLK
  5
319
  8
0
  0
BLOCK
  8
0
  2
*D5
 70
     1
 10
0.0
 20
0.0
 30
0.0
  3
*D5
  1

  0
LINE
  5
344
  8
1
 10
-30.0
 20
-2.0
 30
0.0
 11
-30.0
 21
-12.92523463458042
 31
0.0
  0
LINE
  5
345
  8
1
 10
-0.0000000000000001
 20
-2.0
 30
0.0
 11
-0.0000000000000008
 21
-12.92523463458042
 31
0.0
  0
LINE
  5
346
  8
1
 10
-31.0
 20
-11.925234634580409
 30
0.0
 11
0.9999999999999992
 21
-11.925234634580409
 31
0.0
  0
INSERT
  5
347
  8
1
  2
_OBLIQUE
 10
-30.0
 20
-11.925234634580409
 30
0.0
 41
2.0
 42
2.0
 43
2.0
 50
180.0
  0
INSERT
  5
348
  8
1
  2
_OBLIQUE
 10
-0.0000000000000007
 20
-11.925234634580409
 30
0.0
 41
2.0
 42
2.0
 43
2.0
  0
TEXT
  5
349
  8
0
 10
-17.704979536152791
 20
-10.855998618209339
 30
0.0
 40
3.5
  1
30
  7
BESCHLAG
  0
POINT
  5
34A
  8
DEFPOINTS
 62
     0
 10
-30.0
 20
0.0
 30
0.0
  0
POINT
  5
34B
  8
DEFPOINTS
 62
     0
 10
0.0
 20
0.0
 30
0.0
  0
POINT
  5
34C
  8
DEFPOINTS
 62
     0
 10
-0.0000000000000007
 20
-11.925234634580409
 30
0.0
  0
ENDBLK
  5
325
  8
0
  0
BLOCK
  8
0
  2
*D6
 70
     1
 10
0.0
 20
0.0
 30
0.0
  3
*D6
  1

  0
LINE
  5
34D
  8
1
 10
-2.0
 20
0.0000000000000006
 30
0.0
 11
-20.108468320300751
 21
0.0000000000000057
 31
0.0
  0
LINE
  5
34E
  8
1
 10
-8.5
 20
40.0
 30
0.0
 11
-20.108468320300741
 21
40.0
 31
0.0
  0
LINE
  5
34F
  8
1
 10
-19.108468320300751
 20
-0.9999999999999945
 30
0.0
 11
-19.108468320300741
 21
41.0
 31
0.0
  0
INSERT
  5
350
  8
1
  2
_OBLIQUE
 10
-19.108468320300751
 20
0.0000000000000054
 30
0.0
 41
2.0
 42
2.0
 43
2.0
 50
270.0
  0
INSERT
  5
351
  8
1
  2
_OBLIQUE
 10
-19.108468320300741
 20
40.0
 30
0.0
 41
2.0
 42
2.0
 43
2.0
 50
90.0
  0
TEXT
  5
352
  8
0
 10
-20.17531688783145
 20
17.366643929058661
 30
0.0
 40
3.5
  1
40
 50
90.0
  7
BESCHLAG
  0
POINT
  5
353
  8
DEFPOINTS
 62
     0
 10
0.0
 20
0.0
 30
0.0
  0
POINT
  5
354
  8
DEFPOINTS
 62
     0
 10
-6.5
 20
40.0
 30
0.0
  0
POINT
  5
355
  8
DEFPOINTS
 62
     0
 10
-19.108468320300741
 20
40.0
 30
0.0
  0
ENDBLK
  5
331
  8
0
  0
ENDSEC
  0
SECTION
  2
ENTITIES
  0
INSERT
  5
25B
  8
5
  2
NULLPUNKT
 10
0.0
 20
0.0
 30
0.0
  0
TEXT
  5
2ED
  8
1
 10
-71.414057609128577
 20
-7.0925258189976139
 30
0.0
 40
2.4999999499999999
  1
Hebgo 906
  0
INSERT
  5
2EE
  8
2
  2
*X2
 10
-1083.9001270235619
 20
461.94440416219919
 30
0.0
1001
ACAD
1000
HATCH
1002
{
1070
    16
1000
_U,I
1040
1.1999999999999991
1040
0.7853981633974483
1070
     0
1002
}
  0
POLYLINE
  5
2EF
  8
5
 66
     1
 10
0.0
 20
0.0
 30
0.0
  0
VERTEX
  5
457
  8
5
 10
5.0
 20
48.88387920552077
 30
0.0
  0
VERTEX
  5
458
  8
5
 10
5.0
 20
15.0
 30
0.0
  0
VERTEX
  5
459
  8
5
 10
19.932101346779739
 20
15.0
 30
0.0
  0
SEQEND
  5
45A
  8
5
  0
DIMENSION
  5
2F0
  8
1
  2
*D3
 10
5.0
 20
51.264258194860531
 30
0.0
 11
2.5
 21
54.044101305365302
 31
0.0
 70
     0
 13
0.0
 23
39.999999999998863
 33
0.0
 14
5.0
 24
39.999999999998863
 34
0.0
  0
POLYLINE
  5
2F1
  8
6
 66
     1
 10
0.0
 20
0.0
 30
0.0
 70
     1
  0
VERTEX
  5
45B
  8
6
 10
-4.0
 20
29.31332508894366
 30
0.0
 42
0.6415838065530063
  0
VERTEX
  5
45C
  8
6
 10
-3.6174236954407202
 20
34.688897230028708
 30
0.0
 42
-0.5157822426877657
  0
VERTEX
  5
45D
  8
6
 10
-3.703928960500888
 20
35.999253970000829
 30
0.0
  0
VERTEX
  5
45E
  8
6
 10
-2.3372723755505831
 20
36.796251492670301
 30
0.0
  0
VERTEX
  5
45F
  8
6
 10
-1.6685687309527559
 20
36.796251492670301
 30
0.0
  0
VERTEX
  5
460
  8
6
 10
-1.6685687309527559
 20
35.962108501654249
 30
0.0
  0
VERTEX
  5
461
  8
6
 10
-0.2309356594782912
 20
35.962108501654249
 30
0.0
 42
-0.2542712822039416
  0
VERTEX
  5
462
  8
6
 10
1.3241743497765119
 20
36.909786540928053
 30
0.0
 42
-0.239805045364585
  0
VERTEX
  5
463
  8
6
 10
3.5443628129978602
 20
35.882543598282609
 30
0.0
 42
-0.0952903634792644
  0
VERTEX
  5
464
  8
6
 10
4.4750626397540136
 20
33.760318071709428
 30
0.0
 42
-0.0700993617324612
  0
VERTEX
  5
465
  8
6
 10
4.6300056314753411
 20
28.036364101447131
 30
0.0
 42
-0.9870930961173433
  0
VERTEX
  5
466
  8
6
 10
3.9747076925127649
 20
28.134196738844139
 30
0.0
 42
0.0371998225987245
  0
VERTEX
  5
467
  8
6
 10
3.8320511880192489
 20
32.598556315046828
 30
0.0
 42
0.0985543060514419
  0
VERTEX
  5
468
  8
6
 10
3.0455539515855881
 20
34.552019351940309
 30
0.0
 42
0.1211139390109317
  0
VERTEX
  5
469
  8
6
 10
2.107493069581778
 20
35.31870506498376
 30
0.0
 42
0.2870603126370058
  0
VERTEX
  5
46A
  8
6
 10
1.138343559716759
 20
35.041182705576603
 30
0.0
 42
0.1002807908351088
  0
VERTEX
  5
46B
  8
6
 10
0.6786569676924046
 20
33.788924591372052
 30
0.0
 42
0.0333497571445928
  0
VERTEX
  5
46C
  8
6
 10
0.2170733406665022
 20
29.164673721853202
 30
0.0
 42
-0.4545352424188308
  0
VERTEX
  5
46D
  8
6
 10
-0.2849645797496123
 20
28.46162663271161
 30
0.0
  0
VERTEX
  5
46E
  8
6
 10
-1.7664845131016591
 20
27.889615062025989
 30
0.0
 42
0.3791917245757989
  0
VERTEX
  5
46F
  8
6
 10
-1.9327541475304311
 20
27.214569714000621
 30
0.0
  0
VERTEX
  5
470
  8
6
 10
-1.672772918625469
 20
26.503595342986952
 30
0.0
  0
VERTEX
  5
471
  8
6
 10
-2.0849578429865678
 20
26.10778858778508
 30
0.0
  0
VERTEX
  5
472
  8
6
 10
-2.263021689441302
 20
26.097893428626321
 30
0.0
  0
VERTEX
  5
473
  8
6
 10
-4.0
 20
27.13517379532049
 30
0.0
  0
SEQEND
  5
474
  8
6
  0
POINT
  5
2F2
  8
5
 10
-4.0
 20
32.0
 30
0.0
  0
DIMENSION
  5
2F3
  8
1
  2
*D4
 10
-6.9999999999999991
 20
51.264258194860759
 30
0.0
 11
-3.4999999999999991
 21
54.014258194860759
 31
0.0
 70
     0
 13
0.0
 23
40.0
 33
0.0
 14
-7.0
 24
40.0
 34
0.0
  0
TEXT
  5
2F4
  8
1
 10
-31.674655408347231
 20
11.67519116845437
 30
0.0
 40
2.4999999499999999
  1
Hebgo 180/620 a
  0
DIMENSION
  5
2F5
  8
1
  2
*D5
 10
-0.0000000000000007
 20
-11.925234634580409
 30
0.0
 11
-15.0
 21
-9.1370354531343079
 31
0.0
 70
     0
 13
-30.0
 23
0.0
 33
0.0
 14
0.0
 24
0.0
 34
0.0
  0
POLYLINE
  5
2F6
  8
4
 66
     1
 10
0.0
 20
0.0
 30
0.0
 70
     1
  0
VERTEX
  5
475
  8
4
 10
-30.0
 20
0.0
 30
0.0
  0
VERTEX
  5
476
  8
4
 10
-30.0
 20
6.5
 30
0.0
  0
VERTEX
  5
477
  8
4
 10
-15.0
 20
6.5
 30
0.0
  0
VERTEX
  5
478
  8
4
 10
-11.79999999999972
 20
3.300000000000181
 30
0.0
  0
VERTEX
  5
479
  8
4
 10
-6.5
 20
3.300000000000181
 30
0.0
  0
VERTEX
  5
47A
  8
4
 10
-3.2999999999997272
 20
6.5
 30
0.0
  0
VERTEX
  5
47B
  8
4
 10
-3.2999999999997272
 20
21.800000000000178
 30
0.0
  0
VERTEX
  5
47C
  8
4
 10
-6.5
 20
25.0
 30
0.0
  0
VERTEX
  5
47D
  8
4
 10
-6.5
 20
40.0
 30
0.0
  0
VERTEX
  5
47E
  8
4
 10
0.0
 20
40.0
 30
0.0
  0
VERTEX
  5
47F
  8
4
 10
0.0
 20
0.0
 30
0.0
  0
SEQEND
  5
480
  8
4
  0
POLYLINE
  5
2F7
  8
6
 66
     1
 10
0.0
 20
0.0
 30
0.0
 70
     1
  0
VERTEX
  5
481
  8
6
 10
-3.2999999999997272
 20
6.5
 30
0.0
  0
VERTEX
  5
482
  8
6
 10
-6.5
 20
3.300000000000181
 30
0.0
  0
VERTEX
  5
483
  8
6
 10
-11.79999999999972
 20
3.300000000000181
 30
0.0
  0
VERTEX
  5
484
  8
6
 10
-15.0
 20
6.5
 30
0.0
  0
VERTEX
  5
485
  8
6
 10
-21.45857864383651
 20
6.5
 30
0.0
 42
0.1989123670509405
  0
VERTEX
  5
486
  8
6
 10
-21.529289321865679
 20
6.4707106782079791
 30
0.0
  0
VERTEX
  5
487
  8
6
 10
-21.929289322967168
 20
6.0707106781187568
 30
0.0
 42
-0.4142135623730907
  0
VERTEX
  5
488
  8
6
 10
-22.070710679204691
 20
6.0707106781187568
 30
0.0
  0
VERTEX
  5
489
  8
6
 10
-22.47071067811839
 20
6.4707106781188477
 30
0.0
 42
0.198912367379658
  0
VERTEX
  5
48A
  8
6
 10
-22.541421356237151
 20
6.5
 30
0.0
  0
VERTEX
  5
48B
  8
6
 10
-29.79999999999972
 20
6.5
 30
0.0
 42
0.4142135623730951
  0
VERTEX
  5
48C
  8
6
 10
-30.0
 20
6.300000000000181
 30
0.0
  0
VERTEX
  5
48D
  8
6
 10
-30.0
 20
0.1999999999998181
 30
0.0
 42
0.4142135623730951
  0
VERTEX
  5
48E
  8
6
 10
-29.79999999999972
 20
0.0
 30
0.0
  0
VERTEX
  5
48F
  8
6
 10
-27.0
 20
0.0
 30
0.0
 42
0.4142135623730951
  0
VERTEX
  5
490
  8
6
 10
-26.0
 20
1.0
 30
0.0
  0
VERTEX
  5
491
  8
6
 10
-26.0
 20
1.1999999999998181
 30
0.0
 42
0.4142135623730951
  0
VERTEX
  5
492
  8
6
 10
-26.199999999999811
 20
1.4000000000000901
 30
0.0
  0
VERTEX
  5
493
  8
6
 10
-27.79999999999972
 20
1.4000000000000901
 30
0.0
 42
-0.4142135623730951
  0
VERTEX
  5
494
  8
6
 10
-28.0
 20
1.5999999999999091
 30
0.0
  0
VERTEX
  5
495
  8
6
 10
-28.0
 20
3.800000000000181
 30
0.0
 42
-0.4142135623730988
  0
VERTEX
  5
496
  8
6
 10
-27.79999999999972
 20
4.0
 30
0.0
  0
VERTEX
  5
497
  8
6
 10
-16.199999999999811
 20
4.0
 30
0.0
 42
-0.4142135623730951
  0
VERTEX
  5
498
  8
6
 10
-16.0
 20
3.800000000000181
 30
0.0
  0
VERTEX
  5
499
  8
6
 10
-16.0
 20
1.5999999999999091
 30
0.0
 42
-0.4142135623730914
  0
VERTEX
  5
49A
  8
6
 10
-16.199999999999811
 20
1.4000000000000901
 30
0.0
  0
VERTEX
  5
49B
  8
6
 10
-17.79999999999972
 20
1.4000000000000901
 30
0.0
 42
0.4142135623730951
  0
VERTEX
  5
49C
  8
6
 10
-18.0
 20
1.1999999999998181
 30
0.0
  0
VERTEX
  5
49D
  8
6
 10
-18.0
 20
1.0
 30
0.0
 42
0.4142135623730948
  0
VERTEX
  5
49E
  8
6
 10
-17.0
 20
0.0
 30
0.0
  0
VERTEX
  5
49F
  8
6
 10
0.0
 20
0.0
 30
0.0
  0
VERTEX
  5
4A0
  8
6
 10
0.0
 20
27.0
 30
0.0
 42
0.4142135623730948
  0
VERTEX
  5
4A1
  8
6
 10
-1.0
 20
28.0
 30
0.0
  0
VERTEX
  5
4A2
  8
6
 10
-1.1999999999998181
 20
28.0
 30
0.0
 42
0.4142135623730951
  0
VERTEX
  5
4A3
  8
6
 10
-1.4000000000000901
 20
27.800000000000178
 30
0.0
  0
VERTEX
  5
4A4
  8
6
 10
-1.4000000000000901
 20
26.199999999999811
 30
0.0
 42
-0.4142135623730951
  0
VERTEX
  5
4A5
  8
6
 10
-1.5999999999999091
 20
26.0
 30
0.0
  0
VERTEX
  5
4A6
  8
6
 10
-3.7999999999997272
 20
26.0
 30
0.0
 42
-0.4142135623730951
  0
VERTEX
  5
4A7
  8
6
 10
-4.0
 20
26.199999999999811
 30
0.0
  0
VERTEX
  5
4A8
  8
6
 10
-4.0
 20
37.800000000000182
 30
0.0
 42
-0.4142135623730944
  0
VERTEX
  5
4A9
  8
6
 10
-3.7999999999997272
 20
38.0
 30
0.0
  0
VERTEX
  5
4AA
  8
6
 10
-1.5999999999999091
 20
38.0
 30
0.0
 42
-0.4142135623730951
  0
VERTEX
  5
4AB
  8
6
 10
-1.4000000000000901
 20
37.800000000000182
 30
0.0
  0
VERTEX
  5
4AC
  8
6
 10
-1.4000000000000901
 20
36.199999999999811
 30
0.0
 42
0.4142135623730951
  0
VERTEX
  5
4AD
  8
6
 10
-1.1999999999998181
 20
36.0
 30
0.0
  0
VERTEX
  5
4AE
  8
6
 10
-1.0
 20
36.0
 30
0.0
 42
0.4142135623730951
  0
VERTEX
  5
4AF
  8
6
 10
0.0
 20
37.0
 30
0.0
  0
VERTEX
  5
4B0
  8
6
 10
0.0
 20
39.800000000000182
 30
0.0
 42
0.4142135623730951
  0
VERTEX
  5
4B1
  8
6
 10
-0.1999999999998181
 20
40.0
 30
0.0
  0
VERTEX
  5
4B2
  8
6
 10
-6.2999999999997272
 20
40.0
 30
0.0
 42
0.4142135623730951
  0
VERTEX
  5
4B3
  8
6
 10
-6.5
 20
39.800000000000182
 30
0.0
  0
VERTEX
  5
4B4
  8
6
 10
-6.5
 20
25.0
 30
0.0
  0
VERTEX
  5
4B5
  8
6
 10
-3.2999999999997272
 20
21.800000000000178
 30
0.0
  0
SEQEND
  5
4B6
  8
6
  0
POINT
  5
2F8
  8
5
 10
-4.0
 20
32.0
 30
0.0
  0
DIMENSION
  5
2F9
  8
1
  2
*D6
 10
-19.108468320300741
 20
40.0
 30
0.0
 11
-21.895473777326671
 21
20.0
 31
0.0
 70
     0
 13
0.0
 23
0.0
 33
0.0
 14
-6.5
 24
40.0
 34
0.0
 50
90.0
  0
POLYLINE
  5
2FA
  8
6
 66
     1
 10
0.0
 20
0.0
 30
0.0
 70
     1
  0
VERTEX
  5
4B7
  8
6
 10
-16.499999999999542
 20
3.700000000000045
 30
0.0
  0
VERTEX
  5
4B8
  8
6
 10
-23.178182981237342
 20
3.6999999999999309
 30
0.0
 42
0.2979024853978631
  0
VERTEX
  5
4B9
  8
6
 10
-25.010288806167861
 20
2.5021148585182109
 30
0.0
  0
VERTEX
  5
4BA
  8
6
 10
-26.250849823681051
 20
0.0023065905892281
 30
0.0
 42
-0.2979024853978892
  0
VERTEX
  5
4BB
  8
6
 10
-26.708876279913738
 20
-0.2971646947812587
 30
0.0
  0
VERTEX
  5
4BC
  8
6
 10
-29.750202763158988
 20
-0.2971646947812587
 30
0.0
 42
-0.4142135623730951
  0
VERTEX
  5
4BD
  8
6
 10
-30.250202763158988
 20
0.2028353052187413
 30
0.0
  0
VERTEX
  5
4BE
  8
6
 10
-30.250202763158988
 20
6.0249982568549276
 30
0.0
 42
-0.1564024178525488
  0
VERTEX
  5
4BF
  8
6
 10
-30.1569728135978
 20
6.315752665361515
 30
0.0
  0
VERTEX
  5
4C0
  8
6
 10
-28.187616562855499
 20
8.0721435225143523
 30
0.0
  0
VERTEX
  5
4C1
  8
6
 10
-29.518820078202221
 20
9.5647577394936434
 30
0.0
  0
VERTEX
  5
4C2
  8
6
 10
-31.59060439905647
 20
7.7170153425712442
 30
0.0
 42
0.1880239795834631
  0
VERTEX
  5
4C3
  8
6
 10
-32.250202763158988
 20
6.0249982568016094
 30
0.0
  0
VERTEX
  5
4C4
  8
6
 10
-32.250202763158988
 20
0.2028353052187413
 30
0.0
 42
0.4142135623730951
  0
VERTEX
  5
4C5
  8
6
 10
-29.750202763158988
 20
-2.2971646947812578
 30
0.0
  0
VERTEX
  5
4C6
  8
6
 10
-26.708876279932952
 20
-2.2971646947812578
 30
0.0
 42
0.2906967135076304
  0
VERTEX
  5
4C7
  8
6
 10
-24.446142200320761
 20
-0.860195496329652
 30
0.0
  0
VERTEX
  5
4C8
  8
6
 10
-23.175613267880291
 20
1.7000000000001589
 30
0.0
  0
VERTEX
  5
4C9
  8
6
 10
-16.499999999999542
 20
1.700000000000045
 30
0.0
  0
SEQEND
  5
4CA
  8
6
  0
POLYLINE
  5
2FB
  8
6
 66
     1
 10
0.0
 20
0.0
 30
0.0
  0
VERTEX
  5
4CB
  8
6
 10
-16.499999999999542
 20
3.200000000000045
 30
0.0
  0
VERTEX
  5
4CC
  8
6
 10
-23.178182981237342
 20
3.1999999999999309
 30
0.0
 42
0.2999244947259431
  0
VERTEX
  5
4CD
  8
6
 10
-24.556691001475311
 20
2.2913675998344161
 30
0.0
  0
VERTEX
  5
4CE
  8
6
 10
-25.798550645518841
 20
-0.2110574820134161
 30
0.0
 42
-0.294080808329901
  0
VERTEX
  5
4CF
  8
6
 10
-26.708876279913738
 20
-0.7971646947812588
 30
0.0
  0
VERTEX
  5
4D0
  8
6
 10
-29.750202763158988
 20
-0.7971646947812588
 30
0.0
 42
-0.4142135623730951
  0
VERTEX
  5
4D1
  8
6
 10
-30.750202763158988
 20
0.2028353052187413
 30
0.0
  0
VERTEX
  5
4D2
  8
6
 10
-30.750202763158988
 20
6.0249982568549276
 30
0.0
 42
-0.1731346391236261
  0
VERTEX
  5
4D3
  8
6
 10
-30.52415300667689
 20
6.6582446705912162
 30
0.0
  0
VERTEX
  5
4D4
  8
6
 10
-28.520417441692182
 20
8.4452970767591751
 30
0.0
  0
SEQEND
  5
4D5
  8
6
  0
POLYLINE
  5
2FC
  8
6
 66
     1
 10
0.0
 20
0.0
 30
0.0
  0
VERTEX
  5
4D6
  8
6
 10
-16.499999999999542
 20
2.700000000000045
 30
0.0
  0
VERTEX
  5
4D7
  8
6
 10
-23.178182981235292
 20
2.700000000000045
 30
0.0
 42
0.3033220033015464
  0
VERTEX
  5
4D8
  8
6
 10
-24.102027914210449
 20
2.0827669523565642
 30
0.0
  0
VERTEX
  5
4D9
  8
6
 10
-25.34727970797007
 20
-0.4264935239518764
 30
0.0
 42
-0.2923904282578467
  0
VERTEX
  5
4DA
  8
6
 10
-26.708876279936131
 20
-1.2971646947812581
 30
0.0
  0
VERTEX
  5
4DB
  8
6
 10
-29.750202763158988
 20
-1.2971646947812581
 30
0.0
 42
-0.4142135623730951
  0
VERTEX
  5
4DC
  8
6
 10
-31.250202763158988
 20
0.2028353052187413
 30
0.0
  0
VERTEX
  5
4DD
  8
6
 10
-31.250202763158988
 20
6.0249982568165024
 30
0.0
 42
-0.1805621658660177
  0
VERTEX
  5
4DE
  8
6
 10
-30.883285413238578
 20
7.0079141779382317
 30
0.0
  0
VERTEX
  5
4DF
  8
6
 10
-28.85321832052886
 20
8.8184506310039978
 30
0.0
  0
SEQEND
  5
4E0
  8
6
  0
POLYLINE
  5
2FD
  8
6
 66
     1
 10
0.0
 20
0.0
 30
0.0
  0
VERTEX
  5
4E1
  8
6
 10
-16.499999999999542
 20
2.200000000000045
 30
0.0
  0
VERTEX
  5
4E2
  8
6
 10
-23.178182981235398
 20
2.200000000000045
 30
0.0
 42
0.3110176465481184
  0
VERTEX
  5
4E3
  8
6
 10
-23.645305334850601
 20
1.8783163106375009
 30
0.0
  0
VERTEX
  5
4E4
  8
6
 10
-24.89654092879595
 20
-0.6430018983962782
 30
0.0
 42
-0.2913835292343037
  0
VERTEX
  5
4E5
  8
6
 10
-26.708876279930671
 20
-1.7971646947812581
 30
0.0
  0
VERTEX
  5
4E6
  8
6
 10
-29.750202763158988
 20
-1.7971646947812581
 30
0.0
 42
-0.4142135623730951
  0
VERTEX
  5
4E7
  8
6
 10
-31.750202763158988
 20
0.2028353052187413
 30
0.0
  0
VERTEX
  5
4E8
  8
6
 10
-31.750202763158988
 20
6.0249982567686402
 30
0.0
 42
-0.184995633674859
  0
VERTEX
  5
4E9
  8
6
 10
-31.238268458549442
 20
7.3612843362778904
 30
0.0
  0
VERTEX
  5
4EA
  8
6
 10
-29.186019199365539
 20
9.1916041852488206
 30
0.0
  0
SEQEND
  5
4EB
  8
6
  0
POLYLINE
  5
2FE
  8
6
 66
     1
 10
0.0
 20
0.0
 30
0.0
  0
VERTEX
  5
4EC
  8
6
 10
-29.700202763159261
 20
-0.2971646947812587
 30
0.0
  0
VERTEX
  5
4ED
  8
6
 10
-43.905022074132482
 20
-0.297164694781145
 30
0.0
  0
VERTEX
  5
4EE
  8
6
 10
-53.591245664688351
 20
4.853396223599133
 30
0.0
 42
0.2418206986979301
  0
VERTEX
  5
4EF
  8
6
 10
-57.246252815581791
 20
4.9052462844956599
 30
0.0
  0
VERTEX
  5
4F0
  8
6
 10
-66.55294295811359
 20
0.2902407400135871
 30
0.0
  0
VERTEX
  5
4F1
  8
6
 10
-75.891526297276073
 20
4.9210614966742687
 30
0.0
 42
0.2343261328240422
  0
VERTEX
  5
4F2
  8
6
 10
-79.445595000449885
 20
4.921061496674155
 30
0.0
  0
VERTEX
  5
4F3
  8
6
 10
-88.784178339612595
 20
0.2902407400135871
 30
0.0
  0
VERTEX
  5
4F4
  8
6
 10
-87.895661163819227
 20
-1.501556466234887
 30
0.0
  0
VERTEX
  5
4F5
  8
6
 10
-78.557077824656176
 20
3.1292642904257941
 30
0.0
 42
-0.2343261328239351
  0
VERTEX
  5
4F6
  8
6
 10
-76.780043473069654
 20
3.12926429042568
 30
0.0
  0
VERTEX
  5
4F7
  8
6
 10
-67.441460133906844
 20
-1.501556466234887
 30
0.0
 42
0.2343261328239322
  0
VERTEX
  5
4F8
  8
6
 10
-65.66442578232045
 20
-1.501556466234887
 30
0.0
  0
VERTEX
  5
4F9
  8
6
 10
-56.357735639788409
 20
3.1134490782471849
 30
0.0
 42
-0.2418206986978837
  0
VERTEX
  5
4FA
  8
6
 10
-54.53023206434181
 20
3.087524047798865
 30
0.0
  0
VERTEX
  5
4FB
  8
6
 10
-44.844008473785827
 20
-2.0630368705815272
 30
0.0
 42
0.1227907796755793
  0
VERTEX
  5
4FC
  8
6
 10
-43.90502207413283
 20
-2.2971646947812578
 30
0.0
  0
VERTEX
  5
4FD
  8
6
 10
-29.700202763159261
 20
-2.2971646947812578
 30
0.0
  0
SEQEND
  5
4FE
  8
6
  0
POLYLINE
  5
2FF
  8
6
 66
     1
 10
0.0
 20
0.0
 30
0.0
  0
VERTEX
  5
4FF
  8
6
 10
-29.700202763159261
 20
-1.7971646947812581
 30
0.0
  0
VERTEX
  5
500
  8
6
 10
-43.905022074132368
 20
-1.797164694781145
 30
0.0
 42
-0.1227907796755781
  0
VERTEX
  5
501
  8
6
 10
-44.609261873872128
 20
-1.621568826631687
 30
0.0
  0
VERTEX
  5
502
  8
6
 10
-54.295485464428452
 20
3.5289920917489321
 30
0.0
 42
0.2418206986979325
  0
VERTEX
  5
503
  8
6
 10
-56.579864933736978
 20
3.5613983798091331
 30
0.0
  0
VERTEX
  5
504
  8
6
 10
-65.886555076268451
 20
-1.0536071646727121
 30
0.0
 42
-0.2343261328240303
  0
VERTEX
  5
505
  8
6
 10
-67.219330839958957
 20
-1.053607164672598
 30
0.0
  0
VERTEX
  5
506
  8
6
 10
-76.557914179121099
 20
3.5772135919877419
 30
0.0
 42
0.2343261328240438
  0
VERTEX
  5
507
  8
6
 10
-78.779207118604972
 20
3.5772135919877419
 30
0.0
  0
VERTEX
  5
508
  8
6
 10
-88.117790457767569
 20
-1.053607164672826
 30
0.0
 42
-0.2343261328240571
  0
SEQEND
  5
509
  8
6
  0
POLYLINE
  5
300
  8
6
 66
     1
 10
0.0
 20
0.0
 30
0.0
  0
VERTEX
  5
50A
  8
6
 10
-29.700202763159261
 20
-1.2971646947812581
 30
0.0
  0
VERTEX
  5
50B
  8
6
 10
-43.905022074132717
 20
-1.297164694781145
 30
0.0
 42
-0.1227907796755804
  0
VERTEX
  5
50C
  8
6
 10
-44.374515273959098
 20
-1.1801007826813921
 30
0.0
  0
VERTEX
  5
50D
  8
6
 10
-54.060738864514981
 20
3.9704601356989988
 30
0.0
 42
0.2418206986979378
  0
VERTEX
  5
50E
  8
6
 10
-56.801994227685213
 20
4.0093476813713087
 30
0.0
  0
VERTEX
  5
50F
  8
6
 10
-66.108684370216679
 20
-0.6056578631105367
 30
0.0
 42
-0.2343261328240147
  0
VERTEX
  5
510
  8
6
 10
-66.997201546010501
 20
-0.6056578631105367
 30
0.0
  0
VERTEX
  5
511
  8
6
 10
-76.335784885172757
 20
4.0251628935499184
 30
0.0
 42
0.2343261328240469
  0
VERTEX
  5
512
  8
6
 10
-79.001336412553314
 20
4.0251628935499184
 30
0.0
  0
VERTEX
  5
513
  8
6
 10
-88.339919751715897
 20
-0.6056578631106504
 30
0.0
 42
-0.2343261328240553
  0
SEQEND
  5
514
  8
6
  0
POLYLINE
  5
301
  8
6
 66
     1
 10
0.0
 20
0.0
 30
0.0
  0
VERTEX
  5
515
  8
6
 10
-29.700202763159261
 20
-0.7971646947812588
 30
0.0
  0
VERTEX
  5
516
  8
6
 10
-43.905022074132717
 20
-0.797164694781145
 30
0.0
 42
-0.1227907796755586
  0
VERTEX
  5
517
  8
6
 10
-44.139768674045733
 20
-0.738632738731326
 30
0.0
  0
VERTEX
  5
518
  8
6
 10
-53.825992264601609
 20
4.4119281796490659
 30
0.0
 42
0.2418206986979313
  0
VERTEX
  5
519
  8
6
 10
-57.024123521633442
 20
4.4572969829334852
 30
0.0
  0
VERTEX
  5
51A
  8
6
 10
-66.330813664164907
 20
-0.1577085615483611
 30
0.0
 42
-0.2343261328240752
  0
VERTEX
  5
51B
  8
6
 10
-66.775072252062273
 20
-0.1577085615483611
 30
0.0
  0
VERTEX
  5
51C
  8
6
 10
-76.113655591224415
 20
4.473112195112094
 30
0.0
 42
0.2343261328240394
  0
VERTEX
  5
51D
  8
6
 10
-79.223465706501543
 20
4.473112195112094
 30
0.0
  0
VERTEX
  5
51E
  8
6
 10
-88.562049045664253
 20
-0.1577085615484748
 30
0.0
 42
-0.2343261328240224
  0
SEQEND
  5
51F
  8
6
  0
VIEWPORT
  5
22
 67
     1
  8
0
 10
210.0
 20
170.2366863905325
 30
0.0
 40
420.0
 41
340.47337278106511
 68
     1
 69
     1
1001
ACAD
1000
MVIEW
1002
{
1070
    16
1010
0.0
1020
0.0
1030
0.0
1010
0.0
1020
0.0
1030
1.0
1040
0.0
1040
340.47337278106511
1040
210.0
1040
170.2366863905325
1040
50.0
1040
0.0
1040
0.0
1070
     0
1070
   100
1070
     1
1070
     1
1070
     0
1070
     0
1070
     0
1070
     0
1040
0.0
1040
0.0
1040
0.0
1040
5.0
1040
5.0
1040
10.0
1040
10.0
1070
     0
1002
{
1002
}
1002
}
  0
ENDSEC
  0
EOF
