  0
SECTION
  2
HEADER
  9
$ACADVER
  1
AC1027
  9
$ACADMAINTVER
 70
   125
  9
$DWGCODEPAGE
  3
ANSI_1252
  9
$TITLE
  1
Datenaufbau HEBGO
  9
$SUBJECT
  1
Format 14/2000 mit DWF-Format
  9
$AUTHOR
  1
robert koch cad-support, ch-2540 grenchen
  9
$COMMENTS
  1
Anpassung für DWF Format und ^M^JZeichnungsvorschau, ^M^Jrobert koch cad-support, ch-2540 grenchen
  9
$LASTSAVEDBY
  1
rwdm
  9
$REQUIREDVERSIONS
160
                 0
  9
$INSBASE
 10
0.0
 20
0.0
 30
0.0
  9
$EXTMIN
 10
-134.0290886666246
 20
-15.85947051291168
 30
0.0
  9
$EXTMAX
 10
7.813282518209234
 20
24.0
 30
0.00000002
  9
$LIMMIN
 10
-150.0
 20
-150.0
  9
$LIMMAX
 10
150.0
 20
150.0
  9
$ORTHOMODE
 70
     0
  9
$REGENMODE
 70
     1
  9
$FILLMODE
 70
     1
  9
$QTEXTMODE
 70
     0
  9
$MIRRTEXT
 70
     0
  9
$LTSCALE
 40
10.0
  9
$ATTMODE
 70
     1
  9
$TEXTSIZE
 40
3.5
  9
$TRACEWID
 40
1.0
  9
$TEXTSTYLE
  7
Beschlag
  9
$CLAYER
  8
0
  9
$CELTYPE
  6
BYLAYER
  9
$CECOLOR
 62
   256
  9
$CELTSCALE
 40
1.0
  9
$DISPSILH
 70
     1
  9
$DIMSCALE
 40
1.0
  9
$DIMASZ
 40
2.0
  9
$DIMEXO
 40
2.0
  9
$DIMDLI
 40
0.0
  9
$DIMRND
 40
0.0
  9
$DIMDLE
 40
1.0
  9
$DIMEXE
 40
1.0
  9
$DIMTP
 40
0.0
  9
$DIMTM
 40
0.0
  9
$DIMTXT
 40
3.5
  9
$DIMCEN
 40
0.0
  9
$DIMTSZ
 40
0.0
  9
$DIMTOL
 70
     0
  9
$DIMLIM
 70
     0
  9
$DIMTIH
 70
     0
  9
$DIMTOH
 70
     0
  9
$DIMSE1
 70
     0
  9
$DIMSE2
 70
     0
  9
$DIMTAD
 70
     1
  9
$DIMZIN
 70
     8
  9
$DIMBLK
  1

  9
$DIMASO
 70
     1
  9
$DIMSHO
 70
     1
  9
$DIMPOST
  1

  9
$DIMAPOST
  1

  9
$DIMALT
 70
     0
  9
$DIMALTD
 70
     2
  9
$DIMALTF
 40
0.039370078740157
  9
$DIMLFAC
 40
1.0
  9
$DIMTOFL
 70
     1
  9
$DIMTVP
 40
0.0
  9
$DIMTIX
 70
     1
  9
$DIMSOXD
 70
     0
  9
$DIMSAH
 70
     1
  9
$DIMBLK1
  1
Oblique
  9
$DIMBLK2
  1
Oblique
  9
$DIMSTYLE
  2
OPO-SSTRICH
  9
$DIMCLRD
 70
   256
  9
$DIMCLRE
 70
   256
  9
$DIMCLRT
 70
   256
  9
$DIMTFAC
 40
0.7114285714285716
  9
$DIMGAP
 40
1.0
  9
$DIMJUST
 70
     0
  9
$DIMSD1
 70
     0
  9
$DIMSD2
 70
     0
  9
$DIMTOLJ
 70
     1
  9
$DIMTZIN
 70
     8
  9
$DIMALTZ
 70
     8
  9
$DIMALTTZ
 70
     8
  9
$DIMUPT
 70
     0
  9
$DIMDEC
 70
     1
  9
$DIMTDEC
 70
     1
  9
$DIMALTU
 70
     2
  9
$DIMALTTD
 70
     2
  9
$DIMTXSTY
  7
Beschlag
  9
$DIMAUNIT
 70
     0
  9
$DIMADEC
 70
     1
  9
$DIMALTRND
 40
0.0
  9
$DIMAZIN
 70
     2
  9
$DIMDSEP
 70
    46
  9
$DIMATFIT
 70
     3
  9
$DIMFRAC
 70
     0
  9
$DIMLDRBLK
  1
Oblique
  9
$DIMLUNIT
 70
     2
  9
$DIMLWD
 70
    -2
  9
$DIMLWE
 70
    -2
  9
$DIMTMOVE
 70
     2
  9
$DIMFXL
 40
1.0
  9
$DIMFXLON
 70
     0
  9
$DIMJOGANG
 40
0.7853981633974483
  9
$DIMTFILL
 70
     0
  9
$DIMTFILLCLR
 70
     0
  9
$DIMARCSYM
 70
     0
  9
$DIMLTYPE
  6

  9
$DIMLTEX1
  6

  9
$DIMLTEX2
  6

  9
$DIMTXTDIRECTION
 70
     0
  9
$LUNITS
 70
     2
  9
$LUPREC
 70
     1
  9
$SKETCHINC
 40
1.0
  9
$FILLETRAD
 40
0.0
  9
$AUNITS
 70
     0
  9
$AUPREC
 70
     1
  9
$MENU
  1
D:\ACL_CGWG\CGTAB13
  9
$ELEVATION
 40
0.0
  9
$PELEVATION
 40
0.0
  9
$THICKNESS
 40
0.0
  9
$LIMCHECK
 70
     0
  9
$CHAMFERA
 40
1.0
  9
$CHAMFERB
 40
1.0
  9
$CHAMFERC
 40
1.0
  9
$CHAMFERD
 40
0.7853981633974483
  9
$SKPOLY
 70
     0
  9
$TDCREATE
 40
2451739.891006944
  9
$TDUCREATE
 40
2451739.807673611
  9
$TDUPDATE
 40
2459178.911770834
  9
$TDUUPDATE
 40
2459178.870104167
  9
$TDINDWG
 40
0.0133954398
  9
$TDUSRTIMER
 40
0.0133954398
  9
$USRTIMER
 70
     1
  9
$ANGBASE
 50
0.0
  9
$ANGDIR
 70
     0
  9
$PDMODE
 70
     0
  9
$PDSIZE
 40
5.0
  9
$PLINEWID
 40
0.0
  9
$SPLFRAME
 70
     0
  9
$SPLINETYPE
 70
     6
  9
$SPLINESEGS
 70
     8
  9
$HANDSEED
  5
66C
  9
$SURFTAB1
 70
    12
  9
$SURFTAB2
 70
    12
  9
$SURFTYPE
 70
     6
  9
$SURFU
 70
    12
  9
$SURFV
 70
    12
  9
$UCSBASE
  2

  9
$UCSNAME
  2

  9
$UCSORG
 10
0.0
 20
0.0
 30
0.0
  9
$UCSXDIR
 10
1.0
 20
0.0
 30
0.0
  9
$UCSYDIR
 10
0.0
 20
1.0
 30
0.0
  9
$UCSORTHOREF
  2

  9
$UCSORTHOVIEW
 70
     0
  9
$UCSORGTOP
 10
0.0
 20
0.0
 30
0.0
  9
$UCSORGBOTTOM
 10
0.0
 20
0.0
 30
0.0
  9
$UCSORGLEFT
 10
0.0
 20
0.0
 30
0.0
  9
$UCSORGRIGHT
 10
0.0
 20
0.0
 30
0.0
  9
$UCSORGFRONT
 10
0.0
 20
0.0
 30
0.0
  9
$UCSORGBACK
 10
0.0
 20
0.0
 30
0.0
  9
$PUCSBASE
  2

  9
$PUCSNAME
  2

  9
$PUCSORG
 10
0.0
 20
0.0
 30
0.0
  9
$PUCSXDIR
 10
1.0
 20
0.0
 30
0.0
  9
$PUCSYDIR
 10
0.0
 20
1.0
 30
0.0
  9
$PUCSORTHOREF
  2

  9
$PUCSORTHOVIEW
 70
     0
  9
$PUCSORGTOP
 10
0.0
 20
0.0
 30
0.0
  9
$PUCSORGBOTTOM
 10
0.0
 20
0.0
 30
0.0
  9
$PUCSORGLEFT
 10
0.0
 20
0.0
 30
0.0
  9
$PUCSORGRIGHT
 10
0.0
 20
0.0
 30
0.0
  9
$PUCSORGFRONT
 10
0.0
 20
0.0
 30
0.0
  9
$PUCSORGBACK
 10
0.0
 20
0.0
 30
0.0
  9
$USERI1
 70
     0
  9
$USERI2
 70
     0
  9
$USERI3
 70
     0
  9
$USERI4
 70
     0
  9
$USERI5
 70
     0
  9
$USERR1
 40
0.0
  9
$USERR2
 40
0.0
  9
$USERR3
 40
0.0
  9
$USERR4
 40
0.0
  9
$USERR5
 40
0.0
  9
$WORLDVIEW
 70
     1
  9
$SHADEDGE
 70
     3
  9
$SHADEDIF
 70
    70
  9
$TILEMODE
 70
     1
  9
$MAXACTVP
 70
    48
  9
$PINSBASE
 10
0.0
 20
0.0
 30
0.0
  9
$PLIMCHECK
 70
     0
  9
$PEXTMIN
 10
1.000000000000000E+20
 20
1.000000000000000E+20
 30
1.000000000000000E+20
  9
$PEXTMAX
 10
-1.000000000000000E+20
 20
-1.000000000000000E+20
 30
-1.000000000000000E+20
  9
$PLIMMIN
 10
0.0
 20
0.0
  9
$PLIMMAX
 10
420.0
 20
297.0
  9
$UNITMODE
 70
     0
  9
$VISRETAIN
 70
     1
  9
$PLINEGEN
 70
     0
  9
$PSLTSCALE
 70
     1
  9
$TREEDEPTH
 70
  3020
  9
$CMLSTYLE
  2
STANDARD
  9
$CMLJUST
 70
     0
  9
$CMLSCALE
 40
1.0
  9
$PROXYGRAPHICS
 70
     1
  9
$MEASUREMENT
 70
     1
  9
$CELWEIGHT
370
    -1
  9
$ENDCAPS
280
     0
  9
$JOINSTYLE
280
     0
  9
$LWDISPLAY
290
     0
  9
$INSUNITS
 70
     4
  9
$HYPERLINKBASE
  1

  9
$STYLESHEET
  1
Hebgo JPG.ctb
  9
$XEDIT
290
     1
  9
$CEPSNTYPE
380
     0
  9
$PSTYLEMODE
290
     1
  9
$FINGERPRINTGUID
  2
{DEF6964E-5F8B-11D3-8AEE-0008C71A8CF4}
  9
$VERSIONGUID
  2
{F0E454AE-92F8-F04E-9DE0-9EAE453EB8A8}
  9
$EXTNAMES
290
     1
  9
$PSVPSCALE
 40
0.0
  9
$OLESTARTUP
290
     0
  9
$SORTENTS
280
    96
  9
$INDEXCTL
280
     0
  9
$HIDETEXT
280
     0
  9
$XCLIPFRAME
280
     2
  9
$HALOGAP
280
     0
  9
$OBSCOLOR
 70
   257
  9
$OBSLTYPE
280
     0
  9
$INTERSECTIONDISPLAY
280
     0
  9
$INTERSECTIONCOLOR
 70
   257
  9
$DIMASSOC
280
     1
  9
$PROJECTNAME
  1

  9
$CAMERADISPLAY
290
     0
  9
$LENSLENGTH
 40
50.0
  9
$CAMERAHEIGHT
 40
0.0
  9
$STEPSPERSEC
 40
2.0
  9
$STEPSIZE
 40
6.0
  9
$3DDWFPREC
 40
2.0
  9
$PSOLWIDTH
 40
0.25
  9
$PSOLHEIGHT
 40
4.0
  9
$LOFTANG1
 40
1.570796326794896
  9
$LOFTANG2
 40
1.570796326794896
  9
$LOFTMAG1
 40
0.0
  9
$LOFTMAG2
 40
0.0
  9
$LOFTPARAM
 70
     7
  9
$LOFTNORMALS
280
     1
  9
$LATITUDE
 40
37.795
  9
$LONGITUDE
 40
-122.394
  9
$NORTHDIRECTION
 40
0.0
  9
$TIMEZONE
 70
 -8000
  9
$LIGHTGLYPHDISPLAY
280
     1
  9
$TILEMODELIGHTSYNCH
280
     1
  9
$CMATERIAL
347
5B5
  9
$SOLIDHIST
280
     0
  9
$SHOWHIST
280
     1
  9
$DWFFRAME
280
     2
  9
$DGNFRAME
280
     0
  9
$REALWORLDSCALE
290
     1
  9
$INTERFERECOLOR
 62
     1
  9
$INTERFEREOBJVS
345
5D7
  9
$INTERFEREVPVS
346
5D4
  9
$CSHADOW
280
     0
  9
$SHADOWPLANELOCATION
 40
0.0
  0
ENDSEC
  0
SECTION
  2
CLASSES
  0
CLASS
  1
ACDBDICTIONARYWDFLT
  2
AcDbDictionaryWithDefault
  3
ObjectDBX Classes
 90
        0
 91
        1
280
     0
281
     0
  0
CLASS
  1
DICTIONARYVAR
  2
AcDbDictionaryVar
  3
ObjectDBX Classes
 90
        0
 91
       10
280
     0
281
     0
  0
CLASS
  1
PLOTSETTINGS
  2
AcDbPlotSettings
  3
ObjectDBX Classes
 90
        0
 91
        3
280
     0
281
     0
  0
CLASS
  1
MATERIAL
  2
AcDbMaterial
  3
ObjectDBX Classes
 90
     1153
 91
        3
280
     0
281
     0
  0
CLASS
  1
VISUALSTYLE
  2
AcDbVisualStyle
  3
ObjectDBX Classes
 90
     4095
 91
       24
280
     0
281
     0
  0
CLASS
  1
TABLESTYLE
  2
AcDbTableStyle
  3
ObjectDBX Classes
 90
     4095
 91
        1
280
     0
281
     0
  0
CLASS
  1
SCALE
  2
AcDbScale
  3
ObjectDBX Classes
 90
     1153
 91
       17
280
     0
281
     0
  0
CLASS
  1
MLEADERSTYLE
  2
AcDbMLeaderStyle
  3
ACDB_MLEADERSTYLE_CLASS
 90
     4095
 91
        1
280
     0
281
     0
  0
CLASS
  1
ACDBSECTIONVIEWSTYLE
  2
AcDbSectionViewStyle
  3
ObjectDBX Classes
 90
     1025
 91
        1
280
     0
281
     0
  0
CLASS
  1
ACDBDETAILVIEWSTYLE
  2
AcDbDetailViewStyle
  3
ObjectDBX Classes
 90
     1025
 91
        1
280
     0
281
     0
  0
CLASS
  1
RAPIDRTRENDERSETTINGS
  2
AcDbRapidRTRenderSettings
  3
ObjectDBX Classes
 90
     1024
 91
        7
280
     0
281
     0
  0
CLASS
  1
SORTENTSTABLE
  2
AcDbSortentsTable
  3
ObjectDBX Classes
 90
        0
 91
        1
280
     0
281
     0
  0
CLASS
  1
CELLSTYLEMAP
  2
AcDbCellStyleMap
  3
ObjectDBX Classes
 90
     1152
 91
        1
280
     0
281
     0
  0
CLASS
  1
MENTALRAYRENDERSETTINGS
  2
AcDbMentalRayRenderSettings
  3
SCENEOE
 90
     1024
 91
        1
280
     0
281
     0
  0
ENDSEC
  0
SECTION
  2
TABLES
  0
TABLE
  2
VPORT
  5
8
330
0
100
AcDbSymbolTable
 70
     1
1001
ACAD
1000
DbSaveVer
1071
      224
  0
VPORT
  5
579
330
8
100
AcDbSymbolTableRecord
100
AcDbViewportTableRecord
  2
*Active
 70
     0
 10
0.0
 20
0.0
 11
1.0
 21
1.0
 12
-63.10790307420768
 22
4.070264743544157
 13
0.0
 23
0.0
 14
0.5
 24
0.5
 15
10.0
 25
10.0
 16
0.0
 26
0.0
 36
1.0
 17
0.0
 27
0.0
 37
0.0
 40
70.57912758799762
 41
2.014516129032258
 42
50.0
 43
0.0
 44
0.0
 50
0.0
 51
0.0
 71
     0
 72
   800
 73
     1
 74
     1
 75
     0
 76
     0
 77
     0
 78
     0
281
     0
 65
     1
110
0.0
120
0.0
130
0.0
111
1.0
121
0.0
131
0.0
112
0.0
122
1.0
132
0.0
 79
     0
146
0.0
348
5D3
 60
     3
 61
     5
292
     1
282
     1
141
0.0
142
0.0
 63
   250
421
  3355443
1001
ACAD_NAV_VCDISPLAY
1070
     3
  0
ENDTAB
  0
TABLE
  2
LTYPE
  5
5
330
0
100
AcDbSymbolTable
 70
     4
  0
LTYPE
  5
14
330
5
100
AcDbSymbolTableRecord
100
AcDbLinetypeTableRecord
  2
BYBLOCK
 70
     0
  3

 72
    65
 73
     0
 40
0.0
  0
LTYPE
  5
15
330
5
100
AcDbSymbolTableRecord
100
AcDbLinetypeTableRecord
  2
BYLAYER
 70
     0
  3

 72
    65
 73
     0
 40
0.0
  0
LTYPE
  5
16
330
5
100
AcDbSymbolTableRecord
100
AcDbLinetypeTableRecord
  2
CONTINUOUS
 70
     0
  3
_______________________________________________
 72
    65
 73
     2
 40
1.0
 49
1.0
 74
     0
 49
0.0
 74
     0
  0
LTYPE
  5
30F
330
5
100
AcDbSymbolTableRecord
100
AcDbLinetypeTableRecord
  2
STRICHPUNKT
 70
     0
  3
__ . __ . __ . __ . __ . __ . __ . __ . __ . __
 72
    65
 73
     4
 40
1.0
 49
0.5
 74
     0
 49
-0.25
 74
     0
 49
0.0
 74
     0
 49
-0.25
 74
     0
  0
ENDTAB
  0
TABLE
  2
LAYER
  5
2
330
0
100
AcDbSymbolTable
 70
    14
  0
LAYER
  5
F
330
2
100
AcDbSymbolTableRecord
100
AcDbLayerTableRecord
  2
0
 70
     0
 62
    30
  6
CONTINUOUS
370
    -3
390
F3
347
5C5
348
0
  0
LAYER
  5
120
330
2
100
AcDbSymbolTableRecord
100
AcDbLayerTableRecord
  2
1
 70
     0
 62
     2
  6
CONTINUOUS
370
    -3
390
F3
347
5C5
348
0
  0
LAYER
  5
121
330
2
100
AcDbSymbolTableRecord
100
AcDbLayerTableRecord
  2
2
 70
     0
 62
     9
  6
CONTINUOUS
370
    -3
390
F3
347
5C5
348
0
  0
LAYER
  5
123
330
2
100
AcDbSymbolTableRecord
100
AcDbLayerTableRecord
  2
4
 70
     1
 62
     4
  6
CONTINUOUS
370
    -3
390
F3
347
5C5
348
0
  0
LAYER
  5
124
330
2
100
AcDbSymbolTableRecord
100
AcDbLayerTableRecord
  2
5
 70
     0
 62
     1
  6
CONTINUOUS
370
    -3
390
F3
347
5C5
348
0
  0
LAYER
  5
125
330
2
100
AcDbSymbolTableRecord
100
AcDbLayerTableRecord
  2
6
 70
     0
 62
     3
  6
CONTINUOUS
370
    35
390
F3
347
5C5
348
0
  0
ENDTAB
  0
TABLE
  2
STYLE
  5
3
330
0
100
AcDbSymbolTable
 70
     4
  0
STYLE
  5
10
330
3
100
AcDbSymbolTableRecord
100
AcDbTextStyleTableRecord
  2
STANDARD
 70
     0
 40
0.0
 41
1.0
 50
0.0
 71
     0
 42
2.5
  3
ARIAL.TTF
  4

1001
ACAD
1000
Arial
1071
       34
  0
STYLE
  5
12B
330
3
100
AcDbSymbolTableRecord
100
AcDbTextStyleTableRecord
  2
Beschlag
 70
     0
 40
0.0
 41
1.0
 50
0.0
 71
     0
 42
3.5
  3
ARIAL.TTF
  4

1001
ACAD
1000
Arial
1071
       34
  0
STYLE
  5
644
330
3
100
AcDbSymbolTableRecord
100
AcDbTextStyleTableRecord
  2
MuM_Notiztext
 70
     0
 40
0.0
 41
1.0
 50
0.0
 71
     0
 42
0.2
  3
arial.ttf
  4

1001
ACAD
1000
Arial
1071
      256
  0
STYLE
  5
645
330
3
100
AcDbSymbolTableRecord
100
AcDbTextStyleTableRecord
  2
AZC_010
 70
     0
 40
25.0
 41
1.0
 50
0.0
 71
     0
 42
25.0
  3
isocp.shx
  4

  0
ENDTAB
  0
TABLE
  2
VIEW
  5
6
330
0
100
AcDbSymbolTable
 70
     1
  0
ENDTAB
  0
TABLE
  2
UCS
  5
7
330
0
100
AcDbSymbolTable
 70
     0
  0
ENDTAB
  0
TABLE
  2
APPID
  5
9
330
0
100
AcDbSymbolTable
 70
    16
  0
APPID
  5
11
330
9
100
AcDbSymbolTableRecord
100
AcDbRegAppTableRecord
  2
ACAD
 70
     0
  0
APPID
  5
605
330
9
100
AcDbSymbolTableRecord
100
AcDbRegAppTableRecord
  2
CADT-VIS-MAPPING
 70
     0
  0
APPID
  5
606
330
9
100
AcDbSymbolTableRecord
100
AcDbRegAppTableRecord
  2
CADT-LAYMAT
 70
     0
  0
APPID
  5
60F
330
9
100
AcDbSymbolTableRecord
100
AcDbRegAppTableRecord
  2
CADT_UNIT
 70
     0
  0
APPID
  5
619
330
9
100
AcDbSymbolTableRecord
100
AcDbRegAppTableRecord
  2
AZC_MC_BTDEF
 70
     0
  0
APPID
  5
61A
330
9
100
AcDbSymbolTableRecord
100
AcDbRegAppTableRecord
  2
AZC_MC_BTREF
 70
     0
  0
APPID
  5
61B
330
9
100
AcDbSymbolTableRecord
100
AcDbRegAppTableRecord
  2
AZC_MC_BTDAR
 70
     0
  0
APPID
  5
61C
330
9
100
AcDbSymbolTableRecord
100
AcDbRegAppTableRecord
  2
AZC_MC_BTUCS
 70
     0
  0
APPID
  5
61D
330
9
100
AcDbSymbolTableRecord
100
AcDbRegAppTableRecord
  2
AZC_MC_BEARB
 70
     0
  0
APPID
  5
61E
330
9
100
AcDbSymbolTableRecord
100
AcDbRegAppTableRecord
  2
AZC_NCTEC
 70
     0
  0
APPID
  5
61F
330
9
100
AcDbSymbolTableRecord
100
AcDbRegAppTableRecord
  2
CADTH_APDATA
 70
     0
  0
APPID
  5
620
330
9
100
AcDbSymbolTableRecord
100
AcDbRegAppTableRecord
  2
CADTH_PART
 70
     0
  0
APPID
  5
621
330
9
100
AcDbSymbolTableRecord
100
AcDbRegAppTableRecord
  2
CADT_GEN_MASTER
 70
     0
  0
APPID
  5
622
330
9
100
AcDbSymbolTableRecord
100
AcDbRegAppTableRecord
  2
CADT_GEN_SLAVE
 70
     0
  0
APPID
  5
631
330
9
100
AcDbSymbolTableRecord
100
AcDbRegAppTableRecord
  2
ACAD_EXEMPT_FROM_CAD_STANDARDS
 70
     0
  0
APPID
  5
649
330
9
100
AcDbSymbolTableRecord
100
AcDbRegAppTableRecord
  2
ACAD_NAV_VCDISPLAY
 70
     0
  0
ENDTAB
  0
TABLE
  2
DIMSTYLE
  5
A
330
0
100
AcDbSymbolTable
 70
     5
100
AcDbDimStyleTable
 71
     1
340
209
  0
DIMSTYLE
105
209
102
{ACAD_REACTORS
330
325
330
329
330
32B
330
331
330
332
102
}
330
A
100
AcDbSymbolTableRecord
100
AcDbDimStyleTableRecord
  2
OPO-SSTRICH
 70
     0
 41
2.0
 42
2.0
 43
0.0
 44
1.0
 46
1.0
 73
     0
 74
     0
 77
     1
 78
     8
 79
     2
140
3.5
141
0.0
143
0.039370078740157
146
0.7114285714285716
147
1.0
172
     1
173
     1
174
     1
176
   256
177
   256
178
   256
179
     1
271
     1
272
     1
279
     2
284
     8
285
     8
286
     8
340
12B
341
203
343
203
344
203
  0
DIMSTYLE
105
646
330
A
100
AcDbSymbolTableRecord
100
AcDbDimStyleTableRecord
  2
Standard
 70
     0
340
10
  0
DIMSTYLE
105
647
330
A
100
AcDbSymbolTableRecord
100
AcDbDimStyleTableRecord
  2
MuM_Bemassung
 70
     0
 40
0.1
 41
2.5
 42
0.0
 43
8.0
 44
3.174999999999999
 45
0.00000001
 46
10.0
 73
     0
 74
     0
 77
     1
 78
     8
 79
     2
140
3.0
143
0.03937
146
0.6000000238418579
147
0.25
171
     3
172
     1
176
   256
177
   256
178
   256
271
     2
272
     2
274
     3
275
     1
278
    44
284
     8
285
     8
286
     8
340
644
371
    -1
372
    -1
  0
DIMSTYLE
105
648
330
A
100
AcDbSymbolTableRecord
100
AcDbDimStyleTableRecord
  2
AZC_010
 70
     0
 40
10.0
340
645
  0
ENDTAB
  0
TABLE
  2
BLOCK_RECORD
  5
1
330
0
100
AcDbSymbolTable
 70
    12
  0
BLOCK_RECORD
  5
1A
102
{ACAD_XDICTIONARY
360
1F6
102
}
330
1
100
AcDbSymbolTableRecord
100
AcDbBlockTableRecord
  2
*MODEL_SPACE
340
F6
 70
     0
280
     1
281
     0
  0
BLOCK_RECORD
  5
17
102
{ACAD_XDICTIONARY
360
1F4
102
}
330
1
100
AcDbSymbolTableRecord
100
AcDbBlockTableRecord
  2
*PAPER_SPACE
340
F7
 70
     0
280
     1
281
     0
  0
BLOCK_RECORD
  5
203
330
1
100
AcDbSymbolTableRecord
100
AcDbBlockTableRecord
  2
_Oblique
340
0
102
{BLKREFS
331
376
331
377
331
393
331
394
331
39C
331
39D
331
3CA
331
3CB
331
636
331
637
102
}
 70
     0
280
     1
281
     0
  0
BLOCK_RECORD
  5
253
330
1
100
AcDbSymbolTableRecord
100
AcDbBlockTableRecord
  2
NullPunkt
340
0
102
{BLKREFS
331
25B
102
}
 70
     0
280
     1
281
     0
  0
BLOCK_RECORD
  5
29D
330
1
100
AcDbSymbolTableRecord
100
AcDbBlockTableRecord
  2
*X2
340
0
102
{BLKREFS
331
326
102
}
 70
     0
280
     1
281
     0
  0
BLOCK_RECORD
  5
335
330
1
100
AcDbSymbolTableRecord
100
AcDbBlockTableRecord
  2
*D3
340
0
 70
     0
280
     1
281
     0
  0
BLOCK_RECORD
  5
341
330
1
100
AcDbSymbolTableRecord
100
AcDbBlockTableRecord
  2
*D4
340
0
 70
     0
280
     1
281
     0
  0
BLOCK_RECORD
  5
34E
330
1
100
AcDbSymbolTableRecord
100
AcDbBlockTableRecord
  2
*D5
340
0
 70
     0
280
     1
281
     0
  0
BLOCK_RECORD
  5
35B
330
1
100
AcDbSymbolTableRecord
100
AcDbBlockTableRecord
  2
*D6
340
0
 70
     0
280
     1
281
     0
  0
BLOCK_RECORD
  5
367
330
1
100
AcDbSymbolTableRecord
100
AcDbBlockTableRecord
  2
*D7
340
0
 70
     0
280
     1
281
     0
  0
BLOCK_RECORD
  5
610
330
1
100
AcDbSymbolTableRecord
100
AcDbBlockTableRecord
  2
CUSTINFO
340
0
 70
     0
280
     1
281
     0
  0
BLOCK_RECORD
  5
623
330
1
100
AcDbSymbolTableRecord
100
AcDbBlockTableRecord
  2
AZCBTDEF
340
0
 70
     0
280
     1
281
     0
  0
ENDTAB
  0
ENDSEC
  0
SECTION
  2
BLOCKS
  0
BLOCK
  5
1B
330
1A
100
AcDbEntity
  8
0
100
AcDbBlockBegin
  2
*MODEL_SPACE
 70
     0
 10
0.0
 20
0.0
 30
0.0
  3
*MODEL_SPACE
  1

  0
ENDBLK
  5
1C
330
1A
100
AcDbEntity
  8
0
100
AcDbBlockEnd
  0
BLOCK
  5
18
330
17
100
AcDbEntity
 67
     1
  8
0
100
AcDbBlockBegin
  2
*PAPER_SPACE
 70
     0
 10
0.0
 20
0.0
 30
0.0
  3
*PAPER_SPACE
  1

  0
ENDBLK
  5
19
330
17
100
AcDbEntity
 67
     1
  8
0
100
AcDbBlockEnd
  0
BLOCK
  5
205
330
203
100
AcDbEntity
  8
0
100
AcDbBlockBegin
  2
_Oblique
 70
     0
 10
0.0
 20
0.0
 30
0.0
  3
_Oblique
  1

  0
LINE
  5
204
330
203
100
AcDbEntity
  8
0
 62
     0
370
    -2
100
AcDbLine
 10
-0.5
 20
-0.5
 30
0.0
 11
0.5
 21
0.5
 31
0.0
  0
ENDBLK
  5
206
330
203
100
AcDbEntity
  8
0
100
AcDbBlockEnd
  0
BLOCK
  5
259
330
253
100
AcDbEntity
  8
0
100
AcDbBlockBegin
  2
NullPunkt
 70
     0
 10
0.0
 20
0.0
 30
0.0
  3
NullPunkt
  1

  0
SOLID
  5
254
330
253
100
AcDbEntity
  8
5
100
AcDbTrace
 10
0.0
 20
0.0
 30
0.0
 11
2.0
 21
0.0
 31
0.0
 12
0.0
 22
-2.0
 32
0.0
 13
0.0
 23
-2.0
 33
0.0
  0
SOLID
  5
255
330
253
100
AcDbEntity
  8
5
100
AcDbTrace
 10
0.0
 20
0.0
 30
0.0
 11
-2.0
 21
0.0
 31
0.0
 12
0.0
 22
2.0
 32
0.0
 13
0.0
 23
2.0
 33
0.0
  0
LWPOLYLINE
  5
256
330
253
100
AcDbEntity
  8
5
100
AcDbPolyline
 90
        2
 70
     0
 43
0.0
 10
0.0
 20
2.0
 10
0.0
 20
-2.0
  0
LWPOLYLINE
  5
257
330
253
100
AcDbEntity
  8
5
100
AcDbPolyline
 90
        2
 70
     0
 43
0.0
 10
-2.0
 20
0.0
 10
2.0
 20
0.0
  0
CIRCLE
  5
258
330
253
100
AcDbEntity
  8
5
100
AcDbCircle
 10
0.0
 20
0.0
 30
0.0
 40
2.0
  0
ENDBLK
  5
25A
330
253
100
AcDbEntity
  8
0
100
AcDbBlockEnd
  0
BLOCK
  5
301
330
29D
100
AcDbEntity
  8
0
100
AcDbBlockBegin
  2
*X2
 70
     1
 10
0.0
 20
0.0
 30
0.0
  3
*X2
  1

  0
LINE
  5
29E
330
29D
100
AcDbEntity
  8
0
 62
     0
100
AcDbLine
 10
1013.943351596236
 20
-231.6959541419862
 30
0.0
 11
1016.219615357232
 21
-229.4196903809894
 31
0.0
  0
LINE
  5
29F
330
29D
100
AcDbEntity
  8
0
 62
     0
100
AcDbLine
 10
1012.024638607739
 20
-231.9176108556352
 30
0.0
 11
1014.300902368736
 21
-229.6413470946385
 31
0.0
  0
LINE
  5
2A0
330
29D
100
AcDbEntity
  8
0
 62
     0
100
AcDbLine
 10
1010.105925619242
 20
-232.1392675692844
 30
0.0
 11
1012.714418507116
 21
-229.5307746814104
 31
0.0
  0
LINE
  5
2A1
330
29D
100
AcDbEntity
  8
0
 62
     0
100
AcDbLine
 10
1008.187212630745
 20
-232.3609242829334
 30
0.0
 11
1010.761214568521
 21
-229.7869223451572
 31
0.0
  0
LINE
  5
2A2
330
29D
100
AcDbEntity
  8
0
 62
     0
100
AcDbLine
 10
1006.268499642248
 20
-232.5825809965825
 30
0.0
 11
1008.808010629927
 21
-230.0430700089043
 31
0.0
  0
LINE
  5
2A3
330
29D
100
AcDbEntity
  8
0
 62
     0
100
AcDbLine
 10
1004.349786653752
 20
-232.8042377102316
 30
0.0
 11
1006.854806691332
 21
-230.299217672651
 31
0.0
  0
LINE
  5
2A4
330
29D
100
AcDbEntity
  8
0
 62
     0
100
AcDbLine
 10
1002.431073665255
 20
-233.0258944238807
 30
0.0
 11
1004.901602752738
 21
-230.5553653363977
 31
0.0
  0
LINE
  5
2A5
330
29D
100
AcDbEntity
  8
0
 62
     0
100
AcDbLine
 10
1000.512360676758
 20
-233.2475511375298
 30
0.0
 11
1002.788624437755
 21
-230.971287376533
 31
0.0
  0
LINE
  5
2A6
330
29D
100
AcDbEntity
  8
0
 62
     0
100
AcDbLine
 10
998.5936476882613
 20
-233.4692078511789
 30
0.0
 11
1000.869911449258
 21
-231.192944090182
 31
0.0
  0
LINE
  5
2A7
330
29D
100
AcDbEntity
  8
0
 62
     0
100
AcDbLine
 10
996.6749346997644
 20
-233.6908645648279
 30
0.0
 11
998.9511984607613
 21
-231.4146008038311
 31
0.0
  0
LINE
  5
2A8
330
29D
100
AcDbEntity
  8
0
 62
     0
100
AcDbLine
 10
994.7562217112677
 20
-233.912521278477
 30
0.0
 11
997.0324854722647
 21
-231.6362575174802
 31
0.0
  0
LINE
  5
2A9
330
29D
100
AcDbEntity
  8
0
 62
     0
100
AcDbLine
 10
992.837508722771
 20
-234.1341779921261
 30
0.0
 11
995.1137724837678
 21
-231.8579142311293
 31
0.0
  0
LINE
  5
2AA
330
29D
100
AcDbEntity
  8
0
 62
     0
100
AcDbLine
 10
990.9187957342739
 20
-234.3558347057752
 30
0.0
 11
993.1950594952709
 21
-232.0795709447784
 31
0.0
  0
LINE
  5
2AB
330
29D
100
AcDbEntity
  8
0
 62
     0
100
AcDbLine
 10
989.0000827457773
 20
-234.5774914194243
 30
0.0
 11
991.2763465067742
 21
-232.3012276584274
 31
0.0
  0
LINE
  5
2AC
330
29D
100
AcDbEntity
  8
0
 62
     0
100
AcDbLine
 10
987.0813697572804
 20
-234.7991481330734
 30
0.0
 11
989.3576335182775
 21
-232.5228843720766
 31
0.0
  0
LINE
  5
2AD
330
29D
100
AcDbEntity
  8
0
 62
     0
100
AcDbLine
 10
985.1626567687837
 20
-235.0208048467225
 30
0.0
 11
987.4389205297807
 21
-232.7445410857256
 31
0.0
  0
LINE
  5
2AE
330
29D
100
AcDbEntity
  8
0
 62
     0
100
AcDbLine
 10
983.243943780287
 20
-235.2424615603716
 30
0.0
 11
985.5202075412838
 21
-232.9661977993747
 31
0.0
  0
LINE
  5
2AF
330
29D
100
AcDbEntity
  8
0
 62
     0
100
AcDbLine
 10
981.3252307917901
 20
-235.4641182740206
 30
0.0
 11
983.6014945527869
 21
-233.1878545130238
 31
0.0
  0
LINE
  5
2B0
330
29D
100
AcDbEntity
  8
0
 62
     0
100
AcDbLine
 10
979.4065178032933
 20
-235.6857749876697
 30
0.0
 11
981.6827815642902
 21
-233.4095112266729
 31
0.0
  0
LINE
  5
2B1
330
29D
100
AcDbEntity
  8
0
 62
     0
100
AcDbLine
 10
977.4878048147964
 20
-235.9074317013188
 30
0.0
 11
979.7640685757935
 21
-233.631167940322
 31
0.0
  0
LINE
  5
2B2
330
29D
100
AcDbEntity
  8
0
 62
     0
100
AcDbLine
 10
975.5690918262997
 20
-236.1290884149679
 30
0.0
 11
977.8453555872967
 21
-233.852824653971
 31
0.0
  0
LINE
  5
2B3
330
29D
100
AcDbEntity
  8
0
 62
     0
100
AcDbLine
 10
973.6503788378028
 20
-236.350745128617
 30
0.0
 11
975.9266425987998
 21
-234.0744813676201
 31
0.0
  0
LINE
  5
2B4
330
29D
100
AcDbEntity
  8
0
 62
     0
100
AcDbLine
 10
971.7316658493061
 20
-236.5724018422661
 30
0.0
 11
974.0079296103029
 21
-234.2961380812692
 31
0.0
  0
LINE
  5
2B5
330
29D
100
AcDbEntity
  8
0
 62
     0
100
AcDbLine
 10
969.8129528608093
 20
-236.7940585559151
 30
0.0
 11
972.0892166218064
 21
-234.5177947949183
 31
0.0
  0
LINE
  5
2B6
330
29D
100
AcDbEntity
  8
0
 62
     0
100
AcDbLine
 10
967.8942398723124
 20
-237.0157152695643
 30
0.0
 11
970.2472572279544
 21
-234.6626979139224
 31
0.0
  0
LINE
  5
2B7
330
29D
100
AcDbEntity
  8
0
 62
     0
100
AcDbLine
 10
965.9755268838157
 20
-237.2373719832133
 30
0.0
 11
968.2940532893598
 21
-234.9188455776693
 31
0.0
  0
LINE
  5
2B8
330
29D
100
AcDbEntity
  8
0
 62
     0
100
AcDbLine
 10
968.6176261012976
 20
-234.5952727657317
 30
0.0
 11
969.3007040291963
 21
-233.9121948378329
 31
0.0
  0
LINE
  5
2B9
330
29D
100
AcDbEntity
  8
0
 62
     0
100
AcDbLine
 10
964.0568138953188
 20
-237.4590286968624
 30
0.0
 11
966.3408493507654
 21
-235.1749932414159
 31
0.0
  0
LINE
  5
2BA
330
29D
100
AcDbEntity
  8
0
 62
     0
100
AcDbLine
 10
966.4003512833469
 20
-235.1154913088345
 30
0.0
 11
967.3475000906018
 21
-234.1683425015795
 31
0.0
  0
LINE
  5
2BB
330
29D
100
AcDbEntity
  8
0
 62
     0
100
AcDbLine
 10
962.1381009068221
 20
-237.6806854105115
 30
0.0
 11
965.3942961520071
 21
-234.4244901653264
 31
0.0
  0
LINE
  5
2BC
330
29D
100
AcDbEntity
  8
0
 62
     0
100
AcDbLine
 10
960.2193879183253
 20
-237.9023421241606
 30
0.0
 11
963.4410922134126
 21
-234.6806378290733
 31
0.0
  0
LINE
  5
2BD
330
29D
100
AcDbEntity
  8
0
 62
     0
100
AcDbLine
 10
953.4093780408602
 20
-243.0152957267781
 30
0.0
 11
954.2858147347985
 21
-242.1388590328397
 31
0.0
  0
LINE
  5
2BE
330
29D
100
AcDbEntity
  8
0
 62
     0
100
AcDbLine
 10
958.2871782696305
 20
-238.1374954980077
 30
0.0
 11
961.4878882748181
 21
-234.93678549282
 31
0.0
  0
LINE
  5
2BF
330
29D
100
AcDbEntity
  8
0
 62
     0
100
AcDbLine
 10
952.2230352898191
 20
-242.5045822029715
 30
0.0
 11
959.5346843362236
 21
-235.1929331565669
 31
0.0
  0
LINE
  5
2C0
330
29D
100
AcDbEntity
  8
0
 62
     0
100
AcDbLine
 10
952.7925368302353
 20
-240.2380243877074
 30
0.0
 11
956.4317125037199
 21
-236.598848714223
 31
0.0
  0
LINE
  5
2C1
330
29D
100
AcDbEntity
  8
0
 62
     0
100
AcDbLine
 10
956.5280538192508
 20
-236.5025073986921
 30
0.0
 11
957.5125049545262
 21
-235.5180562634167
 31
0.0
  0
LINE
  5
2C2
330
29D
100
AcDbEntity
  8
0
 62
     0
100
AcDbLine
 10
953.2492072036864
 20
-238.0842977394085
 30
0.0
 11
953.6072703650194
 21
-237.7262345780756
 31
0.0
  0
LINE
  5
2C3
330
29D
100
AcDbEntity
  8
0
 62
     0
100
AcDbLine
 10
955.0049582489068
 20
-236.3285466941881
 30
0.0
 11
955.0882691485574
 21
-236.2452357945376
 31
0.0
  0
LINE
  5
2C4
330
29D
100
AcDbEntity
  8
0
 62
     0
100
AcDbLine
 10
1015.862064584732
 20
-231.4742974283371
 30
0.0
 11
1018.138328345729
 21
-229.1980336673403
 31
0.0
  0
LINE
  5
2C5
330
29D
100
AcDbEntity
  8
0
 62
     0
100
AcDbLine
 10
1017.780777573229
 20
-231.252640714688
 30
0.0
 11
1020.057041334226
 21
-228.9763769536912
 31
0.0
  0
LINE
  5
2C6
330
29D
100
AcDbEntity
  8
0
 62
     0
100
AcDbLine
 10
1019.699490561726
 20
-231.0309840010389
 30
0.0
 11
1021.975754322723
 21
-228.7547202400421
 31
0.0
  0
LINE
  5
2C7
330
29D
100
AcDbEntity
  8
0
 62
     0
100
AcDbLine
 10
1021.618203550223
 20
-230.8093272873898
 30
0.0
 11
1023.89446731122
 21
-228.533063526393
 31
0.0
  0
LINE
  5
2C8
330
29D
100
AcDbEntity
  8
0
 62
     0
100
AcDbLine
 10
1023.53691653872
 20
-230.5876705737407
 30
0.0
 11
1025.813180299716
 21
-228.3114068127439
 31
0.0
  0
LINE
  5
2C9
330
29D
100
AcDbEntity
  8
0
 62
     0
100
AcDbLine
 10
1025.455629527216
 20
-230.3660138600916
 30
0.0
 11
1027.731893288213
 21
-228.0897500990948
 31
0.0
  0
LINE
  5
2CA
330
29D
100
AcDbEntity
  8
0
 62
     0
100
AcDbLine
 10
1027.374342515713
 20
-230.1443571464425
 30
0.0
 11
1029.65060627671
 21
-227.8680933854457
 31
0.0
  0
LINE
  5
2CB
330
29D
100
AcDbEntity
  8
0
 62
     0
100
AcDbLine
 10
1029.29305550421
 20
-229.9227004327935
 30
0.0
 11
1031.569319265207
 21
-227.6464366717966
 31
0.0
  0
LINE
  5
2CC
330
29D
100
AcDbEntity
  8
0
 62
     0
100
AcDbLine
 10
1031.211768492707
 20
-229.7010437191444
 30
0.0
 11
1033.488032253703
 21
-227.4247799581476
 31
0.0
  0
LINE
  5
2CD
330
29D
100
AcDbEntity
  8
0
 62
     0
100
AcDbLine
 10
1033.130481481204
 20
-229.4793870054953
 30
0.0
 11
1035.406745242201
 21
-227.2031232444984
 31
0.0
  0
LINE
  5
2CE
330
29D
100
AcDbEntity
  8
0
 62
     0
100
AcDbLine
 10
1035.0491944697
 20
-229.2577302918462
 30
0.0
 11
1037.325458230697
 21
-226.9814665308494
 31
0.0
  0
LINE
  5
2CF
330
29D
100
AcDbEntity
  8
0
 62
     0
100
AcDbLine
 10
1036.967907458197
 20
-229.0360735781971
 30
0.0
 11
1039.244171219194
 21
-226.7598098172003
 31
0.0
  0
LINE
  5
2D0
330
29D
100
AcDbEntity
  8
0
 62
     0
100
AcDbLine
 10
1038.886620446694
 20
-228.814416864548
 30
0.0
 11
1041.162884207691
 21
-226.5381531035512
 31
0.0
  0
LINE
  5
2D1
330
29D
100
AcDbEntity
  8
0
 62
     0
100
AcDbLine
 10
1040.805333435191
 20
-228.592760150899
 30
0.0
 11
1043.081597196188
 21
-226.3164963899021
 31
0.0
  0
LINE
  5
2D2
330
29D
100
AcDbEntity
  8
0
 62
     0
100
AcDbLine
 10
1042.724046423688
 20
-228.3711034372498
 30
0.0
 11
1045.000310184684
 21
-226.094839676253
 31
0.0
  0
LINE
  5
2D3
330
29D
100
AcDbEntity
  8
0
 62
     0
100
AcDbLine
 10
1052.598446597041
 20
-218.4967032638972
 30
0.0
 11
1054.079854134159
 21
-217.0152957267781
 31
0.0
  0
LINE
  5
2D4
330
29D
100
AcDbEntity
  8
0
 62
     0
100
AcDbLine
 10
1044.642759412184
 20
-228.1494467236008
 30
0.0
 11
1046.919023173181
 21
-225.8731829626039
 31
0.0
  0
LINE
  5
2D5
330
29D
100
AcDbEntity
  8
0
 62
     0
100
AcDbLine
 10
1052.957076785907
 20
-219.8351293498777
 30
0.0
 11
1055.776910409007
 21
-217.0152957267781
 31
0.0
  0
LINE
  5
2D6
330
29D
100
AcDbEntity
  8
0
 62
     0
100
AcDbLine
 10
1046.561472400681
 20
-227.9277900099517
 30
0.0
 11
1048.837736161678
 21
-225.6515262489548
 31
0.0
  0
LINE
  5
2D7
330
29D
100
AcDbEntity
  8
0
 62
     0
100
AcDbLine
 10
1053.315706974775
 20
-221.1735554358583
 30
0.0
 11
1057.337735663831
 21
-217.1515267468018
 31
0.0
  0
LINE
  5
2D8
330
29D
100
AcDbEntity
  8
0
 62
     0
100
AcDbLine
 10
1048.480185389178
 20
-227.7061332963026
 30
0.0
 11
1050.756449150175
 21
-225.4298695353057
 31
0.0
  0
LINE
  5
2D9
330
29D
100
AcDbEntity
  8
0
 62
     0
100
AcDbLine
 10
1056.171022958702
 20
-220.0152957267781
 30
0.0
 11
1059.171022958703
 21
-217.0152957267781
 31
0.0
  0
LINE
  5
2DA
330
29D
100
AcDbEntity
  8
0
 62
     0
100
AcDbLine
 10
1053.674337163642
 20
-222.5119815218389
 30
0.0
 11
1055.701504643807
 21
-220.4848140416733
 31
0.0
  0
LINE
  5
2DB
330
29D
100
AcDbEntity
  8
0
 62
     0
100
AcDbLine
 10
1050.398898377675
 20
-227.4844765826535
 30
0.0
 11
1052.928791391431
 21
-224.9545835688973
 31
0.0
  0
LINE
  5
2DC
330
29D
100
AcDbEntity
  8
0
 62
     0
100
AcDbLine
 10
1057.86807923355
 20
-220.015295726778
 30
0.0
 11
1060.86807923355
 21
-217.0152957267781
 31
0.0
  0
LINE
  5
2DD
330
29D
100
AcDbEntity
  8
0
 62
     0
100
AcDbLine
 10
1053.473573167254
 20
-224.4098017930745
 30
0.0
 11
1055.701504643807
 21
-222.1818703165211
 31
0.0
  0
LINE
  5
2DE
330
29D
100
AcDbEntity
  8
0
 62
     0
100
AcDbLine
 10
1045.201504643807
 20
-234.3789265913687
 30
0.0
 11
1046.565135508398
 21
-233.0152957267781
 31
0.0
  0
LINE
  5
2DF
330
29D
100
AcDbEntity
  8
0
 62
     0
100
AcDbLine
 10
1059.565135508398
 20
-220.0152957267778
 30
0.0
 11
1062.565135508398
 21
-217.0152957267781
 31
0.0
  0
LINE
  5
2E0
330
29D
100
AcDbEntity
  8
0
 62
     0
100
AcDbLine
 10
1052.317611366172
 20
-227.2628198690044
 30
0.0
 11
1055.701504643807
 21
-223.8789265913688
 31
0.0
  0
LINE
  5
2E1
330
29D
100
AcDbEntity
  8
0
 62
     0
100
AcDbLine
 10
1046.481848213526
 20
-234.7956392964972
 30
0.0
 11
1048.262191783246
 21
-233.0152957267781
 31
0.0
  0
LINE
  5
2E2
330
29D
100
AcDbEntity
  8
0
 62
     0
100
AcDbLine
 10
1062.762191783246
 20
-218.5152957267781
 30
0.0
 11
1064.262191783246
 21
-217.0152957267781
 31
0.0
  0
LINE
  5
2E3
330
29D
100
AcDbEntity
  8
0
 62
     0
100
AcDbLine
 10
1053.701504643807
 20
-227.5759828662164
 30
0.0
 11
1055.701504643807
 21
-225.5759828662164
 31
0.0
  0
LINE
  5
2E4
330
29D
100
AcDbEntity
  8
0
 62
     0
100
AcDbLine
 10
1060.201504643807
 20
-221.0759828662164
 30
0.0
 11
1062.201504643807
 21
-219.0759828662164
 31
0.0
  0
LINE
  5
2E5
330
29D
100
AcDbEntity
  8
0
 62
     0
100
AcDbLine
 10
1048.08037635095
 20
-234.8941674339211
 30
0.0
 11
1049.959248058093
 21
-233.0152957267781
 31
0.0
  0
LINE
  5
2E6
330
29D
100
AcDbEntity
  8
0
 62
     0
100
AcDbLine
 10
1064.454525530328
 20
-218.5200182545438
 30
0.0
 11
1065.954525530192
 21
-217.0200182546792
 31
0.0
  0
LINE
  5
2E7
330
29D
100
AcDbEntity
  8
0
 62
     0
100
AcDbLine
 10
1053.701504643807
 20
-229.2730391410642
 30
0.0
 11
1055.701504643807
 21
-227.2730391410642
 31
0.0
  0
LINE
  5
2E8
330
29D
100
AcDbEntity
  8
0
 62
     0
100
AcDbLine
 10
1060.201504643807
 20
-222.7730391410641
 30
0.0
 11
1062.201504643807
 21
-220.7730391410642
 31
0.0
  0
LINE
  5
2E9
330
29D
100
AcDbEntity
  8
0
 62
     0
100
AcDbLine
 10
1049.678904488374
 20
-234.9926955713449
 30
0.0
 11
1055.701504643807
 21
-228.9700954159119
 31
0.0
  0
LINE
  5
2EA
330
29D
100
AcDbEntity
  8
0
 62
     0
100
AcDbLine
 10
1064.701504643807
 20
-219.9700954159118
 30
0.0
 11
1066.201504643807
 21
-218.4700954159118
 31
0.0
  0
LINE
  5
2EB
330
29D
100
AcDbEntity
  8
0
 62
     0
100
AcDbLine
 10
1060.201504643807
 20
-224.4700954159117
 30
0.0
 11
1062.201504643807
 21
-222.4700954159118
 31
0.0
  0
LINE
  5
2EC
330
29D
100
AcDbEntity
  8
0
 62
     0
100
AcDbLine
 10
1051.527432625798
 20
-234.8412237087688
 30
0.0
 11
1055.701504643807
 21
-230.6671516907596
 31
0.0
  0
LINE
  5
2ED
330
29D
100
AcDbEntity
  8
0
 62
     0
100
AcDbLine
 10
1060.201504643807
 20
-226.1671516907595
 30
0.0
 11
1062.201504643807
 21
-224.1671516907596
 31
0.0
  0
LINE
  5
2EE
330
29D
100
AcDbEntity
  8
0
 62
     0
100
AcDbLine
 10
1060.201504643807
 20
-227.8642079656073
 30
0.0
 11
1062.201504643807
 21
-225.8642079656073
 31
0.0
  0
LINE
  5
2EF
330
29D
100
AcDbEntity
  8
0
 62
     0
100
AcDbLine
 10
1060.201504643807
 20
-229.5612642404549
 30
0.0
 11
1062.201504643807
 21
-227.561264240455
 31
0.0
  0
LINE
  5
2F0
330
29D
100
AcDbEntity
  8
0
 62
     0
100
AcDbLine
 10
1060.201504643807
 20
-231.2583205153027
 30
0.0
 11
1062.201504643807
 21
-229.2583205153027
 31
0.0
  0
LINE
  5
2F1
330
29D
100
AcDbEntity
  8
0
 62
     0
100
AcDbLine
 10
1060.821545175493
 20
-232.3353362584641
 30
0.0
 11
1062.64158570718
 21
-230.5152957267781
 31
0.0
  0
LINE
  5
2F2
330
29D
100
AcDbEntity
  8
0
 62
     0
100
AcDbLine
 10
1061.670073312917
 20
-233.183864395888
 30
0.0
 11
1064.338641982027
 21
-230.5152957267781
 31
0.0
  0
LINE
  5
2F3
330
29D
100
AcDbEntity
  8
0
 62
     0
100
AcDbLine
 10
1064.701504643807
 20
-230.1524330649981
 30
0.0
 11
1065.973847664251
 21
-228.8800900445545
 31
0.0
  0
LINE
  5
2F4
330
29D
100
AcDbEntity
  8
0
 62
     0
100
AcDbLine
 10
1062.518601450341
 20
-234.0323925333119
 30
0.0
 11
1066.201504643808
 21
-230.3494893398459
 31
0.0
  0
LINE
  5
2F5
330
29D
100
AcDbEntity
  8
0
 62
     0
100
AcDbLine
 10
1063.367129587765
 20
-234.8809206707357
 30
0.0
 11
1066.201504643808
 21
-232.0465456146935
 31
0.0
  0
LINE
  5
2F6
330
29D
100
AcDbEntity
  8
0
 62
     0
100
AcDbLine
 10
1064.965657725189
 20
-234.9794488081596
 30
0.0
 11
1066.929810806571
 21
-233.0152957267781
 31
0.0
  0
LINE
  5
2F7
330
29D
100
AcDbEntity
  8
0
 62
     0
100
AcDbLine
 10
1066.814185862613
 20
-234.8279769455834
 30
0.0
 11
1068.626867081418
 21
-233.0152957267781
 31
0.0
  0
LINE
  5
2F8
330
29D
100
AcDbEntity
  8
0
 62
     0
100
AcDbLine
 10
1068.412714000037
 20
-234.9265050830073
 30
0.0
 11
1070.323923356266
 21
-233.0152957267781
 31
0.0
  0
LINE
  5
2F9
330
29D
100
AcDbEntity
  8
0
 62
     0
100
AcDbLine
 10
1070.261242137461
 20
-234.7750332204312
 30
0.0
 11
1072.020979631114
 21
-233.0152957267781
 31
0.0
  0
LINE
  5
2FA
330
29D
100
AcDbEntity
  8
0
 62
     0
100
AcDbLine
 10
1071.859770274884
 20
-234.873561357855
 30
0.0
 11
1073.718035905961
 21
-233.0152957267781
 31
0.0
  0
LINE
  5
2FB
330
29D
100
AcDbEntity
  8
0
 62
     0
100
AcDbLine
 10
1073.458298412308
 20
-234.9720894952788
 30
0.0
 11
1075.415092180809
 21
-233.0152957267781
 31
0.0
  0
LINE
  5
2FC
330
29D
100
AcDbEntity
  8
0
 62
     0
100
AcDbLine
 10
1075.306826549732
 20
-234.8206176327026
 30
0.0
 11
1077.112148455657
 21
-233.0152957267781
 31
0.0
  0
LINE
  5
2FD
330
29D
100
AcDbEntity
  8
0
 62
     0
100
AcDbLine
 10
1076.905354687156
 20
-234.9191457701266
 30
0.0
 11
1078.809204730505
 21
-233.0152957267781
 31
0.0
  0
LINE
  5
2FE
330
29D
100
AcDbEntity
  8
0
 62
     0
100
AcDbLine
 10
1078.751504643808
 20
-234.7652957267781
 30
0.0
 11
1080.506261005352
 21
-233.0152957267781
 31
0.0
  0
LINE
  5
2FF
330
29D
100
AcDbEntity
  8
0
 62
     0
100
AcDbLine
 10
1080.352410962004
 20
-234.8662020449743
 30
0.0
 11
1082.055963190919
 21
-233.1626498160589
 31
0.0
  0
LINE
  5
300
330
29D
100
AcDbEntity
  8
0
 62
     0
100
AcDbLine
 10
1081.950939099428
 20
-234.9647301823981
 30
0.0
 11
1082.201504643807
 21
-234.7141646380185
 31
0.0
  0
ENDBLK
  5
302
330
29D
100
AcDbEntity
  8
0
100
AcDbBlockEnd
  0
BLOCK
  5
33F
330
335
100
AcDbEntity
  8
0
100
AcDbBlockBegin
  2
*D3
 70
     1
 10
0.0
 20
0.0
 30
0.0
  3
*D3
  1

  0
LINE
  5
373
330
335
100
AcDbEntity
  8
1
440
 16777216
370
    -2
100
AcDbLine
 10
-30.0
 20
14.0
 30
0.0
 11
-30.0
 21
-14.39621715044995
 31
0.0
  0
LINE
  5
374
330
335
100
AcDbEntity
  8
1
440
 16777216
370
    -2
100
AcDbLine
 10
-129.9998974544007
 20
-10.0
 30
0.0
 11
-129.9998974544007
 21
-14.39621715044995
 31
0.0
  0
LINE
  5
375
330
335
100
AcDbEntity
  8
1
440
 16777216
370
    -2
100
AcDbLine
 10
-29.0
 20
-13.39621715044996
 30
0.0
 11
-130.9998974544007
 21
-13.39621715044996
 31
0.0
  0
INSERT
  5
376
330
335
100
AcDbEntity
  8
1
440
 16777216
370
    -2
100
AcDbBlockReference
  2
_Oblique
 10
-30.0
 20
-13.39621715044996
 30
0.0
 41
2.0
 42
2.0
 43
2.0
  0
INSERT
  5
377
330
335
100
AcDbEntity
  8
1
440
 16777216
370
    -2
100
AcDbBlockReference
  2
_Oblique
 10
-129.9998974544007
 20
-13.39621715044996
 30
0.0
 41
2.0
 42
2.0
 43
2.0
 50
180.0
  0
MTEXT
  5
378
330
335
100
AcDbEntity
  8
1
440
 16777216
100
AcDbMText
 10
-79.99994872720037
 20
-10.60921169342403
 30
0.0
 40
3.5
 41
0.0
 46
0.0
 71
     5
 72
     1
  1
\A1;100
  7
Beschlag
 73
     1
 44
1.0
  0
ENDBLK
  5
340
330
335
100
AcDbEntity
  8
0
100
AcDbBlockEnd
  0
BLOCK
  5
34C
330
341
100
AcDbEntity
  8
0
100
AcDbBlockBegin
  2
*D4
 70
     1
 10
0.0
 20
0.0
 30
0.0
  3
*D4
  1

  0
LINE
  5
633
330
341
100
AcDbEntity
  8
1
440
 16777216
370
    -2
100
AcDbLine
 10
-30.0
 20
16.0
 30
0.0
 11
-30.0
 21
-14.39621715044995
 31
0.0
  0
LINE
  5
634
330
341
100
AcDbEntity
  8
1
440
 16777216
370
    -2
100
AcDbLine
 10
-16.0
 20
3.5
 30
0.0
 11
-16.0
 21
-14.39621715044995
 31
0.0
  0
LINE
  5
635
330
341
100
AcDbEntity
  8
1
440
 16777216
370
    -2
100
AcDbLine
 10
-31.0
 20
-13.39621715044996
 30
0.0
 11
-15.0
 21
-13.39621715044996
 31
0.0
  0
INSERT
  5
636
330
341
100
AcDbEntity
  8
1
440
 16777216
370
    -2
100
AcDbBlockReference
  2
_Oblique
 10
-30.0
 20
-13.39621715044996
 30
0.0
 41
2.0
 42
2.0
 43
2.0
 50
180.0
  0
INSERT
  5
637
330
341
100
AcDbEntity
  8
1
440
 16777216
370
    -2
100
AcDbBlockReference
  2
_Oblique
 10
-16.0
 20
-13.39621715044996
 30
0.0
 41
2.0
 42
2.0
 43
2.0
  0
MTEXT
  5
638
330
341
100
AcDbEntity
  8
1
440
 16777216
100
AcDbMText
 10
-23.0
 20
-10.63905480392881
 30
0.0
 40
3.5
 41
0.0
 46
0.0
 71
     5
 72
     1
  1
\A1;14
  7
Beschlag
 73
     1
 44
1.0
  0
ENDBLK
  5
34D
330
341
100
AcDbEntity
  8
0
100
AcDbBlockEnd
  0
BLOCK
  5
359
330
34E
100
AcDbEntity
  8
0
100
AcDbBlockBegin
  2
*D5
 70
     1
 10
0.0
 20
0.0
 30
0.0
  3
*D5
  1

  0
LINE
  5
3C6
330
34E
100
AcDbEntity
  8
1
440
 16777216
370
    -2
100
AcDbLine
 10
-32.0
 20
18.0
 30
0.0
 11
-40.95921345055693
 21
18.0
 31
0.0
  0
LINE
  5
3C7
330
34E
100
AcDbEntity
  8
1
440
 16777216
370
    -2
100
AcDbLine
 10
-32.0
 20
0.0000000000000006
 30
0.0
 11
-40.95921345055694
 21
0.0000000000000031
 31
0.0
  0
LINE
  5
3C8
330
34E
100
AcDbEntity
  8
1
440
 16777216
370
    -2
100
AcDbLine
 10
-39.95921345055694
 20
19.0
 30
0.0
 11
-39.95921345055695
 21
-0.9999999999999971
 31
0.0
  0
MTEXT
  5
3C9
330
34E
100
AcDbEntity
  8
1
440
 16777216
100
AcDbMText
 10
-42.74621890758286
 20
11.11110163710777
 30
0.0
 40
3.5
 41
0.0
 46
0.0
 71
     5
 72
     1
  1
\A1;18
  7
Beschlag
 11
0.0000000000000001
 21
1.0
 31
0.0
 73
     1
 44
1.0
  0
INSERT
  5
3CA
330
34E
100
AcDbEntity
  8
1
440
 16777216
370
    -2
100
AcDbBlockReference
  2
_Oblique
 10
-39.95921345055694
 20
18.0
 30
0.0
 41
2.0
 42
2.0
 43
2.0
 50
90.0
  0
INSERT
  5
3CB
330
34E
100
AcDbEntity
  8
1
440
 16777216
370
    -2
100
AcDbBlockReference
  2
_Oblique
 10
-39.95921345055695
 20
0.0000000000000028
 30
0.0
 41
2.0
 42
2.0
 43
2.0
 50
270.0
  0
ENDBLK
  5
35A
330
34E
100
AcDbEntity
  8
0
100
AcDbBlockEnd
  0
BLOCK
  5
365
330
35B
100
AcDbEntity
  8
0
100
AcDbBlockBegin
  2
*D6
 70
     1
 10
0.0
 20
0.0
 30
0.0
  3
*D6
  1

  0
LINE
  5
390
330
35B
100
AcDbEntity
  8
1
440
 16777216
370
    -2
100
AcDbLine
 10
-11.0
 20
6.0
 30
0.0
 11
-11.0
 21
-14.39621715044995
 31
0.0
  0
LINE
  5
391
330
35B
100
AcDbEntity
  8
1
440
 16777216
370
    -2
100
AcDbLine
 10
-0.0000000000000001
 20
-2.0
 30
0.0
 11
-0.0000000000000009
 21
-14.39621715044995
 31
0.0
  0
LINE
  5
392
330
35B
100
AcDbEntity
  8
1
440
 16777216
370
    -2
100
AcDbLine
 10
-12.0
 20
-13.39621715044996
 30
0.0
 11
0.9999999999999992
 21
-13.39621715044996
 31
0.0
  0
INSERT
  5
393
330
35B
100
AcDbEntity
  8
1
440
 16777216
370
    -2
100
AcDbBlockReference
  2
_Oblique
 10
-11.0
 20
-13.39621715044996
 30
0.0
 41
2.0
 42
2.0
 43
2.0
 50
180.0
  0
INSERT
  5
394
330
35B
100
AcDbEntity
  8
1
440
 16777216
370
    -2
100
AcDbBlockReference
  2
_Oblique
 10
-0.0000000000000008
 20
-13.39621715044996
 30
0.0
 41
2.0
 42
2.0
 43
2.0
  0
MTEXT
  5
395
330
35B
100
AcDbEntity
  8
1
440
 16777216
100
AcDbMText
 10
-5.5
 20
-10.63905480392881
 30
0.0
 40
3.5
 41
0.0
 46
0.0
 71
     5
 72
     1
  1
\A1;11
  7
Beschlag
 73
     1
 44
1.0
  0
ENDBLK
  5
366
330
35B
100
AcDbEntity
  8
0
100
AcDbBlockEnd
  0
BLOCK
  5
371
330
367
100
AcDbEntity
  8
0
100
AcDbBlockBegin
  2
*D7
 70
     1
 10
0.0
 20
0.0
 30
0.0
  3
*D7
  1

  0
LINE
  5
399
330
367
100
AcDbEntity
  8
1
440
 16777216
370
    -2
100
AcDbLine
 10
-16.0
 20
1.583975837689649
 30
0.0
 11
-16.0
 21
-14.39621715044995
 31
0.0
  0
LINE
  5
39A
330
367
100
AcDbEntity
  8
1
440
 16777216
370
    -2
100
AcDbLine
 10
-11.0
 20
6.0
 30
0.0
 11
-11.0
 21
-14.39621715044995
 31
0.0
  0
LINE
  5
39B
330
367
100
AcDbEntity
  8
1
440
 16777216
370
    -2
100
AcDbLine
 10
-17.0
 20
-13.39621715044996
 30
0.0
 11
-10.0
 21
-13.39621715044996
 31
0.0
  0
INSERT
  5
39C
330
367
100
AcDbEntity
  8
1
440
 16777216
370
    -2
100
AcDbBlockReference
  2
_Oblique
 10
-16.0
 20
-13.39621715044996
 30
0.0
 41
2.0
 42
2.0
 43
2.0
 50
180.0
  0
INSERT
  5
39D
330
367
100
AcDbEntity
  8
1
440
 16777216
370
    -2
100
AcDbBlockReference
  2
_Oblique
 10
-11.0
 20
-13.39621715044996
 30
0.0
 41
2.0
 42
2.0
 43
2.0
  0
MTEXT
  5
39E
330
367
100
AcDbEntity
  8
1
440
 16777216
100
AcDbMText
 10
-13.5
 20
-10.61637403994518
 30
0.0
 40
3.5
 41
0.0
 46
0.0
 71
     5
 72
     1
  1
\A1;5
  7
Beschlag
 73
     1
 44
1.0
  0
ENDBLK
  5
372
330
367
100
AcDbEntity
  8
0
100
AcDbBlockEnd
  0
BLOCK
  5
611
330
610
100
AcDbEntity
  8
0
100
AcDbBlockBegin
  2
CUSTINFO
 70
     0
 10
0.0
 20
0.0
 30
0.0
  3
CUSTINFO
  1
CUSTINFO
  0
ENDBLK
  5
612
330
610
100
AcDbEntity
  8
0
100
AcDbBlockEnd
  0
BLOCK
  5
624
330
623
100
AcDbEntity
  8
0
100
AcDbBlockBegin
  2
AZCBTDEF
 70
     0
 10
0.0
 20
0.0
 30
0.0
  3
AZCBTDEF
  1
AZCBTDEF
  0
ENDBLK
  5
62F
330
623
100
AcDbEntity
  8
0
100
AcDbBlockEnd
  0
ENDSEC
  0
SECTION
  2
ENTITIES
  0
INSERT
  5
25B
330
1A
100
AcDbEntity
  8
5
100
AcDbBlockReference
  2
NullPunkt
 10
0.0
 20
0.0
 30
0.0
  0
DIMENSION
  5
325
330
1A
100
AcDbEntity
  8
1
100
AcDbDimension
280
     0
  2
*D3
 10
-129.9998974544007
 20
-13.39621715044996
 30
0.0
 11
-79.99994872720037
 21
-10.60921169342403
 31
0.0
 70
    32
 71
     5
 42
-1.0
 73
     0
 74
     0
 75
     0
  3
OPO-SSTRICH
100
AcDbAlignedDimension
 13
-30.0
 23
16.0
 33
0.0
 14
-129.9998974544007
 24
-8.0
 34
0.0
100
AcDbRotatedDimension
  0
INSERT
  5
326
330
1A
100
AcDbEntity
  8
2
100
AcDbBlockReference
  2
*X2
 10
-1082.201504643807
 20
235.0152957267781
 30
0.0
1001
ACAD
1000
HATCH
1002
{
1070
    16
1000
_U,I
1040
1.199999999999999
1040
0.7853981633974483
1070
     0
1002
}
  0
POINT
  5
327
330
1A
100
AcDbEntity
  8
5
100
AcDbPoint
 10
-20.0
 20
10.5
 30
0.0
  0
LWPOLYLINE
  5
328
330
1A
100
AcDbEntity
  8
5
100
AcDbPolyline
 90
        4
 70
     0
 43
0.0
 10
0.0
 20
-11.98615426501919
 10
0.0
 20
0.0
 10
-45.0
 20
0.0
 10
-45.0
 20
-11.98615426501919
  0
DIMENSION
  5
329
330
1A
100
AcDbEntity
  8
1
100
AcDbDimension
280
     0
  2
*D4
 10
-16.0
 20
-13.39621715044996
 30
0.0
 11
-23.0
 21
-10.63905480392881
 31
0.0
 70
    32
 71
     5
 42
13.99999999999999
 73
     0
 74
     0
 75
     0
  3
OPO-SSTRICH
100
AcDbAlignedDimension
 13
-30.0
 23
18.0
 33
0.0
 14
-16.0
 24
5.5
 34
0.0
100
AcDbRotatedDimension
  0
LINE
  5
32A
330
1A
100
AcDbEntity
  8
6
  6
STRICHPUNKT
100
AcDbLine
 10
-24.25
 20
19.0992160773103
 30
0.0
 11
-24.25
 21
-15.85947051291168
 31
0.0
  0
DIMENSION
  5
32B
330
1A
100
AcDbEntity
  8
1
100
AcDbDimension
280
     0
  2
*D5
 10
-39.95921345055695
 20
0.0000000000000028
 30
0.0
 11
-42.74621890758286
 21
11.11110163710777
 31
0.0
 70
   160
 71
     5
 42
-1.0
 73
     0
 74
     0
 75
     0
  3
OPO-SSTRICH
100
AcDbAlignedDimension
 13
-30.0
 23
18.0
 33
0.0
 14
-30.0
 24
0.0
 34
0.0
 50
90.0
100
AcDbRotatedDimension
  0
TEXT
  5
32C
330
1A
100
AcDbEntity
  8
1
100
AcDbText
 10
-100.6356347337641
 20
7.77141386132348
 30
0.0
 40
2.5
  1
Hebgo 161/621
100
AcDbText
  0
LWPOLYLINE
  5
32D
330
1A
100
AcDbEntity
  8
6
100
AcDbPolyline
 90
      177
 70
     0
 43
0.0
 10
-28.5
 20
7.912348250257991
 10
-123.5738020054407
 20
-3.070923678890721
 42
0.3787463949118454
 10
-127.9998564351515
 20
-8.0
 10
-129.9998974544007
 20
-8.0
 42
-0.1447160856908663
 10
-128.8541403670445
 20
-4.200046462631689
 10
-128.9820552322378
 20
-2.72610888671511
 10
-127.4901696086783
 20
-2.667752169402319
 10
-127.1749644434701
 20
-1.213692152635076
 10
-125.7326799912205
 20
-1.593321419635458
 10
-125.0073110056171
 20
-0.2938143625058274
 10
-123.8033228076176
 20
-1.084137278351363
 10
-123.8002339063994
 20
-1.083780437230871
 10
-122.9216011072183
 20
0.0243731641271552
 10
-121.8134475058602
 20
-0.8542596350544044
 10
-120.9348147066787
 20
0.2538939663036217
 10
-119.8266611053206
 20
-0.624738832877938
 10
-118.9480283061395
 20
0.4834147684800883
 10
-117.8398747047815
 20
-0.395218030701244
 10
-116.9612419056
 20
0.7129355706565548
 10
-115.8530883042419
 20
-0.1656972285247775
 10
-114.9744555050604
 20
0.9424563728330213
 10
-113.8663019037028
 20
0.063823573651689
 10
-112.9876691045212
 20
1.171977175009487
 10
-111.8795155031632
 20
0.2933443758281555
 10
-79.09753989426372
 20
4.080437611740308
 10
-78.21890709508171
 20
5.188591213098334
 10
-77.11075349372368
 20
4.309958413917001
 10
-76.23212069454257
 20
5.4181120152748
 10
-75.12396709318455
 20
4.539479216093468
 10
-74.24533429400344
 20
5.647632817451267
 10
-73.13718069264542
 20
4.769000018269935
 10
-72.2585478934634
 20
5.877153619627733
 10
-71.15039429210537
 20
4.998520820446401
 10
-70.27176149292427
 20
6.106674421804427
 10
-69.16360789156624
 20
5.228041622622868
 10
-30.15853467933266
 20
9.734049762297445
 42
0.4578895527313686
 10
-28.4562038289314
 20
12.23847425304188
 10
-29.89881013603372
 20
17.62235428646931
 42
-0.4931454260312986
 10
-29.60903238814717
 20
18.0
 10
-25.0
 20
18.0
 10
-24.25
 20
17.25
 10
-23.5
 20
18.0
 10
-16.29999999999927
 20
18.0
 42
-0.4142135623731018
 10
-16.0
 20
17.70000000000027
 10
-16.0
 20
15.5
 42
-0.4142135623730904
 10
-17.0
 20
14.5
 10
-17.19999999999982
 20
14.5
 42
-0.4142135623730951
 10
-17.5
 20
14.80000000000018
 10
-17.5
 20
16.20000000000004
 42
0.414213562373096
 10
-17.79999999999927
 20
16.5
 10
-19.69999999999982
 20
16.5
 42
0.4142135623730951
 10
-20.0
 20
16.20000000000004
 10
-20.0
 20
4.800000000000181
 42
0.4142135623730951
 10
-19.69999999999982
 20
4.5
 10
-17.79999999999927
 20
4.5
 42
0.4142135623730951
 10
-17.5
 20
4.800000000000181
 10
-17.5
 20
6.200000000000045
 42
-0.4142135623730951
 10
-17.19999999999982
 20
6.5
 10
-17.0
 20
6.5
 42
-0.4142135623730951
 10
-16.0
 20
5.5
 10
-16.0
 20
2.0
 10
-0.5
 20
2.0
 42
-0.4142135623730951
 10
0.0
 20
1.5
 10
0.0
 20
0.2000000000005002
 10
-0.1999999999998181
 20
0.0
 10
-0.4499999999998181
 20
0.25
 10
-0.6999999999998181
 20
0.0
 10
-0.9499999999998181
 20
0.25
 10
-1.199999999999818
 20
0.0
 10
-1.449999999999818
 20
0.25
 10
-1.699999999999818
 20
0.0
 10
-1.949999999999818
 20
0.25
 10
-2.199999999999818
 20
0.0
 10
-2.449999999999818
 20
0.25
 10
-2.699999999999818
 20
0.0
 10
-2.949999999999818
 20
0.25
 10
-3.199999999999818
 20
0.0
 10
-3.449999999999818
 20
0.25
 10
-3.699999999999818
 20
0.0
 10
-3.949999999999818
 20
0.25
 10
-4.199999999999818
 20
0.0
 10
-4.449999999999818
 20
0.25
 10
-4.699999999999818
 20
0.0
 10
-4.949999999999818
 20
0.25
 10
-5.199999999999818
 20
0.0
 10
-5.449999999999818
 20
0.25
 10
-5.699999999999818
 20
0.0
 10
-5.949999999999818
 20
0.25
 10
-6.199999999999818
 20
0.0
 10
-6.449999999999818
 20
0.25
 10
-6.699999999999818
 20
0.0
 10
-6.949999999999818
 20
0.25
 10
-7.199999999999818
 20
0.0
 10
-7.449999999999818
 20
0.25
 10
-7.699999999999818
 20
0.0
 10
-7.949999999999818
 20
0.25
 10
-8.199999999999818
 20
0.0
 10
-8.449999999999818
 20
0.25
 10
-8.699999999999818
 20
0.0
 10
-8.949999999999818
 20
0.25
 10
-9.199999999999818
 20
0.0
 10
-9.449999999999818
 20
0.25
 10
-9.699999999999818
 20
0.0
 10
-9.949999999999818
 20
0.25
 10
-10.19999999999982
 20
0.0
 10
-10.44999999999982
 20
0.25
 10
-10.69999999999982
 20
0.0
 10
-10.94999999999981
 20
0.25
 10
-11.19999999999982
 20
0.0
 10
-11.44999999999982
 20
0.25
 10
-11.69999999999982
 20
0.0
 10
-11.94999999999982
 20
0.25
 10
-12.19999999999982
 20
0.0
 10
-12.44999999999982
 20
0.25
 10
-12.69999999999982
 20
0.0
 10
-12.94999999999982
 20
0.25
 10
-13.19999999999982
 20
0.0
 10
-13.44999999999982
 20
0.25
 10
-13.69999999999982
 20
0.0
 10
-13.94999999999982
 20
0.25
 10
-14.19999999999982
 20
0.0
 10
-14.44999999999982
 20
0.25
 10
-14.69999999999982
 20
0.0
 10
-14.94999999999982
 20
0.25
 10
-15.19999999999981
 20
0.0
 10
-15.44999999999982
 20
0.25
 10
-15.69999999999982
 20
0.0
 10
-15.94999999999982
 20
0.25
 10
-16.19999999999982
 20
0.0
 10
-16.44999999999981
 20
0.25
 10
-16.69999999999982
 20
0.0
 10
-16.94999999999982
 20
0.25
 10
-17.19999999999982
 20
0.0
 10
-17.44999999999982
 20
0.25
 10
-17.69999999999981
 20
0.0
 10
-17.94999999999982
 20
0.25
 10
-18.19999999999982
 20
0.0
 10
-18.44999999999982
 20
0.25
 10
-18.69999999999982
 20
0.0
 10
-22.0
 20
3.300000000000181
 10
-22.0
 20
14.70000000000004
 42
0.4142135623730951
 10
-22.29999999999927
 20
15.00000000000023
 10
-26.19999999999982
 20
15.0
 42
0.4142135623730951
 10
-26.5
 20
14.70000000000004
 10
-26.5
 20
4.0
 10
-30.5
 20
0.0
 10
-30.75
 20
0.25
 10
-31.0
 20
0.0
 10
-31.25
 20
0.25
 10
-31.5
 20
0.0
 10
-31.75
 20
0.25
 10
-32.0
 20
0.0
 10
-32.25
 20
0.25
 10
-32.5
 20
0.0
 10
-32.75
 20
0.25
 10
-33.0
 20
0.0
 10
-33.25
 20
0.25
 10
-33.5
 20
0.0
 10
-33.75
 20
0.25
 10
-34.0
 20
0.0
 10
-34.25
 20
0.25
 10
-34.5
 20
0.0
 10
-34.75
 20
0.25
 10
-35.0
 20
0.0
 10
-35.25
 20
0.25
 10
-35.5
 20
0.0
 10
-35.75
 20
0.25
 10
-36.0
 20
0.0
 10
-36.25
 20
0.25
 10
-36.49999999999909
 20
0.0
 10
-36.74999999999909
 20
0.25
 10
-37.0
 20
0.0
 10
-37.0
 20
1.5
 42
-0.4142135623730951
 10
-36.5
 20
2.0
 10
-31.32842712474576
 20
2.0
 10
-28.5
 20
4.828427124746212
 10
-28.5
 20
8.022188660474967
  0
LWPOLYLINE
  5
32E
330
1A
100
AcDbEntity
  8
4
100
AcDbPolyline
 90
       11
 70
     0
 43
0.0
 10
-127.9998564351515
 20
-8.0
 10
-129.9998974544007
 20
-8.0
 10
-129.9998974544007
 20
-1.656051487256718
 10
-27.844321083262
 20
9.994179148405464
 10
-30.0
 20
18.0
 10
-16.0
 20
18.0
 10
-16.0
 20
2.0
 10
0.0
 20
2.0
 10
0.0
 20
0.0
 10
-37.0
 20
0.0
 10
-37.0
 20
2.0
  0
LWPOLYLINE
  5
32F
330
1A
100
AcDbEntity
  8
5
100
AcDbPolyline
 90
        3
 70
     0
 43
0.0
 10
-50.0
 20
-11.96316912996212
 10
-50.0
 20
0.0
 10
-134.0290886666246
 20
-9.676351683048324
  0
POINT
  5
330
330
1A
100
AcDbEntity
  8
5
100
AcDbPoint
 10
-20.0
 20
10.5
 30
0.0
  0
DIMENSION
  5
331
330
1A
100
AcDbEntity
  8
1
100
AcDbDimension
280
     0
  2
*D6
 10
-0.0000000000000008
 20
-13.39621715044996
 30
0.0
 11
-5.5
 21
-10.63905480392881
 31
0.0
 70
    32
 71
     5
 42
-1.0
 73
     0
 74
     0
 75
     0
  3
OPO-SSTRICH
100
AcDbAlignedDimension
 13
-11.0
 23
8.0
 33
0.0
 14
0.0
 24
0.0
 34
0.0
100
AcDbRotatedDimension
  0
DIMENSION
  5
332
330
1A
100
AcDbEntity
  8
1
100
AcDbDimension
280
     0
  2
*D7
 10
-11.0
 20
-13.39621715044996
 30
0.0
 11
-13.5
 21
-10.61637403994518
 31
0.0
 70
    32
 71
     5
 42
-1.0
 73
     0
 74
     0
 75
     0
  3
OPO-SSTRICH
100
AcDbAlignedDimension
 13
-16.0
 23
3.583975837689649
 33
0.0
 14
-11.0
 24
8.0
 34
0.0
100
AcDbRotatedDimension
  0
LWPOLYLINE
  5
334
330
1A
100
AcDbEntity
  8
5
100
AcDbPolyline
 90
        4
 70
     0
 43
0.0
 10
-35.28849049442761
 20
24.0
 10
-11.0
 20
24.0
 10
-11.0
 20
8.0
 10
7.813282518209234
 20
8.0
  0
LWPOLYLINE
  5
654
330
1A
100
AcDbEntity
  8
6
100
AcDbPolyline
 90
       30
 70
     1
 43
0.0
 10
-15.79999999999996
 20
15.04999999999999
 42
0.4627808097529079
 10
-16.03244193157226
 20
15.24735126317269
 42
-0.3412347287378429
 10
-16.99999999999998
 20
14.5
 10
-17.20000000000002
 20
14.5
 42
-0.0350196443704044
 10
-17.24186927867819
 20
14.50293609525396
 42
-0.0388555466058958
 10
-17.55435204835884
 20
14.56295191078261
 42
-0.3378872143451199
 10
-17.64999999999996
 20
14.68833108279115
 10
-17.64999999999996
 20
15.24999999999999
 42
0.5371987965797321
 10
-17.99759663876427
 20
15.48016276002409
 10
-19.69519327752857
 20
14.76032552004818
 42
0.6060732406799968
 10
-19.76603717008745
 20
13.8766511791302
 10
-17.96792565982498
 20
12.74669764173957
 42
-0.2579393601769359
 10
-17.49999999999996
 20
11.9
 10
-17.49999999999996
 20
10.14999999999999
 42
-0.1873225999327995
 10
-17.76200785967732
 20
9.475190692993919
 10
-19.94759842806448
 20
7.084961861401218
 42
0.1873225999327991
 10
-19.99999999999996
 20
6.950000000000006
 10
-19.99999999999996
 20
6.299999999999993
 42
0.2172946551905375
 10
-19.82777954222541
 20
5.922428057585733
 10
-18.02037717568857
 20
4.540993385052281
 42
0.4142135623730905
 10
-17.74002468803372
 20
4.578443120241402
 10
-17.54405799654055
 20
4.834836469133957
 42
0.3794220145110141
 10
-17.56332595129396
 20
5.099475070910042
 10
-18.27134431938479
 20
5.789919622375979
 42
-0.4583820366074629
 10
-18.25267743551641
 20
6.092378066423677
 42
-0.1351830566088762
 10
-17.24186927867793
 20
6.497063904746063
 42
-0.0350196443701829
 10
-17.20000000000002
 20
6.499999999999996
 10
-16.99999999999998
 20
6.499999999999996
 42
-0.3412347287378419
 10
-16.03244193157226
 20
5.752648736827303
 42
0.4627808097529062
 10
-15.79999999999996
 20
5.950000000000002
  0
VIEWPORT
  5
22
330
17
100
AcDbEntity
 67
     1
  8
0
100
AcDbViewport
 10
210.0
 20
170.2366863905325
 30
0.0
 40
420.0
 41
340.4733727810651
 68
     1
 69
     1
 12
210.0
 22
170.2366863905325
 13
0.0
 23
0.0
 14
5.0
 24
5.0
 15
10.0
 25
10.0
 16
0.0
 26
0.0
 36
1.0
 17
0.0
 27
0.0
 37
0.0
 42
50.0
 43
0.0
 44
0.0
 45
340.4733727810651
 50
0.0
 51
0.0
 72
   100
 90
    32800
  1

281
     0
 71
     1
 74
     0
110
0.0
120
0.0
130
0.0
111
1.0
121
0.0
131
0.0
112
0.0
122
1.0
132
0.0
 79
     0
146
0.0
170
     0
 61
     5
348
5D3
292
     1
282
     1
141
0.0
142
0.0
 63
   250
421
  3355443
  0
ENDSEC
  0
SECTION
  2
OBJECTS
  0
DICTIONARY
  5
C
330
0
100
AcDbDictionary
281
     1
  3
ACAD_CIP_PREVIOUS_PRODUCT_INFO
350
604
  3
ACAD_COLOR
350
5E6
  3
ACAD_DETAILVIEWSTYLE
350
5FF
  3
ACAD_GROUP
350
D
  3
ACAD_LAYOUT
350
F4
  3
ACAD_MATERIAL
350
5B4
  3
ACAD_MLEADERSTYLE
350
5FB
  3
ACAD_MLINESTYLE
350
E
  3
ACAD_PLOTSETTINGS
350
F5
  3
ACAD_PLOTSTYLENAME
350
F2
  3
ACAD_RENDER_ACTIVE_RAPIDRT_SETTINGS
350
60E
  3
ACAD_RENDER_ACTIVE_SETTINGS
350
668
  3
ACAD_RENDER_RAPIDRT_SETTINGS
350
607
  3
ACAD_SCALELIST
350
5E9
  3
ACAD_SECTIONVIEWSTYLE
350
5FD
  3
ACAD_TABLESTYLE
350
5E7
  3
ACAD_VISUALSTYLE
350
5CD
  3
ACDB_RECOMPOSE_DATA
350
663
  3
AcDbVariableDictionary
350
136
  3
AEC_PROPERTY_SET_DEFS
350
650
  0
DICTIONARY
  5
1F6
330
1A
100
AcDbDictionary
280
     1
281
     1
  3
ACAD_LAYOUTSELFREF
360
5A8
  0
DICTIONARY
  5
1F4
330
17
100
AcDbDictionary
280
     1
281
     1
  3
ACAD_LAYOUTSELFREF
360
5A7
  0
XRECORD
  5
604
102
{ACAD_REACTORS
330
C
102
}
330
C
100
AcDbXrecord
280
     1
300
AOEM
300
2021
300

  0
DICTIONARY
  5
5E6
102
{ACAD_REACTORS
330
C
102
}
330
C
100
AcDbDictionary
281
     1
  0
DICTIONARY
  5
5FF
102
{ACAD_REACTORS
330
C
102
}
330
C
100
AcDbDictionary
281
     1
  3
Metric50
350
600
  0
DICTIONARY
  5
D
102
{ACAD_REACTORS
330
C
102
}
330
C
100
AcDbDictionary
281
     1
  0
DICTIONARY
  5
F4
102
{ACAD_REACTORS
330
C
102
}
330
C
100
AcDbDictionary
281
     1
  3
Layout1
350
F7
  3
Model
350
F6
  0
DICTIONARY
  5
5B4
102
{ACAD_REACTORS
330
C
102
}
330
C
100
AcDbDictionary
281
     1
  3
ByBlock
350
5BD
  3
ByLayer
350
5B5
  3
Global
350
5C5
  0
DICTIONARY
  5
5FB
102
{ACAD_REACTORS
330
C
102
}
330
C
100
AcDbDictionary
281
     1
  3
Standard
350
5FC
  0
DICTIONARY
  5
E
102
{ACAD_REACTORS
330
C
102
}
330
C
100
AcDbDictionary
281
     1
  3
STANDARD
350
13
  0
DICTIONARY
  5
F5
102
{ACAD_REACTORS
330
C
102
}
330
C
100
AcDbDictionary
281
     1
  3
e Plot 1zu1
350
25C
  3
e Plot angepasst
350
25D
  3
Laser A4
350
25E
  0
ACDBDICTIONARYWDFLT
  5
F2
102
{ACAD_REACTORS
330
C
102
}
330
C
100
AcDbDictionary
281
     1
  3
Normal
350
F3
100
AcDbDictionaryWithDefault
340
F3
  0
RAPIDRTRENDERSETTINGS
  5
60E
102
{ACAD_REACTORS
330
C
102
}
330
C
100
AcDbRenderSettings
 90
        2
  1
Mittel
290
     1
290
     0
290
     1
290
     1
  1

  1
Wendet 5 Render-Ebenen an
 90
        0
100
AcDbRapidRTRenderSettings
 90
        3
 70
     0
 90
        5
 90
        1
 70
     1
 70
     2
 40
3.0
 40
3.0
290
     1
  0
MENTALRAYRENDERSETTINGS
  5
668
102
{ACAD_XDICTIONARY
360
669
102
}
102
{ACAD_REACTORS
330
C
102
}
330
C
100
AcDbRenderSettings
 90
        2
  1
Mittel
290
     1
290
     1
290
     1
290
     1
  1

  1

 90
        0
100
AcDbMentalRayRenderSettings
 90
        2
 90
        0
 90
        1
 70
     2
 40
3.0
 40
3.0
 40
0.0500000007450581
 40
0.0500000007450581
 40
0.0500000007450581
 40
0.0500000007450581
 70
     0
290
     0
290
     1
 90
        5
 90
        5
 90
        5
290
     0
 90
      500
290
     0
 40
1.0
 90
    10000
 90
        5
 90
        5
 90
        5
290
     0
 90
      200
290
     0
290
     0
290
     0
 40
1.0
 40
1.0
 40
1500.0
 70
     0
 70
     0
 40
10.0
 70
     0
 70
     0
290
     0
  1

 90
       32
 70
     0
 90
     1048
290
     0
 40
1.0
  0
DICTIONARY
  5
607
102
{ACAD_REACTORS
330
C
102
}
330
C
100
AcDbDictionary
281
     1
  3
Hoch
350
60A
  3
Mittagsqualität
350
60C
  3
Mittel
350
609
  3
Morgenqualität
350
60B
  3
Nachtqualität
350
60D
  3
Niedrig
350
608
  0
DICTIONARY
  5
5E9
102
{ACAD_REACTORS
330
C
102
}
330
C
100
AcDbDictionary
281
     1
  3
A0
350
5EA
  3
A1
350
5EB
  3
A2
350
5EC
  3
A3
350
5ED
  3
A4
350
5EE
  3
A5
350
5EF
  3
A6
350
5F0
  3
A7
350
5F1
  3
A8
350
5F2
  3
A9
350
5F3
  3
B0
350
5F4
  3
B1
350
5F5
  3
B2
350
5F6
  3
B3
350
5F7
  3
B4
350
5F8
  3
B5
350
5F9
  3
B6
350
5FA
  0
DICTIONARY
  5
5FD
102
{ACAD_REACTORS
330
C
102
}
330
C
100
AcDbDictionary
281
     1
  3
Metric50
350
5FE
  0
DICTIONARY
  5
5E7
102
{ACAD_REACTORS
330
C
102
}
330
C
100
AcDbDictionary
281
     1
  3
Standard
350
5E8
  0
DICTIONARY
  5
5CD
102
{ACAD_REACTORS
330
C
102
}
330
C
100
AcDbDictionary
281
     1
  3
2dWireframe
350
5D3
  3
Basic
350
5D2
  3
Brighten
350
5D9
  3
ColorChange
350
5DD
  3
Conceptual
350
5D6
  3
Dim
350
5D8
  3
EdgeColorOff
350
5E5
  3
Facepattern
350
5DC
  3
Flat
350
5CE
  3
FlatWithEdges
350
5CF
  3
Gouraud
350
5D0
  3
GouraudWithEdges
350
5D1
  3
Hidden
350
5D5
  3
JitterOff
350
5E3
  3
Linepattern
350
5DB
  3
OverhangOff
350
5E4
  3
Realistic
350
5D7
  3
Shaded
350
5E2
  3
Shaded with edges
350
5E1
  3
Shades of Gray
350
5DE
  3
Sketchy
350
5DF
  3
Thicken
350
5DA
  3
Wireframe
350
5D4
  3
X-Ray
350
5E0
  0
XRECORD
  5
663
102
{ACAD_REACTORS
330
C
102
}
330
C
100
AcDbXrecord
280
     1
 90
        1
330
5E8
  0
DICTIONARY
  5
136
102
{ACAD_REACTORS
330
C
102
}
330
C
100
AcDbDictionary
281
     1
  3
CANNOSCALE
350
65D
  3
CMLEADERSTYLE
350
659
  3
CTABLESTYLE
350
658
  3
CVIEWDETAILSTYLE
350
65A
  3
CVIEWSECTIONSTYLE
350
65B
  3
LAYEREVAL
350
65F
  3
LAYERNOTIFY
350
660
  3
LIGHTINGUNITS
350
65E
  3
MSLTSCALE
350
65C
  3
SORTENTS
350
137
  0
DICTIONARY
  5
650
102
{ACAD_REACTORS
330
C
102
}
330
C
100
AcDbDictionary
281
     1
  0
XRECORD
  5
5A8
102
{ACAD_REACTORS
330
1F6
102
}
330
1F6
100
AcDbXrecord
280
     1
340
1A
  0
XRECORD
  5
5A7
102
{ACAD_REACTORS
330
1F4
102
}
330
1F4
100
AcDbXrecord
280
     1
340
17
  0
ACDBDETAILVIEWSTYLE
  5
600
102
{ACAD_XDICTIONARY
360
666
102
}
102
{ACAD_REACTORS
330
5FF
102
}
330
5FF
100
AcDbModelDocViewStyle
 70
     0
  3
Metric50
290
     0
100
AcDbDetailViewStyle
 70
     0
 71
     0
 90
        3
 71
     1
340
10
 62
   256
 40
5.0
340
0
 62
   256
 40
5.0
300

 40
0.0
280
     1
 71
     2
340
16
 90
       25
 62
   256
 71
     3
340
10
 62
   256
 40
5.0
 90
        0
 40
15.0
 90
        1
300
%<\AcVar ViewDetailId>% (%<\AcVar ViewScale \f "%sn">%)
 71
     4
340
16
 90
       25
 62
   256
340
16
 90
       25
 62
   256
280
     0
  0
LAYOUT
  5
F7
102
{ACAD_REACTORS
330
F4
102
}
330
F4
100
AcDbPlotSettings
  1

  2
D:\AC2000\ACAD2000\plotters\DesignJet 650C test A3.pc3
  4

  6

 40
0.0
 41
0.0
 42
0.0
 43
0.0
 44
0.0
 45
0.0
 46
0.0
 47
0.0
 48
0.0
 49
0.0
140
0.0
141
0.0
142
1.0
143
1.0
 70
   688
 72
     0
 73
     0
 74
     5
  7
Hebgo JPG.ctb
 75
    16
147
1.0
 76
     0
 77
     2
 78
   300
148
0.0
149
0.0
100
AcDbLayout
  1
Layout1
 70
     1
 71
     1
 10
0.0
 20
0.0
 11
420.0
 21
297.0
 12
0.0
 22
0.0
 32
0.0
 14
1.000000000000000E+20
 24
1.000000000000000E+20
 34
1.000000000000000E+20
 15
-1.000000000000000E+20
 25
-1.000000000000000E+20
 35
-1.000000000000000E+20
146
0.0
 13
0.0
 23
0.0
 33
0.0
 16
1.0
 26
0.0
 36
0.0
 17
0.0
 27
1.0
 37
0.0
 76
     0
330
17
331
22
  0
LAYOUT
  5
F6
102
{ACAD_REACTORS
330
F4
102
}
330
F4
100
AcDbPlotSettings
  1

  2
PublishToWeb JPG.pc3
  4
VGA_(640.00_x_480.00_Pixels)
  6

 40
0.0
 41
0.0
 42
1.0
 43
1.0
 44
640.0
 45
480.0
 46
0.0
 47
149.7
 48
0.0
 49
0.0
140
0.0
141
0.0
142
1.0
143
0.2220046349451714
 70
 28340
 72
     2
 73
     0
 74
     1
  7
Hebgo JPG.ctb
 75
     0
147
4.504410460831011
 76
     0
 77
     2
 78
   300
148
134.0332024079202
149
15.86151037581896
100
AcDbLayout
  1
Model
 70
     1
 71
     0
 10
0.0
 20
0.0
 11
12.0
 21
9.0
 12
0.0
 22
0.0
 32
0.0
 14
0.0
 24
0.0
 34
0.0
 15
0.0
 25
0.0
 35
0.0
146
0.0
 13
0.0
 23
0.0
 33
0.0
 16
1.0
 26
0.0
 36
0.0
 17
0.0
 27
1.0
 37
0.0
 76
     0
330
1A
331
579
  0
MATERIAL
  5
5BD
102
{ACAD_XDICTIONARY
360
5BE
102
}
102
{ACAD_REACTORS
330
5B4
102
}
330
5B4
100
AcDbMaterial
  1
ByBlock
 72
     0
 43
0.0208333333333333
 43
0.0
 43
0.0
 43
0.0
 43
0.0
 43
0.0208333333333333
 43
0.0
 43
0.0
 43
0.0
 43
0.0
 43
1.0
 43
0.0
 43
0.0
 43
0.0
 43
0.0
 43
1.0
 77
     0
 47
0.0208333333333333
 47
0.0
 47
0.0
 47
0.0
 47
0.0
 47
0.0208333333333333
 47
0.0
 47
0.0
 47
0.0
 47
0.0
 47
1.0
 47
0.0
 47
0.0
 47
0.0
 47
0.0
 47
1.0
171
     0
 49
0.0208333333333333
 49
0.0
 49
0.0
 49
0.0
 49
0.0
 49
0.0208333333333333
 49
0.0
 49
0.0
 49
0.0
 49
0.0
 49
1.0
 49
0.0
 49
0.0
 49
0.0
 49
0.0
 49
1.0
175
     0
142
0.0208333333333333
142
0.0
142
0.0
142
0.0
142
0.0
142
0.0208333333333333
142
0.0
142
0.0
142
0.0
142
0.0
142
1.0
142
0.0
142
0.0
142
0.0
142
0.0
142
1.0
179
     0
144
0.0208333333333333
144
0.0
144
0.0
144
0.0
144
0.0
144
0.0208333333333333
144
0.0
144
0.0
144
0.0
144
0.0
144
1.0
144
0.0
144
0.0
144
0.0
144
0.0
144
1.0
147
0.0208333333333333
147
0.0
147
0.0
147
0.0
147
0.0
147
0.0208333333333333
147
0.0
147
0.0
147
0.0
147
0.0
147
1.0
147
0.0
147
0.0
147
0.0
147
0.0
147
1.0
  0
MATERIAL
  5
5B5
102
{ACAD_XDICTIONARY
360
5B6
102
}
102
{ACAD_REACTORS
330
5B4
102
}
330
5B4
100
AcDbMaterial
  1
ByLayer
 72
     0
 43
0.0208333333333333
 43
0.0
 43
0.0
 43
0.0
 43
0.0
 43
0.0208333333333333
 43
0.0
 43
0.0
 43
0.0
 43
0.0
 43
1.0
 43
0.0
 43
0.0
 43
0.0
 43
0.0
 43
1.0
 77
     0
 47
0.0208333333333333
 47
0.0
 47
0.0
 47
0.0
 47
0.0
 47
0.0208333333333333
 47
0.0
 47
0.0
 47
0.0
 47
0.0
 47
1.0
 47
0.0
 47
0.0
 47
0.0
 47
0.0
 47
1.0
171
     0
 49
0.0208333333333333
 49
0.0
 49
0.0
 49
0.0
 49
0.0
 49
0.0208333333333333
 49
0.0
 49
0.0
 49
0.0
 49
0.0
 49
1.0
 49
0.0
 49
0.0
 49
0.0
 49
0.0
 49
1.0
175
     0
142
0.0208333333333333
142
0.0
142
0.0
142
0.0
142
0.0
142
0.0208333333333333
142
0.0
142
0.0
142
0.0
142
0.0
142
1.0
142
0.0
142
0.0
142
0.0
142
0.0
142
1.0
179
     0
144
0.0208333333333333
144
0.0
144
0.0
144
0.0
144
0.0
144
0.0208333333333333
144
0.0
144
0.0
144
0.0
144
0.0
144
1.0
144
0.0
144
0.0
144
0.0
144
0.0
144
1.0
147
0.0208333333333333
147
0.0
147
0.0
147
0.0
147
0.0
147
0.0208333333333333
147
0.0
147
0.0
147
0.0
147
0.0
147
1.0
147
0.0
147
0.0
147
0.0
147
0.0
147
1.0
  0
MATERIAL
  5
5C5
102
{ACAD_XDICTIONARY
360
5C6
102
}
102
{ACAD_REACTORS
330
5B4
102
}
330
5B4
100
AcDbMaterial
  1
Global
 72
     0
 43
0.0208333333333333
 43
0.0
 43
0.0
 43
0.0
 43
0.0
 43
0.0208333333333333
 43
0.0
 43
0.0
 43
0.0
 43
0.0
 43
1.0
 43
0.0
 43
0.0
 43
0.0
 43
0.0
 43
1.0
 77
     0
 47
0.0208333333333333
 47
0.0
 47
0.0
 47
0.0
 47
0.0
 47
0.0208333333333333
 47
0.0
 47
0.0
 47
0.0
 47
0.0
 47
1.0
 47
0.0
 47
0.0
 47
0.0
 47
0.0
 47
1.0
171
     0
 49
0.0208333333333333
 49
0.0
 49
0.0
 49
0.0
 49
0.0
 49
0.0208333333333333
 49
0.0
 49
0.0
 49
0.0
 49
0.0
 49
1.0
 49
0.0
 49
0.0
 49
0.0
 49
0.0
 49
1.0
175
     0
142
0.0208333333333333
142
0.0
142
0.0
142
0.0
142
0.0
142
0.0208333333333333
142
0.0
142
0.0
142
0.0
142
0.0
142
1.0
142
0.0
142
0.0
142
0.0
142
0.0
142
1.0
179
     0
144
0.0208333333333333
144
0.0
144
0.0
144
0.0
144
0.0
144
0.0208333333333333
144
0.0
144
0.0
144
0.0
144
0.0
144
1.0
144
0.0
144
0.0
144
0.0
144
0.0
144
1.0
147
0.0208333333333333
147
0.0
147
0.0
147
0.0
147
0.0
147
0.0208333333333333
147
0.0
147
0.0
147
0.0
147
0.0
147
1.0
147
0.0
147
0.0
147
0.0
147
0.0
147
1.0
  0
MLEADERSTYLE
  5
5FC
102
{ACAD_REACTORS
330
5FB
102
}
330
5FB
100
AcDbMLeaderStyle
179
     2
170
     2
171
     1
172
     0
 90
        2
 40
0.0
 41
0.0
173
     1
 91
-1056964608
340
14
 92
       -2
290
     1
 42
2.0
291
     1
 43
0.36
  3
Standard
 44
4.0
300

342
10
174
     1
178
     6
175
     1
176
     0
 93
-1056964608
 45
4.0
292
     0
297
     0
 46
4.0
 94
-1056964608
 47
1.0
 49
1.0
140
1.0
293
     1
141
0.0
294
     1
177
     0
142
1.0
295
     0
296
     0
143
0.125
271
     0
272
     9
273
     9
298
     1
  0
MLINESTYLE
  5
13
102
{ACAD_REACTORS
330
E
102
}
330
E
100
AcDbMlineStyle
  2
STANDARD
 70
     0
  3

 62
     0
 51
90.0
 52
90.0
 71
     2
 49
0.5
 62
   256
  6
BYLAYER
 49
-0.5
 62
   256
  6
BYLAYER
  0
PLOTSETTINGS
  5
25C
102
{ACAD_REACTORS
330
F5
102
}
330
F5
100
AcDbPlotSettings
  1
e Plot 1zu1
  2
DWF ePlot.pc3
  4
UserDefinedMetric (210.00 x 297.00MM)
  6

 40
13.0
 41
13.0
 42
13.0
 43
13.0
 44
210.0
 45
297.0
 46
58.27
 47
107.7
 48
0.0
 49
0.0
140
0.0
141
0.0
142
1.0
143
1.0
 70
  1716
 72
     1
 73
     0
 74
     1
  7
OPO_DWF.ctb
 75
    16
147
1.0
 76
     0
 77
     2
 78
   300
148
17.16613684218157
149
24.55902015156926
  0
PLOTSETTINGS
  5
25D
102
{ACAD_REACTORS
330
F5
102
}
330
F5
100
AcDbPlotSettings
  1
e Plot angepasst
  2
DWF ePlot.pc3
  4
UserDefinedMetric (210.00 x 297.00MM)
  6

 40
13.0
 41
13.0
 42
13.0
 43
13.0
 44
210.0
 45
297.0
 46
0.0
 47
59.67
 48
0.0
 49
0.0
140
0.0
141
0.0
142
1.0
143
0.3665841129351039
 70
  1716
 72
     1
 73
     0
 74
     1
  7
OPO_DWF.ctb
 75
     0
147
2.727886901571834
 76
     0
 77
     2
 78
   300
148
17.16613684218157
149
24.55902015156926
  0
PLOTSETTINGS
  5
25E
102
{ACAD_REACTORS
330
F5
102
}
330
F5
100
AcDbPlotSettings
  1
Laser A4
  2
4 Xerox XL.pc3
  4
A4
  6

 40
5.111750125885009
 41
5.11176061630249
 42
5.111740112304687
 43
5.11175537109375
 44
209.9733276367187
 45
296.9259948730469
 46
0.0
 47
43.47999999999999
 48
0.0
 49
0.0
140
0.0
141
0.0
142
1.0
143
0.020166824766453
 70
  1716
 72
     1
 73
     0
 74
     1
  7
OPO.ctb
 75
     0
147
49.58638811913882
 76
     0
 77
     2
 78
   300
148
2.014159285479877
149
2.014159285479877
  0
ACDBPLACEHOLDER
  5
F3
102
{ACAD_REACTORS
330
F2
102
}
330
F2
  0
DICTIONARY
  5
669
330
668
100
AcDbDictionary
280
     1
281
     1
  3
ACAD_XREC_ROUNDTRIP
360
66B
  3
ADSK_XREC_MENTALRAYSETTINGSINFO
360
66A
  0
RAPIDRTRENDERSETTINGS
  5
60A
102
{ACAD_REACTORS
330
607
102
}
330
607
100
AcDbRenderSettings
 90
        2
  1
Hoch
290
     1
290
     0
290
     1
290
     1
  1

  1
Wendet 10 Render-Ebenen an
 90
        2
100
AcDbRapidRTRenderSettings
 90
        3
 70
     0
 90
       10
 90
        1
 70
     2
 70
     2
 40
3.0
 40
3.0
290
     1
  0
RAPIDRTRENDERSETTINGS
  5
60C
102
{ACAD_REACTORS
330
607
102
}
330
607
100
AcDbRenderSettings
 90
        2
  1
Mittagsqualität
290
     1
290
     0
290
     1
290
     1
  1

  1
Rendert für 60 Minuten
 90
        4
100
AcDbRapidRTRenderSettings
 90
        3
 70
     1
 90
        1
 90
       60
 70
     2
 70
     2
 40
3.0
 40
3.0
290
     1
  0
RAPIDRTRENDERSETTINGS
  5
609
102
{ACAD_REACTORS
330
607
102
}
330
607
100
AcDbRenderSettings
 90
        2
  1
Mittel
290
     1
290
     0
290
     1
290
     1
  1

  1
Wendet 5 Render-Ebenen an
 90
        1
100
AcDbRapidRTRenderSettings
 90
        3
 70
     0
 90
        5
 90
        1
 70
     1
 70
     2
 40
3.0
 40
3.0
290
     1
  0
RAPIDRTRENDERSETTINGS
  5
60B
102
{ACAD_REACTORS
330
607
102
}
330
607
100
AcDbRenderSettings
 90
        2
  1
Morgenqualität
290
     1
290
     0
290
     1
290
     1
  1

  1
Rendert für 10 Minuten
 90
        3
100
AcDbRapidRTRenderSettings
 90
        3
 70
     1
 90
        1
 90
       10
 70
     1
 70
     2
 40
3.0
 40
3.0
290
     1
  0
RAPIDRTRENDERSETTINGS
  5
60D
102
{ACAD_REACTORS
330
607
102
}
330
607
100
AcDbRenderSettings
 90
        2
  1
Nachtqualität
290
     1
290
     0
290
     1
290
     1
  1

  1
Rendert für 12 Stunden
 90
        5
100
AcDbRapidRTRenderSettings
 90
        3
 70
     1
 90
        1
 90
      720
 70
     2
 70
     2
 40
3.0
 40
3.0
290
     1
  0
RAPIDRTRENDERSETTINGS
  5
608
102
{ACAD_REACTORS
330
607
102
}
330
607
100
AcDbRenderSettings
 90
        2
  1
Niedrig
290
     1
290
     0
290
     1
290
     1
  1

  1
Wendet 1 Render-Ebene an
 90
        0
100
AcDbRapidRTRenderSettings
 90
        3
 70
     0
 90
        1
 90
        1
 70
     0
 70
     2
 40
3.0
 40
3.0
290
     1
  0
SCALE
  5
5EA
102
{ACAD_REACTORS
330
5E9
102
}
330
5E9
100
AcDbScale
 70
     0
300
1:1
140
1.0
141
1.0
290
     1
  0
SCALE
  5
5EB
102
{ACAD_REACTORS
330
5E9
102
}
330
5E9
100
AcDbScale
 70
     0
300
1:2
140
1.0
141
2.0
290
     0
  0
SCALE
  5
5EC
102
{ACAD_REACTORS
330
5E9
102
}
330
5E9
100
AcDbScale
 70
     0
300
1:4
140
1.0
141
4.0
290
     0
  0
SCALE
  5
5ED
102
{ACAD_REACTORS
330
5E9
102
}
330
5E9
100
AcDbScale
 70
     0
300
1:5
140
1.0
141
5.0
290
     0
  0
SCALE
  5
5EE
102
{ACAD_REACTORS
330
5E9
102
}
330
5E9
100
AcDbScale
 70
     0
300
1:8
140
1.0
141
8.0
290
     0
  0
SCALE
  5
5EF
102
{ACAD_REACTORS
330
5E9
102
}
330
5E9
100
AcDbScale
 70
     0
300
1:10
140
1.0
141
10.0
290
     0
  0
SCALE
  5
5F0
102
{ACAD_REACTORS
330
5E9
102
}
330
5E9
100
AcDbScale
 70
     0
300
1:16
140
1.0
141
16.0
290
     0
  0
SCALE
  5
5F1
102
{ACAD_REACTORS
330
5E9
102
}
330
5E9
100
AcDbScale
 70
     0
300
1:20
140
1.0
141
20.0
290
     0
  0
SCALE
  5
5F2
102
{ACAD_REACTORS
330
5E9
102
}
330
5E9
100
AcDbScale
 70
     0
300
1:30
140
1.0
141
30.0
290
     0
  0
SCALE
  5
5F3
102
{ACAD_REACTORS
330
5E9
102
}
330
5E9
100
AcDbScale
 70
     0
300
1:40
140
1.0
141
40.0
290
     0
  0
SCALE
  5
5F4
102
{ACAD_REACTORS
330
5E9
102
}
330
5E9
100
AcDbScale
 70
     0
300
1:50
140
1.0
141
50.0
290
     0
  0
SCALE
  5
5F5
102
{ACAD_REACTORS
330
5E9
102
}
330
5E9
100
AcDbScale
 70
     0
300
1:100
140
1.0
141
100.0
290
     0
  0
SCALE
  5
5F6
102
{ACAD_REACTORS
330
5E9
102
}
330
5E9
100
AcDbScale
 70
     0
300
2:1
140
2.0
141
1.0
290
     0
  0
SCALE
  5
5F7
102
{ACAD_REACTORS
330
5E9
102
}
330
5E9
100
AcDbScale
 70
     0
300
4:1
140
4.0
141
1.0
290
     0
  0
SCALE
  5
5F8
102
{ACAD_REACTORS
330
5E9
102
}
330
5E9
100
AcDbScale
 70
     0
300
8:1
140
8.0
141
1.0
290
     0
  0
SCALE
  5
5F9
102
{ACAD_REACTORS
330
5E9
102
}
330
5E9
100
AcDbScale
 70
     0
300
10:1
140
10.0
141
1.0
290
     0
  0
SCALE
  5
5FA
102
{ACAD_REACTORS
330
5E9
102
}
330
5E9
100
AcDbScale
 70
     0
300
100:1
140
100.0
141
1.0
290
     0
  0
ACDBSECTIONVIEWSTYLE
  5
5FE
102
{ACAD_XDICTIONARY
360
664
102
}
102
{ACAD_REACTORS
330
5FD
102
}
330
5FD
100
AcDbModelDocViewStyle
 70
     0
  3
Metric50
290
     0
100
AcDbSectionViewStyle
 70
     0
 71
     0
 90
      102
 71
     1
340
10
 62
   256
 40
5.0
340
0
340
0
 62
   256
 40
5.0
300
I, O, Q, S, X, Z
 40
10.0
 90
        0
 40
2.5
 90
        0
 71
     2
340
16
 90
       25
 62
   256
340
16
 90
       50
 62
   256
 40
5.0
 40
2.5
 40
5.0
 71
     3
340
10
 62
   256
 40
5.0
 90
        0
 40
15.0
 90
        1
300
%<\AcVar ViewSectionStartId>%-%<\AcVar ViewSectionEndId>% (%<\AcVar ViewScale \f "%sn">%)
 71
     4
 62
   256
 62
   257
300
ANSI31
 40
1.0
 90
        0
290
     0
290
     0
 90
        6
 40
0.0
 40
1.570796326794896
 40
0.2617993877991494
 40
1.308996938995747
 40
-0.2617993877991494
 40
1.832595714594046
  0
TABLESTYLE
  5
5E8
102
{ACAD_XDICTIONARY
360
661
102
}
102
{ACAD_REACTORS
330
5E7
102
}
330
5E7
100
AcDbTableStyle
280
     0
  3
Standard
 70
     0
 71
     0
 40
1.5
 41
1.5
280
     0
281
     0
  7
STANDARD
140
4.5
170
     2
 62
     0
 63
     7
283
     0
 90
      512
 91
        0
  1

274
    -2
284
     1
 64
     0
275
    -2
285
     1
 65
     0
276
    -2
286
     1
 66
     0
277
    -2
287
     1
 67
     0
278
    -2
288
     1
 68
     0
279
    -2
289
     1
 69
     0
  7
STANDARD
140
6.0
170
     5
 62
     0
 63
     7
283
     0
 90
      512
 91
        0
  1

274
    -2
284
     1
 64
     0
275
    -2
285
     1
 65
     0
276
    -2
286
     1
 66
     0
277
    -2
287
     1
 67
     0
278
    -2
288
     1
 68
     0
279
    -2
289
     1
 69
     0
  7
STANDARD
140
4.5
170
     5
 62
     0
 63
     7
283
     0
 90
      512
 91
        0
  1

274
    -2
284
     1
 64
     0
275
    -2
285
     1
 65
     0
276
    -2
286
     1
 66
     0
277
    -2
287
     1
 67
     0
278
    -2
288
     1
 68
     0
279
    -2
289
     1
 69
     0
  0
VISUALSTYLE
  5
5D3
102
{ACAD_REACTORS
330
5CD
102
}
330
5CD
100
AcDbVisualStyle
  2
2dWireframe
 70
     4
177
     3
291
     0
 70
    58
 90
        0
176
     1
 90
        2
176
     1
 90
        0
176
     1
 90
        0
176
     1
 40
0.6
176
     1
 40
30.0
176
     1
 62
     7
420
 16777215
176
     1
 90
        1
176
     1
 90
        4
176
     1
 62
     7
176
     1
 62
   257
176
     1
 90
        1
176
     1
 90
        1
176
     1
 40
1.0
176
     1
 90
        0
176
     1
 62
   257
176
     1
 40
1.0
176
     1
 90
        1
176
     1
 90
        6
176
     1
 90
        2
176
     1
 62
     7
176
     1
 90
        5
176
     1
 90
        0
176
     1
 90
        0
176
     1
290
     0
176
     1
 90
        1
176
     1
 40
0.0
176
     1
 90
        0
176
     1
290
     1
176
     1
290
     1
176
     1
290
     0
176
     1
290
     0
176
     1
290
     0
176
     1
290
     0
176
     1
290
     0
176
     1
290
     0
176
     1
290
     0
176
     1
 90
       50
176
     1
 40
0.0
176
     1
 40
1.0
176
     1
 90
        0
176
     1
 62
    18
420
        0
176
     1
 90
       50
176
     1
 90
        3
176
     1
 62
     5
420
      255
176
     1
290
     0
176
     1
 90
       50
176
     1
 90
       50
176
     1
 90
       50
176
     1
290
     0
176
     1
 90
       50
176
     1
 62
   256
176
     0
 40
1.0
176
     0
 90
        2
176
     1
  1
strokes_ogs.tif
176
     1
290
     0
176
     1
 40
1.0
176
     1
 40
1.0
176
     1
1001
ACAD
1000
AcDbSavedByObjectVersion
1070
     0
  0
VISUALSTYLE
  5
5D2
102
{ACAD_REACTORS
330
5CD
102
}
330
5CD
100
AcDbVisualStyle
  2
Basic
 70
     7
177
     3
291
     1
 70
    58
 90
        1
176
     1
 90
        0
176
     1
 90
        1
176
     1
 90
        0
176
     1
 40
0.6
176
     1
 40
30.0
176
     1
 62
     7
420
 16777215
176
     1
 90
        0
176
     1
 90
        4
176
     1
 62
     7
176
     1
 62
   257
176
     1
 90
        1
176
     1
 90
        1
176
     1
 40
1.0
176
     1
 90
        8
176
     1
 62
     7
176
     1
 40
1.0
176
     1
 90
        1
176
     1
 90
        6
176
     1
 90
        2
176
     1
 62
     7
176
     1
 90
        5
176
     1
 90
        0
176
     1
 90
        0
176
     1
290
     0
176
     1
 90
        1
176
     1
 40
0.0
176
     1
 90
        0
176
     1
290
     0
176
     1
290
     1
176
     1
290
     1
176
     1
290
     0
176
     1
290
     0
176
     1
290
     0
176
     1
290
     0
176
     1
290
     0
176
     1
290
     0
176
     1
 90
       50
176
     1
 40
0.0
176
     1
 40
1.0
176
     1
 90
        0
176
     1
 62
    18
420
        0
176
     1
 90
       50
176
     1
 90
        3
176
     1
 62
     5
420
      255
176
     1
290
     0
176
     1
 90
       50
176
     1
 90
       50
176
     1
 90
       50
176
     1
290
     0
176
     1
 90
       50
176
     1
 62
   256
176
     0
 40
1.0
176
     0
 90
        2
176
     1
  1
strokes_ogs.tif
176
     1
290
     0
176
     1
 40
1.0
176
     1
 40
1.0
176
     1
1001
ACAD
1000
AcDbSavedByObjectVersion
1070
     0
  0
VISUALSTYLE
  5
5D9
102
{ACAD_REACTORS
330
5CD
102
}
330
5CD
100
AcDbVisualStyle
  2
Brighten
 70
    12
177
     3
291
     1
 70
    58
 90
        2
176
     1
 90
        2
176
     1
 90
        0
176
     1
 90
        0
176
     1
 40
0.6
176
     1
 40
30.0
176
     1
 62
     7
420
 16777215
176
     1
 90
        1
176
     1
 90
        4
176
     1
 62
     7
176
     1
 62
   257
176
     1
 90
        1
176
     1
 90
        1
176
     1
 40
1.0
176
     1
 90
        8
176
     1
 62
     7
176
     1
 40
1.0
176
     1
 90
        1
176
     1
 90
        6
176
     1
 90
        2
176
     1
 62
     7
176
     1
 90
        5
176
     1
 90
        0
176
     1
 90
        0
176
     1
290
     0
176
     1
 90
        1
176
     1
 40
50.0
176
     1
 90
        0
176
     1
290
     0
176
     1
290
     1
176
     1
290
     1
176
     1
290
     0
176
     1
290
     0
176
     1
290
     0
176
     1
290
     0
176
     1
290
     0
176
     1
290
     0
176
     1
 90
       50
176
     1
 40
0.0
176
     1
 40
1.0
176
     1
 90
        0
176
     1
 62
    18
420
        0
176
     1
 90
       50
176
     1
 90
        3
176
     1
 62
     5
420
      255
176
     1
290
     0
176
     1
 90
       50
176
     1
 90
       50
176
     1
 90
       50
176
     1
290
     0
176
     1
 90
       50
176
     1
 62
   256
176
     0
 40
1.0
176
     0
 90
        2
176
     1
  1
strokes_ogs.tif
176
     1
290
     0
176
     1
 40
1.0
176
     1
 40
1.0
176
     1
1001
ACAD
1000
AcDbSavedByObjectVersion
1070
     0
  0
VISUALSTYLE
  5
5DD
102
{ACAD_REACTORS
330
5CD
102
}
330
5CD
100
AcDbVisualStyle
  2
ColorChange
 70
    16
177
     3
291
     1
 70
    58
 90
        2
176
     1
 90
        2
176
     1
 90
        3
176
     1
 90
        0
176
     1
 40
0.6
176
     1
 40
30.0
176
     1
 62
     8
420
  8421504
176
     1
 90
        1
176
     1
 90
        4
176
     1
 62
     7
176
     1
 62
   257
176
     1
 90
        1
176
     1
 90
        1
176
     1
 40
1.0
176
     1
 90
        8
176
     1
 62
     8
420
  8421504
176
     1
 40
1.0
176
     1
 90
        1
176
     1
 90
        6
176
     1
 90
        2
176
     1
 62
     7
176
     1
 90
        5
176
     1
 90
        0
176
     1
 90
        0
176
     1
290
     0
176
     1
 90
        1
176
     1
 40
0.0
176
     1
 90
        0
176
     1
290
     0
176
     1
290
     1
176
     1
290
     1
176
     1
290
     0
176
     1
290
     0
176
     1
290
     0
176
     1
290
     0
176
     1
290
     0
176
     1
290
     0
176
     1
 90
       50
176
     1
 40
0.0
176
     1
 40
1.0
176
     1
 90
        0
176
     1
 62
    18
420
        0
176
     1
 90
       50
176
     1
 90
        3
176
     1
 62
     5
420
      255
176
     1
290
     0
176
     1
 90
       50
176
     1
 90
       50
176
     1
 90
       50
176
     1
290
     0
176
     1
 90
       50
176
     1
 62
   256
176
     0
 40
1.0
176
     0
 90
        2
176
     1
  1
strokes_ogs.tif
176
     1
290
     0
176
     1
 40
1.0
176
     1
 40
1.0
176
     1
1001
ACAD
1000
AcDbSavedByObjectVersion
1070
     0
  0
VISUALSTYLE
  5
5D6
102
{ACAD_REACTORS
330
5CD
102
}
330
5CD
100
AcDbVisualStyle
  2
Conceptual
 70
     9
177
     3
291
     0
 70
    58
 90
        3
176
     1
 90
        2
176
     1
 90
        0
176
     1
 90
        0
176
     1
 40
0.6
176
     1
 40
30.0
176
     1
 62
     7
420
 16777215
176
     1
 90
        2
176
     1
 90
        2
176
     1
 62
     7
176
     1
 62
   257
176
     1
 90
        1
176
     1
 90
        1
176
     1
 40
179.0
176
     1
 90
        8
176
     1
 62
     7
176
     1
 40
1.0
176
     1
 90
        1
176
     1
 90
        6
176
     1
 90
        2
176
     1
 62
     7
176
     1
 90
        3
176
     1
 90
        0
176
     1
 90
        0
176
     1
290
     0
176
     1
 90
        1
176
     1
 40
0.0
176
     1
 90
        0
176
     1
290
     0
176
     1
290
     1
176
     1
290
     1
176
     1
290
     0
176
     1
290
     0
176
     1
290
     0
176
     1
290
     0
176
     1
290
     0
176
     1
290
     0
176
     1
 90
       50
176
     1
 40
0.0
176
     1
 40
1.0
176
     1
 90
        0
176
     1
 62
    18
420
        0
176
     1
 90
       50
176
     1
 90
        3
176
     1
 62
     5
420
      255
176
     1
290
     0
176
     1
 90
       50
176
     1
 90
       50
176
     1
 90
       50
176
     1
290
     0
176
     1
 90
       50
176
     1
 62
   256
176
     0
 40
1.0
176
     0
 90
        2
176
     1
  1
strokes_ogs.tif
176
     1
290
     0
176
     1
 40
1.0
176
     1
 40
1.0
176
     1
1001
ACAD
1000
AcDbSavedByObjectVersion
1070
     0
  0
VISUALSTYLE
  5
5D8
102
{ACAD_REACTORS
330
5CD
102
}
330
5CD
100
AcDbVisualStyle
  2
Dim
 70
    11
177
     3
291
     1
 70
    58
 90
        2
176
     1
 90
        2
176
     1
 90
        0
176
     1
 90
        0
176
     1
 40
0.6
176
     1
 40
30.0
176
     1
 62
     7
420
 16777215
176
     1
 90
        1
176
     1
 90
        4
176
     1
 62
     7
176
     1
 62
   257
176
     1
 90
        1
176
     1
 90
        1
176
     1
 40
1.0
176
     1
 90
        8
176
     1
 62
     7
176
     1
 40
1.0
176
     1
 90
        1
176
     1
 90
        6
176
     1
 90
        2
176
     1
 62
     7
176
     1
 90
        5
176
     1
 90
        0
176
     1
 90
        0
176
     1
290
     0
176
     1
 90
        1
176
     1
 40
-50.0
176
     1
 90
        0
176
     1
290
     0
176
     1
290
     1
176
     1
290
     1
176
     1
290
     0
176
     1
290
     0
176
     1
290
     0
176
     1
290
     0
176
     1
290
     0
176
     1
290
     0
176
     1
 90
       50
176
     1
 40
0.0
176
     1
 40
1.0
176
     1
 90
        0
176
     1
 62
    18
420
        0
176
     1
 90
       50
176
     1
 90
        3
176
     1
 62
     5
420
      255
176
     1
290
     0
176
     1
 90
       50
176
     1
 90
       50
176
     1
 90
       50
176
     1
290
     0
176
     1
 90
       50
176
     1
 62
   256
176
     0
 40
1.0
176
     0
 90
        2
176
     1
  1
strokes_ogs.tif
176
     1
290
     0
176
     1
 40
1.0
176
     1
 40
1.0
176
     1
1001
ACAD
1000
AcDbSavedByObjectVersion
1070
     0
  0
VISUALSTYLE
  5
5E5
102
{ACAD_REACTORS
330
5CD
102
}
330
5CD
100
AcDbVisualStyle
  2
EdgeColorOff
 70
    22
177
     3
291
     1
 70
    58
 90
        2
176
     0
 90
        2
176
     0
 90
        0
176
     0
 90
        0
176
     0
 40
0.6
176
     0
 40
30.0
176
     0
 62
     7
420
 16777215
176
     0
 90
        1
176
     0
 90
        4
176
     0
 62
     7
176
     0
 62
   257
176
     0
 90
        1
176
     0
 90
        1
176
     0
 40
1.0
176
     0
 90
        8
176
     2
 62
     7
176
     0
 40
1.0
176
     0
 90
        1
176
     0
 90
        6
176
     0
 90
        2
176
     0
 62
     7
176
     0
 90
        5
176
     0
 90
        0
176
     0
 90
        0
176
     0
290
     0
176
     0
 90
        1
176
     0
 40
0.0
176
     0
 90
        0
176
     0
290
     0
176
     0
290
     1
176
     0
290
     1
176
     0
290
     0
176
     0
290
     0
176
     0
290
     0
176
     0
290
     0
176
     0
290
     0
176
     0
290
     0
176
     0
 90
       50
176
     0
 40
0.0
176
     0
 40
1.0
176
     0
 90
        0
176
     0
 62
    18
420
        0
176
     0
 90
       50
176
     0
 90
        3
176
     0
 62
     5
420
      255
176
     0
290
     0
176
     0
 90
       50
176
     0
 90
       50
176
     0
 90
       50
176
     0
290
     0
176
     0
 90
       50
176
     0
 62
   256
176
     0
 40
1.0
176
     0
 90
        2
176
     0
  1
strokes_ogs.tif
176
     0
290
     0
176
     0
 40
1.0
176
     0
 40
1.0
176
     0
1001
ACAD
1000
AcDbSavedByObjectVersion
1070
     0
  0
VISUALSTYLE
  5
5DC
102
{ACAD_REACTORS
330
5CD
102
}
330
5CD
100
AcDbVisualStyle
  2
Facepattern
 70
    15
177
     3
291
     1
 70
    58
 90
        2
176
     1
 90
        2
176
     1
 90
        0
176
     1
 90
        0
176
     1
 40
0.6
176
     1
 40
30.0
176
     1
 62
     7
420
 16777215
176
     1
 90
        1
176
     1
 90
        4
176
     1
 62
     7
176
     1
 62
   257
176
     1
 90
        1
176
     1
 90
        1
176
     1
 40
1.0
176
     1
 90
        8
176
     1
 62
     7
176
     1
 40
1.0
176
     1
 90
        1
176
     1
 90
        6
176
     1
 90
        2
176
     1
 62
     7
176
     1
 90
        5
176
     1
 90
        0
176
     1
 90
        0
176
     1
290
     0
176
     1
 90
        1
176
     1
 40
0.0
176
     1
 90
        0
176
     1
290
     0
176
     1
290
     1
176
     1
290
     1
176
     1
290
     0
176
     1
290
     0
176
     1
290
     0
176
     1
290
     0
176
     1
290
     0
176
     1
290
     0
176
     1
 90
       50
176
     1
 40
0.0
176
     1
 40
1.0
176
     1
 90
        0
176
     1
 62
    18
420
        0
176
     1
 90
       50
176
     1
 90
        3
176
     1
 62
     5
420
      255
176
     1
290
     0
176
     1
 90
       50
176
     1
 90
       50
176
     1
 90
       50
176
     1
290
     0
176
     1
 90
       50
176
     1
 62
   256
176
     0
 40
1.0
176
     0
 90
        2
176
     1
  1
strokes_ogs.tif
176
     1
290
     0
176
     1
 40
1.0
176
     1
 40
1.0
176
     1
1001
ACAD
1000
AcDbSavedByObjectVersion
1070
     0
  0
VISUALSTYLE
  5
5CE
102
{ACAD_REACTORS
330
5CD
102
}
330
5CD
100
AcDbVisualStyle
  2
Flat
 70
     0
177
     3
291
     1
 70
    58
 90
        2
176
     1
 90
        1
176
     1
 90
        1
176
     1
 90
        2
176
     1
 40
0.6
176
     1
 40
30.0
176
     1
 62
     7
420
 16777215
176
     1
 90
        0
176
     1
 90
        0
176
     1
 62
     7
176
     1
 62
   257
176
     1
 90
        1
176
     1
 90
        1
176
     1
 40
1.0
176
     1
 90
        8
176
     1
 62
     7
176
     1
 40
1.0
176
     1
 90
        1
176
     1
 90
        6
176
     1
 90
        2
176
     1
 62
     7
176
     1
 90
        5
176
     1
 90
        0
176
     1
 90
        0
176
     1
290
     0
176
     1
 90
       13
176
     1
 40
0.0
176
     1
 90
        0
176
     1
290
     0
176
     1
290
     1
176
     1
290
     1
176
     1
290
     0
176
     1
290
     0
176
     1
290
     0
176
     1
290
     0
176
     1
290
     0
176
     1
290
     0
176
     1
 90
       50
176
     1
 40
0.0
176
     1
 40
1.0
176
     1
 90
        0
176
     1
 62
    18
420
        0
176
     1
 90
       50
176
     1
 90
        3
176
     1
 62
     5
420
      255
176
     1
290
     0
176
     1
 90
       50
176
     1
 90
       50
176
     1
 90
       50
176
     1
290
     0
176
     1
 90
       50
176
     1
 62
   256
176
     0
 40
1.0
176
     0
 90
        2
176
     1
  1
strokes_ogs.tif
176
     1
290
     0
176
     1
 40
1.0
176
     1
 40
1.0
176
     1
1001
ACAD
1000
AcDbSavedByObjectVersion
1070
     0
  0
VISUALSTYLE
  5
5CF
102
{ACAD_REACTORS
330
5CD
102
}
330
5CD
100
AcDbVisualStyle
  2
FlatWithEdges
 70
     1
177
     3
291
     1
 70
    58
 90
        2
176
     1
 90
        1
176
     1
 90
        1
176
     1
 90
        2
176
     1
 40
0.6
176
     1
 40
30.0
176
     1
 62
     7
420
 16777215
176
     1
 90
        1
176
     1
 90
        0
176
     1
 62
     7
176
     1
 62
   257
176
     1
 90
        1
176
     1
 90
        1
176
     1
 40
1.0
176
     1
 90
        0
176
     1
 62
   257
176
     1
 40
1.0
176
     1
 90
        1
176
     1
 90
        6
176
     1
 90
        2
176
     1
 62
     7
176
     1
 90
        5
176
     1
 90
        0
176
     1
 90
        0
176
     1
290
     0
176
     1
 90
       13
176
     1
 40
0.0
176
     1
 90
        0
176
     1
290
     0
176
     1
290
     1
176
     1
290
     1
176
     1
290
     0
176
     1
290
     0
176
     1
290
     0
176
     1
290
     0
176
     1
290
     0
176
     1
290
     0
176
     1
 90
       50
176
     1
 40
0.0
176
     1
 40
1.0
176
     1
 90
        0
176
     1
 62
    18
420
        0
176
     1
 90
       50
176
     1
 90
        3
176
     1
 62
     5
420
      255
176
     1
290
     0
176
     1
 90
       50
176
     1
 90
       50
176
     1
 90
       50
176
     1
290
     0
176
     1
 90
       50
176
     1
 62
   256
176
     0
 40
1.0
176
     0
 90
        2
176
     1
  1
strokes_ogs.tif
176
     1
290
     0
176
     1
 40
1.0
176
     1
 40
1.0
176
     1
1001
ACAD
1000
AcDbSavedByObjectVersion
1070
     0
  0
VISUALSTYLE
  5
5D0
102
{ACAD_REACTORS
330
5CD
102
}
330
5CD
100
AcDbVisualStyle
  2
Gouraud
 70
     2
177
     3
291
     1
 70
    58
 90
        2
176
     1
 90
        2
176
     1
 90
        1
176
     1
 90
        2
176
     1
 40
0.6
176
     1
 40
30.0
176
     1
 62
     7
420
 16777215
176
     1
 90
        0
176
     1
 90
        0
176
     1
 62
     7
176
     1
 62
   257
176
     1
 90
        1
176
     1
 90
        1
176
     1
 40
1.0
176
     1
 90
        0
176
     1
 62
     7
176
     1
 40
1.0
176
     1
 90
        1
176
     1
 90
        6
176
     1
 90
        2
176
     1
 62
     7
176
     1
 90
        5
176
     1
 90
        0
176
     1
 90
        0
176
     1
290
     0
176
     1
 90
       13
176
     1
 40
0.0
176
     1
 90
        0
176
     1
290
     0
176
     1
290
     1
176
     1
290
     1
176
     1
290
     0
176
     1
290
     0
176
     1
290
     0
176
     1
290
     0
176
     1
290
     0
176
     1
290
     0
176
     1
 90
       50
176
     1
 40
0.0
176
     1
 40
1.0
176
     1
 90
        0
176
     1
 62
    18
420
        0
176
     1
 90
       50
176
     1
 90
        3
176
     1
 62
     5
420
      255
176
     1
290
     0
176
     1
 90
       50
176
     1
 90
       50
176
     1
 90
       50
176
     1
290
     0
176
     1
 90
       50
176
     1
 62
   256
176
     0
 40
1.0
176
     0
 90
        2
176
     1
  1
strokes_ogs.tif
176
     1
290
     0
176
     1
 40
1.0
176
     1
 40
1.0
176
     1
1001
ACAD
1000
AcDbSavedByObjectVersion
1070
     0
  0
VISUALSTYLE
  5
5D1
102
{ACAD_REACTORS
330
5CD
102
}
330
5CD
100
AcDbVisualStyle
  2
GouraudWithEdges
 70
     3
177
     3
291
     1
 70
    58
 90
        2
176
     1
 90
        2
176
     1
 90
        1
176
     1
 90
        2
176
     1
 40
0.6
176
     1
 40
30.0
176
     1
 62
     7
420
 16777215
176
     1
 90
        1
176
     1
 90
        0
176
     1
 62
     7
176
     1
 62
   257
176
     1
 90
        1
176
     1
 90
        1
176
     1
 40
1.0
176
     1
 90
        0
176
     1
 62
   257
176
     1
 40
1.0
176
     1
 90
        1
176
     1
 90
        6
176
     1
 90
        2
176
     1
 62
     7
176
     1
 90
        5
176
     1
 90
        0
176
     1
 90
        0
176
     1
290
     0
176
     1
 90
       13
176
     1
 40
0.0
176
     1
 90
        0
176
     1
290
     0
176
     1
290
     1
176
     1
290
     1
176
     1
290
     0
176
     1
290
     0
176
     1
290
     0
176
     1
290
     0
176
     1
290
     0
176
     1
290
     0
176
     1
 90
       50
176
     1
 40
0.0
176
     1
 40
1.0
176
     1
 90
        0
176
     1
 62
    18
420
        0
176
     1
 90
       50
176
     1
 90
        3
176
     1
 62
     5
420
      255
176
     1
290
     0
176
     1
 90
       50
176
     1
 90
       50
176
     1
 90
       50
176
     1
290
     0
176
     1
 90
       50
176
     1
 62
   256
176
     0
 40
1.0
176
     0
 90
        2
176
     1
  1
strokes_ogs.tif
176
     1
290
     0
176
     1
 40
1.0
176
     1
 40
1.0
176
     1
1001
ACAD
1000
AcDbSavedByObjectVersion
1070
     0
  0
VISUALSTYLE
  5
5D5
102
{ACAD_REACTORS
330
5CD
102
}
330
5CD
100
AcDbVisualStyle
  2
Hidden
 70
     6
177
     3
291
     0
 70
    58
 90
        1
176
     1
 90
        2
176
     1
 90
        2
176
     1
 90
        0
176
     1
 40
0.6
176
     1
 40
30.0
176
     1
 62
     7
420
 16777215
176
     1
 90
        2
176
     1
 90
        2
176
     1
 62
     7
176
     1
 62
   257
176
     1
 90
        2
176
     1
 90
        1
176
     1
 40
40.0
176
     1
 90
        0
176
     1
 62
   257
176
     1
 40
1.0
176
     1
 90
        1
176
     1
 90
        6
176
     1
 90
        2
176
     1
 62
     7
176
     1
 90
        3
176
     1
 90
        0
176
     1
 90
        0
176
     1
290
     0
176
     1
 90
        1
176
     1
 40
0.0
176
     1
 90
        0
176
     1
290
     0
176
     1
290
     1
176
     1
290
     1
176
     1
290
     0
176
     1
290
     0
176
     1
290
     0
176
     1
290
     0
176
     1
290
     0
176
     1
290
     0
176
     1
 90
       50
176
     1
 40
0.0
176
     1
 40
1.0
176
     1
 90
        0
176
     1
 62
    18
420
        0
176
     1
 90
       50
176
     1
 90
        3
176
     1
 62
     5
420
      255
176
     1
290
     0
176
     1
 90
       50
176
     1
 90
       50
176
     1
 90
       50
176
     1
290
     0
176
     1
 90
       50
176
     1
 62
   256
176
     0
 40
1.0
176
     0
 90
        2
176
     1
  1
strokes_ogs.tif
176
     1
290
     0
176
     1
 40
1.0
176
     1
 40
1.0
176
     1
1001
ACAD
1000
AcDbSavedByObjectVersion
1070
     0
  0
VISUALSTYLE
  5
5E3
102
{ACAD_REACTORS
330
5CD
102
}
330
5CD
100
AcDbVisualStyle
  2
JitterOff
 70
    20
177
     3
291
     1
 70
    58
 90
        2
176
     0
 90
        2
176
     0
 90
        0
176
     0
 90
        0
176
     0
 40
0.6
176
     0
 40
30.0
176
     0
 62
     7
420
 16777215
176
     0
 90
        1
176
     0
 90
        4
176
     0
 62
     7
176
     0
 62
   257
176
     0
 90
        1
176
     0
 90
        1
176
     0
 40
1.0
176
     0
 90
       10
176
     2
 62
     7
176
     0
 40
1.0
176
     0
 90
        1
176
     0
 90
        6
176
     0
 90
        2
176
     0
 62
     7
176
     0
 90
        5
176
     0
 90
        0
176
     0
 90
        0
176
     0
290
     0
176
     0
 90
        1
176
     0
 40
0.0
176
     0
 90
        0
176
     0
290
     0
176
     0
290
     1
176
     0
290
     1
176
     0
290
     0
176
     0
290
     0
176
     0
290
     0
176
     0
290
     0
176
     0
290
     0
176
     0
290
     0
176
     0
 90
       50
176
     0
 40
0.0
176
     0
 40
1.0
176
     0
 90
        0
176
     0
 62
    18
420
        0
176
     0
 90
       50
176
     0
 90
        3
176
     0
 62
     5
420
      255
176
     0
290
     0
176
     0
 90
       50
176
     0
 90
       50
176
     0
 90
       50
176
     0
290
     0
176
     0
 90
       50
176
     0
 62
   256
176
     0
 40
1.0
176
     0
 90
        2
176
     0
  1
strokes_ogs.tif
176
     0
290
     0
176
     0
 40
1.0
176
     0
 40
1.0
176
     0
1001
ACAD
1000
AcDbSavedByObjectVersion
1070
     0
  0
VISUALSTYLE
  5
5DB
102
{ACAD_REACTORS
330
5CD
102
}
330
5CD
100
AcDbVisualStyle
  2
Linepattern
 70
    14
177
     3
291
     1
 70
    58
 90
        2
176
     1
 90
        2
176
     1
 90
        0
176
     1
 90
        0
176
     1
 40
0.6
176
     1
 40
30.0
176
     1
 62
     7
420
 16777215
176
     1
 90
        1
176
     1
 90
        4
176
     1
 62
     7
176
     1
 62
   257
176
     1
 90
        7
176
     1
 90
        7
176
     1
 40
1.0
176
     1
 90
        8
176
     1
 62
     7
176
     1
 40
1.0
176
     1
 90
        1
176
     1
 90
        6
176
     1
 90
        2
176
     1
 62
     7
176
     1
 90
        5
176
     1
 90
        0
176
     1
 90
        0
176
     1
290
     0
176
     1
 90
        1
176
     1
 40
0.0
176
     1
 90
        0
176
     1
290
     0
176
     1
290
     1
176
     1
290
     1
176
     1
290
     0
176
     1
290
     0
176
     1
290
     0
176
     1
290
     0
176
     1
290
     0
176
     1
290
     0
176
     1
 90
       50
176
     1
 40
0.0
176
     1
 40
1.0
176
     1
 90
        0
176
     1
 62
    18
420
        0
176
     1
 90
       50
176
     1
 90
        3
176
     1
 62
     5
420
      255
176
     1
290
     0
176
     1
 90
       50
176
     1
 90
       50
176
     1
 90
       50
176
     1
290
     0
176
     1
 90
       50
176
     1
 62
   256
176
     0
 40
1.0
176
     0
 90
        2
176
     1
  1
strokes_ogs.tif
176
     1
290
     0
176
     1
 40
1.0
176
     1
 40
1.0
176
     1
1001
ACAD
1000
AcDbSavedByObjectVersion
1070
     0
  0
VISUALSTYLE
  5
5E4
102
{ACAD_REACTORS
330
5CD
102
}
330
5CD
100
AcDbVisualStyle
  2
OverhangOff
 70
    21
177
     3
291
     1
 70
    58
 90
        2
176
     0
 90
        2
176
     0
 90
        0
176
     0
 90
        0
176
     0
 40
0.6
176
     0
 40
30.0
176
     0
 62
     7
420
 16777215
176
     0
 90
        1
176
     0
 90
        4
176
     0
 62
     7
176
     0
 62
   257
176
     0
 90
        1
176
     0
 90
        1
176
     0
 40
1.0
176
     0
 90
        9
176
     2
 62
     7
176
     0
 40
1.0
176
     0
 90
        1
176
     0
 90
        6
176
     0
 90
        2
176
     0
 62
     7
176
     0
 90
        5
176
     0
 90
        0
176
     0
 90
        0
176
     0
290
     0
176
     0
 90
        1
176
     0
 40
0.0
176
     0
 90
        0
176
     0
290
     0
176
     0
290
     1
176
     0
290
     1
176
     0
290
     0
176
     0
290
     0
176
     0
290
     0
176
     0
290
     0
176
     0
290
     0
176
     0
290
     0
176
     0
 90
       50
176
     0
 40
0.0
176
     0
 40
1.0
176
     0
 90
        0
176
     0
 62
    18
420
        0
176
     0
 90
       50
176
     0
 90
        3
176
     0
 62
     5
420
      255
176
     0
290
     0
176
     0
 90
       50
176
     0
 90
       50
176
     0
 90
       50
176
     0
290
     0
176
     0
 90
       50
176
     0
 62
   256
176
     0
 40
1.0
176
     0
 90
        2
176
     0
  1
strokes_ogs.tif
176
     0
290
     0
176
     0
 40
1.0
176
     0
 40
1.0
176
     0
1001
ACAD
1000
AcDbSavedByObjectVersion
1070
     0
  0
VISUALSTYLE
  5
5D7
102
{ACAD_REACTORS
330
5CD
102
}
330
5CD
100
AcDbVisualStyle
  2
Realistic
 70
     8
177
     3
291
     0
 70
    58
 90
        2
176
     1
 90
        3
176
     1
 90
        0
176
     1
 90
        2
176
     1
 40
0.6
176
     1
 40
30.0
176
     1
 62
     7
420
 16777215
176
     1
 90
        0
176
     1
 90
        0
176
     1
 62
     7
176
     1
 62
   257
176
     1
 90
        1
176
     1
 90
        1
176
     1
 40
1.0
176
     1
 90
        8
176
     1
 62
   257
176
     1
 40
1.0
176
     1
 90
        1
176
     1
 90
        6
176
     1
 90
        2
176
     1
 62
     7
176
     1
 90
        3
176
     1
 90
        0
176
     1
 90
        0
176
     1
290
     0
176
     1
 90
       13
176
     1
 40
0.0
176
     1
 90
        0
176
     1
290
     0
176
     1
290
     1
176
     1
290
     1
176
     1
290
     0
176
     1
290
     0
176
     1
290
     0
176
     1
290
     0
176
     1
290
     0
176
     1
290
     0
176
     1
 90
       50
176
     1
 40
0.0
176
     1
 40
1.0
176
     1
 90
        0
176
     1
 62
    18
420
        0
176
     1
 90
       50
176
     1
 90
        3
176
     1
 62
     5
420
      255
176
     1
290
     0
176
     1
 90
       50
176
     1
 90
       50
176
     1
 90
       50
176
     1
290
     0
176
     1
 90
       50
176
     1
 62
   256
176
     0
 40
1.0
176
     0
 90
        2
176
     1
  1
strokes_ogs.tif
176
     1
290
     0
176
     1
 40
1.0
176
     1
 40
1.0
176
     1
1001
ACAD
1000
AcDbSavedByObjectVersion
1070
     0
  0
VISUALSTYLE
  5
5E2
102
{ACAD_REACTORS
330
5CD
102
}
330
5CD
100
AcDbVisualStyle
  2
Shaded
 70
    27
177
     3
291
     0
 70
    58
 90
        2
176
     1
 90
        2
176
     1
 90
        1
176
     1
 90
        2
176
     1
 40
0.6
176
     1
 40
30.0
176
     1
 62
     7
420
 16777215
176
     1
 90
        0
176
     1
 90
        4
176
     1
 62
     7
176
     1
 62
   257
176
     1
 90
        1
176
     1
 90
        1
176
     1
 40
1.0
176
     1
 90
        8
176
     1
 62
   257
176
     1
 40
1.0
176
     1
 90
        1
176
     1
 90
        6
176
     1
 90
        2
176
     1
 62
     8
420
  7895160
176
     1
 90
        3
176
     1
 90
        0
176
     1
 90
        0
176
     1
290
     0
176
     1
 90
        5
176
     1
 40
0.0
176
     1
 90
        0
176
     1
290
     0
176
     1
290
     1
176
     1
290
     1
176
     1
290
     0
176
     1
290
     0
176
     1
290
     0
176
     1
290
     0
176
     1
290
     0
176
     1
290
     0
176
     1
 90
       50
176
     1
 40
0.0
176
     1
 40
1.0
176
     1
 90
        0
176
     1
 62
    18
420
        0
176
     1
 90
       50
176
     1
 90
        3
176
     1
 62
     5
420
      255
176
     1
290
     0
176
     1
 90
       50
176
     1
 90
       50
176
     1
 90
       50
176
     1
290
     0
176
     1
 90
       50
176
     1
 62
   256
176
     0
 40
1.0
176
     0
 90
        2
176
     1
  1
strokes_ogs.tif
176
     1
290
     0
176
     1
 40
1.0
176
     1
 40
1.0
176
     1
1001
ACAD
1000
AcDbSavedByObjectVersion
1070
     0
  0
VISUALSTYLE
  5
5E1
102
{ACAD_REACTORS
330
5CD
102
}
330
5CD
100
AcDbVisualStyle
  2
Shaded with edges
 70
    26
177
     3
291
     0
 70
    58
 90
        2
176
     1
 90
        2
176
     1
 90
        1
176
     1
 90
        2
176
     1
 40
0.6
176
     1
 40
30.0
176
     1
 62
     7
420
 16777215
176
     1
 90
        1
176
     1
 90
        2
176
     1
 62
     7
176
     1
 62
   257
176
     1
 90
        2
176
     1
 90
        1
176
     1
 40
1.0
176
     1
 90
        8
176
     1
 62
   257
176
     1
 40
1.0
176
     1
 90
        1
176
     1
 90
        6
176
     1
 90
        2
176
     1
 62
     7
176
     1
 90
        3
176
     1
 90
        0
176
     1
 90
        0
176
     1
290
     0
176
     1
 90
        5
176
     1
 40
0.0
176
     1
 90
        0
176
     1
290
     0
176
     1
290
     1
176
     1
290
     1
176
     1
290
     0
176
     1
290
     0
176
     1
290
     0
176
     1
290
     0
176
     1
290
     0
176
     1
290
     0
176
     1
 90
       50
176
     1
 40
0.0
176
     1
 40
1.0
176
     1
 90
        0
176
     1
 62
    18
420
        0
176
     1
 90
       50
176
     1
 90
        3
176
     1
 62
     5
420
      255
176
     1
290
     0
176
     1
 90
       50
176
     1
 90
       50
176
     1
 90
       50
176
     1
290
     0
176
     1
 90
       50
176
     1
 62
   256
176
     0
 40
1.0
176
     0
 90
        2
176
     1
  1
strokes_ogs.tif
176
     1
290
     0
176
     1
 40
1.0
176
     1
 40
1.0
176
     1
1001
ACAD
1000
AcDbSavedByObjectVersion
1070
     0
  0
VISUALSTYLE
  5
5DE
102
{ACAD_REACTORS
330
5CD
102
}
330
5CD
100
AcDbVisualStyle
  2
Shades of Gray
 70
    23
177
     3
291
     0
 70
    58
 90
        2
176
     1
 90
        2
176
     1
 90
        3
176
     1
 90
        0
176
     1
 40
0.6
176
     1
 40
30.0
176
     1
 62
     7
420
 16777215
176
     1
 90
        2
176
     1
 90
        2
176
     1
 62
     7
176
     1
 62
     7
176
     1
 90
        1
176
     1
 90
        1
176
     1
 40
40.0
176
     1
 90
        8
176
     1
 62
     7
176
     1
 40
1.0
176
     1
 90
        1
176
     1
 90
        6
176
     1
 90
        2
176
     1
 62
     7
176
     1
 90
        3
176
     1
 90
        0
176
     1
 90
        0
176
     1
290
     0
176
     1
 90
        1
176
     1
 40
0.0
176
     1
 90
        0
176
     1
290
     0
176
     1
290
     1
176
     1
290
     1
176
     1
290
     0
176
     1
290
     0
176
     1
290
     0
176
     1
290
     0
176
     1
290
     0
176
     1
290
     0
176
     1
 90
       50
176
     1
 40
0.0
176
     1
 40
1.0
176
     1
 90
        0
176
     1
 62
    18
420
        0
176
     1
 90
       50
176
     1
 90
        3
176
     1
 62
     5
420
      255
176
     1
290
     0
176
     1
 90
       50
176
     1
 90
       50
176
     1
 90
       50
176
     1
290
     0
176
     1
 90
       50
176
     1
 62
   256
176
     0
 40
1.0
176
     0
 90
        2
176
     1
  1
strokes_ogs.tif
176
     1
290
     0
176
     1
 40
1.0
176
     1
 40
1.0
176
     1
1001
ACAD
1000
AcDbSavedByObjectVersion
1070
     0
  0
VISUALSTYLE
  5
5DF
102
{ACAD_REACTORS
330
5CD
102
}
330
5CD
100
AcDbVisualStyle
  2
Sketchy
 70
    24
177
     3
291
     0
 70
    58
 90
        1
176
     1
 90
        2
176
     1
 90
        2
176
     1
 90
        0
176
     1
 40
0.6
176
     1
 40
30.0
176
     1
 62
     7
420
 16777215
176
     1
 90
        2
176
     1
 90
        2
176
     1
 62
     7
176
     1
 62
     7
176
     1
 90
        1
176
     1
 90
        1
176
     1
 40
40.0
176
     1
 90
       11
176
     1
 62
     7
176
     1
 40
1.0
176
     1
 90
        1
176
     1
 90
        6
176
     1
 90
        2
176
     1
 62
     7
176
     1
 90
        6
176
     1
 90
        0
176
     1
 90
        0
176
     1
290
     0
176
     1
 90
        1
176
     1
 40
0.0
176
     1
 90
        0
176
     1
290
     0
176
     1
290
     1
176
     1
290
     1
176
     1
290
     0
176
     1
290
     0
176
     1
290
     0
176
     1
290
     0
176
     1
290
     0
176
     1
290
     0
176
     1
 90
       50
176
     1
 40
0.0
176
     1
 40
1.0
176
     1
 90
        0
176
     1
 62
    18
420
        0
176
     1
 90
       50
176
     1
 90
        3
176
     1
 62
     5
420
      255
176
     1
290
     0
176
     1
 90
       50
176
     1
 90
       50
176
     1
 90
       50
176
     1
290
     0
176
     1
 90
       50
176
     1
 62
   256
176
     0
 40
1.0
176
     0
 90
        2
176
     1
  1
strokes_ogs.tif
176
     1
290
     0
176
     1
 40
1.0
176
     1
 40
1.0
176
     1
1001
ACAD
1000
AcDbSavedByObjectVersion
1070
     0
  0
VISUALSTYLE
  5
5DA
102
{ACAD_REACTORS
330
5CD
102
}
330
5CD
100
AcDbVisualStyle
  2
Thicken
 70
    13
177
     3
291
     1
 70
    58
 90
        2
176
     1
 90
        2
176
     1
 90
        0
176
     1
 90
        0
176
     1
 40
0.6
176
     1
 40
30.0
176
     1
 62
     7
420
 16777215
176
     1
 90
        1
176
     1
 90
        4
176
     1
 62
     7
176
     1
 62
   257
176
     1
 90
        1
176
     1
 90
        1
176
     1
 40
1.0
176
     1
 90
       12
176
     1
 62
     7
176
     1
 40
1.0
176
     1
 90
        1
176
     1
 90
        6
176
     1
 90
        2
176
     1
 62
     7
176
     1
 90
        5
176
     1
 90
        0
176
     1
 90
        0
176
     1
290
     0
176
     1
 90
        1
176
     1
 40
0.0
176
     1
 90
        0
176
     1
290
     0
176
     1
290
     1
176
     1
290
     1
176
     1
290
     0
176
     1
290
     0
176
     1
290
     0
176
     1
290
     0
176
     1
290
     0
176
     1
290
     0
176
     1
 90
       50
176
     1
 40
0.0
176
     1
 40
1.0
176
     1
 90
        0
176
     1
 62
    18
420
        0
176
     1
 90
       50
176
     1
 90
        3
176
     1
 62
     5
420
      255
176
     1
290
     0
176
     1
 90
       50
176
     1
 90
       50
176
     1
 90
       50
176
     1
290
     0
176
     1
 90
       50
176
     1
 62
   256
176
     0
 40
1.0
176
     0
 90
        2
176
     1
  1
strokes_ogs.tif
176
     1
290
     0
176
     1
 40
1.0
176
     1
 40
1.0
176
     1
1001
ACAD
1000
AcDbSavedByObjectVersion
1070
     0
  0
VISUALSTYLE
  5
5D4
102
{ACAD_REACTORS
330
5CD
102
}
330
5CD
100
AcDbVisualStyle
  2
Wireframe
 70
     5
177
     3
291
     0
 70
    58
 90
        0
176
     1
 90
        2
176
     1
 90
        0
176
     1
 90
        0
176
     1
 40
0.6
176
     1
 40
30.0
176
     1
 62
     7
420
 16777215
176
     1
 90
        1
176
     1
 90
        4
176
     1
 62
     7
176
     1
 62
   257
176
     1
 90
        1
176
     1
 90
        1
176
     1
 40
1.0
176
     1
 90
        0
176
     1
 62
   257
176
     1
 40
1.0
176
     1
 90
        1
176
     1
 90
        6
176
     1
 90
        2
176
     1
 62
     7
176
     1
 90
        3
176
     1
 90
        0
176
     1
 90
        0
176
     1
290
     0
176
     1
 90
        1
176
     1
 40
0.0
176
     1
 90
        0
176
     1
290
     0
176
     1
290
     1
176
     1
290
     1
176
     1
290
     0
176
     1
290
     0
176
     1
290
     0
176
     1
290
     0
176
     1
290
     0
176
     1
290
     0
176
     1
 90
       50
176
     1
 40
0.0
176
     1
 40
1.0
176
     1
 90
        0
176
     1
 62
    18
420
        0
176
     1
 90
       50
176
     1
 90
        3
176
     1
 62
     5
420
      255
176
     1
290
     0
176
     1
 90
       50
176
     1
 90
       50
176
     1
 90
       50
176
     1
290
     0
176
     1
 90
       50
176
     1
 62
   256
176
     0
 40
1.0
176
     0
 90
        2
176
     1
  1
strokes_ogs.tif
176
     1
290
     0
176
     1
 40
1.0
176
     1
 40
1.0
176
     1
1001
ACAD
1000
AcDbSavedByObjectVersion
1070
     0
  0
VISUALSTYLE
  5
5E0
102
{ACAD_REACTORS
330
5CD
102
}
330
5CD
100
AcDbVisualStyle
  2
X-Ray
 70
    25
177
     3
291
     0
 70
    58
 90
        2
176
     1
 90
        2
176
     1
 90
        1
176
     1
 90
        1
176
     1
 40
0.5
176
     1
 40
30.0
176
     1
 62
     7
420
 16777215
176
     1
 90
        1
176
     1
 90
        0
176
     1
 62
     7
176
     1
 62
   257
176
     1
 90
        1
176
     1
 90
        1
176
     1
 40
1.0
176
     1
 90
        8
176
     1
 62
     7
176
     1
 40
1.0
176
     1
 90
        1
176
     1
 90
        6
176
     1
 90
        2
176
     1
 62
     7
176
     1
 90
        3
176
     1
 90
        0
176
     1
 90
        0
176
     1
290
     0
176
     1
 90
       13
176
     1
 40
0.0
176
     1
 90
        0
176
     1
290
     0
176
     1
290
     1
176
     1
290
     1
176
     1
290
     0
176
     1
290
     0
176
     1
290
     0
176
     1
290
     0
176
     1
290
     0
176
     1
290
     0
176
     1
 90
       50
176
     1
 40
0.0
176
     1
 40
1.0
176
     1
 90
        0
176
     1
 62
    18
420
        0
176
     1
 90
       50
176
     1
 90
        3
176
     1
 62
     5
420
      255
176
     1
290
     0
176
     1
 90
       50
176
     1
 90
       50
176
     1
 90
       50
176
     1
290
     0
176
     1
 90
       50
176
     1
 62
   256
176
     0
 40
1.0
176
     0
 90
        2
176
     1
  1
strokes_ogs.tif
176
     1
290
     0
176
     1
 40
1.0
176
     1
 40
1.0
176
     1
1001
ACAD
1000
AcDbSavedByObjectVersion
1070
     0
  0
DICTIONARYVAR
  5
65D
102
{ACAD_REACTORS
330
136
102
}
330
136
100
DictionaryVariables
280
     0
  1
1:1
  0
DICTIONARYVAR
  5
659
102
{ACAD_REACTORS
330
136
102
}
330
136
100
DictionaryVariables
280
     0
  1
STANDARD
  0
DICTIONARYVAR
  5
658
102
{ACAD_REACTORS
330
136
102
}
330
136
100
DictionaryVariables
280
     0
  1
STANDARD
  0
DICTIONARYVAR
  5
65A
102
{ACAD_REACTORS
330
136
102
}
330
136
100
DictionaryVariables
280
     0
  1
Metric50
  0
DICTIONARYVAR
  5
65B
102
{ACAD_REACTORS
330
136
102
}
330
136
100
DictionaryVariables
280
     0
  1
Metric50
  0
DICTIONARYVAR
  5
65F
102
{ACAD_REACTORS
330
136
102
}
330
136
100
DictionaryVariables
280
     0
  1
1
  0
DICTIONARYVAR
  5
660
102
{ACAD_REACTORS
330
136
102
}
330
136
100
DictionaryVariables
280
     0
  1
15
  0
DICTIONARYVAR
  5
65E
102
{ACAD_REACTORS
330
136
102
}
330
136
100
DictionaryVariables
280
     0
  1
0
  0
DICTIONARYVAR
  5
65C
102
{ACAD_REACTORS
330
136
102
}
330
136
100
DictionaryVariables
280
     0
  1
0
  0
DICTIONARYVAR
  5
137
102
{ACAD_REACTORS
330
136
102
}
330
136
100
DictionaryVariables
280
     0
  1
96
  0
DICTIONARY
  5
666
330
600
100
AcDbDictionary
280
     1
281
     1
  3
ACAD_XREC_ROUNDTRIP
360
667
  0
DICTIONARY
  5
5BE
330
5BD
100
AcDbDictionary
280
     1
281
     1
  3
BUMPTILE
360
5C0
  3
DIFFUSETILE
360
5BF
  3
OPACITYTILE
360
5C3
  3
REFLECTIONTILE
360
5C2
  3
REFRACTIONTILE
360
5C4
  3
SPECULARTILE
360
5C1
  0
DICTIONARY
  5
5B6
330
5B5
100
AcDbDictionary
280
     1
281
     1
  3
BUMPTILE
360
5B8
  3
DIFFUSETILE
360
5B7
  3
OPACITYTILE
360
5BB
  3
REFLECTIONTILE
360
5BA
  3
REFRACTIONTILE
360
5BC
  3
SPECULARTILE
360
5B9
  0
DICTIONARY
  5
5C6
330
5C5
100
AcDbDictionary
280
     1
281
     1
  3
BUMPTILE
360
5C8
  3
DIFFUSETILE
360
5C7
  3
OPACITYTILE
360
5CB
  3
REFLECTIONTILE
360
5CA
  3
REFRACTIONTILE
360
5CC
  3
SPECULARTILE
360
5C9
  0
XRECORD
  5
66B
102
{ACAD_REACTORS
330
669
102
}
330
669
100
AcDbXrecord
280
     1
102
ACAD_MENTALRAY_SETTING_RT
330
60E
 70
     1
  0
XRECORD
  5
66A
102
{ACAD_REACTORS
330
669
102
}
330
669
100
AcDbXrecord
280
     1
 70
     2
 71
     3
 72
     0
  0
DICTIONARY
  5
664
330
5FE
100
AcDbDictionary
280
     1
281
     1
  3
ACAD_XREC_ROUNDTRIP
360
665
  0
DICTIONARY
  5
661
330
5E8
100
AcDbDictionary
280
     1
281
     1
  3
ACAD_ROUNDTRIP_2008_TABLESTYLE_CELLSTYLEMAP
360
662
  0
XRECORD
  5
667
102
{ACAD_REACTORS
330
666
102
}
330
666
100
AcDbXrecord
280
     1
102
DISPLAYNAME
  1
Metric50
102
FLAGS
 90
        0
  0
XRECORD
  5
5C0
102
{ACAD_REACTORS
330
5BE
102
}
330
5BE
100
AcDbXrecord
280
     1
270
     1
271
     1
  0
XRECORD
  5
5BF
102
{ACAD_REACTORS
330
5BE
102
}
330
5BE
100
AcDbXrecord
280
     1
270
     1
271
     1
  0
XRECORD
  5
5C3
102
{ACAD_REACTORS
330
5BE
102
}
330
5BE
100
AcDbXrecord
280
     1
270
     1
271
     1
  0
XRECORD
  5
5C2
102
{ACAD_REACTORS
330
5BE
102
}
330
5BE
100
AcDbXrecord
280
     1
270
     1
271
     1
  0
XRECORD
  5
5C4
102
{ACAD_REACTORS
330
5BE
102
}
330
5BE
100
AcDbXrecord
280
     1
270
     1
271
     1
  0
XRECORD
  5
5C1
102
{ACAD_REACTORS
330
5BE
102
}
330
5BE
100
AcDbXrecord
280
     1
270
     1
271
     1
  0
XRECORD
  5
5B8
102
{ACAD_REACTORS
330
5B6
102
}
330
5B6
100
AcDbXrecord
280
     1
270
     1
271
     1
  0
XRECORD
  5
5B7
102
{ACAD_REACTORS
330
5B6
102
}
330
5B6
100
AcDbXrecord
280
     1
270
     1
271
     1
  0
XRECORD
  5
5BB
102
{ACAD_REACTORS
330
5B6
102
}
330
5B6
100
AcDbXrecord
280
     1
270
     1
271
     1
  0
XRECORD
  5
5BA
102
{ACAD_REACTORS
330
5B6
102
}
330
5B6
100
AcDbXrecord
280
     1
270
     1
271
     1
  0
XRECORD
  5
5BC
102
{ACAD_REACTORS
330
5B6
102
}
330
5B6
100
AcDbXrecord
280
     1
270
     1
271
     1
  0
XRECORD
  5
5B9
102
{ACAD_REACTORS
330
5B6
102
}
330
5B6
100
AcDbXrecord
280
     1
270
     1
271
     1
  0
XRECORD
  5
5C8
102
{ACAD_REACTORS
330
5C6
102
}
330
5C6
100
AcDbXrecord
280
     1
270
     1
271
     1
  0
XRECORD
  5
5C7
102
{ACAD_REACTORS
330
5C6
102
}
330
5C6
100
AcDbXrecord
280
     1
270
     1
271
     1
  0
XRECORD
  5
5CB
102
{ACAD_REACTORS
330
5C6
102
}
330
5C6
100
AcDbXrecord
280
     1
270
     1
271
     1
  0
XRECORD
  5
5CA
102
{ACAD_REACTORS
330
5C6
102
}
330
5C6
100
AcDbXrecord
280
     1
270
     1
271
     1
  0
XRECORD
  5
5CC
102
{ACAD_REACTORS
330
5C6
102
}
330
5C6
100
AcDbXrecord
280
     1
270
     1
271
     1
  0
XRECORD
  5
5C9
102
{ACAD_REACTORS
330
5C6
102
}
330
5C6
100
AcDbXrecord
280
     1
270
     1
271
     1
  0
XRECORD
  5
665
102
{ACAD_REACTORS
330
664
102
}
330
664
100
AcDbXrecord
280
     1
102
DISPLAYNAME
  1
Metric50
102
FLAGS
 90
        0
  0
CELLSTYLEMAP
  5
662
102
{ACAD_REACTORS
330
661
102
}
330
661
100
AcDbCellStyleMap
 90
        3
300
CELLSTYLE
  1
TABLEFORMAT_BEGIN
 90
        5
170
     1
 91
        0
 92
    32768
 62
   257
 93
        1
300
CONTENTFORMAT
  1
CONTENTFORMAT_BEGIN
 90
        0
 91
        0
 92
      512
 93
        0
300

 40
0.0
140
1.0
 94
        5
 62
     0
340
10
144
6.0
309
CONTENTFORMAT_END
171
     1
301
MARGIN
  1
CELLMARGIN_BEGIN
 40
1.5
 40
1.5
 40
1.5
 40
1.5
 40
4.5
 40
4.5
309
CELLMARGIN_END
 94
        6
 95
        1
302
GRIDFORMAT
  1
GRIDFORMAT_BEGIN
 90
        0
 91
        1
 62
     0
 92
       -2
340
0
 93
        0
 40
1.125
309
GRIDFORMAT_END
 95
        2
302
GRIDFORMAT
  1
GRIDFORMAT_BEGIN
 90
        0
 91
        1
 62
     0
 92
       -2
340
0
 93
        0
 40
1.125
309
GRIDFORMAT_END
 95
        4
302
GRIDFORMAT
  1
GRIDFORMAT_BEGIN
 90
        0
 91
        1
 62
     0
 92
       -2
340
0
 93
        0
 40
1.125
309
GRIDFORMAT_END
 95
        8
302
GRIDFORMAT
  1
GRIDFORMAT_BEGIN
 90
        0
 91
        1
 62
     0
 92
       -2
340
0
 93
        0
 40
1.125
309
GRIDFORMAT_END
 95
       16
302
GRIDFORMAT
  1
GRIDFORMAT_BEGIN
 90
        0
 91
        1
 62
     0
 92
       -2
340
0
 93
        0
 40
1.125
309
GRIDFORMAT_END
 95
       32
302
GRIDFORMAT
  1
GRIDFORMAT_BEGIN
 90
        0
 91
        1
 62
     0
 92
       -2
340
0
 93
        0
 40
1.125
309
GRIDFORMAT_END
309
TABLEFORMAT_END
  1
CELLSTYLE_BEGIN
 90
        1
 91
        1
300
_TITLE
309
CELLSTYLE_END
300
CELLSTYLE
  1
TABLEFORMAT_BEGIN
 90
        5
170
     1
 91
        0
 92
        0
 62
   257
 93
        1
300
CONTENTFORMAT
  1
CONTENTFORMAT_BEGIN
 90
        0
 91
        0
 92
      512
 93
        0
300

 40
0.0
140
1.0
 94
        5
 62
     0
340
10
144
4.5
309
CONTENTFORMAT_END
171
     1
301
MARGIN
  1
CELLMARGIN_BEGIN
 40
1.5
 40
1.5
 40
1.5
 40
1.5
 40
4.5
 40
4.5
309
CELLMARGIN_END
 94
        6
 95
        1
302
GRIDFORMAT
  1
GRIDFORMAT_BEGIN
 90
        0
 91
        1
 62
     0
 92
       -2
340
0
 93
        0
 40
1.125
309
GRIDFORMAT_END
 95
        2
302
GRIDFORMAT
  1
GRIDFORMAT_BEGIN
 90
        0
 91
        1
 62
     0
 92
       -2
340
0
 93
        0
 40
1.125
309
GRIDFORMAT_END
 95
        4
302
GRIDFORMAT
  1
GRIDFORMAT_BEGIN
 90
        0
 91
        1
 62
     0
 92
       -2
340
0
 93
        0
 40
1.125
309
GRIDFORMAT_END
 95
        8
302
GRIDFORMAT
  1
GRIDFORMAT_BEGIN
 90
        0
 91
        1
 62
     0
 92
       -2
340
0
 93
        0
 40
1.125
309
GRIDFORMAT_END
 95
       16
302
GRIDFORMAT
  1
GRIDFORMAT_BEGIN
 90
        0
 91
        1
 62
     0
 92
       -2
340
0
 93
        0
 40
1.125
309
GRIDFORMAT_END
 95
       32
302
GRIDFORMAT
  1
GRIDFORMAT_BEGIN
 90
        0
 91
        1
 62
     0
 92
       -2
340
0
 93
        0
 40
1.125
309
GRIDFORMAT_END
309
TABLEFORMAT_END
  1
CELLSTYLE_BEGIN
 90
        2
 91
        1
300
_HEADER
309
CELLSTYLE_END
300
CELLSTYLE
  1
TABLEFORMAT_BEGIN
 90
        5
170
     1
 91
        0
 92
        0
 62
   257
 93
        1
300
CONTENTFORMAT
  1
CONTENTFORMAT_BEGIN
 90
        0
 91
        0
 92
      512
 93
        0
300

 40
0.0
140
1.0
 94
        2
 62
     0
340
10
144
4.5
309
CONTENTFORMAT_END
171
     1
301
MARGIN
  1
CELLMARGIN_BEGIN
 40
1.5
 40
1.5
 40
1.5
 40
1.5
 40
4.5
 40
4.5
309
CELLMARGIN_END
 94
        6
 95
        1
302
GRIDFORMAT
  1
GRIDFORMAT_BEGIN
 90
        0
 91
        1
 62
     0
 92
       -2
340
0
 93
        0
 40
1.125
309
GRIDFORMAT_END
 95
        2
302
GRIDFORMAT
  1
GRIDFORMAT_BEGIN
 90
        0
 91
        1
 62
     0
 92
       -2
340
0
 93
        0
 40
1.125
309
GRIDFORMAT_END
 95
        4
302
GRIDFORMAT
  1
GRIDFORMAT_BEGIN
 90
        0
 91
        1
 62
     0
 92
       -2
340
0
 93
        0
 40
1.125
309
GRIDFORMAT_END
 95
        8
302
GRIDFORMAT
  1
GRIDFORMAT_BEGIN
 90
        0
 91
        1
 62
     0
 92
       -2
340
0
 93
        0
 40
1.125
309
GRIDFORMAT_END
 95
       16
302
GRIDFORMAT
  1
GRIDFORMAT_BEGIN
 90
        0
 91
        1
 62
     0
 92
       -2
340
0
 93
        0
 40
1.125
309
GRIDFORMAT_END
 95
       32
302
GRIDFORMAT
  1
GRIDFORMAT_BEGIN
 90
        0
 91
        1
 62
     0
 92
       -2
340
0
 93
        0
 40
1.125
309
GRIDFORMAT_END
309
TABLEFORMAT_END
  1
CELLSTYLE_BEGIN
 90
        3
 91
        2
300
_DATA
309
CELLSTYLE_END
  0
ENDSEC
  0
EOF
