  0
SECTION
  2
HEADER
  9
$ACADVER
  1
AC1027
  9
$ACADMAINTVER
 70
   125
  9
$DWGCODEPAGE
  3
ANSI_1252
  9
$TITLE
  1
Datenaufbau HEBGO
  9
$SUBJECT
  1
Format 14/2000 mit DWF-Format
  9
$AUTHOR
  1
robert koch cad-support, ch-2540 grenchen
  9
$COMMENTS
  1
Anpassung für DWF Format und ^M^JZeichnungsvorschau, ^M^Jrobert koch cad-support, ch-2540 grenchen
  9
$LASTSAVEDBY
  1
rwdm
  9
$REQUIREDVERSIONS
160
                 0
  9
$INSBASE
 10
0.0
 20
0.0
 30
0.0
  9
$EXTMIN
 10
-107.4371330410208
 20
-16.70837316977361
 30
-0.0015258207003583
  9
$EXTMAX
 10
13.66424614524499
 20
33.23364314068306
 30
0.0000000349246037
  9
$LIMMIN
 10
-150.0
 20
-150.0
  9
$LIMMAX
 10
150.0
 20
150.0
  9
$ORTHOMODE
 70
     0
  9
$REGENMODE
 70
     1
  9
$FILLMODE
 70
     1
  9
$QTEXTMODE
 70
     0
  9
$MIRRTEXT
 70
     0
  9
$LTSCALE
 40
10.0
  9
$ATTMODE
 70
     1
  9
$TEXTSIZE
 40
25.0
  9
$TRACEWID
 40
1.0
  9
$TEXTSTYLE
  7
AZC_010
  9
$CLAYER
  8
0
  9
$CELTYPE
  6
BYLAYER
  9
$CECOLOR
 62
   256
  9
$CELTSCALE
 40
1.0
  9
$DISPSILH
 70
     1
  9
$DIMSCALE
 40
10.0
  9
$DIMASZ
 40
0.18
  9
$DIMEXO
 40
0.0625
  9
$DIMDLI
 40
0.38
  9
$DIMRND
 40
0.0
  9
$DIMDLE
 40
0.0
  9
$DIMEXE
 40
0.18
  9
$DIMTP
 40
0.0
  9
$DIMTM
 40
0.0
  9
$DIMTXT
 40
0.18
  9
$DIMCEN
 40
0.09
  9
$DIMTSZ
 40
0.0
  9
$DIMTOL
 70
     0
  9
$DIMLIM
 70
     0
  9
$DIMTIH
 70
     1
  9
$DIMTOH
 70
     1
  9
$DIMSE1
 70
     0
  9
$DIMSE2
 70
     0
  9
$DIMTAD
 70
     0
  9
$DIMZIN
 70
     0
  9
$DIMBLK
  1

  9
$DIMASO
 70
     1
  9
$DIMSHO
 70
     1
  9
$DIMPOST
  1

  9
$DIMAPOST
  1

  9
$DIMALT
 70
     0
  9
$DIMALTD
 70
     2
  9
$DIMALTF
 40
25.4
  9
$DIMLFAC
 40
1.0
  9
$DIMTOFL
 70
     0
  9
$DIMTVP
 40
0.0
  9
$DIMTIX
 70
     0
  9
$DIMSOXD
 70
     0
  9
$DIMSAH
 70
     0
  9
$DIMBLK1
  1

  9
$DIMBLK2
  1

  9
$DIMSTYLE
  2
AZC_010
  9
$DIMCLRD
 70
     0
  9
$DIMCLRE
 70
     0
  9
$DIMCLRT
 70
     0
  9
$DIMTFAC
 40
1.0
  9
$DIMGAP
 40
0.09
  9
$DIMJUST
 70
     0
  9
$DIMSD1
 70
     0
  9
$DIMSD2
 70
     0
  9
$DIMTOLJ
 70
     1
  9
$DIMTZIN
 70
     0
  9
$DIMALTZ
 70
     0
  9
$DIMALTTZ
 70
     0
  9
$DIMUPT
 70
     0
  9
$DIMDEC
 70
     4
  9
$DIMTDEC
 70
     4
  9
$DIMALTU
 70
     2
  9
$DIMALTTD
 70
     2
  9
$DIMTXSTY
  7
AZC_010
  9
$DIMAUNIT
 70
     0
  9
$DIMADEC
 70
     0
  9
$DIMALTRND
 40
0.0
  9
$DIMAZIN
 70
     0
  9
$DIMDSEP
 70
    46
  9
$DIMATFIT
 70
     3
  9
$DIMFRAC
 70
     0
  9
$DIMLDRBLK
  1

  9
$DIMLUNIT
 70
     2
  9
$DIMLWD
 70
    -2
  9
$DIMLWE
 70
    -2
  9
$DIMTMOVE
 70
     0
  9
$DIMFXL
 40
1.0
  9
$DIMFXLON
 70
     0
  9
$DIMJOGANG
 40
0.7853981633974483
  9
$DIMTFILL
 70
     0
  9
$DIMTFILLCLR
 70
     0
  9
$DIMARCSYM
 70
     0
  9
$DIMLTYPE
  6

  9
$DIMLTEX1
  6

  9
$DIMLTEX2
  6

  9
$DIMTXTDIRECTION
 70
     0
  9
$LUNITS
 70
     2
  9
$LUPREC
 70
     1
  9
$SKETCHINC
 40
1.0
  9
$FILLETRAD
 40
0.0
  9
$AUNITS
 70
     0
  9
$AUPREC
 70
     1
  9
$MENU
  1
D:\ACL_CGWG\CGTAB13
  9
$ELEVATION
 40
0.0
  9
$PELEVATION
 40
0.0
  9
$THICKNESS
 40
0.0
  9
$LIMCHECK
 70
     0
  9
$CHAMFERA
 40
1.0
  9
$CHAMFERB
 40
1.0
  9
$CHAMFERC
 40
1.0
  9
$CHAMFERD
 40
0.7853981633974483
  9
$SKPOLY
 70
     0
  9
$TDCREATE
 40
2451739.888958333
  9
$TDUCREATE
 40
2451739.805625000
  9
$TDUPDATE
 40
2459178.912314815
  9
$TDUUPDATE
 40
2459178.870648148
  9
$TDINDWG
 40
0.0091738310
  9
$TDUSRTIMER
 40
0.0091736458
  9
$USRTIMER
 70
     1
  9
$ANGBASE
 50
0.0
  9
$ANGDIR
 70
     0
  9
$PDMODE
 70
     0
  9
$PDSIZE
 40
5.0
  9
$PLINEWID
 40
0.0
  9
$SPLFRAME
 70
     0
  9
$SPLINETYPE
 70
     6
  9
$SPLINESEGS
 70
     8
  9
$HANDSEED
  5
61C
  9
$SURFTAB1
 70
    12
  9
$SURFTAB2
 70
    12
  9
$SURFTYPE
 70
     6
  9
$SURFU
 70
    12
  9
$SURFV
 70
    12
  9
$UCSBASE
  2

  9
$UCSNAME
  2

  9
$UCSORG
 10
0.0
 20
0.0
 30
0.0
  9
$UCSXDIR
 10
1.0
 20
0.0
 30
0.0
  9
$UCSYDIR
 10
0.0
 20
1.0
 30
0.0
  9
$UCSORTHOREF
  2

  9
$UCSORTHOVIEW
 70
     0
  9
$UCSORGTOP
 10
0.0
 20
0.0
 30
0.0
  9
$UCSORGBOTTOM
 10
0.0
 20
0.0
 30
0.0
  9
$UCSORGLEFT
 10
0.0
 20
0.0
 30
0.0
  9
$UCSORGRIGHT
 10
0.0
 20
0.0
 30
0.0
  9
$UCSORGFRONT
 10
0.0
 20
0.0
 30
0.0
  9
$UCSORGBACK
 10
0.0
 20
0.0
 30
0.0
  9
$PUCSBASE
  2

  9
$PUCSNAME
  2

  9
$PUCSORG
 10
0.0
 20
0.0
 30
0.0
  9
$PUCSXDIR
 10
1.0
 20
0.0
 30
0.0
  9
$PUCSYDIR
 10
0.0
 20
1.0
 30
0.0
  9
$PUCSORTHOREF
  2

  9
$PUCSORTHOVIEW
 70
     0
  9
$PUCSORGTOP
 10
0.0
 20
0.0
 30
0.0
  9
$PUCSORGBOTTOM
 10
0.0
 20
0.0
 30
0.0
  9
$PUCSORGLEFT
 10
0.0
 20
0.0
 30
0.0
  9
$PUCSORGRIGHT
 10
0.0
 20
0.0
 30
0.0
  9
$PUCSORGFRONT
 10
0.0
 20
0.0
 30
0.0
  9
$PUCSORGBACK
 10
0.0
 20
0.0
 30
0.0
  9
$USERI1
 70
     0
  9
$USERI2
 70
     0
  9
$USERI3
 70
     0
  9
$USERI4
 70
     0
  9
$USERI5
 70
     0
  9
$USERR1
 40
0.0
  9
$USERR2
 40
0.0
  9
$USERR3
 40
0.0
  9
$USERR4
 40
0.0
  9
$USERR5
 40
0.0
  9
$WORLDVIEW
 70
     1
  9
$SHADEDGE
 70
     3
  9
$SHADEDIF
 70
    70
  9
$TILEMODE
 70
     1
  9
$MAXACTVP
 70
    48
  9
$PINSBASE
 10
0.0
 20
0.0
 30
0.0
  9
$PLIMCHECK
 70
     0
  9
$PEXTMIN
 10
1.000000000000000E+20
 20
1.000000000000000E+20
 30
1.000000000000000E+20
  9
$PEXTMAX
 10
-1.000000000000000E+20
 20
-1.000000000000000E+20
 30
-1.000000000000000E+20
  9
$PLIMMIN
 10
0.0
 20
0.0
  9
$PLIMMAX
 10
420.0
 20
297.0
  9
$UNITMODE
 70
     0
  9
$VISRETAIN
 70
     1
  9
$PLINEGEN
 70
     0
  9
$PSLTSCALE
 70
     1
  9
$TREEDEPTH
 70
  3020
  9
$CMLSTYLE
  2
STANDARD
  9
$CMLJUST
 70
     0
  9
$CMLSCALE
 40
1.0
  9
$PROXYGRAPHICS
 70
     1
  9
$MEASUREMENT
 70
     1
  9
$CELWEIGHT
370
    -1
  9
$ENDCAPS
280
     0
  9
$JOINSTYLE
280
     0
  9
$LWDISPLAY
290
     0
  9
$INSUNITS
 70
     4
  9
$HYPERLINKBASE
  1

  9
$STYLESHEET
  1
Hebgo JPG.ctb
  9
$XEDIT
290
     1
  9
$CEPSNTYPE
380
     0
  9
$PSTYLEMODE
290
     1
  9
$FINGERPRINTGUID
  2
{DEF6964E-5F8B-11D3-8AEE-0008C71A8CF4}
  9
$VERSIONGUID
  2
{2AE06B55-07A6-6F4D-A24F-AC0AC464CA0C}
  9
$EXTNAMES
290
     1
  9
$PSVPSCALE
 40
0.0
  9
$OLESTARTUP
290
     0
  9
$SORTENTS
280
    96
  9
$INDEXCTL
280
     0
  9
$HIDETEXT
280
     0
  9
$XCLIPFRAME
280
     2
  9
$HALOGAP
280
     0
  9
$OBSCOLOR
 70
   257
  9
$OBSLTYPE
280
     0
  9
$INTERSECTIONDISPLAY
280
     0
  9
$INTERSECTIONCOLOR
 70
   257
  9
$DIMASSOC
280
     1
  9
$PROJECTNAME
  1

  9
$CAMERADISPLAY
290
     0
  9
$LENSLENGTH
 40
50.0
  9
$CAMERAHEIGHT
 40
0.0
  9
$STEPSPERSEC
 40
2.0
  9
$STEPSIZE
 40
6.0
  9
$3DDWFPREC
 40
2.0
  9
$PSOLWIDTH
 40
0.25
  9
$PSOLHEIGHT
 40
4.0
  9
$LOFTANG1
 40
1.570796326794896
  9
$LOFTANG2
 40
1.570796326794896
  9
$LOFTMAG1
 40
0.0
  9
$LOFTMAG2
 40
0.0
  9
$LOFTPARAM
 70
     7
  9
$LOFTNORMALS
280
     1
  9
$LATITUDE
 40
37.795
  9
$LONGITUDE
 40
-122.394
  9
$NORTHDIRECTION
 40
0.0
  9
$TIMEZONE
 70
 -8000
  9
$LIGHTGLYPHDISPLAY
280
     1
  9
$TILEMODELIGHTSYNCH
280
     1
  9
$CMATERIAL
347
56B
  9
$SOLIDHIST
280
     0
  9
$SHOWHIST
280
     1
  9
$DWFFRAME
280
     2
  9
$DGNFRAME
280
     0
  9
$REALWORLDSCALE
290
     1
  9
$INTERFERECOLOR
 62
     1
  9
$INTERFEREOBJVS
345
58D
  9
$INTERFEREVPVS
346
58A
  9
$CSHADOW
280
     0
  9
$SHADOWPLANELOCATION
 40
0.0
  0
ENDSEC
  0
SECTION
  2
CLASSES
  0
CLASS
  1
ACDBDICTIONARYWDFLT
  2
AcDbDictionaryWithDefault
  3
ObjectDBX Classes
 90
        0
 91
        1
280
     0
281
     0
  0
CLASS
  1
DICTIONARYVAR
  2
AcDbDictionaryVar
  3
ObjectDBX Classes
 90
        0
 91
       10
280
     0
281
     0
  0
CLASS
  1
PLOTSETTINGS
  2
AcDbPlotSettings
  3
ObjectDBX Classes
 90
        0
 91
        3
280
     0
281
     0
  0
CLASS
  1
MATERIAL
  2
AcDbMaterial
  3
ObjectDBX Classes
 90
     1153
 91
        3
280
     0
281
     0
  0
CLASS
  1
VISUALSTYLE
  2
AcDbVisualStyle
  3
ObjectDBX Classes
 90
     4095
 91
       24
280
     0
281
     0
  0
CLASS
  1
TABLESTYLE
  2
AcDbTableStyle
  3
ObjectDBX Classes
 90
     4095
 91
        1
280
     0
281
     0
  0
CLASS
  1
SCALE
  2
AcDbScale
  3
ObjectDBX Classes
 90
     1153
 91
       17
280
     0
281
     0
  0
CLASS
  1
MLEADERSTYLE
  2
AcDbMLeaderStyle
  3
ACDB_MLEADERSTYLE_CLASS
 90
     4095
 91
        1
280
     0
281
     0
  0
CLASS
  1
ACDBSECTIONVIEWSTYLE
  2
AcDbSectionViewStyle
  3
ObjectDBX Classes
 90
     1025
 91
        1
280
     0
281
     0
  0
CLASS
  1
ACDBDETAILVIEWSTYLE
  2
AcDbDetailViewStyle
  3
ObjectDBX Classes
 90
     1025
 91
        1
280
     0
281
     0
  0
CLASS
  1
RAPIDRTRENDERSETTINGS
  2
AcDbRapidRTRenderSettings
  3
ObjectDBX Classes
 90
     1024
 91
        7
280
     0
281
     0
  0
CLASS
  1
SORTENTSTABLE
  2
AcDbSortentsTable
  3
ObjectDBX Classes
 90
        0
 91
        1
280
     0
281
     0
  0
CLASS
  1
CELLSTYLEMAP
  2
AcDbCellStyleMap
  3
ObjectDBX Classes
 90
     1152
 91
        1
280
     0
281
     0
  0
CLASS
  1
MENTALRAYRENDERSETTINGS
  2
AcDbMentalRayRenderSettings
  3
SCENEOE
 90
     1024
 91
        1
280
     0
281
     0
  0
ENDSEC
  0
SECTION
  2
TABLES
  0
TABLE
  2
VPORT
  5
8
330
0
100
AcDbSymbolTable
 70
     1
1001
ACAD
1000
DbSaveVer
1071
      224
  0
VPORT
  5
52F
330
8
100
AcDbSymbolTableRecord
100
AcDbViewportTableRecord
  2
*Active
 70
     0
 10
0.0
 20
0.0
 11
1.0
 21
1.0
 12
-46.88644344788793
 22
8.262634985454724
 13
0.0
 23
0.0
 14
0.5
 24
0.5
 15
10.0
 25
10.0
 16
0.0
 26
0.0
 36
1.0
 17
0.0
 27
0.0
 37
0.0
 40
60.25864924051572
 41
2.014516129032258
 42
50.0
 43
0.0
 44
0.0
 50
0.0
 51
0.0
 71
     0
 72
   800
 73
     1
 74
     1
 75
     0
 76
     0
 77
     0
 78
     0
281
     0
 65
     1
110
0.0
120
0.0
130
0.0
111
1.0
121
0.0
131
0.0
112
0.0
122
1.0
132
0.0
 79
     0
146
0.0
348
589
 60
     3
 61
     5
292
     1
282
     1
141
0.0
142
0.0
 63
   250
421
  3355443
1001
ACAD_NAV_VCDISPLAY
1070
     3
  0
ENDTAB
  0
TABLE
  2
LTYPE
  5
5
330
0
100
AcDbSymbolTable
 70
     4
  0
LTYPE
  5
14
330
5
100
AcDbSymbolTableRecord
100
AcDbLinetypeTableRecord
  2
BYBLOCK
 70
     0
  3

 72
    65
 73
     0
 40
0.0
  0
LTYPE
  5
15
330
5
100
AcDbSymbolTableRecord
100
AcDbLinetypeTableRecord
  2
BYLAYER
 70
     0
  3

 72
    65
 73
     0
 40
0.0
  0
LTYPE
  5
16
330
5
100
AcDbSymbolTableRecord
100
AcDbLinetypeTableRecord
  2
CONTINUOUS
 70
     0
  3
_______________________________________________
 72
    65
 73
     2
 40
1.0
 49
1.0
 74
     0
 49
0.0
 74
     0
  0
LTYPE
  5
149
330
5
100
AcDbSymbolTableRecord
100
AcDbLinetypeTableRecord
  2
MITTE
 70
     0
  3
Mitte ____ _ ____ _ ____ _ ____ _ ____ _ ____
 72
    65
 73
     4
 40
50.8
 49
31.75
 74
     0
 49
-6.349999999999999
 74
     0
 49
6.349999999999999
 74
     0
 49
-6.349999999999999
 74
     0
  0
ENDTAB
  0
TABLE
  2
LAYER
  5
2
330
0
100
AcDbSymbolTable
 70
    14
  0
LAYER
  5
F
330
2
100
AcDbSymbolTableRecord
100
AcDbLayerTableRecord
  2
0
 70
     0
 62
    30
  6
CONTINUOUS
370
    -3
390
F3
347
57B
348
0
  0
LAYER
  5
120
330
2
100
AcDbSymbolTableRecord
100
AcDbLayerTableRecord
  2
1
 70
     0
 62
     2
  6
CONTINUOUS
370
    -3
390
F3
347
57B
348
0
  0
LAYER
  5
121
330
2
100
AcDbSymbolTableRecord
100
AcDbLayerTableRecord
  2
2
 70
     0
 62
     9
  6
CONTINUOUS
370
    -3
390
F3
347
57B
348
0
  0
LAYER
  5
123
330
2
100
AcDbSymbolTableRecord
100
AcDbLayerTableRecord
  2
4
 70
     1
 62
     4
  6
CONTINUOUS
370
    -3
390
F3
347
57B
348
0
  0
LAYER
  5
124
330
2
100
AcDbSymbolTableRecord
100
AcDbLayerTableRecord
  2
5
 70
     0
 62
     1
  6
CONTINUOUS
370
    -3
390
F3
347
57B
348
0
  0
LAYER
  5
125
330
2
100
AcDbSymbolTableRecord
100
AcDbLayerTableRecord
  2
6
 70
     0
 62
     3
  6
CONTINUOUS
370
    35
390
F3
347
57B
348
0
  0
ENDTAB
  0
TABLE
  2
STYLE
  5
3
330
0
100
AcDbSymbolTable
 70
     4
  0
STYLE
  5
10
330
3
100
AcDbSymbolTableRecord
100
AcDbTextStyleTableRecord
  2
STANDARD
 70
     0
 40
0.0
 41
1.0
 50
0.0
 71
     0
 42
2.5
  3
ARIAL.TTF
  4

1001
ACAD
1000
Arial
1071
       34
  0
STYLE
  5
12B
330
3
100
AcDbSymbolTableRecord
100
AcDbTextStyleTableRecord
  2
Beschlag
 70
     0
 40
0.0
 41
1.0
 50
0.0
 71
     0
 42
3.5
  3
ARIAL.TTF
  4

1001
ACAD
1000
Arial
1071
       34
  0
STYLE
  5
5F0
330
3
100
AcDbSymbolTableRecord
100
AcDbTextStyleTableRecord
  2
MuM_Notiztext
 70
     0
 40
0.0
 41
1.0
 50
0.0
 71
     0
 42
0.2
  3
arial.ttf
  4

1001
ACAD
1000
Arial
1071
      256
  0
STYLE
  5
5F1
330
3
100
AcDbSymbolTableRecord
100
AcDbTextStyleTableRecord
  2
AZC_010
 70
     0
 40
25.0
 41
1.0
 50
0.0
 71
     0
 42
25.0
  3
isocp.shx
  4

  0
ENDTAB
  0
TABLE
  2
VIEW
  5
6
330
0
100
AcDbSymbolTable
 70
     1
  0
ENDTAB
  0
TABLE
  2
UCS
  5
7
330
0
100
AcDbSymbolTable
 70
     0
  0
ENDTAB
  0
TABLE
  2
APPID
  5
9
330
0
100
AcDbSymbolTable
 70
    16
  0
APPID
  5
11
330
9
100
AcDbSymbolTableRecord
100
AcDbRegAppTableRecord
  2
ACAD
 70
     0
  0
APPID
  5
5BB
330
9
100
AcDbSymbolTableRecord
100
AcDbRegAppTableRecord
  2
CADT-VIS-MAPPING
 70
     0
  0
APPID
  5
5BC
330
9
100
AcDbSymbolTableRecord
100
AcDbRegAppTableRecord
  2
CADT-LAYMAT
 70
     0
  0
APPID
  5
5C5
330
9
100
AcDbSymbolTableRecord
100
AcDbRegAppTableRecord
  2
CADT_UNIT
 70
     0
  0
APPID
  5
5CF
330
9
100
AcDbSymbolTableRecord
100
AcDbRegAppTableRecord
  2
AZC_MC_BTDEF
 70
     0
  0
APPID
  5
5D0
330
9
100
AcDbSymbolTableRecord
100
AcDbRegAppTableRecord
  2
AZC_MC_BTREF
 70
     0
  0
APPID
  5
5D1
330
9
100
AcDbSymbolTableRecord
100
AcDbRegAppTableRecord
  2
AZC_MC_BTDAR
 70
     0
  0
APPID
  5
5D2
330
9
100
AcDbSymbolTableRecord
100
AcDbRegAppTableRecord
  2
AZC_MC_BTUCS
 70
     0
  0
APPID
  5
5D3
330
9
100
AcDbSymbolTableRecord
100
AcDbRegAppTableRecord
  2
AZC_MC_BEARB
 70
     0
  0
APPID
  5
5D4
330
9
100
AcDbSymbolTableRecord
100
AcDbRegAppTableRecord
  2
AZC_NCTEC
 70
     0
  0
APPID
  5
5D5
330
9
100
AcDbSymbolTableRecord
100
AcDbRegAppTableRecord
  2
CADTH_APDATA
 70
     0
  0
APPID
  5
5D6
330
9
100
AcDbSymbolTableRecord
100
AcDbRegAppTableRecord
  2
CADTH_PART
 70
     0
  0
APPID
  5
5D7
330
9
100
AcDbSymbolTableRecord
100
AcDbRegAppTableRecord
  2
CADT_GEN_MASTER
 70
     0
  0
APPID
  5
5D8
330
9
100
AcDbSymbolTableRecord
100
AcDbRegAppTableRecord
  2
CADT_GEN_SLAVE
 70
     0
  0
APPID
  5
5E8
330
9
100
AcDbSymbolTableRecord
100
AcDbRegAppTableRecord
  2
ACAD_EXEMPT_FROM_CAD_STANDARDS
 70
     0
  0
APPID
  5
5F5
330
9
100
AcDbSymbolTableRecord
100
AcDbRegAppTableRecord
  2
ACAD_NAV_VCDISPLAY
 70
     0
  0
ENDTAB
  0
TABLE
  2
DIMSTYLE
  5
A
330
0
100
AcDbSymbolTable
 70
     5
100
AcDbDimStyleTable
 71
     1
340
209
  0
DIMSTYLE
105
209
102
{ACAD_REACTORS
330
30E
330
311
330
315
330
316
102
}
330
A
100
AcDbSymbolTableRecord
100
AcDbDimStyleTableRecord
  2
OPO-SSTRICH
 70
     0
 41
2.0
 42
2.0
 43
0.0
 44
1.0
 46
1.0
 73
     0
 74
     0
 77
     1
 78
     8
 79
     2
140
3.5
141
0.0
143
0.039370078740157
146
0.7114285714285716
147
1.0
172
     1
173
     1
174
     1
176
   256
177
   256
178
   256
179
     1
271
     1
272
     1
279
     2
284
     8
285
     8
286
     8
340
12B
341
203
343
203
344
203
  0
DIMSTYLE
105
5F2
330
A
100
AcDbSymbolTableRecord
100
AcDbDimStyleTableRecord
  2
Standard
 70
     0
340
10
  0
DIMSTYLE
105
5F3
330
A
100
AcDbSymbolTableRecord
100
AcDbDimStyleTableRecord
  2
MuM_Bemassung
 70
     0
 40
0.1
 41
2.5
 42
0.0
 43
8.0
 44
3.174999999999999
 45
0.00000001
 46
10.0
 73
     0
 74
     0
 77
     1
 78
     8
 79
     2
140
3.0
143
0.03937
146
0.6000000238418579
147
0.25
171
     3
172
     1
176
   256
177
   256
178
   256
271
     2
272
     2
274
     3
275
     1
278
    44
284
     8
285
     8
286
     8
340
5F0
371
    -1
372
    -1
  0
DIMSTYLE
105
5F4
330
A
100
AcDbSymbolTableRecord
100
AcDbDimStyleTableRecord
  2
AZC_010
 70
     0
 40
10.0
340
5F1
  0
ENDTAB
  0
TABLE
  2
BLOCK_RECORD
  5
1
330
0
100
AcDbSymbolTable
 70
    11
  0
BLOCK_RECORD
  5
1A
102
{ACAD_XDICTIONARY
360
1F6
102
}
330
1
100
AcDbSymbolTableRecord
100
AcDbBlockTableRecord
  2
*MODEL_SPACE
340
F6
 70
     0
280
     1
281
     0
  0
BLOCK_RECORD
  5
17
102
{ACAD_XDICTIONARY
360
1F4
102
}
330
1
100
AcDbSymbolTableRecord
100
AcDbBlockTableRecord
  2
*PAPER_SPACE
340
F7
 70
     0
280
     1
281
     0
  0
BLOCK_RECORD
  5
203
330
1
100
AcDbSymbolTableRecord
100
AcDbBlockTableRecord
  2
_Oblique
340
0
102
{BLKREFS
331
350
331
351
331
359
331
35A
331
363
331
364
331
36B
331
36C
102
}
 70
     0
280
     1
281
     0
  0
BLOCK_RECORD
  5
253
330
1
100
AcDbSymbolTableRecord
100
AcDbBlockTableRecord
  2
NullPunkt
340
0
102
{BLKREFS
331
25B
102
}
 70
     0
280
     1
281
     0
  0
BLOCK_RECORD
  5
291
330
1
100
AcDbSymbolTableRecord
100
AcDbBlockTableRecord
  2
*X2
340
0
102
{BLKREFS
331
30F
102
}
 70
     0
280
     1
281
     0
  0
BLOCK_RECORD
  5
31D
330
1
100
AcDbSymbolTableRecord
100
AcDbBlockTableRecord
  2
*D3
340
0
 70
     0
280
     1
281
     0
  0
BLOCK_RECORD
  5
329
330
1
100
AcDbSymbolTableRecord
100
AcDbBlockTableRecord
  2
*D4
340
0
 70
     0
280
     1
281
     0
  0
BLOCK_RECORD
  5
335
330
1
100
AcDbSymbolTableRecord
100
AcDbBlockTableRecord
  2
*D5
340
0
 70
     0
280
     1
281
     0
  0
BLOCK_RECORD
  5
341
330
1
100
AcDbSymbolTableRecord
100
AcDbBlockTableRecord
  2
*D6
340
0
 70
     0
280
     1
281
     0
  0
BLOCK_RECORD
  5
5C6
330
1
100
AcDbSymbolTableRecord
100
AcDbBlockTableRecord
  2
CUSTINFO
340
0
 70
     0
280
     1
281
     0
  0
BLOCK_RECORD
  5
5D9
330
1
100
AcDbSymbolTableRecord
100
AcDbBlockTableRecord
  2
AZCBTDEF
340
0
 70
     0
280
     1
281
     0
  0
ENDTAB
  0
ENDSEC
  0
SECTION
  2
BLOCKS
  0
BLOCK
  5
1B
330
1A
100
AcDbEntity
  8
0
100
AcDbBlockBegin
  2
*MODEL_SPACE
 70
     0
 10
0.0
 20
0.0
 30
0.0
  3
*MODEL_SPACE
  1

  0
ENDBLK
  5
1C
330
1A
100
AcDbEntity
  8
0
100
AcDbBlockEnd
  0
BLOCK
  5
18
330
17
100
AcDbEntity
 67
     1
  8
0
100
AcDbBlockBegin
  2
*PAPER_SPACE
 70
     0
 10
0.0
 20
0.0
 30
0.0
  3
*PAPER_SPACE
  1

  0
ENDBLK
  5
19
330
17
100
AcDbEntity
 67
     1
  8
0
100
AcDbBlockEnd
  0
BLOCK
  5
205
330
203
100
AcDbEntity
  8
0
100
AcDbBlockBegin
  2
_Oblique
 70
     0
 10
0.0
 20
0.0
 30
0.0
  3
_Oblique
  1

  0
LINE
  5
204
330
203
100
AcDbEntity
  8
0
 62
     0
370
    -2
100
AcDbLine
 10
-0.5
 20
-0.5
 30
0.0
 11
0.5
 21
0.5
 31
0.0
  0
ENDBLK
  5
206
330
203
100
AcDbEntity
  8
0
100
AcDbBlockEnd
  0
BLOCK
  5
259
330
253
100
AcDbEntity
  8
0
100
AcDbBlockBegin
  2
NullPunkt
 70
     0
 10
0.0
 20
0.0
 30
0.0
  3
NullPunkt
  1

  0
SOLID
  5
254
330
253
100
AcDbEntity
  8
5
100
AcDbTrace
 10
0.0
 20
0.0
 30
0.0
 11
2.0
 21
0.0
 31
0.0
 12
0.0
 22
-2.0
 32
0.0
 13
0.0
 23
-2.0
 33
0.0
  0
SOLID
  5
255
330
253
100
AcDbEntity
  8
5
100
AcDbTrace
 10
0.0
 20
0.0
 30
0.0
 11
-2.0
 21
0.0
 31
0.0
 12
0.0
 22
2.0
 32
0.0
 13
0.0
 23
2.0
 33
0.0
  0
LWPOLYLINE
  5
256
330
253
100
AcDbEntity
  8
5
100
AcDbPolyline
 90
        2
 70
     0
 43
0.0
 10
0.0
 20
2.0
 10
0.0
 20
-2.0
  0
LWPOLYLINE
  5
257
330
253
100
AcDbEntity
  8
5
100
AcDbPolyline
 90
        2
 70
     0
 43
0.0
 10
-2.0
 20
0.0
 10
2.0
 20
0.0
  0
CIRCLE
  5
258
330
253
100
AcDbEntity
  8
5
100
AcDbCircle
 10
0.0
 20
0.0
 30
0.0
 40
2.0
  0
ENDBLK
  5
25A
330
253
100
AcDbEntity
  8
0
100
AcDbBlockEnd
  0
BLOCK
  5
2EB
330
291
100
AcDbEntity
  8
0
100
AcDbBlockBegin
  2
*X2
 70
     1
 10
0.0
 20
0.0
 30
0.0
  3
*X2
  1

  0
LINE
  5
292
330
291
100
AcDbEntity
  8
0
 62
     0
100
AcDbLine
 10
811.1845759450142
 20
-157.8345569930302
 30
0.0
 11
814.6528202971849
 21
-154.3663126408596
 31
0.0
  0
LINE
  5
293
330
291
100
AcDbEntity
  8
0
 62
     0
100
AcDbLine
 10
809.2181532703197
 20
-158.1039233928772
 30
0.0
 11
812.0008346161036
 21
-155.3212420470933
 31
0.0
  0
LINE
  5
294
330
291
100
AcDbEntity
  8
0
 62
     0
100
AcDbLine
 10
807.2517305956248
 20
-158.3732897927242
 30
0.0
 11
810.0359615095793
 21
-155.5890588787697
 31
0.0
  0
LINE
  5
295
330
291
100
AcDbEntity
  8
0
 62
     0
100
AcDbLine
 10
805.2853079209301
 20
-158.6426561925712
 30
0.0
 11
808.0710884030553
 21
-155.856875710446
 31
0.0
  0
LINE
  5
296
330
291
100
AcDbEntity
  8
0
 62
     0
100
AcDbLine
 10
803.3188852462355
 20
-158.9120225924182
 30
0.0
 11
806.1062152965314
 21
-156.1246925421223
 31
0.0
  0
LINE
  5
297
330
291
100
AcDbEntity
  8
0
 62
     0
100
AcDbLine
 10
801.3524625715406
 20
-159.1813889922653
 30
0.0
 11
804.1413421900072
 21
-156.3925093737987
 31
0.0
  0
LINE
  5
298
330
291
100
AcDbEntity
  8
0
 62
     0
100
AcDbLine
 10
799.3860398968459
 20
-159.4507553921123
 30
0.0
 11
802.1764690834833
 21
-156.660326205475
 31
0.0
  0
LINE
  5
299
330
291
100
AcDbEntity
  8
0
 62
     0
100
AcDbLine
 10
797.4196172221512
 20
-159.7201217919593
 30
0.0
 11
800.2115959769591
 21
-156.9281430371514
 31
0.0
  0
LINE
  5
29A
330
291
100
AcDbEntity
  8
0
 62
     0
100
AcDbLine
 10
795.4531945474564
 20
-159.9894881918063
 30
0.0
 11
798.2467228704351
 21
-157.1959598688277
 31
0.0
  0
LINE
  5
29B
330
291
100
AcDbEntity
  8
0
 62
     0
100
AcDbLine
 10
793.4867718727617
 20
-160.2588545916533
 30
0.0
 11
796.2818497639111
 21
-157.463776700504
 31
0.0
  0
LINE
  5
29C
330
291
100
AcDbEntity
  8
0
 62
     0
100
AcDbLine
 10
791.520349198067
 20
-160.5282209915003
 30
0.0
 11
794.316976657387
 21
-157.7315935321804
 31
0.0
  0
LINE
  5
29D
330
291
100
AcDbEntity
  8
0
 62
     0
100
AcDbLine
 10
789.5539265233724
 20
-160.7975873913473
 30
0.0
 11
792.352103550863
 21
-157.9994103638567
 31
0.0
  0
LINE
  5
29E
330
291
100
AcDbEntity
  8
0
 62
     0
100
AcDbLine
 10
787.5875038486777
 20
-161.0669537911943
 30
0.0
 11
790.3872304443389
 21
-158.267227195533
 31
0.0
  0
LINE
  5
29F
330
291
100
AcDbEntity
  8
0
 62
     0
100
AcDbLine
 10
785.6210811739828
 20
-161.3363201910413
 30
0.0
 11
788.4223573378148
 21
-158.5350440272094
 31
0.0
  0
LINE
  5
2A0
330
291
100
AcDbEntity
  8
0
 62
     0
100
AcDbLine
 10
783.6546584992881
 20
-161.6056865908883
 30
0.0
 11
787.2770987598999
 21
-157.9832463302766
 31
0.0
  0
LINE
  5
2A1
330
291
100
AcDbEntity
  8
0
 62
     0
100
AcDbLine
 10
781.6882358245934
 20
-161.8750529907354
 30
0.0
 11
785.3036678212035
 21
-158.2596209941254
 31
0.0
  0
LINE
  5
2A2
330
291
100
AcDbEntity
  8
0
 62
     0
100
AcDbLine
 10
779.7218131498988
 20
-162.1444193905823
 30
0.0
 11
783.3302368825069
 21
-158.5359956579742
 31
0.0
  0
LINE
  5
2A3
330
291
100
AcDbEntity
  8
0
 62
     0
100
AcDbLine
 10
777.7553904752039
 20
-162.4137857904294
 30
0.0
 11
781.3568059438103
 21
-158.8123703218231
 31
0.0
  0
LINE
  5
2A4
330
291
100
AcDbEntity
  8
0
 62
     0
100
AcDbLine
 10
775.7889678005092
 20
-162.6831521902763
 30
0.0
 11
779.3833750051137
 21
-159.0887449856719
 31
0.0
  0
LINE
  5
2A5
330
291
100
AcDbEntity
  8
0
 62
     0
100
AcDbLine
 10
769.3239050548494
 20
-167.4511586610887
 30
0.0
 11
770.647267977015
 21
-166.1277957389231
 31
0.0
  0
LINE
  5
2A6
330
291
100
AcDbEntity
  8
0
 62
     0
100
AcDbLine
 10
773.7490015271232
 20
-163.0260621888147
 30
0.0
 11
777.4099440664172
 21
-159.3651196495208
 31
0.0
  0
LINE
  5
2A7
330
291
100
AcDbEntity
  8
0
 62
     0
100
AcDbLine
 10
768.1543241303554
 20
-166.9236833107347
 30
0.0
 11
775.4365131277207
 21
-159.6414943133695
 31
0.0
  0
LINE
  5
2A8
330
291
100
AcDbEntity
  8
0
 62
     0
100
AcDbLine
 10
768.6852843493721
 20
-164.6956668168706
 30
0.0
 11
773.4020176346794
 21
-159.9789335315632
 31
0.0
  0
LINE
  5
2A9
330
291
100
AcDbEntity
  8
0
 62
     0
100
AcDbLine
 10
769.0880676685619
 20
-162.595827222833
 30
0.0
 11
769.4879055401234
 21
-162.1959893512715
 31
0.0
  0
LINE
  5
2AA
330
291
100
AcDbEntity
  8
0
 62
     0
100
AcDbLine
 10
770.7782764913191
 20
-160.9056184000756
 30
0.0
 11
770.9743586468921
 21
-160.7095362445026
 31
0.0
  0
LINE
  5
2AB
330
291
100
AcDbEntity
  8
0
 62
     0
100
AcDbLine
 10
813.1509986197091
 20
-157.5651905931832
 30
0.0
 11
816.6262512358816
 21
-154.0899379770108
 31
0.0
  0
LINE
  5
2AC
330
291
100
AcDbEntity
  8
0
 62
     0
100
AcDbLine
 10
815.1174212944036
 20
-157.2958241933362
 30
0.0
 11
818.5996821745781
 21
-153.8135633131618
 31
0.0
  0
LINE
  5
2AD
330
291
100
AcDbEntity
  8
0
 62
     0
100
AcDbLine
 10
817.0838439690983
 20
-157.0264577934892
 30
0.0
 11
820.5731131132747
 21
-153.537188649313
 31
0.0
  0
LINE
  5
2AE
330
291
100
AcDbEntity
  8
0
 62
     0
100
AcDbLine
 10
819.0502666437932
 20
-156.7570913936422
 30
0.0
 11
821.825200148724
 21
-153.9821578887115
 31
0.0
  0
LINE
  5
2AF
330
291
100
AcDbEntity
  8
0
 62
     0
100
AcDbLine
 10
821.0166893184879
 20
-156.4877249937952
 30
0.0
 11
823.7885260027693
 21
-153.7158883095136
 31
0.0
  0
LINE
  5
2B0
330
291
100
AcDbEntity
  8
0
 62
     0
100
AcDbLine
 10
822.9831119931827
 20
-156.2183585939482
 30
0.0
 11
825.7478564303315
 21
-153.4536141567993
 31
0.0
  0
LINE
  5
2B1
330
291
100
AcDbEntity
  8
0
 62
     0
100
AcDbLine
 10
824.9495346678772
 20
-155.9489921941012
 30
0.0
 11
827.7071868578934
 21
-153.191340004085
 31
0.0
  0
LINE
  5
2B2
330
291
100
AcDbEntity
  8
0
 62
     0
100
AcDbLine
 10
826.9159573425721
 20
-155.6796257942542
 30
0.0
 11
829.6665172854556
 21
-152.9290658513706
 31
0.0
  0
LINE
  5
2B3
330
291
100
AcDbEntity
  8
0
 62
     0
100
AcDbLine
 10
828.8823800172668
 20
-155.4102593944072
 30
0.0
 11
831.6258477130176
 21
-152.6667916986563
 31
0.0
  0
LINE
  5
2B4
330
291
100
AcDbEntity
  8
0
 62
     0
100
AcDbLine
 10
848.1374905056416
 20
-136.1551489060325
 30
0.0
 11
849.8414807505852
 21
-134.4511586610887
 31
0.0
  0
LINE
  5
2B5
330
291
100
AcDbEntity
  8
0
 62
     0
100
AcDbLine
 10
830.8488026919615
 20
-155.1408929945601
 30
0.0
 11
833.5851781405796
 21
-152.404517545942
 31
0.0
  0
LINE
  5
2B6
330
291
100
AcDbEntity
  8
0
 62
     0
100
AcDbLine
 10
850.0385370254329
 20
-135.9511586610887
 30
0.0
 11
851.538537025433
 21
-134.4511586610887
 31
0.0
  0
LINE
  5
2B7
330
291
100
AcDbEntity
  8
0
 62
     0
100
AcDbLine
 10
848.3826400686842
 20
-137.6070556178374
 30
0.0
 11
849.6374905056416
 21
-136.3522051808801
 31
0.0
  0
LINE
  5
2B8
330
291
100
AcDbEntity
  8
0
 62
     0
100
AcDbLine
 10
832.8152253666562
 20
-154.8715265947131
 30
0.0
 11
835.5445085681417
 21
-152.1422433932277
 31
0.0
  0
LINE
  5
2B9
330
291
100
AcDbEntity
  8
0
 62
     0
100
AcDbLine
 10
851.7355933002807
 20
-135.9511586610887
 30
0.0
 11
853.2355933002806
 21
-134.4511586610887
 31
0.0
  0
LINE
  5
2BA
330
291
100
AcDbEntity
  8
0
 62
     0
100
AcDbLine
 10
834.7816480413509
 20
-154.6021601948661
 30
0.0
 11
837.5038389957037
 21
-151.8799692405133
 31
0.0
  0
LINE
  5
2BB
330
291
100
AcDbEntity
  8
0
 62
     0
100
AcDbLine
 10
852.1374905056415
 20
-137.2463177305755
 30
0.0
 11
854.9326495751284
 21
-134.4511586610887
 31
0.0
  0
LINE
  5
2BC
330
291
100
AcDbEntity
  8
0
 62
     0
100
AcDbLine
 10
836.7480707160456
 20
-154.3327937950191
 30
0.0
 11
839.4631694232657
 21
-151.617695087799
 31
0.0
  0
LINE
  5
2BD
330
291
100
AcDbEntity
  8
0
 62
     0
100
AcDbLine
 10
852.1374905056415
 20
-138.9433740054233
 30
0.0
 11
855.9835981778087
 21
-135.097266333256
 31
0.0
  0
LINE
  5
2BE
330
291
100
AcDbEntity
  8
0
 62
     0
100
AcDbLine
 10
838.7144933907404
 20
-154.0634273951721
 30
0.0
 11
841.4224998508279
 21
-151.3554209350847
 31
0.0
  0
LINE
  5
2BF
330
291
100
AcDbEntity
  8
0
 62
     0
100
AcDbLine
 10
854.7476404917089
 20
-138.0302802942037
 30
0.0
 11
858.3267621248237
 21
-134.4511586610887
 31
0.0
  0
LINE
  5
2C0
330
291
100
AcDbEntity
  8
0
 62
     0
100
AcDbLine
 10
852.1374905056415
 20
-140.6404302802711
 30
0.0
 11
854.2166121387564
 21
-138.561308647156
 31
0.0
  0
LINE
  5
2C1
330
291
100
AcDbEntity
  8
0
 62
     0
100
AcDbLine
 10
840.6809160654351
 20
-153.7940609953251
 30
0.0
 11
843.3818302783899
 21
-151.0931467823704
 31
0.0
  0
LINE
  5
2C2
330
291
100
AcDbEntity
  8
0
 62
     0
100
AcDbLine
 10
856.5238183996715
 20
-137.9511586610887
 30
0.0
 11
860.0238183996715
 21
-134.4511586610887
 31
0.0
  0
LINE
  5
2C3
330
291
100
AcDbEntity
  8
0
 62
     0
100
AcDbLine
 10
852.1374905056415
 20
-142.3374865551187
 30
0.0
 11
854.1374905056416
 21
-140.3374865551186
 31
0.0
  0
LINE
  5
2C4
330
291
100
AcDbEntity
  8
0
 62
     0
100
AcDbLine
 10
837.1374905056416
 20
-159.0345428299664
 30
0.0
 11
838.7208746745193
 21
-157.4511586610887
 31
0.0
  0
LINE
  5
2C5
330
291
100
AcDbEntity
  8
0
 62
     0
100
AcDbLine
 10
858.2208746745193
 20
-137.9511586610887
 30
0.0
 11
861.1791825900805
 21
-134.9928507455275
 31
0.0
  0
LINE
  5
2C6
330
291
100
AcDbEntity
  8
0
 62
     0
100
AcDbLine
 10
842.6473387401298
 20
-153.5246945954781
 30
0.0
 11
845.3411607059519
 21
-150.830872629656
 31
0.0
  0
LINE
  5
2C7
330
291
100
AcDbEntity
  8
0
 62
     0
100
AcDbLine
 10
852.1374905056415
 20
-144.0345428299665
 30
0.0
 11
854.1374905056416
 21
-142.0345428299664
 31
0.0
  0
LINE
  5
2C8
330
291
100
AcDbEntity
  8
0
 62
     0
100
AcDbLine
 10
848.1374905056416
 20
-148.0345428299664
 30
0.0
 11
849.6374905056416
 21
-146.5345428299665
 31
0.0
  0
LINE
  5
2C9
330
291
100
AcDbEntity
  8
0
 62
     0
100
AcDbLine
 10
838.4179309493669
 20
-159.4511586610886
 30
0.0
 11
840.4179309493668
 21
-157.4511586610887
 31
0.0
  0
LINE
  5
2CA
330
291
100
AcDbEntity
  8
0
 62
     0
100
AcDbLine
 10
859.9179309493671
 20
-137.9511586610887
 30
0.0
 11
863.0277107275043
 21
-134.8413788829514
 31
0.0
  0
LINE
  5
2CB
330
291
100
AcDbEntity
  8
0
 62
     0
100
AcDbLine
 10
843.9644542066886
 20
-153.904635403767
 30
0.0
 11
849.9185306740978
 21
-147.9505589363578
 31
0.0
  0
LINE
  5
2CC
330
291
100
AcDbEntity
  8
0
 62
     0
100
AcDbLine
 10
852.1374905056415
 20
-145.7315991048141
 30
0.0
 11
854.1374905056416
 21
-143.731599104814
 31
0.0
  0
LINE
  5
2CD
330
291
100
AcDbEntity
  8
0
 62
     0
100
AcDbLine
 10
840.1852658157977
 20
-159.3808800695057
 30
0.0
 11
842.1149872242146
 21
-157.4511586610887
 31
0.0
  0
LINE
  5
2CE
330
291
100
AcDbEntity
  8
0
 62
     0
100
AcDbLine
 10
861.6149872242147
 20
-137.9511586610887
 30
0.0
 11
864.8762388649281
 21
-134.6899070203752
 31
0.0
  0
LINE
  5
2CF
330
291
100
AcDbEntity
  8
0
 62
     0
100
AcDbLine
 10
844.1374905056417
 20
-155.4286553796618
 30
0.0
 11
851.6149872242147
 21
-147.9511586610887
 31
0.0
  0
LINE
  5
2D0
330
291
100
AcDbEntity
  8
0
 62
     0
100
AcDbLine
 10
852.1374905056415
 20
-147.4286553796619
 30
0.0
 11
854.1374905056416
 21
-145.4286553796618
 31
0.0
  0
LINE
  5
2D1
330
291
100
AcDbEntity
  8
0
 62
     0
100
AcDbLine
 10
841.8134889133092
 20
-159.449713246842
 30
0.0
 11
846.1461262357154
 21
-155.1170759244358
 31
0.0
  0
LINE
  5
2D2
330
291
100
AcDbEntity
  8
0
 62
     0
100
AcDbLine
 10
863.3120434990624
 20
-137.9511586610887
 30
0.0
 11
866.8120434990624
 21
-134.4511586610887
 31
0.0
  0
LINE
  5
2D3
330
291
100
AcDbEntity
  8
0
 62
     0
100
AcDbLine
 10
851.3120434990625
 20
-149.9511586610887
 30
0.0
 11
854.1374905056416
 21
-147.1257116545096
 31
0.0
  0
LINE
  5
2D4
330
291
100
AcDbEntity
  8
0
 62
     0
100
AcDbLine
 10
843.5338350166071
 20
-159.4264234183916
 30
0.0
 11
843.6127552629445
 21
-159.3475031720543
 31
0.0
  0
LINE
  5
2D5
330
291
100
AcDbEntity
  8
0
 62
     0
100
AcDbLine
 10
865.0090997739102
 20
-137.9511586610887
 30
0.0
 11
868.1374905056415
 21
-134.8227679293571
 31
0.0
  0
LINE
  5
2D6
330
291
100
AcDbEntity
  8
0
 62
     0
100
AcDbLine
 10
843.6472834140877
 20
-159.3129750209111
 30
0.0
 11
846.1374905056416
 21
-156.8227679293572
 31
0.0
  0
LINE
  5
2D7
330
291
100
AcDbEntity
  8
0
 62
     0
100
AcDbLine
 10
845.2346326769902
 20
-159.4226820328565
 30
0.0
 11
846.1374905056416
 21
-158.519824204205
 31
0.0
  0
LINE
  5
2D8
330
291
100
AcDbEntity
  8
0
 62
     0
100
AcDbLine
 10
866.0692449906415
 20
-138.5880697192051
 30
0.0
 11
868.1374905056415
 21
-136.5198242042049
 31
0.0
  0
LINE
  5
2D9
330
291
100
AcDbEntity
  8
0
 62
     0
100
AcDbLine
 10
866.1374905056415
 20
-140.2168804790526
 30
0.0
 11
868.1374905056415
 21
-138.2168804790525
 31
0.0
  0
LINE
  5
2DA
330
291
100
AcDbEntity
  8
0
 62
     0
100
AcDbLine
 10
866.1374905056415
 20
-141.9139367539004
 30
0.0
 11
868.1374905056415
 21
-139.9139367539003
 31
0.0
  0
LINE
  5
2DB
330
291
100
AcDbEntity
  8
0
 62
     0
100
AcDbLine
 10
866.1374905056415
 20
-143.6109930287482
 30
0.0
 11
868.1374905056415
 21
-141.6109930287481
 31
0.0
  0
LINE
  5
2DC
330
291
100
AcDbEntity
  8
0
 62
     0
100
AcDbLine
 10
866.1374905056415
 20
-145.3080493035958
 30
0.0
 11
868.1374905056415
 21
-143.3080493035957
 31
0.0
  0
LINE
  5
2DD
330
291
100
AcDbEntity
  8
0
 62
     0
100
AcDbLine
 10
866.1374905056415
 20
-147.0051055784436
 30
0.0
 11
868.1374905056415
 21
-145.0051055784435
 31
0.0
  0
LINE
  5
2DE
330
291
100
AcDbEntity
  8
0
 62
     0
100
AcDbLine
 10
866.1374905056415
 20
-148.7021618532912
 30
0.0
 11
868.1374905056415
 21
-146.7021618532911
 31
0.0
  0
LINE
  5
2DF
330
291
100
AcDbEntity
  8
0
 62
     0
100
AcDbLine
 10
866.1374905056415
 20
-150.399218128139
 30
0.0
 11
868.1374905056415
 21
-148.3992181281389
 31
0.0
  0
LINE
  5
2E0
330
291
100
AcDbEntity
  8
0
 62
     0
100
AcDbLine
 10
859.1374905056415
 20
-159.0962744029868
 30
0.0
 11
860.7826062475396
 21
-157.4511586610887
 31
0.0
  0
LINE
  5
2E1
330
291
100
AcDbEntity
  8
0
 62
     0
100
AcDbLine
 10
866.1374905056415
 20
-152.0962744029868
 30
0.0
 11
868.1374905056415
 21
-150.0962744029867
 31
0.0
  0
LINE
  5
2E2
330
291
100
AcDbEntity
  8
0
 62
     0
100
AcDbLine
 10
860.4855136739718
 20
-159.4453075095041
 30
0.0
 11
860.631639354057
 21
-159.2991818294189
 31
0.0
  0
LINE
  5
2E3
330
291
100
AcDbEntity
  8
0
 62
     0
100
AcDbLine
 10
866.1374905056415
 20
-153.7933306778344
 30
0.0
 11
868.1374905056415
 21
-151.7933306778343
 31
0.0
  0
LINE
  5
2E4
330
291
100
AcDbEntity
  8
0
 62
     0
100
AcDbLine
 10
860.6412198698391
 20
-159.2896013136367
 30
0.0
 11
862.4796625223874
 21
-157.4511586610887
 31
0.0
  0
LINE
  5
2E5
330
291
100
AcDbEntity
  8
0
 62
     0
100
AcDbLine
 10
862.2170500718256
 20
-159.410827386498
 30
0.0
 11
864.176718797235
 21
-157.4511586610887
 31
0.0
  0
LINE
  5
2E6
330
291
100
AcDbEntity
  8
0
 62
     0
100
AcDbLine
 10
866.1374905056415
 20
-155.4903869526822
 30
0.0
 11
868.1374905056415
 21
-153.4903869526821
 31
0.0
  0
LINE
  5
2E7
330
291
100
AcDbEntity
  8
0
 62
     0
100
AcDbLine
 10
863.8737750720826
 20
-159.4511586610886
 30
0.0
 11
865.8762953518372
 21
-157.4486383813341
 31
0.0
  0
LINE
  5
2E8
330
291
100
AcDbEntity
  8
0
 62
     0
100
AcDbLine
 10
866.1349702258871
 20
-157.1899635072843
 30
0.0
 11
868.1374905056415
 21
-155.1874432275297
 31
0.0
  0
LINE
  5
2E9
330
291
100
AcDbEntity
  8
0
 62
     0
100
AcDbLine
 10
865.6667231616962
 20
-159.3552668463229
 30
0.0
 11
868.1374905056415
 21
-156.8844995023775
 31
0.0
  0
LINE
  5
2EA
330
291
100
AcDbEntity
  8
0
 62
     0
100
AcDbLine
 10
867.2771934542231
 20
-159.4418528286437
 30
0.0
 11
868.1374905056415
 21
-158.5815557772252
 31
0.0
  0
ENDBLK
  5
2EC
330
291
100
AcDbEntity
  8
0
100
AcDbBlockEnd
  0
BLOCK
  5
327
330
31D
100
AcDbEntity
  8
0
100
AcDbBlockBegin
  2
*D3
 70
     1
 10
0.0
 20
0.0
 30
0.0
  3
*D3
  1

  0
LINE
  5
34D
330
31D
100
AcDbEntity
  8
1
440
 16777216
370
    -2
100
AcDbLine
 10
-25.00000000000034
 20
4.970534172774023
 30
0.0
 11
-25.00000000000034
 21
-12.65260037644611
 31
0.0
  0
LINE
  5
34E
330
31D
100
AcDbEntity
  8
1
440
 16777216
370
    -2
100
AcDbLine
 10
-100.0
 20
-10.0
 30
0.0
 11
-100.0
 21
-12.65260037644611
 31
0.0
  0
LINE
  5
34F
330
31D
100
AcDbEntity
  8
1
440
 16777216
370
    -2
100
AcDbLine
 10
-24.00000000000034
 20
-11.65260037644611
 30
0.0
 11
-101.0
 21
-11.65260037644611
 31
0.0
  0
INSERT
  5
350
330
31D
100
AcDbEntity
  8
1
440
 16777216
370
    -2
100
AcDbBlockReference
  2
_Oblique
 10
-25.00000000000034
 20
-11.65260037644611
 30
0.0
 41
2.0
 42
2.0
 43
2.0
  0
INSERT
  5
351
330
31D
100
AcDbEntity
  8
1
440
 16777216
370
    -2
100
AcDbBlockReference
  2
_Oblique
 10
-100.0
 20
-11.65260037644611
 30
0.0
 41
2.0
 42
2.0
 43
2.0
 50
180.0
  0
MTEXT
  5
352
330
31D
100
AcDbEntity
  8
1
440
 16777216
100
AcDbMText
 10
-62.50000000000017
 20
-8.872757265941341
 30
0.0
 40
3.5
 41
0.0
 46
0.0
 71
     5
 72
     1
  1
\A1;75
  7
Beschlag
 73
     1
 44
1.0
  0
ENDBLK
  5
328
330
31D
100
AcDbEntity
  8
0
100
AcDbBlockEnd
  0
BLOCK
  5
333
330
329
100
AcDbEntity
  8
0
100
AcDbBlockBegin
  2
*D4
 70
     1
 10
0.0
 20
0.0
 30
0.0
  3
*D4
  1

  0
LINE
  5
356
330
329
100
AcDbEntity
  8
1
440
 16777216
370
    -2
100
AcDbLine
 10
-20.00000000000046
 20
6.970534172774023
 30
0.0
 11
-20.00000000000046
 21
-12.65260037644611
 31
0.0
  0
LINE
  5
357
330
329
100
AcDbEntity
  8
1
440
 16777216
370
    -2
100
AcDbLine
 10
-25.00000000000046
 20
6.970534172774023
 30
0.0
 11
-25.00000000000046
 21
-12.65260037644611
 31
0.0
  0
LINE
  5
358
330
329
100
AcDbEntity
  8
1
440
 16777216
370
    -2
100
AcDbLine
 10
-19.00000000000045
 20
-11.65260037644611
 30
0.0
 11
-26.00000000000046
 21
-11.65260037644611
 31
0.0
  0
INSERT
  5
359
330
329
100
AcDbEntity
  8
1
440
 16777216
370
    -2
100
AcDbBlockReference
  2
_Oblique
 10
-20.00000000000046
 20
-11.65260037644611
 30
0.0
 41
2.0
 42
2.0
 43
2.0
  0
INSERT
  5
35A
330
329
100
AcDbEntity
  8
1
440
 16777216
370
    -2
100
AcDbBlockReference
  2
_Oblique
 10
-25.00000000000046
 20
-11.65260037644611
 30
0.0
 41
2.0
 42
2.0
 43
2.0
 50
180.0
  0
MTEXT
  5
35B
330
329
100
AcDbEntity
  8
1
440
 16777216
100
AcDbMText
 10
-22.50000000000046
 20
-8.872757265941341
 30
0.0
 40
3.5
 41
0.0
 46
0.0
 71
     5
 72
     1
  1
\A1;5
  7
Beschlag
 73
     1
 44
1.0
  0
ENDBLK
  5
334
330
329
100
AcDbEntity
  8
0
100
AcDbBlockEnd
  0
BLOCK
  5
33F
330
335
100
AcDbEntity
  8
0
100
AcDbBlockBegin
  2
*D5
 70
     1
 10
0.0
 20
0.0
 30
0.0
  3
*D5
  1

  0
LINE
  5
35F
330
335
100
AcDbEntity
  8
1
440
 16777216
370
    -2
100
AcDbLine
 10
-0.0000000000000001
 20
-2.0
 30
0.0
 11
-0.0000000000000008
 21
-12.65260037644589
 31
0.0
  0
LINE
  5
360
330
335
100
AcDbEntity
  8
1
440
 16777216
370
    -2
100
AcDbLine
 10
-20.00000000000068
 20
-1.999999999999545
 30
0.0
 11
-20.00000000000068
 21
-12.65260037644589
 31
0.0
  0
LINE
  5
361
330
335
100
AcDbEntity
  8
1
440
 16777216
370
    -2
100
AcDbLine
 10
0.9999999999999992
 20
-11.65260037644589
 30
0.0
 11
-21.00000000000068
 21
-11.65260037644589
 31
0.0
  0
MTEXT
  5
362
330
335
100
AcDbEntity
  8
1
440
 16777216
100
AcDbMText
 10
-6.532559314491436
 20
-8.152600376445889
 30
0.0
 40
3.5
 41
0.0
 46
0.0
 71
     5
 72
     1
  1
\A1;20
  7
Beschlag
 73
     1
 44
1.0
  0
INSERT
  5
363
330
335
100
AcDbEntity
  8
1
440
 16777216
370
    -2
100
AcDbBlockReference
  2
_Oblique
 10
-0.0000000000000007
 20
-11.65260037644589
 30
0.0
 41
2.0
 42
2.0
 43
2.0
  0
INSERT
  5
364
330
335
100
AcDbEntity
  8
1
440
 16777216
370
    -2
100
AcDbBlockReference
  2
_Oblique
 10
-20.00000000000068
 20
-11.65260037644589
 30
0.0
 41
2.0
 42
2.0
 43
2.0
 50
180.0
  0
ENDBLK
  5
340
330
335
100
AcDbEntity
  8
0
100
AcDbBlockEnd
  0
BLOCK
  5
34B
330
341
100
AcDbEntity
  8
0
100
AcDbBlockBegin
  2
*D6
 70
     1
 10
0.0
 20
0.0
 30
0.0
  3
*D6
  1

  0
LINE
  5
368
330
341
100
AcDbEntity
  8
1
440
 16777216
370
    -2
100
AcDbLine
 10
2.0
 20
-0.0000000000000006
 30
0.0
 11
13.65989439923737
 21
-0.0000000000000039
 31
0.0
  0
LINE
  5
369
330
341
100
AcDbEntity
  8
1
440
 16777216
370
    -2
100
AcDbLine
 10
2.0
 20
25.0
 30
0.0
 11
13.65989439923737
 21
25.0
 31
0.0
  0
LINE
  5
36A
330
341
100
AcDbEntity
  8
1
440
 16777216
370
    -2
100
AcDbLine
 10
12.65989439923737
 20
-1.000000000000003
 30
0.0
 11
12.65989439923737
 21
26.0
 31
0.0
  0
INSERT
  5
36B
330
341
100
AcDbEntity
  8
1
440
 16777216
370
    -2
100
AcDbBlockReference
  2
_Oblique
 10
12.65989439923737
 20
-0.0000000000000036
 30
0.0
 41
2.0
 42
2.0
 43
2.0
 50
270.0
  0
INSERT
  5
36C
330
341
100
AcDbEntity
  8
1
440
 16777216
370
    -2
100
AcDbBlockReference
  2
_Oblique
 10
12.65989439923737
 20
25.0
 30
0.0
 41
2.0
 42
2.0
 43
2.0
 50
90.0
  0
MTEXT
  5
36D
330
341
100
AcDbEntity
  8
1
440
 16777216
100
AcDbMText
 10
9.872888942211446
 20
12.5
 30
0.0
 40
3.5
 41
0.0
 46
0.0
 71
     5
 72
     1
  1
\A1;25
  7
Beschlag
 11
0.0000000000000001
 21
1.0
 31
0.0
 73
     1
 44
1.0
  0
ENDBLK
  5
34C
330
341
100
AcDbEntity
  8
0
100
AcDbBlockEnd
  0
BLOCK
  5
5C7
330
5C6
100
AcDbEntity
  8
0
100
AcDbBlockBegin
  2
CUSTINFO
 70
     0
 10
0.0
 20
0.0
 30
0.0
  3
CUSTINFO
  1
CUSTINFO
  0
ENDBLK
  5
5C8
330
5C6
100
AcDbEntity
  8
0
100
AcDbBlockEnd
  0
BLOCK
  5
5DA
330
5D9
100
AcDbEntity
  8
0
100
AcDbBlockBegin
  2
AZCBTDEF
 70
     0
 10
0.0
 20
0.0
 30
0.0
  3
AZCBTDEF
  1
AZCBTDEF
  0
ENDBLK
  5
5E5
330
5D9
100
AcDbEntity
  8
0
100
AcDbBlockEnd
  0
ENDSEC
  0
SECTION
  2
ENTITIES
  0
INSERT
  5
25B
330
1A
100
AcDbEntity
  8
5
100
AcDbBlockReference
  2
NullPunkt
 10
0.0
 20
0.0
 30
0.0
  0
DIMENSION
  5
30E
330
1A
100
AcDbEntity
  8
1
100
AcDbDimension
280
     0
  2
*D3
 10
-100.0
 20
-11.65260037644611
 30
0.0
 11
-62.50000000000017
 21
-8.872757265941341
 31
0.0
 70
    32
 71
     5
 42
-1.0
 73
     0
 74
     0
 75
     0
  3
OPO-SSTRICH
100
AcDbAlignedDimension
 13
-25.00000000000034
 23
6.970534172774023
 33
0.0
 14
-100.0
 24
-8.0
 34
0.0
100
AcDbRotatedDimension
  0
INSERT
  5
30F
330
1A
100
AcDbEntity
  8
2
100
AcDbBlockReference
  2
*X2
 10
-868.1374905056415
 20
159.4511586610887
 30
0.0
1001
ACAD
1000
HATCH
1002
{
1070
    16
1000
_U,I
1040
1.199999999999999
1040
0.7853981633974483
1070
     0
1002
}
  0
POINT
  5
310
330
1A
100
AcDbEntity
  8
5
100
AcDbPoint
 10
-16.0
 20
17.49999999999977
 30
0.0
  0
DIMENSION
  5
311
330
1A
100
AcDbEntity
  8
1
100
AcDbDimension
280
     0
  2
*D4
 10
-25.00000000000046
 20
-11.65260037644611
 30
0.0
 11
-22.50000000000046
 21
-8.872757265941341
 31
0.0
 70
    32
 71
     5
 42
-1.0
 73
     0
 74
     0
 75
     0
  3
OPO-SSTRICH
100
AcDbAlignedDimension
 13
-20.00000000000046
 23
8.970534172774023
 33
0.0
 14
-25.00000000000046
 24
8.970534172774023
 34
0.0
100
AcDbRotatedDimension
  0
POINT
  5
312
330
1A
100
AcDbEntity
  8
5
100
AcDbPoint
 10
-16.0
 20
17.49999999999977
 30
0.0
  0
LWPOLYLINE
  5
313
330
1A
100
AcDbEntity
  8
5
100
AcDbPolyline
 90
        5
 70
     0
 43
0.0
 10
-29.24490548834342
 20
13.99999999999954
 10
-25.00000000000046
 20
13.99999999999954
 10
-25.00000000000046
 20
28.99999999999955
 10
-0.0000000000002274
 20
28.99999999999955
 10
-0.0000000000002274
 20
33.22186965024275
  0
DIMENSION
  5
315
330
1A
100
AcDbEntity
  8
1
100
AcDbDimension
280
     0
  2
*D5
 10
-20.00000000000068
 20
-11.65260037644589
 30
0.0
 11
-6.532559314491436
 21
-8.152600376445889
 31
0.0
 70
   160
 71
     5
 42
-1.0
 73
     0
 74
     0
 75
     0
  3
OPO-SSTRICH
100
AcDbAlignedDimension
 13
0.0
 23
0.0
 33
0.0
 14
-20.00000000000068
 24
0.0000000000004547
 34
0.0
100
AcDbRotatedDimension
  0
DIMENSION
  5
316
330
1A
100
AcDbEntity
  8
1
100
AcDbDimension
280
     0
  2
*D6
 10
12.65989439923737
 20
25.0
 30
0.0
 11
9.872888942211446
 21
12.5
 31
0.0
 70
    32
 71
     5
 42
-1.0
 73
     0
 74
     0
 75
     0
  3
OPO-SSTRICH
100
AcDbAlignedDimension
 13
0.0
 23
0.0
 33
0.0
 14
0.0
 24
25.0
 34
0.0
 50
90.0
100
AcDbRotatedDimension
  0
LINE
  5
317
330
1A
100
AcDbEntity
  8
6
  6
MITTE
 48
0.5
100
AcDbLine
 10
-11.80000000000018
 20
25.7624501349826
 30
0.0
 11
-11.80000000000018
 21
-16.69430694209268
 31
0.0
  0
TEXT
  5
318
330
1A
100
AcDbEntity
  8
1
100
AcDbText
 10
-78.9030914010882
 20
7.765679340745009
 30
0.0
 40
2.5
  1
Hebgo 165/621
100
AcDbText
  0
LWPOLYLINE
  5
319
330
1A
100
AcDbEntity
  8
5
100
AcDbPolyline
 90
        3
 70
     0
 43
0.0
 10
-53.00000000000022
 20
-11.96316912996212
 10
-53.00000000000022
 20
0.0
 10
-107.420057147455
 20
-11.16044264222
  0
LWPOLYLINE
  5
31A
330
1A
100
AcDbEntity
  8
6
100
AcDbPolyline
 90
      198
 70
     1
 43
0.0
 10
-31.0
 20
0.5
 42
-0.4142135623730951
 10
-29.5
 20
2.0
 10
-25.0
 20
2.0
 42
0.4142135623730951
 10
-24.0
 20
3.0
 10
-24.0
 20
4.984267944224484
 42
0.4546727690147105
 10
-25.13571557243449
 20
5.97501578469587
 10
-93.63786319044129
 20
-3.408611206136811
 42
0.3709336552558493
 10
-97.69954876523115
 20
-8.0
 10
-100.0
 20
-8.0
 42
-0.142358815383233
 10
-98.93152648193883
 20
-4.242075289711237
 10
-99.08956003529807
 20
-2.771062174049347
 10
-97.59918000063976
 20
-2.682205139823054
 10
-97.31377966905824
 20
-1.222002592479839
 10
-95.86403260073144
 20
-1.572054387849675
 10
-95.1653932762465
 20
-0.2579836701604563
 10
-93.9454929793303
 20
-1.023516920788097
 10
-93.94241202244893
 20
-1.023096979109595
 10
-93.08662732039783
 20
0.1027949090109814
 10
-91.96073543227726
 20
-0.7529897930401149
 10
-91.10495073022638
 20
0.3729020950804625
 10
-89.97905884210604
 20
-0.4828826069706338
 10
-89.12327414005494
 20
0.6430092811499435
 10
-87.99738225193436
 20
-0.2127754209009254
 10
-87.14159754988349
 20
0.9131164672194245
 10
-86.01570566176292
 20
0.0573317651685557
 10
-85.15992095971204
 20
1.183223653289132
 10
-84.03402907159147
 20
0.3274389512380367
 10
-83.1782443695406
 20
1.453330839358613
 10
-82.05235248141979
 20
0.5975461373075177
 10
-81.19656777936915
 20
1.723438025428094
 10
-80.07067589124835
 20
0.8676533233772261
 10
-54.80429936656219
 20
4.31151994576362
 10
-53.94851466451155
 20
5.437411833884198
 10
-52.82262277639097
 20
4.581627131833329
 10
-51.9668380743401
 20
5.707519019953679
 10
-50.8409461862193
 20
4.85173431790281
 10
-49.98516148416843
 20
5.977626206023387
 10
-48.85926959604785
 20
5.121841503972291
 10
-48.00348489399699
 20
6.247733392092868
 10
-46.8775930058764
 20
5.391948690041772
 10
-44.89591641570496
 20
5.66205587611148
 10
-21.72856885513147
 20
8.763215520556059
 42
0.3748796585741096
 10
-20.0
 20
10.74471120149883
 10
-20.0
 20
12.5
 42
-0.4142135623730959
 10
-19.0
 20
13.5
 10
-18.80000000000018
 20
13.5
 42
-0.4142135623730951
 10
-18.5
 20
13.19999999999982
 10
-18.5
 20
11.79999999999995
 42
0.4142135623730951
 10
-18.20000000000027
 20
11.5
 10
-16.30000000000018
 20
11.5
 42
0.4142135623730951
 10
-16.0
 20
11.79999999999995
 10
-16.0
 20
23.19999999999982
 42
0.4142135623730951
 10
-16.30000000000018
 20
23.5
 10
-18.20000000000027
 20
23.5
 42
0.4142135623730951
 10
-18.5
 20
23.19999999999982
 10
-18.5
 20
21.79999999999996
 42
-0.4142135623730951
 10
-18.80000000000018
 20
21.5
 10
-19.0
 20
21.5
 42
-0.4142135623730951
 10
-20.0
 20
22.5
 10
-20.0
 20
24.69999999999982
 42
-0.4142135623730951
 10
-19.70000000000027
 20
25.0
 10
-12.80000000000018
 20
25.0
 10
-11.80000000000018
 20
24.0
 10
-10.80000000000018
 20
25.0
 10
-7.5
 20
25.0
 10
-6.5
 20
24.0
 10
-5.5
 20
25.0
 10
-4.5
 20
24.0
 10
-3.5
 20
25.0
 10
-2.5
 20
24.0
 10
-1.5
 20
25.0
 10
-0.3000000000001819
 20
25.0
 42
-0.4142135623730951
 10
0.0
 20
24.69999999999982
 10
0.0
 20
0.5
 10
0.0
 20
0.1999999999998181
 42
-0.4142135623730951
 10
-0.2000000000002728
 20
0.0
 10
-0.3000000000001819
 20
0.0
 42
-0.4142135623730951
 10
-0.5
 20
0.1999999999998181
 42
-0.4142135623730951
 10
-0.7000000000002729
 20
0.0
 10
-0.8000000000001818
 20
0.0
 42
-0.4142135623730951
 10
-1.0
 20
0.1999999999998181
 42
-0.4142135623730951
 10
-1.200000000000272
 20
0.0
 10
-1.300000000000181
 20
0.0
 42
-0.4142135623730951
 10
-1.5
 20
0.1999999999998181
 42
-0.4142135623730951
 10
-1.700000000000272
 20
0.0
 10
-1.800000000000181
 20
0.0
 42
-0.4142135623730951
 10
-2.0
 20
0.1999999999998181
 42
-0.4142135623730951
 10
-2.200000000000272
 20
0.0
 10
-2.300000000000181
 20
0.0
 42
-0.4142135623730898
 10
-2.5
 20
0.1999999999998181
 42
-0.4142135623730951
 10
-2.700000000000272
 20
0.0
 10
-2.800000000000181
 20
0.0
 42
-0.4142135623730951
 10
-3.0
 20
0.1999999999998181
 42
-0.4142135623730951
 10
-3.200000000000272
 20
0.0
 10
-3.300000000000181
 20
0.0
 42
-0.4142135623730951
 10
-3.5
 20
0.1999999999998181
 42
-0.4142135623730951
 10
-3.700000000000272
 20
0.0
 10
-3.800000000000181
 20
0.0
 42
-0.4142135623730951
 10
-4.0
 20
0.1999999999998181
 42
-0.4142135623730951
 10
-4.200000000000272
 20
0.0
 10
-4.300000000000181
 20
0.0
 42
-0.4142135623730951
 10
-4.5
 20
0.1999999999998181
 42
-0.4142135623730951
 10
-4.700000000000272
 20
0.0
 10
-4.800000000000181
 20
0.0
 42
-0.4142135623730951
 10
-5.0
 20
0.1999999999998181
 42
-0.4142135623730951
 10
-5.200000000000272
 20
0.0
 10
-5.300000000000181
 20
0.0
 42
-0.4142135623730951
 10
-5.5
 20
0.1999999999998181
 42
-0.4142135623730951
 10
-5.700000000000272
 20
0.0
 10
-5.800000000000181
 20
0.0
 42
-0.4142135623730951
 10
-6.0
 20
0.1999999999998181
 42
-0.4142135623730951
 10
-6.200000000000272
 20
0.0
 10
-6.300000000000181
 20
0.0
 42
-0.4142135623730951
 10
-6.5
 20
0.1999999999998181
 42
-0.4142135623730951
 10
-6.700000000000272
 20
0.0
 10
-6.800000000000181
 20
0.0
 42
-0.4142135623730951
 10
-7.0
 20
0.1999999999998181
 42
-0.4142135623730951
 10
-7.200000000000272
 20
0.0
 10
-7.300000000000181
 20
0.0
 42
-0.4142135623730951
 10
-7.5
 20
0.1999999999998181
 42
-0.4142135623730951
 10
-7.700000000000272
 20
0.0
 10
-7.800000000000181
 20
0.0
 42
-0.4142135623730951
 10
-8.0
 20
0.1999999999998181
 42
-0.4142135623730951
 10
-8.200000000000272
 20
0.0
 10
-8.300000000000181
 20
0.0
 42
-0.4142135623730951
 10
-8.5
 20
0.1999999999998181
 42
-0.4142135623730951
 10
-8.700000000000272
 20
0.0
 10
-8.800000000000181
 20
0.0
 42
-0.4142135623730951
 10
-9.0
 20
0.2000000000000455
 10
-9.0
 20
0.5
 42
-0.4142135623730951
 10
-7.5
 20
2.0
 10
-2.300000000000181
 20
2.0
 42
0.4142135623730951
 10
-2.0
 20
2.299999999999954
 10
-2.0
 20
20.5
 42
0.4142135623730951
 10
-3.0
 20
21.5
 10
-13.0
 20
21.5
 42
0.4142135623730953
 10
-14.0
 20
20.5
 10
-14.0
 20
11.5
 42
-0.4142135623730951
 10
-16.0
 20
9.5
 10
-17.66200143477817
 20
9.5
 10
-21.26776695296667
 20
5.894234481811508
 42
0.1989123673796584
 10
-22.0
 20
4.126467528845068
 10
-22.0
 20
0.5
 10
-22.0
 20
0.1999999999998181
 42
-0.4142135623730951
 10
-22.20000000000027
 20
0.0
 10
-22.30000000000018
 20
0.0
 42
-0.4142135623730951
 10
-22.5
 20
0.1999999999998181
 42
-0.4142135623730951
 10
-22.70000000000027
 20
0.0
 10
-22.80000000000018
 20
0.0
 42
-0.4142135623730951
 10
-23.0
 20
0.1999999999998181
 42
-0.4142135623730951
 10
-23.20000000000027
 20
0.0
 10
-23.30000000000018
 20
0.0
 42
-0.4142135623730951
 10
-23.5
 20
0.1999999999998181
 42
-0.4142135623730951
 10
-23.70000000000027
 20
0.0
 10
-23.80000000000018
 20
0.0
 42
-0.4142135623730951
 10
-24.0
 20
0.1999999999998181
 42
-0.4142135623730951
 10
-24.20000000000027
 20
0.0
 10
-24.30000000000018
 20
0.0
 42
-0.4142135623730898
 10
-24.5
 20
0.1999999999998181
 42
-0.4142135623730951
 10
-24.70000000000027
 20
0.0
 10
-24.80000000000018
 20
0.0
 42
-0.4142135623730951
 10
-25.0
 20
0.1999999999998181
 42
-0.4142135623730951
 10
-25.20000000000027
 20
0.0
 10
-25.30000000000018
 20
0.0
 42
-0.4142135623730951
 10
-25.5
 20
0.1999999999998181
 42
-0.4142135623730951
 10
-25.70000000000027
 20
0.0
 10
-25.80000000000018
 20
0.0
 42
-0.4142135623730951
 10
-26.0
 20
0.1999999999998181
 42
-0.4142135623730951
 10
-26.20000000000028
 20
0.0
 10
-26.30000000000018
 20
0.0
 42
-0.4142135623730951
 10
-26.5
 20
0.1999999999998181
 42
-0.4142135623730951
 10
-26.70000000000027
 20
0.0
 10
-26.80000000000018
 20
0.0
 42
-0.4142135623730951
 10
-27.0
 20
0.1999999999998181
 42
-0.4142135623730951
 10
-27.20000000000027
 20
0.0
 10
-27.30000000000018
 20
0.0
 42
-0.4142135623730951
 10
-27.5
 20
0.1999999999998181
 42
-0.4142135623730951
 10
-27.70000000000027
 20
0.0
 10
-27.80000000000018
 20
0.0
 42
-0.4142135623730951
 10
-28.0
 20
0.1999999999998181
 42
-0.4142135623730951
 10
-28.20000000000027
 20
0.0
 10
-28.30000000000018
 20
0.0
 42
-0.4142135623730951
 10
-28.5
 20
0.1999999999998181
 42
-0.4142135623730951
 10
-28.70000000000027
 20
0.0
 10
-28.80000000000018
 20
0.0
 42
-0.4142135623730951
 10
-29.0
 20
0.1999999999998181
 42
-0.4142135623730951
 10
-29.20000000000027
 20
0.0
 10
-29.30000000000018
 20
0.0
 42
-0.4142135623730951
 10
-29.5
 20
0.1999999999998181
 42
-0.4142135623730951
 10
-29.70000000000027
 20
0.0
 10
-29.80000000000018
 20
0.0
 42
-0.4142135623730951
 10
-30.0
 20
0.1999999999998181
 42
-0.4142135623730951
 10
-30.20000000000027
 20
0.0
 10
-30.30000000000018
 20
0.0
 42
-0.4142135623730951
 10
-30.5
 20
0.1999999999998181
 42
-0.4142135623730951
 10
-30.70000000000027
 20
0.0
 10
-30.80000000000018
 20
0.0
 42
-0.4142135623730951
 10
-31.0
 20
0.2000000000000455
  0
LWPOLYLINE
  5
31B
330
1A
100
AcDbEntity
  8
4
100
AcDbPolyline
 90
        9
 70
     0
 43
0.0
 10
-97.69954876523115
 20
-8.0
 10
-100.0000000000004
 20
-8.0
 10
-100.0000000000004
 20
-1.834907631615124
 10
-20.00000000000046
 20
8.97053417277425
 10
-20.0
 20
25.0
 10
0.0
 20
25.0
 10
0.0
 20
0.0
 10
-31.0
 20
0.0
 10
-31.0
 20
2.0
  0
LWPOLYLINE
  5
31C
330
1A
100
AcDbEntity
  8
5
100
AcDbPolyline
 90
        4
 70
     0
 43
0.0
 10
0.0
 20
-11.98615426501942
 10
0.0
 20
0.0
 10
-48.00000000000022
 20
0.0
 10
-48.00000000000022
 20
-11.98615426501942
  0
LWPOLYLINE
  5
600
330
1A
100
AcDbEntity
  8
6
100
AcDbPolyline
 90
       30
 70
     1
 43
0.0
 10
-20.20000000000004
 20
12.95000000000001
 42
0.4627808097529079
 10
-19.96755806842774
 20
12.7526487368273
 42
-0.3412347287378429
 10
-19.00000000000002
 20
13.5
 10
-18.79999999999998
 20
13.5
 42
-0.0350196443704044
 10
-18.75813072132181
 20
13.49706390474603
 42
-0.0388555466058958
 10
-18.44564795164116
 20
13.43704808921739
 42
-0.3378872143451199
 10
-18.35000000000004
 20
13.31166891720884
 10
-18.35000000000004
 20
12.75
 42
0.5371987965797321
 10
-18.00240336123573
 20
12.51983723997591
 10
-16.30480672247143
 20
13.23967447995181
 42
0.6060732406799968
 10
-16.23396282991255
 20
14.12334882086979
 10
-18.03207434017502
 20
15.25330235826042
 42
-0.2579393601769359
 10
-18.50000000000004
 20
16.1
 10
-18.50000000000004
 20
17.85
 42
-0.1873225999327995
 10
-18.23799214032268
 20
18.52480930700608
 10
-16.05240157193551
 20
20.91503813859878
 42
0.1873225999327991
 10
-16.00000000000004
 20
21.04999999999999
 10
-16.00000000000003
 20
21.7
 42
0.2172946551905375
 10
-16.17222045777458
 20
22.07757194241426
 10
-17.97962282431142
 20
23.45900661494772
 42
0.4142135623730905
 10
-18.25997531196628
 20
23.4215568797586
 10
-18.45594200345945
 20
23.16516353086604
 42
0.3794220145110141
 10
-18.43667404870604
 20
22.90052492908996
 10
-17.7286556806152
 20
22.21008037762402
 42
-0.4583820366074629
 10
-17.74732256448359
 20
21.90762193357632
 42
-0.1351830566088762
 10
-18.75813072132207
 20
21.50293609525394
 42
-0.0350196443701829
 10
-18.79999999999997
 20
21.5
 10
-19.00000000000002
 20
21.5
 42
-0.3412347287378419
 10
-19.96755806842774
 20
22.2473512631727
 42
0.4627808097529062
 10
-20.20000000000004
 20
22.05
  0
VIEWPORT
  5
22
330
17
100
AcDbEntity
 67
     1
  8
0
100
AcDbViewport
 10
210.0
 20
170.2366863905325
 30
0.0
 40
420.0
 41
340.4733727810651
 68
     1
 69
     1
 12
210.0
 22
170.2366863905325
 13
0.0
 23
0.0
 14
5.0
 24
5.0
 15
10.0
 25
10.0
 16
0.0
 26
0.0
 36
1.0
 17
0.0
 27
0.0
 37
0.0
 42
50.0
 43
0.0
 44
0.0
 45
340.4733727810651
 50
0.0
 51
0.0
 72
   100
 90
    32800
  1

281
     0
 71
     1
 74
     0
110
0.0
120
0.0
130
0.0
111
1.0
121
0.0
131
0.0
112
0.0
122
1.0
132
0.0
 79
     0
146
0.0
170
     0
 61
     5
348
589
292
     1
282
     1
141
0.0
142
0.0
 63
   250
421
  3355443
  0
ENDSEC
  0
SECTION
  2
OBJECTS
  0
DICTIONARY
  5
C
330
0
100
AcDbDictionary
281
     1
  3
ACAD_CIP_PREVIOUS_PRODUCT_INFO
350
5BA
  3
ACAD_COLOR
350
59C
  3
ACAD_DETAILVIEWSTYLE
350
5B5
  3
ACAD_GROUP
350
D
  3
ACAD_LAYOUT
350
F4
  3
ACAD_MATERIAL
350
56A
  3
ACAD_MLEADERSTYLE
350
5B1
  3
ACAD_MLINESTYLE
350
E
  3
ACAD_PLOTSETTINGS
350
F5
  3
ACAD_PLOTSTYLENAME
350
F2
  3
ACAD_RENDER_ACTIVE_RAPIDRT_SETTINGS
350
5C4
  3
ACAD_RENDER_ACTIVE_SETTINGS
350
618
  3
ACAD_RENDER_RAPIDRT_SETTINGS
350
5BD
  3
ACAD_SCALELIST
350
59F
  3
ACAD_SECTIONVIEWSTYLE
350
5B3
  3
ACAD_TABLESTYLE
350
59D
  3
ACAD_VISUALSTYLE
350
583
  3
ACDB_RECOMPOSE_DATA
350
613
  3
AcDbVariableDictionary
350
136
  3
AEC_PROPERTY_SET_DEFS
350
5FC
  3
CADTH-VpDef13
350
601
  0
DICTIONARY
  5
1F6
330
1A
100
AcDbDictionary
280
     1
281
     1
  3
ACAD_LAYOUTSELFREF
360
55E
  0
DICTIONARY
  5
1F4
330
17
100
AcDbDictionary
280
     1
281
     1
  3
ACAD_LAYOUTSELFREF
360
55D
  0
XRECORD
  5
5BA
102
{ACAD_REACTORS
330
C
102
}
330
C
100
AcDbXrecord
280
     1
300
AOEM
300
2021
300

  0
DICTIONARY
  5
59C
102
{ACAD_REACTORS
330
C
102
}
330
C
100
AcDbDictionary
281
     1
  0
DICTIONARY
  5
5B5
102
{ACAD_REACTORS
330
C
102
}
330
C
100
AcDbDictionary
281
     1
  3
Metric50
350
5B6
  0
DICTIONARY
  5
D
102
{ACAD_REACTORS
330
C
102
}
330
C
100
AcDbDictionary
281
     1
  0
DICTIONARY
  5
F4
102
{ACAD_REACTORS
330
C
102
}
330
C
100
AcDbDictionary
281
     1
  3
Layout1
350
F7
  3
Model
350
F6
  0
DICTIONARY
  5
56A
102
{ACAD_REACTORS
330
C
102
}
330
C
100
AcDbDictionary
281
     1
  3
ByBlock
350
573
  3
ByLayer
350
56B
  3
Global
350
57B
  0
DICTIONARY
  5
5B1
102
{ACAD_REACTORS
330
C
102
}
330
C
100
AcDbDictionary
281
     1
  3
Standard
350
5B2
  0
DICTIONARY
  5
E
102
{ACAD_REACTORS
330
C
102
}
330
C
100
AcDbDictionary
281
     1
  3
STANDARD
350
13
  0
DICTIONARY
  5
F5
102
{ACAD_REACTORS
330
C
102
}
330
C
100
AcDbDictionary
281
     1
  3
e Plot 1zu1
350
25C
  3
e Plot angepasst
350
25D
  3
Laser A4
350
25E
  0
ACDBDICTIONARYWDFLT
  5
F2
102
{ACAD_REACTORS
330
C
102
}
330
C
100
AcDbDictionary
281
     1
  3
Normal
350
F3
100
AcDbDictionaryWithDefault
340
F3
  0
RAPIDRTRENDERSETTINGS
  5
5C4
102
{ACAD_REACTORS
330
C
102
}
330
C
100
AcDbRenderSettings
 90
        2
  1
Mittel
290
     1
290
     0
290
     1
290
     1
  1

  1
Wendet 5 Render-Ebenen an
 90
        0
100
AcDbRapidRTRenderSettings
 90
        3
 70
     0
 90
        5
 90
        1
 70
     1
 70
     2
 40
3.0
 40
3.0
290
     1
  0
MENTALRAYRENDERSETTINGS
  5
618
102
{ACAD_XDICTIONARY
360
619
102
}
102
{ACAD_REACTORS
330
C
102
}
330
C
100
AcDbRenderSettings
 90
        2
  1
Mittel
290
     1
290
     1
290
     1
290
     1
  1

  1

 90
        0
100
AcDbMentalRayRenderSettings
 90
        2
 90
        0
 90
        1
 70
     2
 40
3.0
 40
3.0
 40
0.0500000007450581
 40
0.0500000007450581
 40
0.0500000007450581
 40
0.0500000007450581
 70
     0
290
     0
290
     1
 90
        5
 90
        5
 90
        5
290
     0
 90
      500
290
     0
 40
1.0
 90
    10000
 90
        5
 90
        5
 90
        5
290
     0
 90
      200
290
     0
290
     0
290
     0
 40
1.0
 40
1.0
 40
1500.0
 70
     0
 70
     0
 40
10.0
 70
     0
 70
     0
290
     0
  1

 90
       32
 70
     0
 90
     1048
290
     0
 40
1.0
  0
DICTIONARY
  5
5BD
102
{ACAD_REACTORS
330
C
102
}
330
C
100
AcDbDictionary
281
     1
  3
Hoch
350
5C0
  3
Mittagsqualität
350
5C2
  3
Mittel
350
5BF
  3
Morgenqualität
350
5C1
  3
Nachtqualität
350
5C3
  3
Niedrig
350
5BE
  0
DICTIONARY
  5
59F
102
{ACAD_REACTORS
330
C
102
}
330
C
100
AcDbDictionary
281
     1
  3
A0
350
5A0
  3
A1
350
5A1
  3
A2
350
5A2
  3
A3
350
5A3
  3
A4
350
5A4
  3
A5
350
5A5
  3
A6
350
5A6
  3
A7
350
5A7
  3
A8
350
5A8
  3
A9
350
5A9
  3
B0
350
5AA
  3
B1
350
5AB
  3
B2
350
5AC
  3
B3
350
5AD
  3
B4
350
5AE
  3
B5
350
5AF
  3
B6
350
5B0
  0
DICTIONARY
  5
5B3
102
{ACAD_REACTORS
330
C
102
}
330
C
100
AcDbDictionary
281
     1
  3
Metric50
350
5B4
  0
DICTIONARY
  5
59D
102
{ACAD_REACTORS
330
C
102
}
330
C
100
AcDbDictionary
281
     1
  3
Standard
350
59E
  0
DICTIONARY
  5
583
102
{ACAD_REACTORS
330
C
102
}
330
C
100
AcDbDictionary
281
     1
  3
2dWireframe
350
589
  3
Basic
350
588
  3
Brighten
350
58F
  3
ColorChange
350
593
  3
Conceptual
350
58C
  3
Dim
350
58E
  3
EdgeColorOff
350
59B
  3
Facepattern
350
592
  3
Flat
350
584
  3
FlatWithEdges
350
585
  3
Gouraud
350
586
  3
GouraudWithEdges
350
587
  3
Hidden
350
58B
  3
JitterOff
350
599
  3
Linepattern
350
591
  3
OverhangOff
350
59A
  3
Realistic
350
58D
  3
Shaded
350
598
  3
Shaded with edges
350
597
  3
Shades of Gray
350
594
  3
Sketchy
350
595
  3
Thicken
350
590
  3
Wireframe
350
58A
  3
X-Ray
350
596
  0
XRECORD
  5
613
102
{ACAD_REACTORS
330
C
102
}
330
C
100
AcDbXrecord
280
     1
 90
        1
330
59E
  0
DICTIONARY
  5
136
102
{ACAD_REACTORS
330
C
102
}
330
C
100
AcDbDictionary
281
     1
  3
CANNOSCALE
350
60D
  3
CMLEADERSTYLE
350
609
  3
CTABLESTYLE
350
608
  3
CVIEWDETAILSTYLE
350
60A
  3
CVIEWSECTIONSTYLE
350
60B
  3
LAYEREVAL
350
60F
  3
LAYERNOTIFY
350
610
  3
LIGHTINGUNITS
350
60E
  3
MSLTSCALE
350
60C
  3
SORTENTS
350
137
  0
DICTIONARY
  5
5FC
102
{ACAD_REACTORS
330
C
102
}
330
C
100
AcDbDictionary
281
     1
  0
DICTIONARY
  5
601
102
{ACAD_REACTORS
330
C
102
}
330
C
100
AcDbDictionary
281
     1
  3
MODEL
350
602
  3
PBEREICH
350
603
  0
XRECORD
  5
55E
102
{ACAD_REACTORS
330
1F6
102
}
330
1F6
100
AcDbXrecord
280
     1
340
1A
  0
XRECORD
  5
55D
102
{ACAD_REACTORS
330
1F4
102
}
330
1F4
100
AcDbXrecord
280
     1
340
17
  0
ACDBDETAILVIEWSTYLE
  5
5B6
102
{ACAD_XDICTIONARY
360
616
102
}
102
{ACAD_REACTORS
330
5B5
102
}
330
5B5
100
AcDbModelDocViewStyle
 70
     0
  3
Metric50
290
     0
100
AcDbDetailViewStyle
 70
     0
 71
     0
 90
        3
 71
     1
340
10
 62
   256
 40
5.0
340
0
 62
   256
 40
5.0
300

 40
0.0
280
     1
 71
     2
340
16
 90
       25
 62
   256
 71
     3
340
10
 62
   256
 40
5.0
 90
        0
 40
15.0
 90
        1
300
%<\AcVar ViewDetailId>% (%<\AcVar ViewScale \f "%sn">%)
 71
     4
340
16
 90
       25
 62
   256
340
16
 90
       25
 62
   256
280
     0
  0
LAYOUT
  5
F7
102
{ACAD_REACTORS
330
F4
102
}
330
F4
100
AcDbPlotSettings
  1

  2
D:\AC2000\ACAD2000\plotters\DesignJet 650C test A3.pc3
  4

  6

 40
0.0
 41
0.0
 42
0.0
 43
0.0
 44
0.0
 45
0.0
 46
0.0
 47
0.0
 48
0.0
 49
0.0
140
0.0
141
0.0
142
1.0
143
1.0
 70
   688
 72
     0
 73
     0
 74
     5
  7
Hebgo JPG.ctb
 75
    16
147
1.0
 76
     0
 77
     2
 78
   300
148
0.0
149
0.0
100
AcDbLayout
  1
Layout1
 70
     1
 71
     1
 10
0.0
 20
0.0
 11
420.0
 21
297.0
 12
0.0
 22
0.0
 32
0.0
 14
1.000000000000000E+20
 24
1.000000000000000E+20
 34
1.000000000000000E+20
 15
-1.000000000000000E+20
 25
-1.000000000000000E+20
 35
-1.000000000000000E+20
146
0.0
 13
0.0
 23
0.0
 33
0.0
 16
1.0
 26
0.0
 36
0.0
 17
0.0
 27
1.0
 37
0.0
 76
     0
330
17
331
22
  0
LAYOUT
  5
F6
102
{ACAD_REACTORS
330
F4
102
}
330
F4
100
AcDbPlotSettings
  1

  2
PublishToWeb JPG.pc3
  4
VGA_(640.00_x_480.00_Pixels)
  6

 40
0.0
 41
0.0
 42
1.0
 43
1.0
 44
640.0
 45
480.0
 46
0.0
 47
107.74
 48
0.0
 49
0.0
140
0.0
141
0.0
142
1.0
143
0.1895170253306194
 70
 28340
 72
     2
 73
     0
 74
     1
  7
Hebgo JPG.ctb
 75
     0
147
5.27657078964522
 76
     0
 77
     2
 78
   300
148
107.4371330410208
149
16.70837316977361
100
AcDbLayout
  1
Model
 70
     1
 71
     0
 10
0.0
 20
0.0
 11
12.0
 21
9.0
 12
0.0
 22
0.0
 32
0.0
 14
0.0
 24
0.0
 34
0.0
 15
0.0
 25
0.0
 35
0.0
146
0.0
 13
0.0
 23
0.0
 33
0.0
 16
1.0
 26
0.0
 36
0.0
 17
0.0
 27
1.0
 37
0.0
 76
     0
330
1A
331
52F
  0
MATERIAL
  5
573
102
{ACAD_XDICTIONARY
360
574
102
}
102
{ACAD_REACTORS
330
56A
102
}
330
56A
100
AcDbMaterial
  1
ByBlock
 72
     0
 43
0.0208333333333333
 43
0.0
 43
0.0
 43
0.0
 43
0.0
 43
0.0208333333333333
 43
0.0
 43
0.0
 43
0.0
 43
0.0
 43
1.0
 43
0.0
 43
0.0
 43
0.0
 43
0.0
 43
1.0
 77
     0
 47
0.0208333333333333
 47
0.0
 47
0.0
 47
0.0
 47
0.0
 47
0.0208333333333333
 47
0.0
 47
0.0
 47
0.0
 47
0.0
 47
1.0
 47
0.0
 47
0.0
 47
0.0
 47
0.0
 47
1.0
171
     0
 49
0.0208333333333333
 49
0.0
 49
0.0
 49
0.0
 49
0.0
 49
0.0208333333333333
 49
0.0
 49
0.0
 49
0.0
 49
0.0
 49
1.0
 49
0.0
 49
0.0
 49
0.0
 49
0.0
 49
1.0
175
     0
142
0.0208333333333333
142
0.0
142
0.0
142
0.0
142
0.0
142
0.0208333333333333
142
0.0
142
0.0
142
0.0
142
0.0
142
1.0
142
0.0
142
0.0
142
0.0
142
0.0
142
1.0
179
     0
144
0.0208333333333333
144
0.0
144
0.0
144
0.0
144
0.0
144
0.0208333333333333
144
0.0
144
0.0
144
0.0
144
0.0
144
1.0
144
0.0
144
0.0
144
0.0
144
0.0
144
1.0
147
0.0208333333333333
147
0.0
147
0.0
147
0.0
147
0.0
147
0.0208333333333333
147
0.0
147
0.0
147
0.0
147
0.0
147
1.0
147
0.0
147
0.0
147
0.0
147
0.0
147
1.0
  0
MATERIAL
  5
56B
102
{ACAD_XDICTIONARY
360
56C
102
}
102
{ACAD_REACTORS
330
56A
102
}
330
56A
100
AcDbMaterial
  1
ByLayer
 72
     0
 43
0.0208333333333333
 43
0.0
 43
0.0
 43
0.0
 43
0.0
 43
0.0208333333333333
 43
0.0
 43
0.0
 43
0.0
 43
0.0
 43
1.0
 43
0.0
 43
0.0
 43
0.0
 43
0.0
 43
1.0
 77
     0
 47
0.0208333333333333
 47
0.0
 47
0.0
 47
0.0
 47
0.0
 47
0.0208333333333333
 47
0.0
 47
0.0
 47
0.0
 47
0.0
 47
1.0
 47
0.0
 47
0.0
 47
0.0
 47
0.0
 47
1.0
171
     0
 49
0.0208333333333333
 49
0.0
 49
0.0
 49
0.0
 49
0.0
 49
0.0208333333333333
 49
0.0
 49
0.0
 49
0.0
 49
0.0
 49
1.0
 49
0.0
 49
0.0
 49
0.0
 49
0.0
 49
1.0
175
     0
142
0.0208333333333333
142
0.0
142
0.0
142
0.0
142
0.0
142
0.0208333333333333
142
0.0
142
0.0
142
0.0
142
0.0
142
1.0
142
0.0
142
0.0
142
0.0
142
0.0
142
1.0
179
     0
144
0.0208333333333333
144
0.0
144
0.0
144
0.0
144
0.0
144
0.0208333333333333
144
0.0
144
0.0
144
0.0
144
0.0
144
1.0
144
0.0
144
0.0
144
0.0
144
0.0
144
1.0
147
0.0208333333333333
147
0.0
147
0.0
147
0.0
147
0.0
147
0.0208333333333333
147
0.0
147
0.0
147
0.0
147
0.0
147
1.0
147
0.0
147
0.0
147
0.0
147
0.0
147
1.0
  0
MATERIAL
  5
57B
102
{ACAD_XDICTIONARY
360
57C
102
}
102
{ACAD_REACTORS
330
56A
102
}
330
56A
100
AcDbMaterial
  1
Global
 72
     0
 43
0.0208333333333333
 43
0.0
 43
0.0
 43
0.0
 43
0.0
 43
0.0208333333333333
 43
0.0
 43
0.0
 43
0.0
 43
0.0
 43
1.0
 43
0.0
 43
0.0
 43
0.0
 43
0.0
 43
1.0
 77
     0
 47
0.0208333333333333
 47
0.0
 47
0.0
 47
0.0
 47
0.0
 47
0.0208333333333333
 47
0.0
 47
0.0
 47
0.0
 47
0.0
 47
1.0
 47
0.0
 47
0.0
 47
0.0
 47
0.0
 47
1.0
171
     0
 49
0.0208333333333333
 49
0.0
 49
0.0
 49
0.0
 49
0.0
 49
0.0208333333333333
 49
0.0
 49
0.0
 49
0.0
 49
0.0
 49
1.0
 49
0.0
 49
0.0
 49
0.0
 49
0.0
 49
1.0
175
     0
142
0.0208333333333333
142
0.0
142
0.0
142
0.0
142
0.0
142
0.0208333333333333
142
0.0
142
0.0
142
0.0
142
0.0
142
1.0
142
0.0
142
0.0
142
0.0
142
0.0
142
1.0
179
     0
144
0.0208333333333333
144
0.0
144
0.0
144
0.0
144
0.0
144
0.0208333333333333
144
0.0
144
0.0
144
0.0
144
0.0
144
1.0
144
0.0
144
0.0
144
0.0
144
0.0
144
1.0
147
0.0208333333333333
147
0.0
147
0.0
147
0.0
147
0.0
147
0.0208333333333333
147
0.0
147
0.0
147
0.0
147
0.0
147
1.0
147
0.0
147
0.0
147
0.0
147
0.0
147
1.0
  0
MLEADERSTYLE
  5
5B2
102
{ACAD_REACTORS
330
5B1
102
}
330
5B1
100
AcDbMLeaderStyle
179
     2
170
     2
171
     1
172
     0
 90
        2
 40
0.0
 41
0.0
173
     1
 91
-1056964608
340
14
 92
       -2
290
     1
 42
2.0
291
     1
 43
0.36
  3
Standard
 44
4.0
300

342
10
174
     1
178
     6
175
     1
176
     0
 93
-1056964608
 45
4.0
292
     0
297
     0
 46
4.0
 94
-1056964608
 47
1.0
 49
1.0
140
1.0
293
     1
141
0.0
294
     1
177
     0
142
1.0
295
     0
296
     0
143
0.125
271
     0
272
     9
273
     9
298
     1
  0
MLINESTYLE
  5
13
102
{ACAD_REACTORS
330
E
102
}
330
E
100
AcDbMlineStyle
  2
STANDARD
 70
     0
  3

 62
     0
 51
90.0
 52
90.0
 71
     2
 49
0.5
 62
   256
  6
BYLAYER
 49
-0.5
 62
   256
  6
BYLAYER
  0
PLOTSETTINGS
  5
25C
102
{ACAD_REACTORS
330
F5
102
}
330
F5
100
AcDbPlotSettings
  1
e Plot 1zu1
  2
DWF ePlot.pc3
  4
UserDefinedMetric (210.00 x 297.00MM)
  6

 40
13.0
 41
13.0
 42
13.0
 43
13.0
 44
210.0
 45
297.0
 46
58.27
 47
107.7
 48
0.0
 49
0.0
140
0.0
141
0.0
142
1.0
143
1.0
 70
  1716
 72
     1
 73
     0
 74
     1
  7
OPO_DWF.ctb
 75
    16
147
1.0
 76
     0
 77
     2
 78
   300
148
17.16613684218157
149
24.55902015156926
  0
PLOTSETTINGS
  5
25D
102
{ACAD_REACTORS
330
F5
102
}
330
F5
100
AcDbPlotSettings
  1
e Plot angepasst
  2
DWF ePlot.pc3
  4
UserDefinedMetric (210.00 x 297.00MM)
  6

 40
13.0
 41
13.0
 42
13.0
 43
13.0
 44
210.0
 45
297.0
 46
0.0
 47
59.67
 48
0.0
 49
0.0
140
0.0
141
0.0
142
1.0
143
0.3665841129351039
 70
  1716
 72
     1
 73
     0
 74
     1
  7
OPO_DWF.ctb
 75
     0
147
2.727886901571834
 76
     0
 77
     2
 78
   300
148
17.16613684218157
149
24.55902015156926
  0
PLOTSETTINGS
  5
25E
102
{ACAD_REACTORS
330
F5
102
}
330
F5
100
AcDbPlotSettings
  1
Laser A4
  2
4 Xerox XL.pc3
  4
A4
  6

 40
5.111750125885009
 41
5.11176061630249
 42
5.111740112304687
 43
5.11175537109375
 44
209.9733276367187
 45
296.9259948730469
 46
0.0
 47
43.47999999999999
 48
0.0
 49
0.0
140
0.0
141
0.0
142
1.0
143
0.020166824766453
 70
  1716
 72
     1
 73
     0
 74
     1
  7
OPO.ctb
 75
     0
147
49.58638811913882
 76
     0
 77
     2
 78
   300
148
2.014159285479877
149
2.014159285479877
  0
ACDBPLACEHOLDER
  5
F3
102
{ACAD_REACTORS
330
F2
102
}
330
F2
  0
DICTIONARY
  5
619
330
618
100
AcDbDictionary
280
     1
281
     1
  3
ACAD_XREC_ROUNDTRIP
360
61B
  3
ADSK_XREC_MENTALRAYSETTINGSINFO
360
61A
  0
RAPIDRTRENDERSETTINGS
  5
5C0
102
{ACAD_REACTORS
330
5BD
102
}
330
5BD
100
AcDbRenderSettings
 90
        2
  1
Hoch
290
     1
290
     0
290
     1
290
     1
  1

  1
Wendet 10 Render-Ebenen an
 90
        2
100
AcDbRapidRTRenderSettings
 90
        3
 70
     0
 90
       10
 90
        1
 70
     2
 70
     2
 40
3.0
 40
3.0
290
     1
  0
RAPIDRTRENDERSETTINGS
  5
5C2
102
{ACAD_REACTORS
330
5BD
102
}
330
5BD
100
AcDbRenderSettings
 90
        2
  1
Mittagsqualität
290
     1
290
     0
290
     1
290
     1
  1

  1
Rendert für 60 Minuten
 90
        4
100
AcDbRapidRTRenderSettings
 90
        3
 70
     1
 90
        1
 90
       60
 70
     2
 70
     2
 40
3.0
 40
3.0
290
     1
  0
RAPIDRTRENDERSETTINGS
  5
5BF
102
{ACAD_REACTORS
330
5BD
102
}
330
5BD
100
AcDbRenderSettings
 90
        2
  1
Mittel
290
     1
290
     0
290
     1
290
     1
  1

  1
Wendet 5 Render-Ebenen an
 90
        1
100
AcDbRapidRTRenderSettings
 90
        3
 70
     0
 90
        5
 90
        1
 70
     1
 70
     2
 40
3.0
 40
3.0
290
     1
  0
RAPIDRTRENDERSETTINGS
  5
5C1
102
{ACAD_REACTORS
330
5BD
102
}
330
5BD
100
AcDbRenderSettings
 90
        2
  1
Morgenqualität
290
     1
290
     0
290
     1
290
     1
  1

  1
Rendert für 10 Minuten
 90
        3
100
AcDbRapidRTRenderSettings
 90
        3
 70
     1
 90
        1
 90
       10
 70
     1
 70
     2
 40
3.0
 40
3.0
290
     1
  0
RAPIDRTRENDERSETTINGS
  5
5C3
102
{ACAD_REACTORS
330
5BD
102
}
330
5BD
100
AcDbRenderSettings
 90
        2
  1
Nachtqualität
290
     1
290
     0
290
     1
290
     1
  1

  1
Rendert für 12 Stunden
 90
        5
100
AcDbRapidRTRenderSettings
 90
        3
 70
     1
 90
        1
 90
      720
 70
     2
 70
     2
 40
3.0
 40
3.0
290
     1
  0
RAPIDRTRENDERSETTINGS
  5
5BE
102
{ACAD_REACTORS
330
5BD
102
}
330
5BD
100
AcDbRenderSettings
 90
        2
  1
Niedrig
290
     1
290
     0
290
     1
290
     1
  1

  1
Wendet 1 Render-Ebene an
 90
        0
100
AcDbRapidRTRenderSettings
 90
        3
 70
     0
 90
        1
 90
        1
 70
     0
 70
     2
 40
3.0
 40
3.0
290
     1
  0
SCALE
  5
5A0
102
{ACAD_REACTORS
330
59F
102
}
330
59F
100
AcDbScale
 70
     0
300
1:1
140
1.0
141
1.0
290
     1
  0
SCALE
  5
5A1
102
{ACAD_REACTORS
330
59F
102
}
330
59F
100
AcDbScale
 70
     0
300
1:2
140
1.0
141
2.0
290
     0
  0
SCALE
  5
5A2
102
{ACAD_REACTORS
330
59F
102
}
330
59F
100
AcDbScale
 70
     0
300
1:4
140
1.0
141
4.0
290
     0
  0
SCALE
  5
5A3
102
{ACAD_REACTORS
330
59F
102
}
330
59F
100
AcDbScale
 70
     0
300
1:5
140
1.0
141
5.0
290
     0
  0
SCALE
  5
5A4
102
{ACAD_REACTORS
330
59F
102
}
330
59F
100
AcDbScale
 70
     0
300
1:8
140
1.0
141
8.0
290
     0
  0
SCALE
  5
5A5
102
{ACAD_REACTORS
330
59F
102
}
330
59F
100
AcDbScale
 70
     0
300
1:10
140
1.0
141
10.0
290
     0
  0
SCALE
  5
5A6
102
{ACAD_REACTORS
330
59F
102
}
330
59F
100
AcDbScale
 70
     0
300
1:16
140
1.0
141
16.0
290
     0
  0
SCALE
  5
5A7
102
{ACAD_REACTORS
330
59F
102
}
330
59F
100
AcDbScale
 70
     0
300
1:20
140
1.0
141
20.0
290
     0
  0
SCALE
  5
5A8
102
{ACAD_REACTORS
330
59F
102
}
330
59F
100
AcDbScale
 70
     0
300
1:30
140
1.0
141
30.0
290
     0
  0
SCALE
  5
5A9
102
{ACAD_REACTORS
330
59F
102
}
330
59F
100
AcDbScale
 70
     0
300
1:40
140
1.0
141
40.0
290
     0
  0
SCALE
  5
5AA
102
{ACAD_REACTORS
330
59F
102
}
330
59F
100
AcDbScale
 70
     0
300
1:50
140
1.0
141
50.0
290
     0
  0
SCALE
  5
5AB
102
{ACAD_REACTORS
330
59F
102
}
330
59F
100
AcDbScale
 70
     0
300
1:100
140
1.0
141
100.0
290
     0
  0
SCALE
  5
5AC
102
{ACAD_REACTORS
330
59F
102
}
330
59F
100
AcDbScale
 70
     0
300
2:1
140
2.0
141
1.0
290
     0
  0
SCALE
  5
5AD
102
{ACAD_REACTORS
330
59F
102
}
330
59F
100
AcDbScale
 70
     0
300
4:1
140
4.0
141
1.0
290
     0
  0
SCALE
  5
5AE
102
{ACAD_REACTORS
330
59F
102
}
330
59F
100
AcDbScale
 70
     0
300
8:1
140
8.0
141
1.0
290
     0
  0
SCALE
  5
5AF
102
{ACAD_REACTORS
330
59F
102
}
330
59F
100
AcDbScale
 70
     0
300
10:1
140
10.0
141
1.0
290
     0
  0
SCALE
  5
5B0
102
{ACAD_REACTORS
330
59F
102
}
330
59F
100
AcDbScale
 70
     0
300
100:1
140
100.0
141
1.0
290
     0
  0
ACDBSECTIONVIEWSTYLE
  5
5B4
102
{ACAD_XDICTIONARY
360
614
102
}
102
{ACAD_REACTORS
330
5B3
102
}
330
5B3
100
AcDbModelDocViewStyle
 70
     0
  3
Metric50
290
     0
100
AcDbSectionViewStyle
 70
     0
 71
     0
 90
      102
 71
     1
340
10
 62
   256
 40
5.0
340
0
340
0
 62
   256
 40
5.0
300
I, O, Q, S, X, Z
 40
10.0
 90
        0
 40
2.5
 90
        0
 71
     2
340
16
 90
       25
 62
   256
340
16
 90
       50
 62
   256
 40
5.0
 40
2.5
 40
5.0
 71
     3
340
10
 62
   256
 40
5.0
 90
        0
 40
15.0
 90
        1
300
%<\AcVar ViewSectionStartId>%-%<\AcVar ViewSectionEndId>% (%<\AcVar ViewScale \f "%sn">%)
 71
     4
 62
   256
 62
   257
300
ANSI31
 40
1.0
 90
        0
290
     0
290
     0
 90
        6
 40
0.0
 40
1.570796326794896
 40
0.2617993877991494
 40
1.308996938995747
 40
-0.2617993877991494
 40
1.832595714594046
  0
TABLESTYLE
  5
59E
102
{ACAD_XDICTIONARY
360
611
102
}
102
{ACAD_REACTORS
330
59D
102
}
330
59D
100
AcDbTableStyle
280
     0
  3
Standard
 70
     0
 71
     0
 40
1.5
 41
1.5
280
     0
281
     0
  7
STANDARD
140
4.5
170
     2
 62
     0
 63
     7
283
     0
 90
      512
 91
        0
  1

274
    -2
284
     1
 64
     0
275
    -2
285
     1
 65
     0
276
    -2
286
     1
 66
     0
277
    -2
287
     1
 67
     0
278
    -2
288
     1
 68
     0
279
    -2
289
     1
 69
     0
  7
STANDARD
140
6.0
170
     5
 62
     0
 63
     7
283
     0
 90
      512
 91
        0
  1

274
    -2
284
     1
 64
     0
275
    -2
285
     1
 65
     0
276
    -2
286
     1
 66
     0
277
    -2
287
     1
 67
     0
278
    -2
288
     1
 68
     0
279
    -2
289
     1
 69
     0
  7
STANDARD
140
4.5
170
     5
 62
     0
 63
     7
283
     0
 90
      512
 91
        0
  1

274
    -2
284
     1
 64
     0
275
    -2
285
     1
 65
     0
276
    -2
286
     1
 66
     0
277
    -2
287
     1
 67
     0
278
    -2
288
     1
 68
     0
279
    -2
289
     1
 69
     0
  0
VISUALSTYLE
  5
589
102
{ACAD_REACTORS
330
583
102
}
330
583
100
AcDbVisualStyle
  2
2dWireframe
 70
     4
177
     3
291
     0
 70
    58
 90
        0
176
     1
 90
        2
176
     1
 90
        0
176
     1
 90
        0
176
     1
 40
0.6
176
     1
 40
30.0
176
     1
 62
     7
420
 16777215
176
     1
 90
        1
176
     1
 90
        4
176
     1
 62
     7
176
     1
 62
   257
176
     1
 90
        1
176
     1
 90
        1
176
     1
 40
1.0
176
     1
 90
        0
176
     1
 62
   257
176
     1
 40
1.0
176
     1
 90
        1
176
     1
 90
        6
176
     1
 90
        2
176
     1
 62
     7
176
     1
 90
        5
176
     1
 90
        0
176
     1
 90
        0
176
     1
290
     0
176
     1
 90
        1
176
     1
 40
0.0
176
     1
 90
        0
176
     1
290
     1
176
     1
290
     1
176
     1
290
     0
176
     1
290
     0
176
     1
290
     0
176
     1
290
     0
176
     1
290
     0
176
     1
290
     0
176
     1
290
     0
176
     1
 90
       50
176
     1
 40
0.0
176
     1
 40
1.0
176
     1
 90
        0
176
     1
 62
    18
420
        0
176
     1
 90
       50
176
     1
 90
        3
176
     1
 62
     5
420
      255
176
     1
290
     0
176
     1
 90
       50
176
     1
 90
       50
176
     1
 90
       50
176
     1
290
     0
176
     1
 90
       50
176
     1
 62
   256
176
     0
 40
1.0
176
     0
 90
        2
176
     1
  1
strokes_ogs.tif
176
     1
290
     0
176
     1
 40
1.0
176
     1
 40
1.0
176
     1
1001
ACAD
1000
AcDbSavedByObjectVersion
1070
     0
  0
VISUALSTYLE
  5
588
102
{ACAD_REACTORS
330
583
102
}
330
583
100
AcDbVisualStyle
  2
Basic
 70
     7
177
     3
291
     1
 70
    58
 90
        1
176
     1
 90
        0
176
     1
 90
        1
176
     1
 90
        0
176
     1
 40
0.6
176
     1
 40
30.0
176
     1
 62
     7
420
 16777215
176
     1
 90
        0
176
     1
 90
        4
176
     1
 62
     7
176
     1
 62
   257
176
     1
 90
        1
176
     1
 90
        1
176
     1
 40
1.0
176
     1
 90
        8
176
     1
 62
     7
176
     1
 40
1.0
176
     1
 90
        1
176
     1
 90
        6
176
     1
 90
        2
176
     1
 62
     7
176
     1
 90
        5
176
     1
 90
        0
176
     1
 90
        0
176
     1
290
     0
176
     1
 90
        1
176
     1
 40
0.0
176
     1
 90
        0
176
     1
290
     0
176
     1
290
     1
176
     1
290
     1
176
     1
290
     0
176
     1
290
     0
176
     1
290
     0
176
     1
290
     0
176
     1
290
     0
176
     1
290
     0
176
     1
 90
       50
176
     1
 40
0.0
176
     1
 40
1.0
176
     1
 90
        0
176
     1
 62
    18
420
        0
176
     1
 90
       50
176
     1
 90
        3
176
     1
 62
     5
420
      255
176
     1
290
     0
176
     1
 90
       50
176
     1
 90
       50
176
     1
 90
       50
176
     1
290
     0
176
     1
 90
       50
176
     1
 62
   256
176
     0
 40
1.0
176
     0
 90
        2
176
     1
  1
strokes_ogs.tif
176
     1
290
     0
176
     1
 40
1.0
176
     1
 40
1.0
176
     1
1001
ACAD
1000
AcDbSavedByObjectVersion
1070
     0
  0
VISUALSTYLE
  5
58F
102
{ACAD_REACTORS
330
583
102
}
330
583
100
AcDbVisualStyle
  2
Brighten
 70
    12
177
     3
291
     1
 70
    58
 90
        2
176
     1
 90
        2
176
     1
 90
        0
176
     1
 90
        0
176
     1
 40
0.6
176
     1
 40
30.0
176
     1
 62
     7
420
 16777215
176
     1
 90
        1
176
     1
 90
        4
176
     1
 62
     7
176
     1
 62
   257
176
     1
 90
        1
176
     1
 90
        1
176
     1
 40
1.0
176
     1
 90
        8
176
     1
 62
     7
176
     1
 40
1.0
176
     1
 90
        1
176
     1
 90
        6
176
     1
 90
        2
176
     1
 62
     7
176
     1
 90
        5
176
     1
 90
        0
176
     1
 90
        0
176
     1
290
     0
176
     1
 90
        1
176
     1
 40
50.0
176
     1
 90
        0
176
     1
290
     0
176
     1
290
     1
176
     1
290
     1
176
     1
290
     0
176
     1
290
     0
176
     1
290
     0
176
     1
290
     0
176
     1
290
     0
176
     1
290
     0
176
     1
 90
       50
176
     1
 40
0.0
176
     1
 40
1.0
176
     1
 90
        0
176
     1
 62
    18
420
        0
176
     1
 90
       50
176
     1
 90
        3
176
     1
 62
     5
420
      255
176
     1
290
     0
176
     1
 90
       50
176
     1
 90
       50
176
     1
 90
       50
176
     1
290
     0
176
     1
 90
       50
176
     1
 62
   256
176
     0
 40
1.0
176
     0
 90
        2
176
     1
  1
strokes_ogs.tif
176
     1
290
     0
176
     1
 40
1.0
176
     1
 40
1.0
176
     1
1001
ACAD
1000
AcDbSavedByObjectVersion
1070
     0
  0
VISUALSTYLE
  5
593
102
{ACAD_REACTORS
330
583
102
}
330
583
100
AcDbVisualStyle
  2
ColorChange
 70
    16
177
     3
291
     1
 70
    58
 90
        2
176
     1
 90
        2
176
     1
 90
        3
176
     1
 90
        0
176
     1
 40
0.6
176
     1
 40
30.0
176
     1
 62
     8
420
  8421504
176
     1
 90
        1
176
     1
 90
        4
176
     1
 62
     7
176
     1
 62
   257
176
     1
 90
        1
176
     1
 90
        1
176
     1
 40
1.0
176
     1
 90
        8
176
     1
 62
     8
420
  8421504
176
     1
 40
1.0
176
     1
 90
        1
176
     1
 90
        6
176
     1
 90
        2
176
     1
 62
     7
176
     1
 90
        5
176
     1
 90
        0
176
     1
 90
        0
176
     1
290
     0
176
     1
 90
        1
176
     1
 40
0.0
176
     1
 90
        0
176
     1
290
     0
176
     1
290
     1
176
     1
290
     1
176
     1
290
     0
176
     1
290
     0
176
     1
290
     0
176
     1
290
     0
176
     1
290
     0
176
     1
290
     0
176
     1
 90
       50
176
     1
 40
0.0
176
     1
 40
1.0
176
     1
 90
        0
176
     1
 62
    18
420
        0
176
     1
 90
       50
176
     1
 90
        3
176
     1
 62
     5
420
      255
176
     1
290
     0
176
     1
 90
       50
176
     1
 90
       50
176
     1
 90
       50
176
     1
290
     0
176
     1
 90
       50
176
     1
 62
   256
176
     0
 40
1.0
176
     0
 90
        2
176
     1
  1
strokes_ogs.tif
176
     1
290
     0
176
     1
 40
1.0
176
     1
 40
1.0
176
     1
1001
ACAD
1000
AcDbSavedByObjectVersion
1070
     0
  0
VISUALSTYLE
  5
58C
102
{ACAD_REACTORS
330
583
102
}
330
583
100
AcDbVisualStyle
  2
Conceptual
 70
     9
177
     3
291
     0
 70
    58
 90
        3
176
     1
 90
        2
176
     1
 90
        0
176
     1
 90
        0
176
     1
 40
0.6
176
     1
 40
30.0
176
     1
 62
     7
420
 16777215
176
     1
 90
        2
176
     1
 90
        2
176
     1
 62
     7
176
     1
 62
   257
176
     1
 90
        1
176
     1
 90
        1
176
     1
 40
179.0
176
     1
 90
        8
176
     1
 62
     7
176
     1
 40
1.0
176
     1
 90
        1
176
     1
 90
        6
176
     1
 90
        2
176
     1
 62
     7
176
     1
 90
        3
176
     1
 90
        0
176
     1
 90
        0
176
     1
290
     0
176
     1
 90
        1
176
     1
 40
0.0
176
     1
 90
        0
176
     1
290
     0
176
     1
290
     1
176
     1
290
     1
176
     1
290
     0
176
     1
290
     0
176
     1
290
     0
176
     1
290
     0
176
     1
290
     0
176
     1
290
     0
176
     1
 90
       50
176
     1
 40
0.0
176
     1
 40
1.0
176
     1
 90
        0
176
     1
 62
    18
420
        0
176
     1
 90
       50
176
     1
 90
        3
176
     1
 62
     5
420
      255
176
     1
290
     0
176
     1
 90
       50
176
     1
 90
       50
176
     1
 90
       50
176
     1
290
     0
176
     1
 90
       50
176
     1
 62
   256
176
     0
 40
1.0
176
     0
 90
        2
176
     1
  1
strokes_ogs.tif
176
     1
290
     0
176
     1
 40
1.0
176
     1
 40
1.0
176
     1
1001
ACAD
1000
AcDbSavedByObjectVersion
1070
     0
  0
VISUALSTYLE
  5
58E
102
{ACAD_REACTORS
330
583
102
}
330
583
100
AcDbVisualStyle
  2
Dim
 70
    11
177
     3
291
     1
 70
    58
 90
        2
176
     1
 90
        2
176
     1
 90
        0
176
     1
 90
        0
176
     1
 40
0.6
176
     1
 40
30.0
176
     1
 62
     7
420
 16777215
176
     1
 90
        1
176
     1
 90
        4
176
     1
 62
     7
176
     1
 62
   257
176
     1
 90
        1
176
     1
 90
        1
176
     1
 40
1.0
176
     1
 90
        8
176
     1
 62
     7
176
     1
 40
1.0
176
     1
 90
        1
176
     1
 90
        6
176
     1
 90
        2
176
     1
 62
     7
176
     1
 90
        5
176
     1
 90
        0
176
     1
 90
        0
176
     1
290
     0
176
     1
 90
        1
176
     1
 40
-50.0
176
     1
 90
        0
176
     1
290
     0
176
     1
290
     1
176
     1
290
     1
176
     1
290
     0
176
     1
290
     0
176
     1
290
     0
176
     1
290
     0
176
     1
290
     0
176
     1
290
     0
176
     1
 90
       50
176
     1
 40
0.0
176
     1
 40
1.0
176
     1
 90
        0
176
     1
 62
    18
420
        0
176
     1
 90
       50
176
     1
 90
        3
176
     1
 62
     5
420
      255
176
     1
290
     0
176
     1
 90
       50
176
     1
 90
       50
176
     1
 90
       50
176
     1
290
     0
176
     1
 90
       50
176
     1
 62
   256
176
     0
 40
1.0
176
     0
 90
        2
176
     1
  1
strokes_ogs.tif
176
     1
290
     0
176
     1
 40
1.0
176
     1
 40
1.0
176
     1
1001
ACAD
1000
AcDbSavedByObjectVersion
1070
     0
  0
VISUALSTYLE
  5
59B
102
{ACAD_REACTORS
330
583
102
}
330
583
100
AcDbVisualStyle
  2
EdgeColorOff
 70
    22
177
     3
291
     1
 70
    58
 90
        2
176
     0
 90
        2
176
     0
 90
        0
176
     0
 90
        0
176
     0
 40
0.6
176
     0
 40
30.0
176
     0
 62
     7
420
 16777215
176
     0
 90
        1
176
     0
 90
        4
176
     0
 62
     7
176
     0
 62
   257
176
     0
 90
        1
176
     0
 90
        1
176
     0
 40
1.0
176
     0
 90
        8
176
     2
 62
     7
176
     0
 40
1.0
176
     0
 90
        1
176
     0
 90
        6
176
     0
 90
        2
176
     0
 62
     7
176
     0
 90
        5
176
     0
 90
        0
176
     0
 90
        0
176
     0
290
     0
176
     0
 90
        1
176
     0
 40
0.0
176
     0
 90
        0
176
     0
290
     0
176
     0
290
     1
176
     0
290
     1
176
     0
290
     0
176
     0
290
     0
176
     0
290
     0
176
     0
290
     0
176
     0
290
     0
176
     0
290
     0
176
     0
 90
       50
176
     0
 40
0.0
176
     0
 40
1.0
176
     0
 90
        0
176
     0
 62
    18
420
        0
176
     0
 90
       50
176
     0
 90
        3
176
     0
 62
     5
420
      255
176
     0
290
     0
176
     0
 90
       50
176
     0
 90
       50
176
     0
 90
       50
176
     0
290
     0
176
     0
 90
       50
176
     0
 62
   256
176
     0
 40
1.0
176
     0
 90
        2
176
     0
  1
strokes_ogs.tif
176
     0
290
     0
176
     0
 40
1.0
176
     0
 40
1.0
176
     0
1001
ACAD
1000
AcDbSavedByObjectVersion
1070
     0
  0
VISUALSTYLE
  5
592
102
{ACAD_REACTORS
330
583
102
}
330
583
100
AcDbVisualStyle
  2
Facepattern
 70
    15
177
     3
291
     1
 70
    58
 90
        2
176
     1
 90
        2
176
     1
 90
        0
176
     1
 90
        0
176
     1
 40
0.6
176
     1
 40
30.0
176
     1
 62
     7
420
 16777215
176
     1
 90
        1
176
     1
 90
        4
176
     1
 62
     7
176
     1
 62
   257
176
     1
 90
        1
176
     1
 90
        1
176
     1
 40
1.0
176
     1
 90
        8
176
     1
 62
     7
176
     1
 40
1.0
176
     1
 90
        1
176
     1
 90
        6
176
     1
 90
        2
176
     1
 62
     7
176
     1
 90
        5
176
     1
 90
        0
176
     1
 90
        0
176
     1
290
     0
176
     1
 90
        1
176
     1
 40
0.0
176
     1
 90
        0
176
     1
290
     0
176
     1
290
     1
176
     1
290
     1
176
     1
290
     0
176
     1
290
     0
176
     1
290
     0
176
     1
290
     0
176
     1
290
     0
176
     1
290
     0
176
     1
 90
       50
176
     1
 40
0.0
176
     1
 40
1.0
176
     1
 90
        0
176
     1
 62
    18
420
        0
176
     1
 90
       50
176
     1
 90
        3
176
     1
 62
     5
420
      255
176
     1
290
     0
176
     1
 90
       50
176
     1
 90
       50
176
     1
 90
       50
176
     1
290
     0
176
     1
 90
       50
176
     1
 62
   256
176
     0
 40
1.0
176
     0
 90
        2
176
     1
  1
strokes_ogs.tif
176
     1
290
     0
176
     1
 40
1.0
176
     1
 40
1.0
176
     1
1001
ACAD
1000
AcDbSavedByObjectVersion
1070
     0
  0
VISUALSTYLE
  5
584
102
{ACAD_REACTORS
330
583
102
}
330
583
100
AcDbVisualStyle
  2
Flat
 70
     0
177
     3
291
     1
 70
    58
 90
        2
176
     1
 90
        1
176
     1
 90
        1
176
     1
 90
        2
176
     1
 40
0.6
176
     1
 40
30.0
176
     1
 62
     7
420
 16777215
176
     1
 90
        0
176
     1
 90
        0
176
     1
 62
     7
176
     1
 62
   257
176
     1
 90
        1
176
     1
 90
        1
176
     1
 40
1.0
176
     1
 90
        8
176
     1
 62
     7
176
     1
 40
1.0
176
     1
 90
        1
176
     1
 90
        6
176
     1
 90
        2
176
     1
 62
     7
176
     1
 90
        5
176
     1
 90
        0
176
     1
 90
        0
176
     1
290
     0
176
     1
 90
       13
176
     1
 40
0.0
176
     1
 90
        0
176
     1
290
     0
176
     1
290
     1
176
     1
290
     1
176
     1
290
     0
176
     1
290
     0
176
     1
290
     0
176
     1
290
     0
176
     1
290
     0
176
     1
290
     0
176
     1
 90
       50
176
     1
 40
0.0
176
     1
 40
1.0
176
     1
 90
        0
176
     1
 62
    18
420
        0
176
     1
 90
       50
176
     1
 90
        3
176
     1
 62
     5
420
      255
176
     1
290
     0
176
     1
 90
       50
176
     1
 90
       50
176
     1
 90
       50
176
     1
290
     0
176
     1
 90
       50
176
     1
 62
   256
176
     0
 40
1.0
176
     0
 90
        2
176
     1
  1
strokes_ogs.tif
176
     1
290
     0
176
     1
 40
1.0
176
     1
 40
1.0
176
     1
1001
ACAD
1000
AcDbSavedByObjectVersion
1070
     0
  0
VISUALSTYLE
  5
585
102
{ACAD_REACTORS
330
583
102
}
330
583
100
AcDbVisualStyle
  2
FlatWithEdges
 70
     1
177
     3
291
     1
 70
    58
 90
        2
176
     1
 90
        1
176
     1
 90
        1
176
     1
 90
        2
176
     1
 40
0.6
176
     1
 40
30.0
176
     1
 62
     7
420
 16777215
176
     1
 90
        1
176
     1
 90
        0
176
     1
 62
     7
176
     1
 62
   257
176
     1
 90
        1
176
     1
 90
        1
176
     1
 40
1.0
176
     1
 90
        0
176
     1
 62
   257
176
     1
 40
1.0
176
     1
 90
        1
176
     1
 90
        6
176
     1
 90
        2
176
     1
 62
     7
176
     1
 90
        5
176
     1
 90
        0
176
     1
 90
        0
176
     1
290
     0
176
     1
 90
       13
176
     1
 40
0.0
176
     1
 90
        0
176
     1
290
     0
176
     1
290
     1
176
     1
290
     1
176
     1
290
     0
176
     1
290
     0
176
     1
290
     0
176
     1
290
     0
176
     1
290
     0
176
     1
290
     0
176
     1
 90
       50
176
     1
 40
0.0
176
     1
 40
1.0
176
     1
 90
        0
176
     1
 62
    18
420
        0
176
     1
 90
       50
176
     1
 90
        3
176
     1
 62
     5
420
      255
176
     1
290
     0
176
     1
 90
       50
176
     1
 90
       50
176
     1
 90
       50
176
     1
290
     0
176
     1
 90
       50
176
     1
 62
   256
176
     0
 40
1.0
176
     0
 90
        2
176
     1
  1
strokes_ogs.tif
176
     1
290
     0
176
     1
 40
1.0
176
     1
 40
1.0
176
     1
1001
ACAD
1000
AcDbSavedByObjectVersion
1070
     0
  0
VISUALSTYLE
  5
586
102
{ACAD_REACTORS
330
583
102
}
330
583
100
AcDbVisualStyle
  2
Gouraud
 70
     2
177
     3
291
     1
 70
    58
 90
        2
176
     1
 90
        2
176
     1
 90
        1
176
     1
 90
        2
176
     1
 40
0.6
176
     1
 40
30.0
176
     1
 62
     7
420
 16777215
176
     1
 90
        0
176
     1
 90
        0
176
     1
 62
     7
176
     1
 62
   257
176
     1
 90
        1
176
     1
 90
        1
176
     1
 40
1.0
176
     1
 90
        0
176
     1
 62
     7
176
     1
 40
1.0
176
     1
 90
        1
176
     1
 90
        6
176
     1
 90
        2
176
     1
 62
     7
176
     1
 90
        5
176
     1
 90
        0
176
     1
 90
        0
176
     1
290
     0
176
     1
 90
       13
176
     1
 40
0.0
176
     1
 90
        0
176
     1
290
     0
176
     1
290
     1
176
     1
290
     1
176
     1
290
     0
176
     1
290
     0
176
     1
290
     0
176
     1
290
     0
176
     1
290
     0
176
     1
290
     0
176
     1
 90
       50
176
     1
 40
0.0
176
     1
 40
1.0
176
     1
 90
        0
176
     1
 62
    18
420
        0
176
     1
 90
       50
176
     1
 90
        3
176
     1
 62
     5
420
      255
176
     1
290
     0
176
     1
 90
       50
176
     1
 90
       50
176
     1
 90
       50
176
     1
290
     0
176
     1
 90
       50
176
     1
 62
   256
176
     0
 40
1.0
176
     0
 90
        2
176
     1
  1
strokes_ogs.tif
176
     1
290
     0
176
     1
 40
1.0
176
     1
 40
1.0
176
     1
1001
ACAD
1000
AcDbSavedByObjectVersion
1070
     0
  0
VISUALSTYLE
  5
587
102
{ACAD_REACTORS
330
583
102
}
330
583
100
AcDbVisualStyle
  2
GouraudWithEdges
 70
     3
177
     3
291
     1
 70
    58
 90
        2
176
     1
 90
        2
176
     1
 90
        1
176
     1
 90
        2
176
     1
 40
0.6
176
     1
 40
30.0
176
     1
 62
     7
420
 16777215
176
     1
 90
        1
176
     1
 90
        0
176
     1
 62
     7
176
     1
 62
   257
176
     1
 90
        1
176
     1
 90
        1
176
     1
 40
1.0
176
     1
 90
        0
176
     1
 62
   257
176
     1
 40
1.0
176
     1
 90
        1
176
     1
 90
        6
176
     1
 90
        2
176
     1
 62
     7
176
     1
 90
        5
176
     1
 90
        0
176
     1
 90
        0
176
     1
290
     0
176
     1
 90
       13
176
     1
 40
0.0
176
     1
 90
        0
176
     1
290
     0
176
     1
290
     1
176
     1
290
     1
176
     1
290
     0
176
     1
290
     0
176
     1
290
     0
176
     1
290
     0
176
     1
290
     0
176
     1
290
     0
176
     1
 90
       50
176
     1
 40
0.0
176
     1
 40
1.0
176
     1
 90
        0
176
     1
 62
    18
420
        0
176
     1
 90
       50
176
     1
 90
        3
176
     1
 62
     5
420
      255
176
     1
290
     0
176
     1
 90
       50
176
     1
 90
       50
176
     1
 90
       50
176
     1
290
     0
176
     1
 90
       50
176
     1
 62
   256
176
     0
 40
1.0
176
     0
 90
        2
176
     1
  1
strokes_ogs.tif
176
     1
290
     0
176
     1
 40
1.0
176
     1
 40
1.0
176
     1
1001
ACAD
1000
AcDbSavedByObjectVersion
1070
     0
  0
VISUALSTYLE
  5
58B
102
{ACAD_REACTORS
330
583
102
}
330
583
100
AcDbVisualStyle
  2
Hidden
 70
     6
177
     3
291
     0
 70
    58
 90
        1
176
     1
 90
        2
176
     1
 90
        2
176
     1
 90
        0
176
     1
 40
0.6
176
     1
 40
30.0
176
     1
 62
     7
420
 16777215
176
     1
 90
        2
176
     1
 90
        2
176
     1
 62
     7
176
     1
 62
   257
176
     1
 90
        2
176
     1
 90
        1
176
     1
 40
40.0
176
     1
 90
        0
176
     1
 62
   257
176
     1
 40
1.0
176
     1
 90
        1
176
     1
 90
        6
176
     1
 90
        2
176
     1
 62
     7
176
     1
 90
        3
176
     1
 90
        0
176
     1
 90
        0
176
     1
290
     0
176
     1
 90
        1
176
     1
 40
0.0
176
     1
 90
        0
176
     1
290
     0
176
     1
290
     1
176
     1
290
     1
176
     1
290
     0
176
     1
290
     0
176
     1
290
     0
176
     1
290
     0
176
     1
290
     0
176
     1
290
     0
176
     1
 90
       50
176
     1
 40
0.0
176
     1
 40
1.0
176
     1
 90
        0
176
     1
 62
    18
420
        0
176
     1
 90
       50
176
     1
 90
        3
176
     1
 62
     5
420
      255
176
     1
290
     0
176
     1
 90
       50
176
     1
 90
       50
176
     1
 90
       50
176
     1
290
     0
176
     1
 90
       50
176
     1
 62
   256
176
     0
 40
1.0
176
     0
 90
        2
176
     1
  1
strokes_ogs.tif
176
     1
290
     0
176
     1
 40
1.0
176
     1
 40
1.0
176
     1
1001
ACAD
1000
AcDbSavedByObjectVersion
1070
     0
  0
VISUALSTYLE
  5
599
102
{ACAD_REACTORS
330
583
102
}
330
583
100
AcDbVisualStyle
  2
JitterOff
 70
    20
177
     3
291
     1
 70
    58
 90
        2
176
     0
 90
        2
176
     0
 90
        0
176
     0
 90
        0
176
     0
 40
0.6
176
     0
 40
30.0
176
     0
 62
     7
420
 16777215
176
     0
 90
        1
176
     0
 90
        4
176
     0
 62
     7
176
     0
 62
   257
176
     0
 90
        1
176
     0
 90
        1
176
     0
 40
1.0
176
     0
 90
       10
176
     2
 62
     7
176
     0
 40
1.0
176
     0
 90
        1
176
     0
 90
        6
176
     0
 90
        2
176
     0
 62
     7
176
     0
 90
        5
176
     0
 90
        0
176
     0
 90
        0
176
     0
290
     0
176
     0
 90
        1
176
     0
 40
0.0
176
     0
 90
        0
176
     0
290
     0
176
     0
290
     1
176
     0
290
     1
176
     0
290
     0
176
     0
290
     0
176
     0
290
     0
176
     0
290
     0
176
     0
290
     0
176
     0
290
     0
176
     0
 90
       50
176
     0
 40
0.0
176
     0
 40
1.0
176
     0
 90
        0
176
     0
 62
    18
420
        0
176
     0
 90
       50
176
     0
 90
        3
176
     0
 62
     5
420
      255
176
     0
290
     0
176
     0
 90
       50
176
     0
 90
       50
176
     0
 90
       50
176
     0
290
     0
176
     0
 90
       50
176
     0
 62
   256
176
     0
 40
1.0
176
     0
 90
        2
176
     0
  1
strokes_ogs.tif
176
     0
290
     0
176
     0
 40
1.0
176
     0
 40
1.0
176
     0
1001
ACAD
1000
AcDbSavedByObjectVersion
1070
     0
  0
VISUALSTYLE
  5
591
102
{ACAD_REACTORS
330
583
102
}
330
583
100
AcDbVisualStyle
  2
Linepattern
 70
    14
177
     3
291
     1
 70
    58
 90
        2
176
     1
 90
        2
176
     1
 90
        0
176
     1
 90
        0
176
     1
 40
0.6
176
     1
 40
30.0
176
     1
 62
     7
420
 16777215
176
     1
 90
        1
176
     1
 90
        4
176
     1
 62
     7
176
     1
 62
   257
176
     1
 90
        7
176
     1
 90
        7
176
     1
 40
1.0
176
     1
 90
        8
176
     1
 62
     7
176
     1
 40
1.0
176
     1
 90
        1
176
     1
 90
        6
176
     1
 90
        2
176
     1
 62
     7
176
     1
 90
        5
176
     1
 90
        0
176
     1
 90
        0
176
     1
290
     0
176
     1
 90
        1
176
     1
 40
0.0
176
     1
 90
        0
176
     1
290
     0
176
     1
290
     1
176
     1
290
     1
176
     1
290
     0
176
     1
290
     0
176
     1
290
     0
176
     1
290
     0
176
     1
290
     0
176
     1
290
     0
176
     1
 90
       50
176
     1
 40
0.0
176
     1
 40
1.0
176
     1
 90
        0
176
     1
 62
    18
420
        0
176
     1
 90
       50
176
     1
 90
        3
176
     1
 62
     5
420
      255
176
     1
290
     0
176
     1
 90
       50
176
     1
 90
       50
176
     1
 90
       50
176
     1
290
     0
176
     1
 90
       50
176
     1
 62
   256
176
     0
 40
1.0
176
     0
 90
        2
176
     1
  1
strokes_ogs.tif
176
     1
290
     0
176
     1
 40
1.0
176
     1
 40
1.0
176
     1
1001
ACAD
1000
AcDbSavedByObjectVersion
1070
     0
  0
VISUALSTYLE
  5
59A
102
{ACAD_REACTORS
330
583
102
}
330
583
100
AcDbVisualStyle
  2
OverhangOff
 70
    21
177
     3
291
     1
 70
    58
 90
        2
176
     0
 90
        2
176
     0
 90
        0
176
     0
 90
        0
176
     0
 40
0.6
176
     0
 40
30.0
176
     0
 62
     7
420
 16777215
176
     0
 90
        1
176
     0
 90
        4
176
     0
 62
     7
176
     0
 62
   257
176
     0
 90
        1
176
     0
 90
        1
176
     0
 40
1.0
176
     0
 90
        9
176
     2
 62
     7
176
     0
 40
1.0
176
     0
 90
        1
176
     0
 90
        6
176
     0
 90
        2
176
     0
 62
     7
176
     0
 90
        5
176
     0
 90
        0
176
     0
 90
        0
176
     0
290
     0
176
     0
 90
        1
176
     0
 40
0.0
176
     0
 90
        0
176
     0
290
     0
176
     0
290
     1
176
     0
290
     1
176
     0
290
     0
176
     0
290
     0
176
     0
290
     0
176
     0
290
     0
176
     0
290
     0
176
     0
290
     0
176
     0
 90
       50
176
     0
 40
0.0
176
     0
 40
1.0
176
     0
 90
        0
176
     0
 62
    18
420
        0
176
     0
 90
       50
176
     0
 90
        3
176
     0
 62
     5
420
      255
176
     0
290
     0
176
     0
 90
       50
176
     0
 90
       50
176
     0
 90
       50
176
     0
290
     0
176
     0
 90
       50
176
     0
 62
   256
176
     0
 40
1.0
176
     0
 90
        2
176
     0
  1
strokes_ogs.tif
176
     0
290
     0
176
     0
 40
1.0
176
     0
 40
1.0
176
     0
1001
ACAD
1000
AcDbSavedByObjectVersion
1070
     0
  0
VISUALSTYLE
  5
58D
102
{ACAD_REACTORS
330
583
102
}
330
583
100
AcDbVisualStyle
  2
Realistic
 70
     8
177
     3
291
     0
 70
    58
 90
        2
176
     1
 90
        3
176
     1
 90
        0
176
     1
 90
        2
176
     1
 40
0.6
176
     1
 40
30.0
176
     1
 62
     7
420
 16777215
176
     1
 90
        0
176
     1
 90
        0
176
     1
 62
     7
176
     1
 62
   257
176
     1
 90
        1
176
     1
 90
        1
176
     1
 40
1.0
176
     1
 90
        8
176
     1
 62
   257
176
     1
 40
1.0
176
     1
 90
        1
176
     1
 90
        6
176
     1
 90
        2
176
     1
 62
     7
176
     1
 90
        3
176
     1
 90
        0
176
     1
 90
        0
176
     1
290
     0
176
     1
 90
       13
176
     1
 40
0.0
176
     1
 90
        0
176
     1
290
     0
176
     1
290
     1
176
     1
290
     1
176
     1
290
     0
176
     1
290
     0
176
     1
290
     0
176
     1
290
     0
176
     1
290
     0
176
     1
290
     0
176
     1
 90
       50
176
     1
 40
0.0
176
     1
 40
1.0
176
     1
 90
        0
176
     1
 62
    18
420
        0
176
     1
 90
       50
176
     1
 90
        3
176
     1
 62
     5
420
      255
176
     1
290
     0
176
     1
 90
       50
176
     1
 90
       50
176
     1
 90
       50
176
     1
290
     0
176
     1
 90
       50
176
     1
 62
   256
176
     0
 40
1.0
176
     0
 90
        2
176
     1
  1
strokes_ogs.tif
176
     1
290
     0
176
     1
 40
1.0
176
     1
 40
1.0
176
     1
1001
ACAD
1000
AcDbSavedByObjectVersion
1070
     0
  0
VISUALSTYLE
  5
598
102
{ACAD_REACTORS
330
583
102
}
330
583
100
AcDbVisualStyle
  2
Shaded
 70
    27
177
     3
291
     0
 70
    58
 90
        2
176
     1
 90
        2
176
     1
 90
        1
176
     1
 90
        2
176
     1
 40
0.6
176
     1
 40
30.0
176
     1
 62
     7
420
 16777215
176
     1
 90
        0
176
     1
 90
        4
176
     1
 62
     7
176
     1
 62
   257
176
     1
 90
        1
176
     1
 90
        1
176
     1
 40
1.0
176
     1
 90
        8
176
     1
 62
   257
176
     1
 40
1.0
176
     1
 90
        1
176
     1
 90
        6
176
     1
 90
        2
176
     1
 62
     8
420
  7895160
176
     1
 90
        3
176
     1
 90
        0
176
     1
 90
        0
176
     1
290
     0
176
     1
 90
        5
176
     1
 40
0.0
176
     1
 90
        0
176
     1
290
     0
176
     1
290
     1
176
     1
290
     1
176
     1
290
     0
176
     1
290
     0
176
     1
290
     0
176
     1
290
     0
176
     1
290
     0
176
     1
290
     0
176
     1
 90
       50
176
     1
 40
0.0
176
     1
 40
1.0
176
     1
 90
        0
176
     1
 62
    18
420
        0
176
     1
 90
       50
176
     1
 90
        3
176
     1
 62
     5
420
      255
176
     1
290
     0
176
     1
 90
       50
176
     1
 90
       50
176
     1
 90
       50
176
     1
290
     0
176
     1
 90
       50
176
     1
 62
   256
176
     0
 40
1.0
176
     0
 90
        2
176
     1
  1
strokes_ogs.tif
176
     1
290
     0
176
     1
 40
1.0
176
     1
 40
1.0
176
     1
1001
ACAD
1000
AcDbSavedByObjectVersion
1070
     0
  0
VISUALSTYLE
  5
597
102
{ACAD_REACTORS
330
583
102
}
330
583
100
AcDbVisualStyle
  2
Shaded with edges
 70
    26
177
     3
291
     0
 70
    58
 90
        2
176
     1
 90
        2
176
     1
 90
        1
176
     1
 90
        2
176
     1
 40
0.6
176
     1
 40
30.0
176
     1
 62
     7
420
 16777215
176
     1
 90
        1
176
     1
 90
        2
176
     1
 62
     7
176
     1
 62
   257
176
     1
 90
        2
176
     1
 90
        1
176
     1
 40
1.0
176
     1
 90
        8
176
     1
 62
   257
176
     1
 40
1.0
176
     1
 90
        1
176
     1
 90
        6
176
     1
 90
        2
176
     1
 62
     7
176
     1
 90
        3
176
     1
 90
        0
176
     1
 90
        0
176
     1
290
     0
176
     1
 90
        5
176
     1
 40
0.0
176
     1
 90
        0
176
     1
290
     0
176
     1
290
     1
176
     1
290
     1
176
     1
290
     0
176
     1
290
     0
176
     1
290
     0
176
     1
290
     0
176
     1
290
     0
176
     1
290
     0
176
     1
 90
       50
176
     1
 40
0.0
176
     1
 40
1.0
176
     1
 90
        0
176
     1
 62
    18
420
        0
176
     1
 90
       50
176
     1
 90
        3
176
     1
 62
     5
420
      255
176
     1
290
     0
176
     1
 90
       50
176
     1
 90
       50
176
     1
 90
       50
176
     1
290
     0
176
     1
 90
       50
176
     1
 62
   256
176
     0
 40
1.0
176
     0
 90
        2
176
     1
  1
strokes_ogs.tif
176
     1
290
     0
176
     1
 40
1.0
176
     1
 40
1.0
176
     1
1001
ACAD
1000
AcDbSavedByObjectVersion
1070
     0
  0
VISUALSTYLE
  5
594
102
{ACAD_REACTORS
330
583
102
}
330
583
100
AcDbVisualStyle
  2
Shades of Gray
 70
    23
177
     3
291
     0
 70
    58
 90
        2
176
     1
 90
        2
176
     1
 90
        3
176
     1
 90
        0
176
     1
 40
0.6
176
     1
 40
30.0
176
     1
 62
     7
420
 16777215
176
     1
 90
        2
176
     1
 90
        2
176
     1
 62
     7
176
     1
 62
     7
176
     1
 90
        1
176
     1
 90
        1
176
     1
 40
40.0
176
     1
 90
        8
176
     1
 62
     7
176
     1
 40
1.0
176
     1
 90
        1
176
     1
 90
        6
176
     1
 90
        2
176
     1
 62
     7
176
     1
 90
        3
176
     1
 90
        0
176
     1
 90
        0
176
     1
290
     0
176
     1
 90
        1
176
     1
 40
0.0
176
     1
 90
        0
176
     1
290
     0
176
     1
290
     1
176
     1
290
     1
176
     1
290
     0
176
     1
290
     0
176
     1
290
     0
176
     1
290
     0
176
     1
290
     0
176
     1
290
     0
176
     1
 90
       50
176
     1
 40
0.0
176
     1
 40
1.0
176
     1
 90
        0
176
     1
 62
    18
420
        0
176
     1
 90
       50
176
     1
 90
        3
176
     1
 62
     5
420
      255
176
     1
290
     0
176
     1
 90
       50
176
     1
 90
       50
176
     1
 90
       50
176
     1
290
     0
176
     1
 90
       50
176
     1
 62
   256
176
     0
 40
1.0
176
     0
 90
        2
176
     1
  1
strokes_ogs.tif
176
     1
290
     0
176
     1
 40
1.0
176
     1
 40
1.0
176
     1
1001
ACAD
1000
AcDbSavedByObjectVersion
1070
     0
  0
VISUALSTYLE
  5
595
102
{ACAD_REACTORS
330
583
102
}
330
583
100
AcDbVisualStyle
  2
Sketchy
 70
    24
177
     3
291
     0
 70
    58
 90
        1
176
     1
 90
        2
176
     1
 90
        2
176
     1
 90
        0
176
     1
 40
0.6
176
     1
 40
30.0
176
     1
 62
     7
420
 16777215
176
     1
 90
        2
176
     1
 90
        2
176
     1
 62
     7
176
     1
 62
     7
176
     1
 90
        1
176
     1
 90
        1
176
     1
 40
40.0
176
     1
 90
       11
176
     1
 62
     7
176
     1
 40
1.0
176
     1
 90
        1
176
     1
 90
        6
176
     1
 90
        2
176
     1
 62
     7
176
     1
 90
        6
176
     1
 90
        0
176
     1
 90
        0
176
     1
290
     0
176
     1
 90
        1
176
     1
 40
0.0
176
     1
 90
        0
176
     1
290
     0
176
     1
290
     1
176
     1
290
     1
176
     1
290
     0
176
     1
290
     0
176
     1
290
     0
176
     1
290
     0
176
     1
290
     0
176
     1
290
     0
176
     1
 90
       50
176
     1
 40
0.0
176
     1
 40
1.0
176
     1
 90
        0
176
     1
 62
    18
420
        0
176
     1
 90
       50
176
     1
 90
        3
176
     1
 62
     5
420
      255
176
     1
290
     0
176
     1
 90
       50
176
     1
 90
       50
176
     1
 90
       50
176
     1
290
     0
176
     1
 90
       50
176
     1
 62
   256
176
     0
 40
1.0
176
     0
 90
        2
176
     1
  1
strokes_ogs.tif
176
     1
290
     0
176
     1
 40
1.0
176
     1
 40
1.0
176
     1
1001
ACAD
1000
AcDbSavedByObjectVersion
1070
     0
  0
VISUALSTYLE
  5
590
102
{ACAD_REACTORS
330
583
102
}
330
583
100
AcDbVisualStyle
  2
Thicken
 70
    13
177
     3
291
     1
 70
    58
 90
        2
176
     1
 90
        2
176
     1
 90
        0
176
     1
 90
        0
176
     1
 40
0.6
176
     1
 40
30.0
176
     1
 62
     7
420
 16777215
176
     1
 90
        1
176
     1
 90
        4
176
     1
 62
     7
176
     1
 62
   257
176
     1
 90
        1
176
     1
 90
        1
176
     1
 40
1.0
176
     1
 90
       12
176
     1
 62
     7
176
     1
 40
1.0
176
     1
 90
        1
176
     1
 90
        6
176
     1
 90
        2
176
     1
 62
     7
176
     1
 90
        5
176
     1
 90
        0
176
     1
 90
        0
176
     1
290
     0
176
     1
 90
        1
176
     1
 40
0.0
176
     1
 90
        0
176
     1
290
     0
176
     1
290
     1
176
     1
290
     1
176
     1
290
     0
176
     1
290
     0
176
     1
290
     0
176
     1
290
     0
176
     1
290
     0
176
     1
290
     0
176
     1
 90
       50
176
     1
 40
0.0
176
     1
 40
1.0
176
     1
 90
        0
176
     1
 62
    18
420
        0
176
     1
 90
       50
176
     1
 90
        3
176
     1
 62
     5
420
      255
176
     1
290
     0
176
     1
 90
       50
176
     1
 90
       50
176
     1
 90
       50
176
     1
290
     0
176
     1
 90
       50
176
     1
 62
   256
176
     0
 40
1.0
176
     0
 90
        2
176
     1
  1
strokes_ogs.tif
176
     1
290
     0
176
     1
 40
1.0
176
     1
 40
1.0
176
     1
1001
ACAD
1000
AcDbSavedByObjectVersion
1070
     0
  0
VISUALSTYLE
  5
58A
102
{ACAD_REACTORS
330
583
102
}
330
583
100
AcDbVisualStyle
  2
Wireframe
 70
     5
177
     3
291
     0
 70
    58
 90
        0
176
     1
 90
        2
176
     1
 90
        0
176
     1
 90
        0
176
     1
 40
0.6
176
     1
 40
30.0
176
     1
 62
     7
420
 16777215
176
     1
 90
        1
176
     1
 90
        4
176
     1
 62
     7
176
     1
 62
   257
176
     1
 90
        1
176
     1
 90
        1
176
     1
 40
1.0
176
     1
 90
        0
176
     1
 62
   257
176
     1
 40
1.0
176
     1
 90
        1
176
     1
 90
        6
176
     1
 90
        2
176
     1
 62
     7
176
     1
 90
        3
176
     1
 90
        0
176
     1
 90
        0
176
     1
290
     0
176
     1
 90
        1
176
     1
 40
0.0
176
     1
 90
        0
176
     1
290
     0
176
     1
290
     1
176
     1
290
     1
176
     1
290
     0
176
     1
290
     0
176
     1
290
     0
176
     1
290
     0
176
     1
290
     0
176
     1
290
     0
176
     1
 90
       50
176
     1
 40
0.0
176
     1
 40
1.0
176
     1
 90
        0
176
     1
 62
    18
420
        0
176
     1
 90
       50
176
     1
 90
        3
176
     1
 62
     5
420
      255
176
     1
290
     0
176
     1
 90
       50
176
     1
 90
       50
176
     1
 90
       50
176
     1
290
     0
176
     1
 90
       50
176
     1
 62
   256
176
     0
 40
1.0
176
     0
 90
        2
176
     1
  1
strokes_ogs.tif
176
     1
290
     0
176
     1
 40
1.0
176
     1
 40
1.0
176
     1
1001
ACAD
1000
AcDbSavedByObjectVersion
1070
     0
  0
VISUALSTYLE
  5
596
102
{ACAD_REACTORS
330
583
102
}
330
583
100
AcDbVisualStyle
  2
X-Ray
 70
    25
177
     3
291
     0
 70
    58
 90
        2
176
     1
 90
        2
176
     1
 90
        1
176
     1
 90
        1
176
     1
 40
0.5
176
     1
 40
30.0
176
     1
 62
     7
420
 16777215
176
     1
 90
        1
176
     1
 90
        0
176
     1
 62
     7
176
     1
 62
   257
176
     1
 90
        1
176
     1
 90
        1
176
     1
 40
1.0
176
     1
 90
        8
176
     1
 62
     7
176
     1
 40
1.0
176
     1
 90
        1
176
     1
 90
        6
176
     1
 90
        2
176
     1
 62
     7
176
     1
 90
        3
176
     1
 90
        0
176
     1
 90
        0
176
     1
290
     0
176
     1
 90
       13
176
     1
 40
0.0
176
     1
 90
        0
176
     1
290
     0
176
     1
290
     1
176
     1
290
     1
176
     1
290
     0
176
     1
290
     0
176
     1
290
     0
176
     1
290
     0
176
     1
290
     0
176
     1
290
     0
176
     1
 90
       50
176
     1
 40
0.0
176
     1
 40
1.0
176
     1
 90
        0
176
     1
 62
    18
420
        0
176
     1
 90
       50
176
     1
 90
        3
176
     1
 62
     5
420
      255
176
     1
290
     0
176
     1
 90
       50
176
     1
 90
       50
176
     1
 90
       50
176
     1
290
     0
176
     1
 90
       50
176
     1
 62
   256
176
     0
 40
1.0
176
     0
 90
        2
176
     1
  1
strokes_ogs.tif
176
     1
290
     0
176
     1
 40
1.0
176
     1
 40
1.0
176
     1
1001
ACAD
1000
AcDbSavedByObjectVersion
1070
     0
  0
DICTIONARYVAR
  5
60D
102
{ACAD_REACTORS
330
136
102
}
330
136
100
DictionaryVariables
280
     0
  1
1:1
  0
DICTIONARYVAR
  5
609
102
{ACAD_REACTORS
330
136
102
}
330
136
100
DictionaryVariables
280
     0
  1
STANDARD
  0
DICTIONARYVAR
  5
608
102
{ACAD_REACTORS
330
136
102
}
330
136
100
DictionaryVariables
280
     0
  1
STANDARD
  0
DICTIONARYVAR
  5
60A
102
{ACAD_REACTORS
330
136
102
}
330
136
100
DictionaryVariables
280
     0
  1
Metric50
  0
DICTIONARYVAR
  5
60B
102
{ACAD_REACTORS
330
136
102
}
330
136
100
DictionaryVariables
280
     0
  1
Metric50
  0
DICTIONARYVAR
  5
60F
102
{ACAD_REACTORS
330
136
102
}
330
136
100
DictionaryVariables
280
     0
  1
1
  0
DICTIONARYVAR
  5
610
102
{ACAD_REACTORS
330
136
102
}
330
136
100
DictionaryVariables
280
     0
  1
15
  0
DICTIONARYVAR
  5
60E
102
{ACAD_REACTORS
330
136
102
}
330
136
100
DictionaryVariables
280
     0
  1
0
  0
DICTIONARYVAR
  5
60C
102
{ACAD_REACTORS
330
136
102
}
330
136
100
DictionaryVariables
280
     0
  1
0
  0
DICTIONARYVAR
  5
137
102
{ACAD_REACTORS
330
136
102
}
330
136
100
DictionaryVariables
280
     0
  1
96
  0
XRECORD
  5
602
102
{ACAD_REACTORS
330
601
102
}
330
601
100
AcDbXrecord
280
     1
 10
0.0
 20
0.0
 30
0.0
 10
1.1
 20
1.1
 30
1.1
 10
1.0
 20
0.0
 30
0.0
 10
0.0
 20
1.0
 30
0.0
 10
0.0
 20
0.0
 30
0.0
 40
0.1
 10
0.0
 20
0.0
 30
0.0
  1
MODEL___
 70
     0
 70
     0
  1
MODEL
 40
0.0
  0
XRECORD
  5
603
102
{ACAD_REACTORS
330
601
102
}
330
601
100
AcDbXrecord
280
     1
 10
0.0
 20
0.0
 30
0.0
 10
1.1
 20
1.1
 30
1.1
 10
1.0
 20
0.0
 30
0.0
 10
0.0
 20
1.0
 30
0.0
 10
0.0
 20
0.0
 30
0.0
 40
1.0
 10
0.0
 20
0.0
 30
0.0
  1
PBEREICH
 70
     0
 70
     0
  1
PBEREICH
 40
0.0
  0
DICTIONARY
  5
616
330
5B6
100
AcDbDictionary
280
     1
281
     1
  3
ACAD_XREC_ROUNDTRIP
360
617
  0
DICTIONARY
  5
574
330
573
100
AcDbDictionary
280
     1
281
     1
  3
BUMPTILE
360
576
  3
DIFFUSETILE
360
575
  3
OPACITYTILE
360
579
  3
REFLECTIONTILE
360
578
  3
REFRACTIONTILE
360
57A
  3
SPECULARTILE
360
577
  0
DICTIONARY
  5
56C
330
56B
100
AcDbDictionary
280
     1
281
     1
  3
BUMPTILE
360
56E
  3
DIFFUSETILE
360
56D
  3
OPACITYTILE
360
571
  3
REFLECTIONTILE
360
570
  3
REFRACTIONTILE
360
572
  3
SPECULARTILE
360
56F
  0
DICTIONARY
  5
57C
330
57B
100
AcDbDictionary
280
     1
281
     1
  3
BUMPTILE
360
57E
  3
DIFFUSETILE
360
57D
  3
OPACITYTILE
360
581
  3
REFLECTIONTILE
360
580
  3
REFRACTIONTILE
360
582
  3
SPECULARTILE
360
57F
  0
XRECORD
  5
61B
102
{ACAD_REACTORS
330
619
102
}
330
619
100
AcDbXrecord
280
     1
102
ACAD_MENTALRAY_SETTING_RT
330
5C4
 70
     1
  0
XRECORD
  5
61A
102
{ACAD_REACTORS
330
619
102
}
330
619
100
AcDbXrecord
280
     1
 70
     2
 71
     3
 72
     0
  0
DICTIONARY
  5
614
330
5B4
100
AcDbDictionary
280
     1
281
     1
  3
ACAD_XREC_ROUNDTRIP
360
615
  0
DICTIONARY
  5
611
330
59E
100
AcDbDictionary
280
     1
281
     1
  3
ACAD_ROUNDTRIP_2008_TABLESTYLE_CELLSTYLEMAP
360
612
  0
XRECORD
  5
617
102
{ACAD_REACTORS
330
616
102
}
330
616
100
AcDbXrecord
280
     1
102
DISPLAYNAME
  1
Metric50
102
FLAGS
 90
        0
  0
XRECORD
  5
576
102
{ACAD_REACTORS
330
574
102
}
330
574
100
AcDbXrecord
280
     1
270
     1
271
     1
  0
XRECORD
  5
575
102
{ACAD_REACTORS
330
574
102
}
330
574
100
AcDbXrecord
280
     1
270
     1
271
     1
  0
XRECORD
  5
579
102
{ACAD_REACTORS
330
574
102
}
330
574
100
AcDbXrecord
280
     1
270
     1
271
     1
  0
XRECORD
  5
578
102
{ACAD_REACTORS
330
574
102
}
330
574
100
AcDbXrecord
280
     1
270
     1
271
     1
  0
XRECORD
  5
57A
102
{ACAD_REACTORS
330
574
102
}
330
574
100
AcDbXrecord
280
     1
270
     1
271
     1
  0
XRECORD
  5
577
102
{ACAD_REACTORS
330
574
102
}
330
574
100
AcDbXrecord
280
     1
270
     1
271
     1
  0
XRECORD
  5
56E
102
{ACAD_REACTORS
330
56C
102
}
330
56C
100
AcDbXrecord
280
     1
270
     1
271
     1
  0
XRECORD
  5
56D
102
{ACAD_REACTORS
330
56C
102
}
330
56C
100
AcDbXrecord
280
     1
270
     1
271
     1
  0
XRECORD
  5
571
102
{ACAD_REACTORS
330
56C
102
}
330
56C
100
AcDbXrecord
280
     1
270
     1
271
     1
  0
XRECORD
  5
570
102
{ACAD_REACTORS
330
56C
102
}
330
56C
100
AcDbXrecord
280
     1
270
     1
271
     1
  0
XRECORD
  5
572
102
{ACAD_REACTORS
330
56C
102
}
330
56C
100
AcDbXrecord
280
     1
270
     1
271
     1
  0
XRECORD
  5
56F
102
{ACAD_REACTORS
330
56C
102
}
330
56C
100
AcDbXrecord
280
     1
270
     1
271
     1
  0
XRECORD
  5
57E
102
{ACAD_REACTORS
330
57C
102
}
330
57C
100
AcDbXrecord
280
     1
270
     1
271
     1
  0
XRECORD
  5
57D
102
{ACAD_REACTORS
330
57C
102
}
330
57C
100
AcDbXrecord
280
     1
270
     1
271
     1
  0
XRECORD
  5
581
102
{ACAD_REACTORS
330
57C
102
}
330
57C
100
AcDbXrecord
280
     1
270
     1
271
     1
  0
XRECORD
  5
580
102
{ACAD_REACTORS
330
57C
102
}
330
57C
100
AcDbXrecord
280
     1
270
     1
271
     1
  0
XRECORD
  5
582
102
{ACAD_REACTORS
330
57C
102
}
330
57C
100
AcDbXrecord
280
     1
270
     1
271
     1
  0
XRECORD
  5
57F
102
{ACAD_REACTORS
330
57C
102
}
330
57C
100
AcDbXrecord
280
     1
270
     1
271
     1
  0
XRECORD
  5
615
102
{ACAD_REACTORS
330
614
102
}
330
614
100
AcDbXrecord
280
     1
102
DISPLAYNAME
  1
Metric50
102
FLAGS
 90
        0
  0
CELLSTYLEMAP
  5
612
102
{ACAD_REACTORS
330
611
102
}
330
611
100
AcDbCellStyleMap
 90
        3
300
CELLSTYLE
  1
TABLEFORMAT_BEGIN
 90
        5
170
     1
 91
        0
 92
    32768
 62
   257
 93
        1
300
CONTENTFORMAT
  1
CONTENTFORMAT_BEGIN
 90
        0
 91
        0
 92
      512
 93
        0
300

 40
0.0
140
1.0
 94
        5
 62
     0
340
10
144
6.0
309
CONTENTFORMAT_END
171
     1
301
MARGIN
  1
CELLMARGIN_BEGIN
 40
1.5
 40
1.5
 40
1.5
 40
1.5
 40
4.5
 40
4.5
309
CELLMARGIN_END
 94
        6
 95
        1
302
GRIDFORMAT
  1
GRIDFORMAT_BEGIN
 90
        0
 91
        1
 62
     0
 92
       -2
340
0
 93
        0
 40
1.125
309
GRIDFORMAT_END
 95
        2
302
GRIDFORMAT
  1
GRIDFORMAT_BEGIN
 90
        0
 91
        1
 62
     0
 92
       -2
340
0
 93
        0
 40
1.125
309
GRIDFORMAT_END
 95
        4
302
GRIDFORMAT
  1
GRIDFORMAT_BEGIN
 90
        0
 91
        1
 62
     0
 92
       -2
340
0
 93
        0
 40
1.125
309
GRIDFORMAT_END
 95
        8
302
GRIDFORMAT
  1
GRIDFORMAT_BEGIN
 90
        0
 91
        1
 62
     0
 92
       -2
340
0
 93
        0
 40
1.125
309
GRIDFORMAT_END
 95
       16
302
GRIDFORMAT
  1
GRIDFORMAT_BEGIN
 90
        0
 91
        1
 62
     0
 92
       -2
340
0
 93
        0
 40
1.125
309
GRIDFORMAT_END
 95
       32
302
GRIDFORMAT
  1
GRIDFORMAT_BEGIN
 90
        0
 91
        1
 62
     0
 92
       -2
340
0
 93
        0
 40
1.125
309
GRIDFORMAT_END
309
TABLEFORMAT_END
  1
CELLSTYLE_BEGIN
 90
        1
 91
        1
300
_TITLE
309
CELLSTYLE_END
300
CELLSTYLE
  1
TABLEFORMAT_BEGIN
 90
        5
170
     1
 91
        0
 92
        0
 62
   257
 93
        1
300
CONTENTFORMAT
  1
CONTENTFORMAT_BEGIN
 90
        0
 91
        0
 92
      512
 93
        0
300

 40
0.0
140
1.0
 94
        5
 62
     0
340
10
144
4.5
309
CONTENTFORMAT_END
171
     1
301
MARGIN
  1
CELLMARGIN_BEGIN
 40
1.5
 40
1.5
 40
1.5
 40
1.5
 40
4.5
 40
4.5
309
CELLMARGIN_END
 94
        6
 95
        1
302
GRIDFORMAT
  1
GRIDFORMAT_BEGIN
 90
        0
 91
        1
 62
     0
 92
       -2
340
0
 93
        0
 40
1.125
309
GRIDFORMAT_END
 95
        2
302
GRIDFORMAT
  1
GRIDFORMAT_BEGIN
 90
        0
 91
        1
 62
     0
 92
       -2
340
0
 93
        0
 40
1.125
309
GRIDFORMAT_END
 95
        4
302
GRIDFORMAT
  1
GRIDFORMAT_BEGIN
 90
        0
 91
        1
 62
     0
 92
       -2
340
0
 93
        0
 40
1.125
309
GRIDFORMAT_END
 95
        8
302
GRIDFORMAT
  1
GRIDFORMAT_BEGIN
 90
        0
 91
        1
 62
     0
 92
       -2
340
0
 93
        0
 40
1.125
309
GRIDFORMAT_END
 95
       16
302
GRIDFORMAT
  1
GRIDFORMAT_BEGIN
 90
        0
 91
        1
 62
     0
 92
       -2
340
0
 93
        0
 40
1.125
309
GRIDFORMAT_END
 95
       32
302
GRIDFORMAT
  1
GRIDFORMAT_BEGIN
 90
        0
 91
        1
 62
     0
 92
       -2
340
0
 93
        0
 40
1.125
309
GRIDFORMAT_END
309
TABLEFORMAT_END
  1
CELLSTYLE_BEGIN
 90
        2
 91
        1
300
_HEADER
309
CELLSTYLE_END
300
CELLSTYLE
  1
TABLEFORMAT_BEGIN
 90
        5
170
     1
 91
        0
 92
        0
 62
   257
 93
        1
300
CONTENTFORMAT
  1
CONTENTFORMAT_BEGIN
 90
        0
 91
        0
 92
      512
 93
        0
300

 40
0.0
140
1.0
 94
        2
 62
     0
340
10
144
4.5
309
CONTENTFORMAT_END
171
     1
301
MARGIN
  1
CELLMARGIN_BEGIN
 40
1.5
 40
1.5
 40
1.5
 40
1.5
 40
4.5
 40
4.5
309
CELLMARGIN_END
 94
        6
 95
        1
302
GRIDFORMAT
  1
GRIDFORMAT_BEGIN
 90
        0
 91
        1
 62
     0
 92
       -2
340
0
 93
        0
 40
1.125
309
GRIDFORMAT_END
 95
        2
302
GRIDFORMAT
  1
GRIDFORMAT_BEGIN
 90
        0
 91
        1
 62
     0
 92
       -2
340
0
 93
        0
 40
1.125
309
GRIDFORMAT_END
 95
        4
302
GRIDFORMAT
  1
GRIDFORMAT_BEGIN
 90
        0
 91
        1
 62
     0
 92
       -2
340
0
 93
        0
 40
1.125
309
GRIDFORMAT_END
 95
        8
302
GRIDFORMAT
  1
GRIDFORMAT_BEGIN
 90
        0
 91
        1
 62
     0
 92
       -2
340
0
 93
        0
 40
1.125
309
GRIDFORMAT_END
 95
       16
302
GRIDFORMAT
  1
GRIDFORMAT_BEGIN
 90
        0
 91
        1
 62
     0
 92
       -2
340
0
 93
        0
 40
1.125
309
GRIDFORMAT_END
 95
       32
302
GRIDFORMAT
  1
GRIDFORMAT_BEGIN
 90
        0
 91
        1
 62
     0
 92
       -2
340
0
 93
        0
 40
1.125
309
GRIDFORMAT_END
309
TABLEFORMAT_END
  1
CELLSTYLE_BEGIN
 90
        3
 91
        2
300
_DATA
309
CELLSTYLE_END
  0
ENDSEC
  0
EOF
