  0
SECTION
  2
HEADER
  9
$ACADVER
  1
AC1027
  9
$ACADMAINTVER
 70
   125
  9
$DWGCODEPAGE
  3
ANSI_1252
  9
$TITLE
  1
Datenaufbau HEBGO
  9
$SUBJECT
  1
Format 14/2000 mit DWF-Format
  9
$AUTHOR
  1
robert koch cad-support, ch-2540 grenchen
  9
$COMMENTS
  1
Anpassung für DWF Format und ^M^JZeichnungsvorschau, ^M^Jrobert koch cad-support, ch-2540 grenchen
  9
$LASTSAVEDBY
  1
rwdm
  9
$REQUIREDVERSIONS
160
                 0
  9
$INSBASE
 10
0.0
 20
0.0
 30
0.0
  9
$EXTMIN
 10
-80.40618818533392
 20
-16.02172766116177
 30
-0.0015258207003583
  9
$EXTMAX
 10
9.338379440990252
 20
48.11096249394006
 30
0.0000000349246037
  9
$LIMMIN
 10
-150.0
 20
-150.0
  9
$LIMMAX
 10
150.0
 20
150.0
  9
$ORTHOMODE
 70
     0
  9
$REGENMODE
 70
     1
  9
$FILLMODE
 70
     1
  9
$QTEXTMODE
 70
     0
  9
$MIRRTEXT
 70
     0
  9
$LTSCALE
 40
10.0
  9
$ATTMODE
 70
     1
  9
$TEXTSIZE
 40
3.5
  9
$TRACEWID
 40
1.0
  9
$TEXTSTYLE
  7
Beschlag
  9
$CLAYER
  8
0
  9
$CELTYPE
  6
BYLAYER
  9
$CECOLOR
 62
   256
  9
$CELTSCALE
 40
1.0
  9
$DISPSILH
 70
     1
  9
$DIMSCALE
 40
1.0
  9
$DIMASZ
 40
2.0
  9
$DIMEXO
 40
2.0
  9
$DIMDLI
 40
0.0
  9
$DIMRND
 40
0.0
  9
$DIMDLE
 40
1.0
  9
$DIMEXE
 40
1.0
  9
$DIMTP
 40
0.0
  9
$DIMTM
 40
0.0
  9
$DIMTXT
 40
3.5
  9
$DIMCEN
 40
0.0
  9
$DIMTSZ
 40
0.0
  9
$DIMTOL
 70
     0
  9
$DIMLIM
 70
     0
  9
$DIMTIH
 70
     0
  9
$DIMTOH
 70
     0
  9
$DIMSE1
 70
     0
  9
$DIMSE2
 70
     0
  9
$DIMTAD
 70
     1
  9
$DIMZIN
 70
     8
  9
$DIMBLK
  1

  9
$DIMASO
 70
     1
  9
$DIMSHO
 70
     1
  9
$DIMPOST
  1

  9
$DIMAPOST
  1

  9
$DIMALT
 70
     0
  9
$DIMALTD
 70
     2
  9
$DIMALTF
 40
0.039370078740157
  9
$DIMLFAC
 40
1.0
  9
$DIMTOFL
 70
     1
  9
$DIMTVP
 40
0.0
  9
$DIMTIX
 70
     1
  9
$DIMSOXD
 70
     0
  9
$DIMSAH
 70
     1
  9
$DIMBLK1
  1
Oblique
  9
$DIMBLK2
  1
Oblique
  9
$DIMSTYLE
  2
OPO-SSTRICH
  9
$DIMCLRD
 70
   256
  9
$DIMCLRE
 70
   256
  9
$DIMCLRT
 70
   256
  9
$DIMTFAC
 40
0.7114285714285716
  9
$DIMGAP
 40
1.0
  9
$DIMJUST
 70
     0
  9
$DIMSD1
 70
     0
  9
$DIMSD2
 70
     0
  9
$DIMTOLJ
 70
     1
  9
$DIMTZIN
 70
     8
  9
$DIMALTZ
 70
     8
  9
$DIMALTTZ
 70
     8
  9
$DIMUPT
 70
     0
  9
$DIMDEC
 70
     1
  9
$DIMTDEC
 70
     1
  9
$DIMALTU
 70
     2
  9
$DIMALTTD
 70
     2
  9
$DIMTXSTY
  7
Beschlag
  9
$DIMAUNIT
 70
     0
  9
$DIMADEC
 70
     1
  9
$DIMALTRND
 40
0.0
  9
$DIMAZIN
 70
     2
  9
$DIMDSEP
 70
    46
  9
$DIMATFIT
 70
     3
  9
$DIMFRAC
 70
     0
  9
$DIMLDRBLK
  1
Oblique
  9
$DIMLUNIT
 70
     2
  9
$DIMLWD
 70
    -2
  9
$DIMLWE
 70
    -2
  9
$DIMTMOVE
 70
     2
  9
$DIMFXL
 40
1.0
  9
$DIMFXLON
 70
     0
  9
$DIMJOGANG
 40
0.7853981633974483
  9
$DIMTFILL
 70
     0
  9
$DIMTFILLCLR
 70
     0
  9
$DIMARCSYM
 70
     0
  9
$DIMLTYPE
  6

  9
$DIMLTEX1
  6

  9
$DIMLTEX2
  6

  9
$DIMTXTDIRECTION
 70
     0
  9
$LUNITS
 70
     2
  9
$LUPREC
 70
     1
  9
$SKETCHINC
 40
1.0
  9
$FILLETRAD
 40
0.0
  9
$AUNITS
 70
     0
  9
$AUPREC
 70
     1
  9
$MENU
  1
D:\ACL_CGWG\CGTAB13
  9
$ELEVATION
 40
0.0
  9
$PELEVATION
 40
0.0
  9
$THICKNESS
 40
0.0
  9
$LIMCHECK
 70
     0
  9
$CHAMFERA
 40
1.0
  9
$CHAMFERB
 40
1.0
  9
$CHAMFERC
 40
1.0
  9
$CHAMFERD
 40
0.7853981633974483
  9
$SKPOLY
 70
     0
  9
$TDCREATE
 40
2451879.559074074
  9
$TDUCREATE
 40
2451879.517407408
  9
$TDUPDATE
 40
2459178.906238426
  9
$TDUUPDATE
 40
2459178.864571760
  9
$TDINDWG
 40
0.0347957986
  9
$TDUSRTIMER
 40
0.0347956134
  9
$USRTIMER
 70
     1
  9
$ANGBASE
 50
0.0
  9
$ANGDIR
 70
     0
  9
$PDMODE
 70
     0
  9
$PDSIZE
 40
5.0
  9
$PLINEWID
 40
0.0
  9
$SPLFRAME
 70
     0
  9
$SPLINETYPE
 70
     6
  9
$SPLINESEGS
 70
     8
  9
$HANDSEED
  5
B2C
  9
$SURFTAB1
 70
    12
  9
$SURFTAB2
 70
    12
  9
$SURFTYPE
 70
     6
  9
$SURFU
 70
    12
  9
$SURFV
 70
    12
  9
$UCSBASE
  2

  9
$UCSNAME
  2

  9
$UCSORG
 10
0.0
 20
0.0
 30
0.0
  9
$UCSXDIR
 10
1.0
 20
0.0
 30
0.0
  9
$UCSYDIR
 10
0.0
 20
1.0
 30
0.0
  9
$UCSORTHOREF
  2

  9
$UCSORTHOVIEW
 70
     0
  9
$UCSORGTOP
 10
0.0
 20
0.0
 30
0.0
  9
$UCSORGBOTTOM
 10
0.0
 20
0.0
 30
0.0
  9
$UCSORGLEFT
 10
0.0
 20
0.0
 30
0.0
  9
$UCSORGRIGHT
 10
0.0
 20
0.0
 30
0.0
  9
$UCSORGFRONT
 10
0.0
 20
0.0
 30
0.0
  9
$UCSORGBACK
 10
0.0
 20
0.0
 30
0.0
  9
$PUCSBASE
  2

  9
$PUCSNAME
  2

  9
$PUCSORG
 10
0.0
 20
0.0
 30
0.0
  9
$PUCSXDIR
 10
1.0
 20
0.0
 30
0.0
  9
$PUCSYDIR
 10
0.0
 20
1.0
 30
0.0
  9
$PUCSORTHOREF
  2

  9
$PUCSORTHOVIEW
 70
     0
  9
$PUCSORGTOP
 10
0.0
 20
0.0
 30
0.0
  9
$PUCSORGBOTTOM
 10
0.0
 20
0.0
 30
0.0
  9
$PUCSORGLEFT
 10
0.0
 20
0.0
 30
0.0
  9
$PUCSORGRIGHT
 10
0.0
 20
0.0
 30
0.0
  9
$PUCSORGFRONT
 10
0.0
 20
0.0
 30
0.0
  9
$PUCSORGBACK
 10
0.0
 20
0.0
 30
0.0
  9
$USERI1
 70
     0
  9
$USERI2
 70
     0
  9
$USERI3
 70
     0
  9
$USERI4
 70
     0
  9
$USERI5
 70
     0
  9
$USERR1
 40
0.0
  9
$USERR2
 40
0.0
  9
$USERR3
 40
0.0
  9
$USERR4
 40
0.0
  9
$USERR5
 40
0.0
  9
$WORLDVIEW
 70
     1
  9
$SHADEDGE
 70
     3
  9
$SHADEDIF
 70
    70
  9
$TILEMODE
 70
     1
  9
$MAXACTVP
 70
    48
  9
$PINSBASE
 10
0.0
 20
0.0
 30
0.0
  9
$PLIMCHECK
 70
     0
  9
$PEXTMIN
 10
1.000000000000000E+20
 20
1.000000000000000E+20
 30
1.000000000000000E+20
  9
$PEXTMAX
 10
-1.000000000000000E+20
 20
-1.000000000000000E+20
 30
-1.000000000000000E+20
  9
$PLIMMIN
 10
0.0
 20
0.0
  9
$PLIMMAX
 10
420.0
 20
297.0
  9
$UNITMODE
 70
     0
  9
$VISRETAIN
 70
     1
  9
$PLINEGEN
 70
     0
  9
$PSLTSCALE
 70
     1
  9
$TREEDEPTH
 70
  3020
  9
$CMLSTYLE
  2
STANDARD
  9
$CMLJUST
 70
     0
  9
$CMLSCALE
 40
1.0
  9
$PROXYGRAPHICS
 70
     1
  9
$MEASUREMENT
 70
     1
  9
$CELWEIGHT
370
    -1
  9
$ENDCAPS
280
     0
  9
$JOINSTYLE
280
     0
  9
$LWDISPLAY
290
     0
  9
$INSUNITS
 70
     4
  9
$HYPERLINKBASE
  1

  9
$STYLESHEET
  1
Hebgo JPG.ctb
  9
$XEDIT
290
     1
  9
$CEPSNTYPE
380
     0
  9
$PSTYLEMODE
290
     1
  9
$FINGERPRINTGUID
  2
{DEF6964E-5F8B-11D3-8AEE-0008C71A8CF4}
  9
$VERSIONGUID
  2
{C16FEF88-A8DF-4347-A79E-3BA085963D31}
  9
$EXTNAMES
290
     1
  9
$PSVPSCALE
 40
0.0
  9
$OLESTARTUP
290
     0
  9
$SORTENTS
280
    96
  9
$INDEXCTL
280
     0
  9
$HIDETEXT
280
     0
  9
$XCLIPFRAME
280
     2
  9
$HALOGAP
280
     0
  9
$OBSCOLOR
 70
   257
  9
$OBSLTYPE
280
     0
  9
$INTERSECTIONDISPLAY
280
     0
  9
$INTERSECTIONCOLOR
 70
   257
  9
$DIMASSOC
280
     1
  9
$PROJECTNAME
  1

  9
$CAMERADISPLAY
290
     0
  9
$LENSLENGTH
 40
50.0
  9
$CAMERAHEIGHT
 40
0.0
  9
$STEPSPERSEC
 40
2.0
  9
$STEPSIZE
 40
6.0
  9
$3DDWFPREC
 40
2.0
  9
$PSOLWIDTH
 40
0.25
  9
$PSOLHEIGHT
 40
4.0
  9
$LOFTANG1
 40
1.570796326794896
  9
$LOFTANG2
 40
1.570796326794896
  9
$LOFTMAG1
 40
0.0
  9
$LOFTMAG2
 40
0.0
  9
$LOFTPARAM
 70
     7
  9
$LOFTNORMALS
280
     1
  9
$LATITUDE
 40
37.795
  9
$LONGITUDE
 40
-122.394
  9
$NORTHDIRECTION
 40
0.0
  9
$TIMEZONE
 70
 -8000
  9
$LIGHTGLYPHDISPLAY
280
     1
  9
$TILEMODELIGHTSYNCH
280
     1
  9
$CMATERIAL
347
A7E
  9
$SOLIDHIST
280
     0
  9
$SHOWHIST
280
     1
  9
$DWFFRAME
280
     2
  9
$DGNFRAME
280
     0
  9
$REALWORLDSCALE
290
     1
  9
$INTERFERECOLOR
 62
     1
  9
$INTERFEREOBJVS
345
AA0
  9
$INTERFEREVPVS
346
A9D
  9
$CSHADOW
280
     0
  9
$SHADOWPLANELOCATION
 40
0.0
  0
ENDSEC
  0
SECTION
  2
CLASSES
  0
CLASS
  1
ACDBDICTIONARYWDFLT
  2
AcDbDictionaryWithDefault
  3
ObjectDBX Classes
 90
        0
 91
        1
280
     0
281
     0
  0
CLASS
  1
DICTIONARYVAR
  2
AcDbDictionaryVar
  3
ObjectDBX Classes
 90
        0
 91
       10
280
     0
281
     0
  0
CLASS
  1
PLOTSETTINGS
  2
AcDbPlotSettings
  3
ObjectDBX Classes
 90
        0
 91
        3
280
     0
281
     0
  0
CLASS
  1
MATERIAL
  2
AcDbMaterial
  3
ObjectDBX Classes
 90
     1153
 91
        3
280
     0
281
     0
  0
CLASS
  1
VISUALSTYLE
  2
AcDbVisualStyle
  3
ObjectDBX Classes
 90
     4095
 91
       24
280
     0
281
     0
  0
CLASS
  1
TABLESTYLE
  2
AcDbTableStyle
  3
ObjectDBX Classes
 90
     4095
 91
        1
280
     0
281
     0
  0
CLASS
  1
SCALE
  2
AcDbScale
  3
ObjectDBX Classes
 90
     1153
 91
       17
280
     0
281
     0
  0
CLASS
  1
MLEADERSTYLE
  2
AcDbMLeaderStyle
  3
ACDB_MLEADERSTYLE_CLASS
 90
     4095
 91
        1
280
     0
281
     0
  0
CLASS
  1
ACDBSECTIONVIEWSTYLE
  2
AcDbSectionViewStyle
  3
ObjectDBX Classes
 90
     1025
 91
        1
280
     0
281
     0
  0
CLASS
  1
ACDBDETAILVIEWSTYLE
  2
AcDbDetailViewStyle
  3
ObjectDBX Classes
 90
     1025
 91
        1
280
     0
281
     0
  0
CLASS
  1
RAPIDRTRENDERSETTINGS
  2
AcDbRapidRTRenderSettings
  3
ObjectDBX Classes
 90
     1024
 91
        7
280
     0
281
     0
  0
CLASS
  1
SORTENTSTABLE
  2
AcDbSortentsTable
  3
ObjectDBX Classes
 90
        0
 91
        1
280
     0
281
     0
  0
CLASS
  1
CELLSTYLEMAP
  2
AcDbCellStyleMap
  3
ObjectDBX Classes
 90
     1152
 91
        1
280
     0
281
     0
  0
CLASS
  1
MENTALRAYRENDERSETTINGS
  2
AcDbMentalRayRenderSettings
  3
SCENEOE
 90
     1024
 91
        1
280
     0
281
     0
  0
ENDSEC
  0
SECTION
  2
TABLES
  0
TABLE
  2
VPORT
  5
8
330
0
100
AcDbSymbolTable
 70
     1
1001
ACAD
1000
DbSaveVer
1071
      224
  0
VPORT
  5
A42
330
8
100
AcDbSymbolTableRecord
100
AcDbViewportTableRecord
  2
*Active
 70
     0
 10
0.0
 20
0.0
 11
1.0
 21
1.0
 12
-35.53390437217184
 22
16.04461741638914
 13
0.0
 23
0.0
 14
0.5
 24
0.5
 15
10.0
 25
10.0
 16
0.0
 26
0.0
 36
1.0
 17
0.0
 27
0.0
 37
0.0
 40
64.44275956761643
 41
2.014516129032258
 42
50.0
 43
0.0
 44
0.0
 50
0.0
 51
0.0
 71
     0
 72
   800
 73
     1
 74
     1
 75
     0
 76
     0
 77
     0
 78
     0
281
     0
 65
     1
110
0.0
120
0.0
130
0.0
111
1.0
121
0.0
131
0.0
112
0.0
122
1.0
132
0.0
 79
     0
146
0.0
348
A9C
 60
     3
 61
     5
292
     1
282
     1
141
0.0
142
0.0
 63
   250
421
  3355443
1001
ACAD_NAV_VCDISPLAY
1070
     3
  0
ENDTAB
  0
TABLE
  2
LTYPE
  5
5
330
0
100
AcDbSymbolTable
 70
     3
  0
LTYPE
  5
14
330
5
100
AcDbSymbolTableRecord
100
AcDbLinetypeTableRecord
  2
BYBLOCK
 70
     0
  3

 72
    65
 73
     0
 40
0.0
  0
LTYPE
  5
15
330
5
100
AcDbSymbolTableRecord
100
AcDbLinetypeTableRecord
  2
BYLAYER
 70
     0
  3

 72
    65
 73
     0
 40
0.0
  0
LTYPE
  5
16
330
5
100
AcDbSymbolTableRecord
100
AcDbLinetypeTableRecord
  2
CONTINUOUS
 70
     0
  3
_______________________________________________
 72
    65
 73
     2
 40
1.0
 49
1.0
 74
     0
 49
0.0
 74
     0
  0
ENDTAB
  0
TABLE
  2
LAYER
  5
2
330
0
100
AcDbSymbolTable
 70
    14
  0
LAYER
  5
F
330
2
100
AcDbSymbolTableRecord
100
AcDbLayerTableRecord
  2
0
 70
     0
 62
    30
  6
CONTINUOUS
370
    -3
390
F3
347
A8E
348
0
  0
LAYER
  5
120
330
2
100
AcDbSymbolTableRecord
100
AcDbLayerTableRecord
  2
1
 70
     0
 62
     2
  6
CONTINUOUS
370
    -3
390
F3
347
A8E
348
0
  0
LAYER
  5
121
330
2
100
AcDbSymbolTableRecord
100
AcDbLayerTableRecord
  2
2
 70
     0
 62
     9
  6
CONTINUOUS
370
    -3
390
F3
347
A8E
348
0
  0
LAYER
  5
123
330
2
100
AcDbSymbolTableRecord
100
AcDbLayerTableRecord
  2
4
 70
     1
 62
     4
  6
CONTINUOUS
370
    -3
390
F3
347
A8E
348
0
  0
LAYER
  5
124
330
2
100
AcDbSymbolTableRecord
100
AcDbLayerTableRecord
  2
5
 70
     0
 62
     1
  6
CONTINUOUS
370
    -3
390
F3
347
A8E
348
0
  0
LAYER
  5
125
330
2
100
AcDbSymbolTableRecord
100
AcDbLayerTableRecord
  2
6
 70
     0
 62
     3
  6
CONTINUOUS
370
    35
390
F3
347
A8E
348
0
  0
ENDTAB
  0
TABLE
  2
STYLE
  5
3
330
0
100
AcDbSymbolTable
 70
     5
  0
STYLE
  5
10
330
3
100
AcDbSymbolTableRecord
100
AcDbTextStyleTableRecord
  2
STANDARD
 70
     0
 40
0.0
 41
1.0
 50
0.0
 71
     0
 42
2.5
  3
ARIAL.TTF
  4

1001
ACAD
1000
Arial
1071
       34
  0
STYLE
  5
12B
330
3
100
AcDbSymbolTableRecord
100
AcDbTextStyleTableRecord
  2
Beschlag
 70
     0
 40
0.0
 41
1.0
 50
0.0
 71
     0
 42
3.5
  3
ARIAL.TTF
  4

1001
ACAD
1000
Arial
1071
       34
  0
STYLE
  5
703
330
3
100
AcDbSymbolTableRecord
100
AcDbTextStyleTableRecord
  2
VSM_00
 70
     0
 40
0.0
 41
0.9
 50
0.0
 71
     0
 42
3.5
  3
ISOCP.shx
  4

  0
STYLE
  5
B04
330
3
100
AcDbSymbolTableRecord
100
AcDbTextStyleTableRecord
  2
MuM_Notiztext
 70
     0
 40
0.0
 41
1.0
 50
0.0
 71
     0
 42
0.2
  3
arial.ttf
  4

1001
ACAD
1000
Arial
1071
      256
  0
STYLE
  5
B05
330
3
100
AcDbSymbolTableRecord
100
AcDbTextStyleTableRecord
  2
AZC_010
 70
     0
 40
25.0
 41
1.0
 50
0.0
 71
     0
 42
25.0
  3
isocp.shx
  4

  0
ENDTAB
  0
TABLE
  2
VIEW
  5
6
330
0
100
AcDbSymbolTable
 70
     1
  0
ENDTAB
  0
TABLE
  2
UCS
  5
7
330
0
100
AcDbSymbolTable
 70
     0
  0
ENDTAB
  0
TABLE
  2
APPID
  5
9
330
0
100
AcDbSymbolTable
 70
    16
  0
APPID
  5
11
330
9
100
AcDbSymbolTableRecord
100
AcDbRegAppTableRecord
  2
ACAD
 70
     0
  0
APPID
  5
ACF
330
9
100
AcDbSymbolTableRecord
100
AcDbRegAppTableRecord
  2
CADT-VIS-MAPPING
 70
     0
  0
APPID
  5
AD0
330
9
100
AcDbSymbolTableRecord
100
AcDbRegAppTableRecord
  2
CADT-LAYMAT
 70
     0
  0
APPID
  5
AD9
330
9
100
AcDbSymbolTableRecord
100
AcDbRegAppTableRecord
  2
CADT_UNIT
 70
     0
  0
APPID
  5
AE3
330
9
100
AcDbSymbolTableRecord
100
AcDbRegAppTableRecord
  2
AZC_MC_BTDEF
 70
     0
  0
APPID
  5
AE4
330
9
100
AcDbSymbolTableRecord
100
AcDbRegAppTableRecord
  2
AZC_MC_BTREF
 70
     0
  0
APPID
  5
AE5
330
9
100
AcDbSymbolTableRecord
100
AcDbRegAppTableRecord
  2
AZC_MC_BTDAR
 70
     0
  0
APPID
  5
AE6
330
9
100
AcDbSymbolTableRecord
100
AcDbRegAppTableRecord
  2
AZC_MC_BTUCS
 70
     0
  0
APPID
  5
AE7
330
9
100
AcDbSymbolTableRecord
100
AcDbRegAppTableRecord
  2
AZC_MC_BEARB
 70
     0
  0
APPID
  5
AE8
330
9
100
AcDbSymbolTableRecord
100
AcDbRegAppTableRecord
  2
AZC_NCTEC
 70
     0
  0
APPID
  5
AE9
330
9
100
AcDbSymbolTableRecord
100
AcDbRegAppTableRecord
  2
CADTH_APDATA
 70
     0
  0
APPID
  5
AEA
330
9
100
AcDbSymbolTableRecord
100
AcDbRegAppTableRecord
  2
CADTH_PART
 70
     0
  0
APPID
  5
AEB
330
9
100
AcDbSymbolTableRecord
100
AcDbRegAppTableRecord
  2
CADT_GEN_MASTER
 70
     0
  0
APPID
  5
AEC
330
9
100
AcDbSymbolTableRecord
100
AcDbRegAppTableRecord
  2
CADT_GEN_SLAVE
 70
     0
  0
APPID
  5
AFC
330
9
100
AcDbSymbolTableRecord
100
AcDbRegAppTableRecord
  2
ACAD_EXEMPT_FROM_CAD_STANDARDS
 70
     0
  0
APPID
  5
B09
330
9
100
AcDbSymbolTableRecord
100
AcDbRegAppTableRecord
  2
ACAD_NAV_VCDISPLAY
 70
     0
  0
ENDTAB
  0
TABLE
  2
DIMSTYLE
  5
A
330
0
100
AcDbSymbolTable
 70
     5
100
AcDbDimStyleTable
 71
     1
340
209
  0
DIMSTYLE
105
209
102
{ACAD_REACTORS
330
2EC
330
2EE
330
2F4
330
2E9
102
}
330
A
100
AcDbSymbolTableRecord
100
AcDbDimStyleTableRecord
  2
OPO-SSTRICH
 70
     0
 41
2.0
 42
2.0
 43
0.0
 44
1.0
 46
1.0
 73
     0
 74
     0
 77
     1
 78
     8
 79
     2
140
3.5
141
0.0
143
0.039370078740157
146
0.7114285714285716
147
1.0
172
     1
173
     1
174
     1
176
   256
177
   256
178
   256
179
     1
271
     1
272
     1
279
     2
284
     8
285
     8
286
     8
340
12B
341
203
343
203
344
203
  0
DIMSTYLE
105
B06
330
A
100
AcDbSymbolTableRecord
100
AcDbDimStyleTableRecord
  2
Standard
 70
     0
340
10
  0
DIMSTYLE
105
B07
330
A
100
AcDbSymbolTableRecord
100
AcDbDimStyleTableRecord
  2
MuM_Bemassung
 70
     0
 40
0.1
 41
2.5
 42
0.0
 43
8.0
 44
3.174999999999999
 45
0.00000001
 46
10.0
 73
     0
 74
     0
 77
     1
 78
     8
 79
     2
140
3.0
143
0.03937
146
0.6000000238418579
147
0.25
171
     3
172
     1
176
   256
177
   256
178
   256
271
     2
272
     2
274
     3
275
     1
278
    44
284
     8
285
     8
286
     8
340
B04
371
    -1
372
    -1
  0
DIMSTYLE
105
B08
330
A
100
AcDbSymbolTableRecord
100
AcDbDimStyleTableRecord
  2
AZC_010
 70
     0
 40
10.0
340
B05
  0
ENDTAB
  0
TABLE
  2
BLOCK_RECORD
  5
1
330
0
100
AcDbSymbolTable
 70
    12
  0
BLOCK_RECORD
  5
1A
102
{ACAD_XDICTIONARY
360
1F6
102
}
330
1
100
AcDbSymbolTableRecord
100
AcDbBlockTableRecord
  2
*MODEL_SPACE
340
F6
 70
     0
280
     1
281
     0
  0
BLOCK_RECORD
  5
17
102
{ACAD_XDICTIONARY
360
1F4
102
}
330
1
100
AcDbSymbolTableRecord
100
AcDbBlockTableRecord
  2
*PAPER_SPACE
340
F7
 70
     0
280
     1
281
     0
  0
BLOCK_RECORD
  5
203
330
1
100
AcDbSymbolTableRecord
100
AcDbBlockTableRecord
  2
_Oblique
340
0
102
{BLKREFS
331
3B4
331
3B5
331
3BD
331
3BE
331
3E3
331
3E4
331
403
331
404
331
414
331
415
331
711
331
712
102
}
 70
     0
280
     1
281
     0
  0
BLOCK_RECORD
  5
253
330
1
100
AcDbSymbolTableRecord
100
AcDbBlockTableRecord
  2
NullPunkt
340
0
102
{BLKREFS
331
25B
102
}
 70
     0
280
     1
281
     0
  0
BLOCK_RECORD
  5
302
330
1
100
AcDbSymbolTableRecord
100
AcDbBlockTableRecord
  2
*D2
340
0
 70
     0
280
     1
281
     0
  0
BLOCK_RECORD
  5
30F
330
1
100
AcDbSymbolTableRecord
100
AcDbBlockTableRecord
  2
*D3
340
0
 70
     0
280
     1
281
     0
  0
BLOCK_RECORD
  5
31C
330
1
100
AcDbSymbolTableRecord
100
AcDbBlockTableRecord
  2
*D4
340
0
 70
     0
280
     1
281
     0
  0
BLOCK_RECORD
  5
329
330
1
100
AcDbSymbolTableRecord
100
AcDbBlockTableRecord
  2
*D5
340
0
 70
     0
280
     1
281
     0
  0
BLOCK_RECORD
  5
336
330
1
100
AcDbSymbolTableRecord
100
AcDbBlockTableRecord
  2
*D6
340
0
 70
     0
280
     1
281
     0
  0
BLOCK_RECORD
  5
343
330
1
100
AcDbSymbolTableRecord
100
AcDbBlockTableRecord
  2
*D7
340
0
 70
     0
280
     1
281
     0
  0
BLOCK_RECORD
  5
ADA
330
1
100
AcDbSymbolTableRecord
100
AcDbBlockTableRecord
  2
CUSTINFO
340
0
 70
     0
280
     1
281
     0
  0
BLOCK_RECORD
  5
AED
330
1
100
AcDbSymbolTableRecord
100
AcDbBlockTableRecord
  2
AZCBTDEF
340
0
 70
     0
280
     1
281
     0
  0
ENDTAB
  0
ENDSEC
  0
SECTION
  2
BLOCKS
  0
BLOCK
  5
1B
330
1A
100
AcDbEntity
  8
0
100
AcDbBlockBegin
  2
*MODEL_SPACE
 70
     0
 10
0.0
 20
0.0
 30
0.0
  3
*MODEL_SPACE
  1

  0
ENDBLK
  5
1C
330
1A
100
AcDbEntity
  8
0
100
AcDbBlockEnd
  0
BLOCK
  5
18
330
17
100
AcDbEntity
 67
     1
  8
0
100
AcDbBlockBegin
  2
*PAPER_SPACE
 70
     0
 10
0.0
 20
0.0
 30
0.0
  3
*PAPER_SPACE
  1

  0
ENDBLK
  5
19
330
17
100
AcDbEntity
 67
     1
  8
0
100
AcDbBlockEnd
  0
BLOCK
  5
205
330
203
100
AcDbEntity
  8
0
100
AcDbBlockBegin
  2
_Oblique
 70
     0
 10
0.0
 20
0.0
 30
0.0
  3
_Oblique
  1

  0
LINE
  5
204
330
203
100
AcDbEntity
  8
0
 62
     0
370
    -2
100
AcDbLine
 10
-0.5
 20
-0.5
 30
0.0
 11
0.5
 21
0.5
 31
0.0
  0
ENDBLK
  5
206
330
203
100
AcDbEntity
  8
0
100
AcDbBlockEnd
  0
BLOCK
  5
259
330
253
100
AcDbEntity
  8
0
100
AcDbBlockBegin
  2
NullPunkt
 70
     0
 10
0.0
 20
0.0
 30
0.0
  3
NullPunkt
  1

  0
SOLID
  5
254
330
253
100
AcDbEntity
  8
5
100
AcDbTrace
 10
0.0
 20
0.0
 30
0.0
 11
2.0
 21
0.0
 31
0.0
 12
0.0
 22
-2.0
 32
0.0
 13
0.0
 23
-2.0
 33
0.0
  0
SOLID
  5
255
330
253
100
AcDbEntity
  8
5
100
AcDbTrace
 10
0.0
 20
0.0
 30
0.0
 11
-2.0
 21
0.0
 31
0.0
 12
0.0
 22
2.0
 32
0.0
 13
0.0
 23
2.0
 33
0.0
  0
LWPOLYLINE
  5
256
330
253
100
AcDbEntity
  8
5
100
AcDbPolyline
 90
        2
 70
     0
 43
0.0
 10
0.0
 20
2.0
 10
0.0
 20
-2.0
  0
LWPOLYLINE
  5
257
330
253
100
AcDbEntity
  8
5
100
AcDbPolyline
 90
        2
 70
     0
 43
0.0
 10
-2.0
 20
0.0
 10
2.0
 20
0.0
  0
CIRCLE
  5
258
330
253
100
AcDbEntity
  8
5
100
AcDbCircle
 10
0.0
 20
0.0
 30
0.0
 40
2.0
  0
ENDBLK
  5
25A
330
253
100
AcDbEntity
  8
0
100
AcDbBlockEnd
  0
BLOCK
  5
30D
330
302
100
AcDbEntity
  8
0
100
AcDbBlockBegin
  2
*D2
 70
     1
 10
0.0
 20
0.0
 30
0.0
  3
*D2
  1

  0
LINE
  5
3DE
330
302
100
AcDbEntity
  8
1
440
 16777216
370
    -2
100
AcDbLine
 10
-69.0
 20
25.0
 30
0.0
 11
-73.88241101976565
 21
25.0
 31
0.0
  0
LINE
  5
3DF
330
302
100
AcDbEntity
  8
1
440
 16777216
370
    -2
100
AcDbLine
 10
-5.0
 20
32.5
 30
0.0
 11
-73.88241101976563
 21
32.50000000000002
 31
0.0
  0
LINE
  5
3E0
330
302
100
AcDbEntity
  8
1
440
 16777216
370
    -2
100
AcDbLine
 10
-72.88241101976566
 20
25.0
 30
0.0
 11
-72.88241101976566
 21
23.0
 31
0.0
  0
LINE
  5
3E1
330
302
100
AcDbEntity
  8
1
440
 16777216
370
    -2
100
AcDbLine
 10
-72.88241101976564
 20
32.50000000000002
 30
0.0
 11
-72.88241101976564
 21
34.50000000000002
 31
0.0
  0
LINE
  5
3E2
330
302
100
AcDbEntity
  8
1
440
 16777216
370
    -2
100
AcDbLine
 10
-72.88241101976566
 20
25.0
 30
0.0
 11
-72.88241101976564
 21
32.50000000000002
 31
0.0
  0
INSERT
  5
3E3
330
302
100
AcDbEntity
  8
1
440
 16777216
370
    -2
100
AcDbBlockReference
  2
_Oblique
 10
-72.88241101976566
 20
25.0
 30
0.0
 41
2.0
 42
2.0
 43
2.0
 50
90.0
  0
INSERT
  5
3E4
330
302
100
AcDbEntity
  8
1
440
 16777216
370
    -2
100
AcDbBlockReference
  2
_Oblique
 10
-72.88241101976564
 20
32.50000000000002
 30
0.0
 41
2.0
 42
2.0
 43
2.0
 50
270.0
  0
MTEXT
  5
3E5
330
302
100
AcDbEntity
  8
1
440
 16777216
100
AcDbMText
 10
-75.66225413027042
 20
28.75
 30
0.0
 40
3.5
 41
0.0
 46
0.0
 71
     5
 72
     1
  1
\A1;7.5
  7
Beschlag
 11
0.0000000000000001
 21
1.0
 31
0.0
 73
     1
 44
1.0
  0
ENDBLK
  5
30E
330
302
100
AcDbEntity
  8
0
100
AcDbBlockEnd
  0
BLOCK
  5
31A
330
30F
100
AcDbEntity
  8
0
100
AcDbBlockBegin
  2
*D3
 70
     1
 10
0.0
 20
0.0
 30
0.0
  3
*D3
  1

  0
LINE
  5
411
330
30F
100
AcDbEntity
  8
1
440
 16777216
370
    -2
100
AcDbLine
 10
-67.0
 20
23.0
 30
0.0
 11
-67.0
 21
-6.942933494724343
 31
0.0
  0
LINE
  5
412
330
30F
100
AcDbEntity
  8
1
440
 16777216
370
    -2
100
AcDbLine
 10
-3.0
 20
-13.0
 30
0.0
 11
-2.999999999999999
 21
-4.942933494724343
 31
0.0
  0
LINE
  5
413
330
30F
100
AcDbEntity
  8
1
440
 16777216
370
    -2
100
AcDbLine
 10
-68.0
 20
-5.942933494724343
 30
0.0
 11
-1.999999999999999
 21
-5.942933494724343
 31
0.0
  0
INSERT
  5
414
330
30F
100
AcDbEntity
  8
1
440
 16777216
370
    -2
100
AcDbBlockReference
  2
_Oblique
 10
-67.0
 20
-5.942933494724343
 30
0.0
 41
2.0
 42
2.0
 43
2.0
 50
180.0
  0
INSERT
  5
415
330
30F
100
AcDbEntity
  8
1
440
 16777216
370
    -2
100
AcDbBlockReference
  2
_Oblique
 10
-2.999999999999999
 20
-5.942933494724343
 30
0.0
 41
2.0
 42
2.0
 43
2.0
  0
MTEXT
  5
416
330
30F
100
AcDbEntity
  8
1
440
 16777216
100
AcDbMText
 10
-35.0
 20
-3.155928037698422
 30
0.0
 40
3.5
 41
0.0
 46
0.0
 71
     5
 72
     1
  1
\A1;64
  7
Beschlag
 73
     1
 44
1.0
  0
ENDBLK
  5
31B
330
30F
100
AcDbEntity
  8
0
100
AcDbBlockEnd
  0
BLOCK
  5
327
330
31C
100
AcDbEntity
  8
0
100
AcDbBlockBegin
  2
*D4
 70
     1
 10
0.0
 20
0.0
 30
0.0
  3
*D4
  1

  0
LINE
  5
3B1
330
31C
100
AcDbEntity
  8
1
440
 16777216
370
    -2
100
AcDbLine
 10
-11.30000000000018
 20
25.0
 30
0.0
 11
-27.01670098423164
 21
25.0
 31
0.0
  0
LINE
  5
3B2
330
31C
100
AcDbEntity
  8
1
440
 16777216
370
    -2
100
AcDbLine
 10
-7.0
 20
-15.0
 30
0.0
 11
-27.01670098423165
 21
-14.99999999999999
 31
0.0
  0
LINE
  5
3B3
330
31C
100
AcDbEntity
  8
1
440
 16777216
370
    -2
100
AcDbLine
 10
-26.01670098423164
 20
26.0
 30
0.0
 11
-26.01670098423165
 21
-15.99999999999999
 31
0.0
  0
INSERT
  5
3B4
330
31C
100
AcDbEntity
  8
1
440
 16777216
370
    -2
100
AcDbBlockReference
  2
_Oblique
 10
-26.01670098423164
 20
25.0
 30
0.0
 41
2.0
 42
2.0
 43
2.0
 50
90.0
  0
INSERT
  5
3B5
330
31C
100
AcDbEntity
  8
1
440
 16777216
370
    -2
100
AcDbBlockReference
  2
_Oblique
 10
-26.01670098423165
 20
-14.99999999999999
 30
0.0
 41
2.0
 42
2.0
 43
2.0
 50
270.0
  0
MTEXT
  5
3B6
330
31C
100
AcDbEntity
  8
1
440
 16777216
100
AcDbMText
 10
-28.80370644125756
 20
5.0
 30
0.0
 40
3.5
 41
0.0
 46
0.0
 71
     5
 72
     1
  1
\A1;40
  7
Beschlag
 11
0.0000000000000001
 21
1.0
 31
0.0
 73
     1
 44
1.0
  0
ENDBLK
  5
328
330
31C
100
AcDbEntity
  8
0
100
AcDbBlockEnd
  0
BLOCK
  5
334
330
329
100
AcDbEntity
  8
0
100
AcDbBlockBegin
  2
*D5
 70
     1
 10
0.0
 20
0.0
 30
0.0
  3
*D5
  1

  0
LINE
  5
3BA
330
329
100
AcDbEntity
  8
1
440
 16777216
370
    -2
100
AcDbLine
 10
-11.30000000000018
 20
25.0
 30
0.0
 11
-19.55937284555875
 21
25.0
 31
0.0
  0
LINE
  5
3BB
330
329
100
AcDbEntity
  8
1
440
 16777216
370
    -2
100
AcDbLine
 10
-11.30000000000018
 20
15.0
 30
0.0
 11
-19.55937284555875
 21
15.0
 31
0.0
  0
LINE
  5
3BC
330
329
100
AcDbEntity
  8
1
440
 16777216
370
    -2
100
AcDbLine
 10
-18.55937284555875
 20
26.0
 30
0.0
 11
-18.55937284555875
 21
14.0
 31
0.0
  0
INSERT
  5
3BD
330
329
100
AcDbEntity
  8
1
440
 16777216
370
    -2
100
AcDbBlockReference
  2
_Oblique
 10
-18.55937284555875
 20
25.0
 30
0.0
 41
2.0
 42
2.0
 43
2.0
 50
90.0
  0
INSERT
  5
3BE
330
329
100
AcDbEntity
  8
1
440
 16777216
370
    -2
100
AcDbBlockReference
  2
_Oblique
 10
-18.55937284555875
 20
15.0
 30
0.0
 41
2.0
 42
2.0
 43
2.0
 50
270.0
  0
MTEXT
  5
3BF
330
329
100
AcDbEntity
  8
1
440
 16777216
100
AcDbMText
 10
-21.34637830258468
 20
20.0
 30
0.0
 40
3.5
 41
0.0
 46
0.0
 71
     5
 72
     1
  1
\A1;10
  7
Beschlag
 11
0.0000000000000001
 21
1.0
 31
0.0
 73
     1
 44
1.0
  0
ENDBLK
  5
335
330
329
100
AcDbEntity
  8
0
100
AcDbBlockEnd
  0
BLOCK
  5
341
330
336
100
AcDbEntity
  8
0
100
AcDbBlockBegin
  2
*D6
 70
     1
 10
0.0
 20
0.0
 30
0.0
  3
*D6
  1

  0
LINE
  5
3FF
330
336
100
AcDbEntity
  8
1
440
 16777216
370
    -2
100
AcDbLine
 10
-9.300000000000181
 20
13.0
 30
0.0
 11
-9.300000000000181
 21
3.366061981221719
 31
0.0
  0
LINE
  5
400
330
336
100
AcDbEntity
  8
1
440
 16777216
370
    -2
100
AcDbLine
 10
-3.0
 20
13.0
 30
0.0
 11
-3.0
 21
3.366061981221719
 31
0.0
  0
LINE
  5
401
330
336
100
AcDbEntity
  8
1
440
 16777216
370
    -2
100
AcDbLine
 10
-10.30000000000018
 20
4.366061981221719
 30
0.0
 11
-2.0
 21
4.366061981221719
 31
0.0
  0
MTEXT
  5
402
330
336
100
AcDbEntity
  8
1
440
 16777216
100
AcDbMText
 10
-12.98478617317551
 20
7.154261162667832
 30
0.0
 40
3.5
 41
0.0
 46
0.0
 71
     5
 72
     1
  1
\A1;6.3
  7
Beschlag
 73
     1
 44
1.0
  0
INSERT
  5
403
330
336
100
AcDbEntity
  8
1
440
 16777216
370
    -2
100
AcDbBlockReference
  2
_Oblique
 10
-9.300000000000181
 20
4.366061981221719
 30
0.0
 41
2.0
 42
2.0
 43
2.0
 50
180.0
  0
INSERT
  5
404
330
336
100
AcDbEntity
  8
1
440
 16777216
370
    -2
100
AcDbBlockReference
  2
_Oblique
 10
-3.0
 20
4.366061981221719
 30
0.0
 41
2.0
 42
2.0
 43
2.0
  0
ENDBLK
  5
342
330
336
100
AcDbEntity
  8
0
100
AcDbBlockEnd
  0
BLOCK
  5
34E
330
343
100
AcDbEntity
  8
0
100
AcDbBlockBegin
  2
*D7
 70
     1
 10
0.0
 20
0.0
 30
0.0
  3
*D7
  1

  0
LINE
  5
70E
330
343
100
AcDbEntity
  8
1
440
 16777216
370
    -2
100
AcDbLine
 10
-3.0
 20
34.5
 30
0.0
 11
-2.999999999999999
 21
43.61666869503642
 31
0.0
  0
LINE
  5
70F
330
343
100
AcDbEntity
  8
1
440
 16777216
370
    -2
100
AcDbLine
 10
1.999999999999999
 20
46.05806484836921
 30
0.0
 11
1.999999999999999
 21
41.61666869503642
 31
0.0
  0
LINE
  5
710
330
343
100
AcDbEntity
  8
1
440
 16777216
370
    -2
100
AcDbLine
 10
-3.999999999999999
 20
42.61666869503642
 30
0.0
 11
2.999999999999999
 21
42.61666869503642
 31
0.0
  0
INSERT
  5
711
330
343
100
AcDbEntity
  8
1
440
 16777216
370
    -2
100
AcDbBlockReference
  2
_Oblique
 10
-2.999999999999999
 20
42.61666869503642
 30
0.0
 41
2.0
 42
2.0
 43
2.0
 50
180.0
  0
INSERT
  5
712
330
343
100
AcDbEntity
  8
1
440
 16777216
370
    -2
100
AcDbBlockReference
  2
_Oblique
 10
1.999999999999999
 20
42.61666869503642
 30
0.0
 41
2.0
 42
2.0
 43
2.0
  0
MTEXT
  5
713
330
343
100
AcDbEntity
  8
1
440
 16777216
100
AcDbMText
 10
-0.4999999999999999
 20
45.39651180554119
 30
0.0
 40
3.5
 41
0.0
 46
0.0
 71
     5
 72
     1
  1
\A1;5
  7
Beschlag
 73
     1
 44
1.0
  0
ENDBLK
  5
34F
330
343
100
AcDbEntity
  8
0
100
AcDbBlockEnd
  0
BLOCK
  5
ADB
330
ADA
100
AcDbEntity
  8
0
100
AcDbBlockBegin
  2
CUSTINFO
 70
     0
 10
0.0
 20
0.0
 30
0.0
  3
CUSTINFO
  1
CUSTINFO
  0
ENDBLK
  5
ADC
330
ADA
100
AcDbEntity
  8
0
100
AcDbBlockEnd
  0
BLOCK
  5
AEE
330
AED
100
AcDbEntity
  8
0
100
AcDbBlockBegin
  2
AZCBTDEF
 70
     0
 10
0.0
 20
0.0
 30
0.0
  3
AZCBTDEF
  1
AZCBTDEF
  0
ENDBLK
  5
AF9
330
AED
100
AcDbEntity
  8
0
100
AcDbBlockEnd
  0
ENDSEC
  0
SECTION
  2
ENTITIES
  0
INSERT
  5
25B
330
1A
100
AcDbEntity
  8
5
100
AcDbBlockReference
  2
NullPunkt
 10
2.0
 20
0.0
 30
0.0
  0
LWPOLYLINE
  5
2E4
330
1A
100
AcDbEntity
  8
4
100
AcDbPolyline
 90
       22
 70
     0
 43
0.0
 10
-12.01479759462563
 20
28.40000000000055
 10
-67.0
 20
28.40000000000055
 10
-67.0
 20
25.0
 10
-9.300000000000181
 20
25.0
 10
-9.300000000000181
 20
15.0
 10
-5.0
 20
15.0
 10
-5.0
 20
-15.0
 10
-3.0
 20
-15.0
 10
-3.0
 20
19.29999999999995
 10
-4.5
 20
19.29999999999995
 10
-4.5
 20
17.29999999999995
 10
-7.000000000000909
 20
17.29999999999995
 10
-7.000000000000909
 20
29.29999999999996
 10
-4.5
 20
29.29999999999996
 10
-4.5
 20
27.29999999999995
 10
-3.0
 20
27.29999999999995
 10
-3.0
 20
32.5
 10
-5.077350267494693
 20
32.5
 10
-7.031862660513979
 20
32.3875903805847
 10
-8.980207969452749
 20
31.44227604892512
 10
-10.62577058327315
 20
29.98440600579101
 10
-12.05026437312062
 20
28.35954450389136
  0
LWPOLYLINE
  5
2E7
330
1A
100
AcDbEntity
  8
5
100
AcDbPolyline
 90
        3
 70
     0
 43
0.0
 10
9.336040591850178
 20
0.0
 10
2.0
 20
0.0
 10
2.0
 20
48.05806484836921
  0
DIMENSION
  5
2E9
330
1A
100
AcDbEntity
  8
1
100
AcDbDimension
280
     0
  2
*D2
 10
-72.88241101976564
 20
32.50000000000002
 30
0.0
 11
-75.66225413027042
 21
28.75
 31
0.0
 70
    32
 71
     5
 42
-1.0
 73
     0
 74
     0
 75
     0
  3
OPO-SSTRICH
100
AcDbAlignedDimension
 13
-67.0
 23
25.0
 33
0.0
 14
-3.0
 24
32.5
 34
0.0
 50
90.0
100
AcDbRotatedDimension
  0
HATCH
  5
2EA
330
1A
100
AcDbEntity
  8
2
100
AcDbHatch
 10
0.0
 20
0.0
 30
0.0
210
0.0
220
0.0
230
1.0
  2
ANSI31
 70
     0
 71
     1
 91
        1
 92
        1
 93
      167
 72
     1
 10
-23.17678619872913
 20
28.30000000000064
 11
-22.77264101199126
 21
27.60000000000037
 72
     1
 10
-22.77264101199126
 20
27.60000000000037
 11
-21.92734155037124
 21
27.60000000000059
 72
     1
 10
-21.92734155037124
 20
27.60000000000059
 11
-21.52319636024277
 21
28.30000000000064
 72
     2
 10
-21.34999127948595
 20
28.20000000000073
 40
0.1999999999998922
 50
209.9999999999877
 51
330.0000000000122
 73
     0
 72
     1
 10
-21.17678619872913
 20
28.30000000000064
 11
-20.77264101199125
 21
27.60000000000037
 72
     1
 10
-20.77264101199125
 20
27.60000000000037
 11
-19.92734155037124
 21
27.60000000000059
 72
     1
 10
-19.92734155037124
 20
27.60000000000059
 11
-19.52319636024276
 21
28.30000000000064
 72
     2
 10
-19.34999127948595
 20
28.20000000000073
 40
0.1999999999998922
 50
209.9999999999877
 51
330.0000000000122
 73
     0
 72
     1
 10
-19.17678619872913
 20
28.30000000000064
 11
-18.77264101199125
 21
27.60000000000037
 72
     1
 10
-18.77264101199125
 20
27.60000000000037
 11
-17.92734155037124
 21
27.60000000000059
 72
     1
 10
-17.92734155037124
 20
27.60000000000059
 11
-17.52319636024276
 21
28.30000000000064
 72
     2
 10
-17.34999127948595
 20
28.20000000000073
 40
0.1999999999998922
 50
209.9999999999877
 51
330.0000000000122
 73
     0
 72
     1
 10
-17.17678619872913
 20
28.30000000000064
 11
-16.77264101199125
 21
27.60000000000037
 72
     1
 10
-16.77264101199125
 20
27.60000000000037
 11
-15.92734155037124
 21
27.60000000000059
 72
     1
 10
-15.92734155037124
 20
27.60000000000059
 11
-15.52319636024276
 21
28.30000000000064
 72
     2
 10
-15.34999127948595
 20
28.20000000000073
 40
0.1999999999998922
 50
209.9999999999877
 51
330.0000000000122
 73
     0
 72
     1
 10
-15.17678619872913
 20
28.30000000000064
 11
-14.77264101199125
 21
27.60000000000037
 72
     1
 10
-14.77264101199125
 20
27.60000000000037
 11
-13.92734155037124
 21
27.60000000000037
 72
     1
 10
-13.92734155037124
 20
27.60000000000037
 11
-13.52319636024276
 21
28.30000000000041
 72
     2
 10
-13.34999127948595
 20
28.20000000000027
 40
0.2000000000000059
 50
210.0000000000441
 51
329.9999999999558
 73
     0
 72
     1
 10
-13.17678619872913
 20
28.30000000000041
 11
-12.77264101199125
 21
27.60000000000014
 72
     1
 10
-12.77264101199125
 20
27.60000000000014
 11
-11.77381278366738
 21
27.60000000000014
 72
     1
 10
-11.77381278366738
 20
27.60000000000014
 11
-12.05026437312062
 21
28.35954450389136
 72
     2
 10
-11.86232584896333
 20
28.4279485325572
 40
0.200000000000342
 50
159.9999999998207
 51
279.9999999998791
 73
     0
 72
     1
 10
-11.8275962134303
 20
28.6249100831601
 11
-11.03158558469749
 21
28.4845519308924
 72
     1
 10
-11.03158558469749
 20
28.4845519308924
 11
-10.38404862935294
 21
29.02789995129683
 72
     1
 10
-10.38404862935294
 20
29.02789995129683
 11
-10.66050021880619
 21
29.78744445518805
 72
     2
 10
-10.4725616946489
 20
29.85584848385389
 40
0.200000000000342
 50
159.9999999998207
 51
279.9999999998791
 73
     0
 72
     1
 10
-10.43783205911586
 20
30.0528100344568
 11
-9.64182143038306
 21
29.91245188218909
 72
     1
 10
-9.64182143038306
 20
29.91245188218909
 11
-8.994284475038512
 21
30.45579990259375
 72
     1
 10
-8.994284475038512
 20
30.45579990259375
 11
-9.064731621800092
 21
31.26101449151793
 72
     2
 10
-8.865492682181866
 20
31.27844564006771
 40
0.1999999999998994
 50
174.9999999999253
 51
294.9999999997516
 73
     0
 72
     1
 10
-8.780969029834523
 20
31.45970719747538
 11
-8.048409168482976
 21
31.11810892245012
 72
     1
 10
-8.048409168482976
 20
31.11810892245012
 11
-7.461523141353609
 21
31.49948835575969
 72
     1
 10
-7.461523141353609
 20
31.49948835575969
 11
-7.185071549140047
 21
32.25903285864706
 72
     2
 10
-6.997133024982758
 20
32.19062882998158
 40
0.2000000000002205
 50
200.0000000000836
 51
320.0000000001267
 73
     0
 72
     1
 10
-6.843924136358509
 20
32.31918635191869
 11
-6.324365098749694
 21
31.69999999999982
 72
     1
 10
-6.324365098749694
 20
31.69999999999982
 11
-5.654700538379984
 21
31.70000000000005
 72
     1
 10
-5.654700538379984
 20
31.70000000000005
 11
-5.250555348251509
 21
32.40000000000009
 72
     2
 10
-5.077350267494693
 20
32.30000000000018
 40
0.1999999999998922
 50
209.9999999999877
 51
330.0000000000122
 73
     0
 72
     1
 10
-4.904145186737878
 20
32.40000000000009
 11
-4.5
 21
31.69999999999982
 72
     1
 10
-4.5
 20
31.69999999999982
 11
-3.956500545331437
 21
31.51625503054765
 72
     1
 10
-3.956500545331437
 20
31.51625503054765
 11
-3.229581610613422
 21
31.86969837402853
 72
     2
 10
-3.142127063449152
 20
31.68983258467353
 40
0.2000000000000173
 50
244.0700000000423
 51
364.0699999999749
 73
     0
 72
     1
 10
-2.942631447013809
 20
31.67563754951698
 11
-3.0
 21
30.6856406460563
 72
     1
 10
-3.0
 20
30.6856406460563
 11
-2.099999999999454
 21
30.16602540160489
 72
     2
 10
-2.199999999998908
 20
29.99282032084807
 40
0.1999999999996648
 50
299.9999999998749
 51
420.000000000125
 73
     0
 72
     1
 10
-2.099999999999454
 20
29.81961524009125
 11
-3.0
 21
29.29999999999996
 72
     1
 10
-3.0
 20
29.29999999999996
 11
-3.0
 21
27.29999999999995
 72
     1
 10
-3.0
 20
27.29999999999995
 11
-4.5
 21
27.29999999999995
 72
     1
 10
-4.5
 20
27.29999999999995
 11
-4.5
 21
29.29999999999996
 72
     1
 10
-4.5
 20
29.29999999999996
 11
-7.000000000000909
 21
29.29999999999996
 72
     1
 10
-7.000000000000909
 20
29.29999999999996
 11
-7.000000000000909
 21
17.29999999999995
 72
     1
 10
-7.000000000000909
 20
17.29999999999995
 11
-4.5
 21
17.29999999999995
 72
     1
 10
-4.5
 20
17.29999999999995
 11
-4.5
 21
19.29999999999995
 72
     1
 10
-4.5
 20
19.29999999999995
 11
-3.0
 21
19.29999999999995
 72
     1
 10
-3.0
 20
19.29999999999995
 11
-3.0
 21
-15.0
 72
     1
 10
-3.0
 20
-15.0
 11
-5.0
 21
-15.0
 72
     1
 10
-5.0
 20
-15.0
 11
-5.0
 21
-10.30000000000018
 72
     1
 10
-5.0
 20
-10.30000000000018
 11
-4.699999999999818
 21
-10.0
 72
     1
 10
-4.699999999999818
 20
-10.0
 11
-5.0
 21
-9.699999999999818
 72
     1
 10
-5.0
 20
-9.699999999999818
 11
-5.0
 21
-5.300000000000181
 72
     1
 10
-5.0
 20
-5.300000000000181
 11
-4.699999999999818
 21
-5.0
 72
     1
 10
-4.699999999999818
 20
-5.0
 11
-5.0
 21
-4.699999999999818
 72
     1
 10
-5.0
 20
-4.699999999999818
 11
-5.0
 21
-0.3000000000001819
 72
     1
 10
-5.0
 20
-0.3000000000001819
 11
-4.699999999999818
 21
0.0
 72
     1
 10
-4.699999999999818
 20
0.0
 11
-5.0
 21
0.3000000000001819
 72
     1
 10
-5.0
 20
0.3000000000001819
 11
-5.0
 21
4.699999999999818
 72
     1
 10
-5.0
 20
4.699999999999818
 11
-4.699999999999818
 21
5.0
 72
     1
 10
-4.699999999999818
 20
5.0
 11
-5.0
 21
5.300000000000181
 72
     1
 10
-5.0
 20
5.300000000000181
 11
-5.0
 21
9.699999999999818
 72
     1
 10
-5.0
 20
9.699999999999818
 11
-4.699999999999818
 21
10.0
 72
     1
 10
-4.699999999999818
 20
10.0
 11
-5.0
 21
10.30000000000018
 72
     1
 10
-5.0
 20
10.30000000000018
 11
-5.0
 21
15.0
 72
     1
 10
-5.0
 20
15.0
 11
-9.300000000000181
 21
15.0
 72
     1
 10
-9.300000000000181
 20
15.0
 11
-9.300000000000181
 21
25.0
 72
     1
 10
-9.300000000000181
 20
25.0
 11
-67.0
 21
25.0
 72
     1
 10
-67.0
 20
25.0
 11
-66.45557666942477
 21
25.6887228736905
 72
     2
 10
-66.29194598770675
 20
25.57372287368935
 40
0.1999999999994176
 50
215.099632195912
 51
281.551869724727
 73
     0
 72
     1
 10
-66.25189499251428
 20
25.76967163684912
 11
-65.45997749553134
 21
25.60780746559044
 72
     1
 10
-65.45997749553134
 20
25.60780746559044
 11
-65.30622029188089
 21
25.75133533815824
 72
     1
 10
-65.30622029188089
 20
25.75133533815824
 11
-65.41326763050438
 21
26.55250585808381
 72
     2
 10
-65.21502933846966
 20
26.57899320546028
 40
0.1999999999997086
 50
172.3895751977708
 51
292.3895751977867
 73
     0
 72
     1
 10
-65.13884890815916
 20
26.76391627605335
 11
-64.39149121739593
 21
26.45603673139112
 72
     1
 10
-64.39149121739593
 20
26.45603673139112
 11
-63.73114116270244
 21
26.83729316067388
 72
     1
 10
-63.73114116270244
 20
26.83729316067388
 11
-63.62409954818213
 21
27.63846444539695
 72
     2
 10
-63.42586106681284
 20
27.61197851508858
 40
0.1999999999997526
 50
187.6100152346201
 51
307.6100152346474
 73
     0
 72
     1
 10
-63.30380433763821
 20
27.77041511080779
 11
-62.66349046088817
 21
27.27712871204358
 72
     1
 10
-62.66349046088817
 20
27.27712871204358
 11
-61.95876548793695
 21
27.46479575947115
 72
     1
 10
-61.95876548793695
 20
27.46479575947115
 11
-61.64857877832401
 21
28.21119882744688
 72
     2
 10
-61.4638919159986
 20
28.13444752202288
 40
0.1999999999997286
 50
202.5665656177291
 51
322.5665656177556
 73
     0
 72
     1
 10
-61.30507990456499
 20
28.25601538382989
 11
-60.81376924207143
 21
27.61418428074717
 72
     1
 10
-60.81376924207143
 20
27.61418428074717
 11
-59.92734155037124
 21
27.60000000000059
 72
     1
 10
-59.92734155037124
 20
27.60000000000059
 11
-59.52319636024276
 21
28.30000000000064
 72
     2
 10
-59.34999127948595
 20
28.20000000000073
 40
0.1999999999998922
 50
209.9999999999877
 51
330.0000000000122
 73
     0
 72
     1
 10
-59.17678619872913
 20
28.30000000000064
 11
-58.77264101199125
 21
27.60000000000037
 72
     1
 10
-58.77264101199125
 20
27.60000000000037
 11
-57.92734155037123
 21
27.60000000000059
 72
     1
 10
-57.92734155037123
 20
27.60000000000059
 11
-57.52319636024276
 21
28.30000000000064
 72
     2
 10
-57.34999127948595
 20
28.20000000000073
 40
0.1999999999998922
 50
209.9999999999877
 51
330.0000000000122
 73
     0
 72
     1
 10
-57.17678619872913
 20
28.30000000000064
 11
-56.77264101199125
 21
27.60000000000037
 72
     1
 10
-56.77264101199125
 20
27.60000000000037
 11
-55.92734155037124
 21
27.60000000000059
 72
     1
 10
-55.92734155037124
 20
27.60000000000059
 11
-55.52319636024276
 21
28.30000000000064
 72
     2
 10
-55.34999127948594
 20
28.20000000000073
 40
0.1999999999998922
 50
209.9999999999877
 51
330.0000000000122
 73
     0
 72
     1
 10
-55.17678619872913
 20
28.30000000000064
 11
-54.77264101199125
 21
27.60000000000037
 72
     1
 10
-54.77264101199125
 20
27.60000000000037
 11
-53.92734155037124
 21
27.60000000000059
 72
     1
 10
-53.92734155037124
 20
27.60000000000059
 11
-53.52319636024276
 21
28.30000000000064
 72
     2
 10
-53.34999127948595
 20
28.20000000000073
 40
0.1999999999998922
 50
209.9999999999877
 51
330.0000000000122
 73
     0
 72
     1
 10
-53.17678619872913
 20
28.30000000000064
 11
-52.77264101199126
 21
27.60000000000037
 72
     1
 10
-52.77264101199126
 20
27.60000000000037
 11
-51.92734155037124
 21
27.60000000000059
 72
     1
 10
-51.92734155037124
 20
27.60000000000059
 11
-51.52319636024277
 21
28.30000000000064
 72
     2
 10
-51.34999127948595
 20
28.20000000000073
 40
0.1999999999998922
 50
209.9999999999877
 51
330.0000000000122
 73
     0
 72
     1
 10
-51.17678619872913
 20
28.30000000000064
 11
-50.77264101199125
 21
27.60000000000037
 72
     1
 10
-50.77264101199125
 20
27.60000000000037
 11
-49.92734155037124
 21
27.60000000000059
 72
     1
 10
-49.92734155037124
 20
27.60000000000059
 11
-49.52319636024276
 21
28.30000000000064
 72
     2
 10
-49.34999127948595
 20
28.20000000000073
 40
0.1999999999998922
 50
209.9999999999877
 51
330.0000000000122
 73
     0
 72
     1
 10
-49.17678619872913
 20
28.30000000000064
 11
-48.77264101199125
 21
27.60000000000037
 72
     1
 10
-48.77264101199125
 20
27.60000000000037
 11
-47.92734155037123
 21
27.60000000000059
 72
     1
 10
-47.92734155037123
 20
27.60000000000059
 11
-47.52319636024276
 21
28.30000000000064
 72
     2
 10
-47.34999127948595
 20
28.20000000000073
 40
0.1999999999998922
 50
209.9999999999877
 51
330.0000000000122
 73
     0
 72
     1
 10
-47.17678619872913
 20
28.30000000000064
 11
-46.77264101199125
 21
27.60000000000037
 72
     1
 10
-46.77264101199125
 20
27.60000000000037
 11
-45.92734155037123
 21
27.60000000000059
 72
     1
 10
-45.92734155037123
 20
27.60000000000059
 11
-45.52319636024276
 21
28.30000000000064
 72
     2
 10
-45.34999127948594
 20
28.20000000000073
 40
0.1999999999998922
 50
209.9999999999877
 51
330.0000000000122
 73
     0
 72
     1
 10
-45.17678619872913
 20
28.30000000000064
 11
-44.77264101199125
 21
27.60000000000037
 72
     1
 10
-44.77264101199125
 20
27.60000000000037
 11
-43.92734155037124
 21
27.60000000000059
 72
     1
 10
-43.92734155037124
 20
27.60000000000059
 11
-43.52319636024276
 21
28.30000000000064
 72
     2
 10
-43.34999127948594
 20
28.20000000000073
 40
0.1999999999998922
 50
209.9999999999877
 51
330.0000000000122
 73
     0
 72
     1
 10
-43.17678619872913
 20
28.30000000000064
 11
-42.77264101199125
 21
27.60000000000037
 72
     1
 10
-42.77264101199125
 20
27.60000000000037
 11
-41.92734155037124
 21
27.60000000000059
 72
     1
 10
-41.92734155037124
 20
27.60000000000059
 11
-41.52319636024276
 21
28.30000000000064
 72
     2
 10
-41.34999127948595
 20
28.20000000000073
 40
0.1999999999998922
 50
209.9999999999877
 51
330.0000000000122
 73
     0
 72
     1
 10
-41.17678619872913
 20
28.30000000000064
 11
-40.77264101199125
 21
27.60000000000037
 72
     1
 10
-40.77264101199125
 20
27.60000000000037
 11
-39.92734155037124
 21
27.60000000000059
 72
     1
 10
-39.92734155037124
 20
27.60000000000059
 11
-39.52319636024276
 21
28.30000000000064
 72
     2
 10
-39.34999127948595
 20
28.20000000000073
 40
0.1999999999998922
 50
209.9999999999877
 51
330.0000000000122
 73
     0
 72
     1
 10
-39.17678619872913
 20
28.30000000000064
 11
-38.77264101199126
 21
27.60000000000037
 72
     1
 10
-38.77264101199126
 20
27.60000000000037
 11
-37.92734155037124
 21
27.60000000000059
 72
     1
 10
-37.92734155037124
 20
27.60000000000059
 11
-37.52319636024277
 21
28.30000000000064
 72
     2
 10
-37.34999127948595
 20
28.20000000000073
 40
0.1999999999998922
 50
209.9999999999877
 51
330.0000000000122
 73
     0
 72
     1
 10
-37.17678619872913
 20
28.30000000000064
 11
-36.77264101199126
 21
27.60000000000037
 72
     1
 10
-36.77264101199126
 20
27.60000000000037
 11
-35.92734155037124
 21
27.60000000000059
 72
     1
 10
-35.92734155037124
 20
27.60000000000059
 11
-35.52319636024277
 21
28.30000000000064
 72
     2
 10
-35.34999127948595
 20
28.20000000000073
 40
0.1999999999998922
 50
209.9999999999877
 51
330.0000000000122
 73
     0
 72
     1
 10
-35.17678619872913
 20
28.30000000000064
 11
-34.77264101199125
 21
27.60000000000037
 72
     1
 10
-34.77264101199125
 20
27.60000000000037
 11
-33.92734155037124
 21
27.60000000000059
 72
     1
 10
-33.92734155037124
 20
27.60000000000059
 11
-33.52319636024276
 21
28.30000000000064
 72
     2
 10
-33.34999127948595
 20
28.20000000000073
 40
0.1999999999998922
 50
209.9999999999877
 51
330.0000000000122
 73
     0
 72
     1
 10
-33.17678619872913
 20
28.30000000000064
 11
-32.77264101199126
 21
27.60000000000037
 72
     1
 10
-32.77264101199126
 20
27.60000000000037
 11
-31.92734155037124
 21
27.60000000000059
 72
     1
 10
-31.92734155037124
 20
27.60000000000059
 11
-31.52319636024277
 21
28.30000000000064
 72
     2
 10
-31.34999127948595
 20
28.20000000000073
 40
0.1999999999998922
 50
209.9999999999877
 51
330.0000000000122
 73
     0
 72
     1
 10
-31.17678619872914
 20
28.30000000000064
 11
-30.77264101199125
 21
27.60000000000037
 72
     1
 10
-30.77264101199125
 20
27.60000000000037
 11
-29.92734155037124
 21
27.60000000000059
 72
     1
 10
-29.92734155037124
 20
27.60000000000059
 11
-29.52319636024276
 21
28.30000000000064
 72
     2
 10
-29.34999127948595
 20
28.20000000000073
 40
0.1999999999998922
 50
209.9999999999877
 51
330.0000000000122
 73
     0
 72
     1
 10
-29.17678619872913
 20
28.30000000000064
 11
-28.77264101199126
 21
27.60000000000037
 72
     1
 10
-28.77264101199126
 20
27.60000000000037
 11
-27.92734155037124
 21
27.60000000000059
 72
     1
 10
-27.92734155037124
 20
27.60000000000059
 11
-27.52319636024277
 21
28.30000000000064
 72
     2
 10
-27.34999127948595
 20
28.20000000000073
 40
0.1999999999998922
 50
209.9999999999877
 51
330.0000000000122
 73
     0
 72
     1
 10
-27.17678619872913
 20
28.30000000000064
 11
-26.77264101199126
 21
27.60000000000037
 72
     1
 10
-26.77264101199126
 20
27.60000000000037
 11
-25.92734155037124
 21
27.60000000000059
 72
     1
 10
-25.92734155037124
 20
27.60000000000059
 11
-25.52319636024277
 21
28.30000000000064
 72
     2
 10
-25.34999127948595
 20
28.20000000000073
 40
0.1999999999998922
 50
209.9999999999877
 51
330.0000000000122
 73
     0
 72
     1
 10
-25.17678619872913
 20
28.30000000000064
 11
-24.77264101199125
 21
27.60000000000037
 72
     1
 10
-24.77264101199125
 20
27.60000000000037
 11
-23.92734155037124
 21
27.60000000000059
 72
     1
 10
-23.92734155037124
 20
27.60000000000059
 11
-23.52319636024276
 21
28.30000000000064
 72
     2
 10
-23.34999127948595
 20
28.20000000000073
 40
0.1999999999998922
 50
209.9999999999877
 51
330.0000000000122
 73
     0
 97
        1
330
2ED
 75
     0
 76
     1
 52
0.0
 41
0.5
 77
     0
 78
     1
 53
45.0
 43
-207.8434551807968
 44
-19.88384788688836
 45
-1.122532015133643
 46
1.122532015133644
 79
     0
 98
        1
 10
-207.8434551807968
 20
-19.88384788688836
  0
DIMENSION
  5
2EB
330
1A
100
AcDbEntity
  8
1
100
AcDbDimension
280
     0
  2
*D3
 10
-2.999999999999999
 20
-5.942933494724343
 30
0.0
 11
-35.0
 21
-3.155928037698422
 31
0.0
 70
    32
 71
     5
 42
-1.0
 73
     0
 74
     0
 75
     0
  3
OPO-SSTRICH
100
AcDbAlignedDimension
 13
-67.0
 23
25.0
 33
0.0
 14
-3.0
 24
-15.0
 34
0.0
100
AcDbRotatedDimension
  0
DIMENSION
  5
2EC
330
1A
100
AcDbEntity
  8
1
100
AcDbDimension
280
     0
  2
*D4
 10
-26.01670098423165
 20
-14.99999999999999
 30
0.0
 11
-28.80370644125756
 21
5.0
 31
0.0
 70
    32
 71
     5
 42
-1.0
 73
     0
 74
     0
 75
     0
  3
OPO-SSTRICH
100
AcDbAlignedDimension
 13
-9.300000000000181
 23
25.0
 33
0.0
 14
-5.0
 24
-15.0
 34
0.0
 50
90.0
100
AcDbRotatedDimension
  0
LWPOLYLINE
  5
2ED
102
{ACAD_REACTORS
330
2EA
102
}
330
1A
100
AcDbEntity
  8
6
100
AcDbPolyline
 90
      167
 70
     1
 43
0.0
 10
-23.17678619872913
 20
28.30000000000064
 10
-22.77264101199126
 20
27.60000000000037
 10
-21.92734155037124
 20
27.60000000000059
 10
-21.52319636024277
 20
28.30000000000064
 42
-0.5773502691897683
 10
-21.17678619872913
 20
28.30000000000064
 10
-20.77264101199125
 20
27.60000000000037
 10
-19.92734155037124
 20
27.60000000000059
 10
-19.52319636024276
 20
28.30000000000064
 42
-0.5773502691897683
 10
-19.17678619872913
 20
28.30000000000064
 10
-18.77264101199125
 20
27.60000000000037
 10
-17.92734155037124
 20
27.60000000000059
 10
-17.52319636024276
 20
28.30000000000064
 42
-0.5773502691897683
 10
-17.17678619872913
 20
28.30000000000064
 10
-16.77264101199125
 20
27.60000000000037
 10
-15.92734155037124
 20
27.60000000000059
 10
-15.52319636024276
 20
28.30000000000064
 42
-0.5773502691897683
 10
-15.17678619872913
 20
28.30000000000064
 10
-14.77264101199125
 20
27.60000000000037
 10
-13.92734155037124
 20
27.60000000000037
 10
-13.52319636024276
 20
28.30000000000041
 42
-0.577350269189112
 10
-13.17678619872913
 20
28.30000000000041
 10
-12.77264101199125
 20
27.60000000000014
 10
-11.77381278366738
 20
27.60000000000014
 10
-12.05026437312062
 20
28.35954450389136
 42
-0.5773502691898603
 10
-11.8275962134303
 20
28.6249100831601
 10
-11.03158558469749
 20
28.4845519308924
 10
-10.38404862935294
 20
29.02789995129683
 10
-10.66050021880619
 20
29.78744445518805
 42
-0.5773502691898603
 10
-10.43783205911586
 20
30.0528100344568
 10
-9.64182143038306
 20
29.91245188218909
 10
-8.994284475038512
 20
30.45579990259375
 10
-9.064731621800092
 20
31.26101449151793
 42
-0.577350269188533
 10
-8.780969029834523
 20
31.45970719747538
 10
-8.048409168482976
 20
31.11810892245012
 10
-7.461523141353609
 20
31.49948835575969
 10
-7.185071549140047
 20
32.25903285864706
 42
-0.577350269189868
 10
-6.843924136358509
 20
32.31918635191869
 10
-6.324365098749694
 20
31.69999999999982
 10
-5.654700538379984
 20
31.70000000000005
 10
-5.250555348251509
 20
32.40000000000009
 42
-0.5773502691897683
 10
-4.904145186737878
 20
32.40000000000009
 10
-4.5
 20
31.69999999999982
 10
-3.956500545331437
 20
31.51625503054765
 10
-3.229581610613422
 20
31.86969837402853
 42
-0.5773502691892638
 10
-2.942631447013809
 20
31.67563754951698
 10
-3.0
 20
30.6856406460563
 10
-2.099999999999454
 20
30.16602540160489
 42
-0.5773502691910811
 10
-2.099999999999454
 20
29.81961524009125
 10
-3.0
 20
29.29999999999996
 10
-3.0
 20
27.29999999999995
 10
-4.5
 20
27.29999999999995
 10
-4.5
 20
29.29999999999996
 10
-7.000000000000909
 20
29.29999999999996
 10
-7.000000000000909
 20
17.29999999999995
 10
-4.5
 20
17.29999999999995
 10
-4.5
 20
19.29999999999995
 10
-3.0
 20
19.29999999999995
 10
-3.0
 20
-15.0
 10
-5.0
 20
-15.0
 10
-5.0
 20
-10.30000000000018
 10
-4.699999999999818
 20
-10.0
 10
-5.0
 20
-9.699999999999818
 10
-5.0
 20
-5.300000000000181
 10
-4.699999999999818
 20
-5.0
 10
-5.0
 20
-4.699999999999818
 10
-5.0
 20
-0.3000000000001819
 10
-4.699999999999818
 20
0.0
 10
-5.0
 20
0.3000000000001819
 10
-5.0
 20
4.699999999999818
 10
-4.699999999999818
 20
5.0
 10
-5.0
 20
5.300000000000181
 10
-5.0
 20
9.699999999999818
 10
-4.699999999999818
 20
10.0
 10
-5.0
 20
10.30000000000018
 10
-5.0
 20
15.0
 10
-9.300000000000181
 20
15.0
 10
-9.300000000000181
 20
25.0
 10
-67.0
 20
25.0
 10
-66.45557666942477
 20
25.6887228736905
 42
-0.2983611500383397
 10
-66.25189499251428
 20
25.76967163684912
 10
-65.45997749553134
 20
25.60780746559044
 10
-65.30622029188089
 20
25.75133533815824
 10
-65.41326763050438
 20
26.55250585808381
 42
-0.5773502691897683
 10
-65.13884890815916
 20
26.76391627605335
 10
-64.39149121739593
 20
26.45603673139112
 10
-63.73114116270244
 20
26.83729316067388
 10
-63.62409954818213
 20
27.63846444539695
 42
-0.5773502691897683
 10
-63.30380433763821
 20
27.77041511080779
 10
-62.66349046088817
 20
27.27712871204358
 10
-61.95876548793695
 20
27.46479575947115
 10
-61.64857877832401
 20
28.21119882744688
 42
-0.5773502691897683
 10
-61.30507990456499
 20
28.25601538382989
 10
-60.81376924207143
 20
27.61418428074717
 10
-59.92734155037124
 20
27.60000000000059
 10
-59.52319636024276
 20
28.30000000000064
 42
-0.5773502691897683
 10
-59.17678619872913
 20
28.30000000000064
 10
-58.77264101199125
 20
27.60000000000037
 10
-57.92734155037123
 20
27.60000000000059
 10
-57.52319636024276
 20
28.30000000000064
 42
-0.5773502691897683
 10
-57.17678619872913
 20
28.30000000000064
 10
-56.77264101199125
 20
27.60000000000037
 10
-55.92734155037124
 20
27.60000000000059
 10
-55.52319636024276
 20
28.30000000000064
 42
-0.5773502691897683
 10
-55.17678619872913
 20
28.30000000000064
 10
-54.77264101199125
 20
27.60000000000037
 10
-53.92734155037124
 20
27.60000000000059
 10
-53.52319636024276
 20
28.30000000000064
 42
-0.5773502691897683
 10
-53.17678619872913
 20
28.30000000000064
 10
-52.77264101199126
 20
27.60000000000037
 10
-51.92734155037124
 20
27.60000000000059
 10
-51.52319636024277
 20
28.30000000000064
 42
-0.5773502691897683
 10
-51.17678619872913
 20
28.30000000000064
 10
-50.77264101199125
 20
27.60000000000037
 10
-49.92734155037124
 20
27.60000000000059
 10
-49.52319636024276
 20
28.30000000000064
 42
-0.5773502691897683
 10
-49.17678619872913
 20
28.30000000000064
 10
-48.77264101199125
 20
27.60000000000037
 10
-47.92734155037123
 20
27.60000000000059
 10
-47.52319636024276
 20
28.30000000000064
 42
-0.5773502691897683
 10
-47.17678619872913
 20
28.30000000000064
 10
-46.77264101199125
 20
27.60000000000037
 10
-45.92734155037123
 20
27.60000000000059
 10
-45.52319636024276
 20
28.30000000000064
 42
-0.5773502691897683
 10
-45.17678619872913
 20
28.30000000000064
 10
-44.77264101199125
 20
27.60000000000037
 10
-43.92734155037124
 20
27.60000000000059
 10
-43.52319636024276
 20
28.30000000000064
 42
-0.5773502691897683
 10
-43.17678619872913
 20
28.30000000000064
 10
-42.77264101199125
 20
27.60000000000037
 10
-41.92734155037124
 20
27.60000000000059
 10
-41.52319636024276
 20
28.30000000000064
 42
-0.5773502691897683
 10
-41.17678619872913
 20
28.30000000000064
 10
-40.77264101199125
 20
27.60000000000037
 10
-39.92734155037124
 20
27.60000000000059
 10
-39.52319636024276
 20
28.30000000000064
 42
-0.5773502691897683
 10
-39.17678619872913
 20
28.30000000000064
 10
-38.77264101199126
 20
27.60000000000037
 10
-37.92734155037124
 20
27.60000000000059
 10
-37.52319636024277
 20
28.30000000000064
 42
-0.5773502691897683
 10
-37.17678619872913
 20
28.30000000000064
 10
-36.77264101199126
 20
27.60000000000037
 10
-35.92734155037124
 20
27.60000000000059
 10
-35.52319636024277
 20
28.30000000000064
 42
-0.5773502691897683
 10
-35.17678619872913
 20
28.30000000000064
 10
-34.77264101199125
 20
27.60000000000037
 10
-33.92734155037124
 20
27.60000000000059
 10
-33.52319636024276
 20
28.30000000000064
 42
-0.5773502691897683
 10
-33.17678619872913
 20
28.30000000000064
 10
-32.77264101199126
 20
27.60000000000037
 10
-31.92734155037124
 20
27.60000000000059
 10
-31.52319636024277
 20
28.30000000000064
 42
-0.5773502691897683
 10
-31.17678619872914
 20
28.30000000000064
 10
-30.77264101199125
 20
27.60000000000037
 10
-29.92734155037124
 20
27.60000000000059
 10
-29.52319636024276
 20
28.30000000000064
 42
-0.5773502691897683
 10
-29.17678619872913
 20
28.30000000000064
 10
-28.77264101199126
 20
27.60000000000037
 10
-27.92734155037124
 20
27.60000000000059
 10
-27.52319636024277
 20
28.30000000000064
 42
-0.5773502691897683
 10
-27.17678619872913
 20
28.30000000000064
 10
-26.77264101199126
 20
27.60000000000037
 10
-25.92734155037124
 20
27.60000000000059
 10
-25.52319636024277
 20
28.30000000000064
 42
-0.5773502691897683
 10
-25.17678619872913
 20
28.30000000000064
 10
-24.77264101199125
 20
27.60000000000037
 10
-23.92734155037124
 20
27.60000000000059
 10
-23.52319636024276
 20
28.30000000000064
 42
-0.5773502691897683
  0
DIMENSION
  5
2EE
330
1A
100
AcDbEntity
  8
1
100
AcDbDimension
280
     0
  2
*D5
 10
-18.55937284555875
 20
15.0
 30
0.0
 11
-21.34637830258468
 21
20.0
 31
0.0
 70
    32
 71
     5
 42
-1.0
 73
     0
 74
     0
 75
     0
  3
OPO-SSTRICH
100
AcDbAlignedDimension
 13
-9.300000000000181
 23
25.0
 33
0.0
 14
-9.300000000000181
 24
15.0
 34
0.0
 50
90.0
100
AcDbRotatedDimension
  0
DIMENSION
  5
2EF
330
1A
100
AcDbEntity
  8
1
100
AcDbDimension
280
     0
  2
*D6
 10
-3.0
 20
4.366061981221719
 30
0.0
 11
-12.98478617317551
 21
7.154261162667832
 31
0.0
 70
   160
 71
     5
 42
-1.0
 73
     0
 74
     0
 75
     0
  3
OPO-SSTRICH
100
AcDbAlignedDimension
 13
-9.300000000000181
 23
15.0
 33
0.0
 14
-3.0
 24
15.0
 34
0.0
100
AcDbRotatedDimension
  0
LWPOLYLINE
  5
2F1
330
1A
100
AcDbEntity
  8
5
100
AcDbPolyline
 90
        2
 70
     0
 43
0.0
 10
-3.0
 20
-15.0
 10
7.336040591850178
 20
-15.0
  0
LWPOLYLINE
  5
2F2
330
1A
100
AcDbEntity
  8
5
100
AcDbPolyline
 90
        2
 70
     0
 43
0.0
 10
-67.0
 20
25.0
 10
-80.40217121301612
 20
25.0
  0
TEXT
  5
2F3
330
1A
100
AcDbEntity
  8
1
100
AcDbText
 10
-51.82926795855564
 20
35.37649206452897
 30
0.0
 40
3.5
  1
HEBGO 175/621
  7
Beschlag
100
AcDbText
  0
DIMENSION
  5
2F4
330
1A
100
AcDbEntity
  8
1
100
AcDbDimension
280
     0
  2
*D7
 10
1.999999999999999
 20
42.61666869503642
 30
0.0
 11
-0.4999999999999999
 21
45.39651180554119
 31
0.0
 70
    32
 71
     5
 42
-1.0
 73
     0
 74
     0
 75
     0
  3
OPO-SSTRICH
100
AcDbAlignedDimension
 13
-3.0
 23
32.5
 33
0.0
 14
2.0
 24
48.05806484836921
 34
0.0
100
AcDbRotatedDimension
  0
LWPOLYLINE
  5
B13
330
1A
100
AcDbEntity
  8
6
100
AcDbPolyline
 90
       30
 70
     1
 43
0.0
 10
-2.799999999999961
 20
27.84999999999995
 42
0.4627808097529079
 10
-3.032441931572257
 20
28.04735126317265
 42
-0.3412347287378429
 10
-3.999999999999978
 20
27.29999999999995
 10
-4.200000000000024
 20
27.29999999999995
 42
-0.0350196443704044
 10
-4.241869278678194
 20
27.30293609525392
 42
-0.0388555466058958
 10
-4.554352048358843
 20
27.36295191078256
 42
-0.3378872143451199
 10
-4.649999999999963
 20
27.48833108279111
 10
-4.649999999999963
 20
28.04999999999995
 42
0.5371987965797321
 10
-4.997596638764271
 20
28.28016276002405
 10
-6.695193277528574
 20
27.56032552004814
 42
0.6060732406799968
 10
-6.76603717008745
 20
26.67665117913016
 10
-4.967925659824985
 20
25.54669764173953
 42
-0.2579393601769359
 10
-4.499999999999964
 20
24.69999999999995
 10
-4.499999999999964
 20
22.94999999999995
 42
-0.1873225999327995
 10
-4.762007859677325
 20
22.27519069299388
 10
-6.947598428064488
 20
19.88496186140117
 42
0.1873225999327991
 10
-6.999999999999957
 20
19.74999999999996
 10
-6.999999999999964
 20
19.09999999999994
 42
0.2172946551905375
 10
-6.827779542225414
 20
18.72242805758569
 10
-5.020377175688572
 20
17.34099338505223
 42
0.4142135623730905
 10
-4.74002468803372
 20
17.37844312024136
 10
-4.544057996540551
 20
17.63483646913391
 42
0.3794220145110141
 10
-4.563325951293961
 20
17.89947507091
 10
-5.271344319384795
 20
18.58991962237593
 42
-0.4583820366074629
 10
-5.25267743551641
 20
18.89237806642363
 42
-0.1351830566088762
 10
-4.241869278677931
 20
19.29706390474602
 42
-0.0350196443701829
 10
-4.200000000000024
 20
19.29999999999995
 10
-3.999999999999978
 20
19.29999999999995
 42
-0.3412347287378419
 10
-3.032441931572257
 20
18.55264873682726
 42
0.4627808097529062
 10
-2.799999999999961
 20
18.74999999999996
  0
VIEWPORT
  5
22
330
17
100
AcDbEntity
 67
     1
  8
0
100
AcDbViewport
 10
210.0
 20
170.2366863905325
 30
0.0
 40
420.0
 41
340.4733727810651
 68
     1
 69
     1
 12
210.0
 22
170.2366863905325
 13
0.0
 23
0.0
 14
5.0
 24
5.0
 15
10.0
 25
10.0
 16
0.0
 26
0.0
 36
1.0
 17
0.0
 27
0.0
 37
0.0
 42
50.0
 43
0.0
 44
0.0
 45
340.4733727810651
 50
0.0
 51
0.0
 72
   100
 90
    32800
  1

281
     0
 71
     1
 74
     0
110
0.0
120
0.0
130
0.0
111
1.0
121
0.0
131
0.0
112
0.0
122
1.0
132
0.0
 79
     0
146
0.0
170
     0
 61
     5
348
A9C
292
     1
282
     1
141
0.0
142
0.0
 63
   250
421
  3355443
  0
ENDSEC
  0
SECTION
  2
OBJECTS
  0
DICTIONARY
  5
C
330
0
100
AcDbDictionary
281
     1
  3
ACAD_CIP_PREVIOUS_PRODUCT_INFO
350
ACE
  3
ACAD_COLOR
350
AAF
  3
ACAD_DETAILVIEWSTYLE
350
AC8
  3
ACAD_GROUP
350
D
  3
ACAD_LAYOUT
350
F4
  3
ACAD_MATERIAL
350
A7D
  3
ACAD_MLEADERSTYLE
350
AC4
  3
ACAD_MLINESTYLE
350
E
  3
ACAD_PLOTSETTINGS
350
F5
  3
ACAD_PLOTSTYLENAME
350
F2
  3
ACAD_RENDER_ACTIVE_RAPIDRT_SETTINGS
350
AD8
  3
ACAD_RENDER_ACTIVE_SETTINGS
350
B28
  3
ACAD_RENDER_RAPIDRT_SETTINGS
350
AD1
  3
ACAD_SCALELIST
350
AB2
  3
ACAD_SECTIONVIEWSTYLE
350
AC6
  3
ACAD_TABLESTYLE
350
AB0
  3
ACAD_VISUALSTYLE
350
A96
  3
ACDB_RECOMPOSE_DATA
350
B23
  3
AcDbVariableDictionary
350
136
  3
AEC_PROPERTY_SET_DEFS
350
B10
  0
DICTIONARY
  5
1F6
330
1A
100
AcDbDictionary
280
     1
281
     1
  3
ACAD_LAYOUTSELFREF
360
A71
  0
DICTIONARY
  5
1F4
330
17
100
AcDbDictionary
280
     1
281
     1
  3
ACAD_LAYOUTSELFREF
360
A70
  0
XRECORD
  5
ACE
102
{ACAD_REACTORS
330
C
102
}
330
C
100
AcDbXrecord
280
     1
300
AOEM
300
2021
300

  0
DICTIONARY
  5
AAF
102
{ACAD_REACTORS
330
C
102
}
330
C
100
AcDbDictionary
281
     1
  0
DICTIONARY
  5
AC8
102
{ACAD_REACTORS
330
C
102
}
330
C
100
AcDbDictionary
281
     1
  3
Metric50
350
AC9
  0
DICTIONARY
  5
D
102
{ACAD_REACTORS
330
C
102
}
330
C
100
AcDbDictionary
281
     1
  0
DICTIONARY
  5
F4
102
{ACAD_REACTORS
330
C
102
}
330
C
100
AcDbDictionary
281
     1
  3
Layout1
350
F7
  3
Model
350
F6
  0
DICTIONARY
  5
A7D
102
{ACAD_REACTORS
330
C
102
}
330
C
100
AcDbDictionary
281
     1
  3
ByBlock
350
A86
  3
ByLayer
350
A7E
  3
Global
350
A8E
  0
DICTIONARY
  5
AC4
102
{ACAD_REACTORS
330
C
102
}
330
C
100
AcDbDictionary
281
     1
  3
Standard
350
AC5
  0
DICTIONARY
  5
E
102
{ACAD_REACTORS
330
C
102
}
330
C
100
AcDbDictionary
281
     1
  3
STANDARD
350
13
  0
DICTIONARY
  5
F5
102
{ACAD_REACTORS
330
C
102
}
330
C
100
AcDbDictionary
281
     1
  3
e Plot 1zu1
350
25C
  3
e Plot angepasst
350
25D
  3
Laser A4
350
25E
  0
ACDBDICTIONARYWDFLT
  5
F2
102
{ACAD_REACTORS
330
C
102
}
330
C
100
AcDbDictionary
281
     1
  3
Normal
350
F3
100
AcDbDictionaryWithDefault
340
F3
  0
RAPIDRTRENDERSETTINGS
  5
AD8
102
{ACAD_REACTORS
330
C
102
}
330
C
100
AcDbRenderSettings
 90
        2
  1
Mittel
290
     1
290
     0
290
     1
290
     1
  1

  1
Wendet 5 Render-Ebenen an
 90
        0
100
AcDbRapidRTRenderSettings
 90
        3
 70
     0
 90
        5
 90
        1
 70
     1
 70
     2
 40
3.0
 40
3.0
290
     1
  0
MENTALRAYRENDERSETTINGS
  5
B28
102
{ACAD_XDICTIONARY
360
B29
102
}
102
{ACAD_REACTORS
330
C
102
}
330
C
100
AcDbRenderSettings
 90
        2
  1
Mittel
290
     1
290
     1
290
     1
290
     1
  1

  1

 90
        0
100
AcDbMentalRayRenderSettings
 90
        2
 90
        0
 90
        1
 70
     2
 40
3.0
 40
3.0
 40
0.0500000007450581
 40
0.0500000007450581
 40
0.0500000007450581
 40
0.0500000007450581
 70
     0
290
     0
290
     1
 90
        5
 90
        5
 90
        5
290
     0
 90
      500
290
     0
 40
1.0
 90
    10000
 90
        5
 90
        5
 90
        5
290
     0
 90
      200
290
     0
290
     0
290
     0
 40
1.0
 40
1.0
 40
1500.0
 70
     0
 70
     0
 40
10.0
 70
     0
 70
     0
290
     0
  1

 90
       32
 70
     0
 90
     1048
290
     0
 40
1.0
  0
DICTIONARY
  5
AD1
102
{ACAD_REACTORS
330
C
102
}
330
C
100
AcDbDictionary
281
     1
  3
Hoch
350
AD4
  3
Mittagsqualität
350
AD6
  3
Mittel
350
AD3
  3
Morgenqualität
350
AD5
  3
Nachtqualität
350
AD7
  3
Niedrig
350
AD2
  0
DICTIONARY
  5
AB2
102
{ACAD_REACTORS
330
C
102
}
330
C
100
AcDbDictionary
281
     1
  3
A0
350
AB3
  3
A1
350
AB4
  3
A2
350
AB5
  3
A3
350
AB6
  3
A4
350
AB7
  3
A5
350
AB8
  3
A6
350
AB9
  3
A7
350
ABA
  3
A8
350
ABB
  3
A9
350
ABC
  3
B0
350
ABD
  3
B1
350
ABE
  3
B2
350
ABF
  3
B3
350
AC0
  3
B4
350
AC1
  3
B5
350
AC2
  3
B6
350
AC3
  0
DICTIONARY
  5
AC6
102
{ACAD_REACTORS
330
C
102
}
330
C
100
AcDbDictionary
281
     1
  3
Metric50
350
AC7
  0
DICTIONARY
  5
AB0
102
{ACAD_REACTORS
330
C
102
}
330
C
100
AcDbDictionary
281
     1
  3
Standard
350
AB1
  0
DICTIONARY
  5
A96
102
{ACAD_REACTORS
330
C
102
}
330
C
100
AcDbDictionary
281
     1
  3
2dWireframe
350
A9C
  3
Basic
350
A9B
  3
Brighten
350
AA2
  3
ColorChange
350
AA6
  3
Conceptual
350
A9F
  3
Dim
350
AA1
  3
EdgeColorOff
350
AAE
  3
Facepattern
350
AA5
  3
Flat
350
A97
  3
FlatWithEdges
350
A98
  3
Gouraud
350
A99
  3
GouraudWithEdges
350
A9A
  3
Hidden
350
A9E
  3
JitterOff
350
AAC
  3
Linepattern
350
AA4
  3
OverhangOff
350
AAD
  3
Realistic
350
AA0
  3
Shaded
350
AAB
  3
Shaded with edges
350
AAA
  3
Shades of Gray
350
AA7
  3
Sketchy
350
AA8
  3
Thicken
350
AA3
  3
Wireframe
350
A9D
  3
X-Ray
350
AA9
  0
XRECORD
  5
B23
102
{ACAD_REACTORS
330
C
102
}
330
C
100
AcDbXrecord
280
     1
 90
        1
330
AB1
  0
DICTIONARY
  5
136
102
{ACAD_REACTORS
330
C
102
}
330
C
100
AcDbDictionary
281
     1
  3
CANNOSCALE
350
B1D
  3
CMLEADERSTYLE
350
B19
  3
CTABLESTYLE
350
B18
  3
CVIEWDETAILSTYLE
350
B1A
  3
CVIEWSECTIONSTYLE
350
B1B
  3
LAYEREVAL
350
B1F
  3
LAYERNOTIFY
350
B20
  3
LIGHTINGUNITS
350
B1E
  3
MSLTSCALE
350
B1C
  3
SORTENTS
350
137
  0
DICTIONARY
  5
B10
102
{ACAD_REACTORS
330
C
102
}
330
C
100
AcDbDictionary
281
     1
  0
XRECORD
  5
A71
102
{ACAD_REACTORS
330
1F6
102
}
330
1F6
100
AcDbXrecord
280
     1
340
1A
  0
XRECORD
  5
A70
102
{ACAD_REACTORS
330
1F4
102
}
330
1F4
100
AcDbXrecord
280
     1
340
17
  0
ACDBDETAILVIEWSTYLE
  5
AC9
102
{ACAD_XDICTIONARY
360
B26
102
}
102
{ACAD_REACTORS
330
AC8
102
}
330
AC8
100
AcDbModelDocViewStyle
 70
     0
  3
Metric50
290
     0
100
AcDbDetailViewStyle
 70
     0
 71
     0
 90
        3
 71
     1
340
10
 62
   256
 40
5.0
340
0
 62
   256
 40
5.0
300

 40
0.0
280
     1
 71
     2
340
16
 90
       25
 62
   256
 71
     3
340
10
 62
   256
 40
5.0
 90
        0
 40
15.0
 90
        1
300
%<\AcVar ViewDetailId>% (%<\AcVar ViewScale \f "%sn">%)
 71
     4
340
16
 90
       25
 62
   256
340
16
 90
       25
 62
   256
280
     0
  0
LAYOUT
  5
F7
102
{ACAD_REACTORS
330
F4
102
}
330
F4
100
AcDbPlotSettings
  1

  2
D:\AC2000\ACAD2000\plotters\DesignJet 650C test A3.pc3
  4

  6

 40
0.0
 41
0.0
 42
0.0
 43
0.0
 44
0.0
 45
0.0
 46
0.0
 47
0.0
 48
0.0
 49
0.0
140
0.0
141
0.0
142
1.0
143
1.0
 70
   688
 72
     0
 73
     0
 74
     5
  7
Hebgo JPG.ctb
 75
    16
147
1.0
 76
     0
 77
     2
 78
   300
148
0.0
149
0.0
100
AcDbLayout
  1
Layout1
 70
     1
 71
     1
 10
0.0
 20
0.0
 11
420.0
 21
297.0
 12
0.0
 22
0.0
 32
0.0
 14
1.000000000000000E+20
 24
1.000000000000000E+20
 34
1.000000000000000E+20
 15
-1.000000000000000E+20
 25
-1.000000000000000E+20
 35
-1.000000000000000E+20
146
0.0
 13
0.0
 23
0.0
 33
0.0
 16
1.0
 26
0.0
 36
0.0
 17
0.0
 27
1.0
 37
0.0
 76
     0
330
17
331
22
  0
LAYOUT
  5
F6
102
{ACAD_REACTORS
330
F4
102
}
330
F4
100
AcDbPlotSettings
  1

  2
PublishToWeb JPG.pc3
  4
VGA_(640.00_x_480.00_Pixels)
  6

 40
0.0
 41
0.0
 42
1.0
 43
1.0
 44
640.0
 45
480.0
 46
0.0
 47
11.18
 48
0.0
 49
0.0
140
0.0
141
0.0
142
1.0
143
0.1404453327485511
 70
 28340
 72
     2
 73
     0
 74
     1
  7
Hebgo JPG.ctb
 75
     0
147
7.12020812959565
 76
     0
 77
     2
 78
   300
148
80.40618818533392
149
16.02172766116177
100
AcDbLayout
  1
Model
 70
     1
 71
     0
 10
0.0
 20
0.0
 11
12.0
 21
9.0
 12
0.0
 22
0.0
 32
0.0
 14
0.0
 24
0.0
 34
0.0
 15
0.0
 25
0.0
 35
0.0
146
0.0
 13
0.0
 23
0.0
 33
0.0
 16
1.0
 26
0.0
 36
0.0
 17
0.0
 27
1.0
 37
0.0
 76
     0
330
1A
331
A42
  0
MATERIAL
  5
A86
102
{ACAD_XDICTIONARY
360
A87
102
}
102
{ACAD_REACTORS
330
A7D
102
}
330
A7D
100
AcDbMaterial
  1
ByBlock
 72
     0
 43
0.0208333333333333
 43
0.0
 43
0.0
 43
0.0
 43
0.0
 43
0.0208333333333333
 43
0.0
 43
0.0
 43
0.0
 43
0.0
 43
1.0
 43
0.0
 43
0.0
 43
0.0
 43
0.0
 43
1.0
 77
     0
 47
0.0208333333333333
 47
0.0
 47
0.0
 47
0.0
 47
0.0
 47
0.0208333333333333
 47
0.0
 47
0.0
 47
0.0
 47
0.0
 47
1.0
 47
0.0
 47
0.0
 47
0.0
 47
0.0
 47
1.0
171
     0
 49
0.0208333333333333
 49
0.0
 49
0.0
 49
0.0
 49
0.0
 49
0.0208333333333333
 49
0.0
 49
0.0
 49
0.0
 49
0.0
 49
1.0
 49
0.0
 49
0.0
 49
0.0
 49
0.0
 49
1.0
175
     0
142
0.0208333333333333
142
0.0
142
0.0
142
0.0
142
0.0
142
0.0208333333333333
142
0.0
142
0.0
142
0.0
142
0.0
142
1.0
142
0.0
142
0.0
142
0.0
142
0.0
142
1.0
179
     0
144
0.0208333333333333
144
0.0
144
0.0
144
0.0
144
0.0
144
0.0208333333333333
144
0.0
144
0.0
144
0.0
144
0.0
144
1.0
144
0.0
144
0.0
144
0.0
144
0.0
144
1.0
147
0.0208333333333333
147
0.0
147
0.0
147
0.0
147
0.0
147
0.0208333333333333
147
0.0
147
0.0
147
0.0
147
0.0
147
1.0
147
0.0
147
0.0
147
0.0
147
0.0
147
1.0
  0
MATERIAL
  5
A7E
102
{ACAD_XDICTIONARY
360
A7F
102
}
102
{ACAD_REACTORS
330
A7D
102
}
330
A7D
100
AcDbMaterial
  1
ByLayer
 72
     0
 43
0.0208333333333333
 43
0.0
 43
0.0
 43
0.0
 43
0.0
 43
0.0208333333333333
 43
0.0
 43
0.0
 43
0.0
 43
0.0
 43
1.0
 43
0.0
 43
0.0
 43
0.0
 43
0.0
 43
1.0
 77
     0
 47
0.0208333333333333
 47
0.0
 47
0.0
 47
0.0
 47
0.0
 47
0.0208333333333333
 47
0.0
 47
0.0
 47
0.0
 47
0.0
 47
1.0
 47
0.0
 47
0.0
 47
0.0
 47
0.0
 47
1.0
171
     0
 49
0.0208333333333333
 49
0.0
 49
0.0
 49
0.0
 49
0.0
 49
0.0208333333333333
 49
0.0
 49
0.0
 49
0.0
 49
0.0
 49
1.0
 49
0.0
 49
0.0
 49
0.0
 49
0.0
 49
1.0
175
     0
142
0.0208333333333333
142
0.0
142
0.0
142
0.0
142
0.0
142
0.0208333333333333
142
0.0
142
0.0
142
0.0
142
0.0
142
1.0
142
0.0
142
0.0
142
0.0
142
0.0
142
1.0
179
     0
144
0.0208333333333333
144
0.0
144
0.0
144
0.0
144
0.0
144
0.0208333333333333
144
0.0
144
0.0
144
0.0
144
0.0
144
1.0
144
0.0
144
0.0
144
0.0
144
0.0
144
1.0
147
0.0208333333333333
147
0.0
147
0.0
147
0.0
147
0.0
147
0.0208333333333333
147
0.0
147
0.0
147
0.0
147
0.0
147
1.0
147
0.0
147
0.0
147
0.0
147
0.0
147
1.0
  0
MATERIAL
  5
A8E
102
{ACAD_XDICTIONARY
360
A8F
102
}
102
{ACAD_REACTORS
330
A7D
102
}
330
A7D
100
AcDbMaterial
  1
Global
 72
     0
 43
0.0208333333333333
 43
0.0
 43
0.0
 43
0.0
 43
0.0
 43
0.0208333333333333
 43
0.0
 43
0.0
 43
0.0
 43
0.0
 43
1.0
 43
0.0
 43
0.0
 43
0.0
 43
0.0
 43
1.0
 77
     0
 47
0.0208333333333333
 47
0.0
 47
0.0
 47
0.0
 47
0.0
 47
0.0208333333333333
 47
0.0
 47
0.0
 47
0.0
 47
0.0
 47
1.0
 47
0.0
 47
0.0
 47
0.0
 47
0.0
 47
1.0
171
     0
 49
0.0208333333333333
 49
0.0
 49
0.0
 49
0.0
 49
0.0
 49
0.0208333333333333
 49
0.0
 49
0.0
 49
0.0
 49
0.0
 49
1.0
 49
0.0
 49
0.0
 49
0.0
 49
0.0
 49
1.0
175
     0
142
0.0208333333333333
142
0.0
142
0.0
142
0.0
142
0.0
142
0.0208333333333333
142
0.0
142
0.0
142
0.0
142
0.0
142
1.0
142
0.0
142
0.0
142
0.0
142
0.0
142
1.0
179
     0
144
0.0208333333333333
144
0.0
144
0.0
144
0.0
144
0.0
144
0.0208333333333333
144
0.0
144
0.0
144
0.0
144
0.0
144
1.0
144
0.0
144
0.0
144
0.0
144
0.0
144
1.0
147
0.0208333333333333
147
0.0
147
0.0
147
0.0
147
0.0
147
0.0208333333333333
147
0.0
147
0.0
147
0.0
147
0.0
147
1.0
147
0.0
147
0.0
147
0.0
147
0.0
147
1.0
  0
MLEADERSTYLE
  5
AC5
102
{ACAD_REACTORS
330
AC4
102
}
330
AC4
100
AcDbMLeaderStyle
179
     2
170
     2
171
     1
172
     0
 90
        2
 40
0.0
 41
0.0
173
     1
 91
-1056964608
340
14
 92
       -2
290
     1
 42
2.0
291
     1
 43
0.36
  3
Standard
 44
4.0
300

342
10
174
     1
178
     6
175
     1
176
     0
 93
-1056964608
 45
4.0
292
     0
297
     0
 46
4.0
 94
-1056964608
 47
1.0
 49
1.0
140
1.0
293
     1
141
0.0
294
     1
177
     0
142
1.0
295
     0
296
     0
143
0.125
271
     0
272
     9
273
     9
298
     1
  0
MLINESTYLE
  5
13
102
{ACAD_REACTORS
330
E
102
}
330
E
100
AcDbMlineStyle
  2
STANDARD
 70
     0
  3

 62
     0
 51
90.0
 52
90.0
 71
     2
 49
0.5
 62
   256
  6
BYLAYER
 49
-0.5
 62
   256
  6
BYLAYER
  0
PLOTSETTINGS
  5
25C
102
{ACAD_REACTORS
330
F5
102
}
330
F5
100
AcDbPlotSettings
  1
e Plot 1zu1
  2
DWF ePlot.pc3
  4
UserDefinedMetric (210.00 x 297.00MM)
  6

 40
13.0
 41
13.0
 42
13.0
 43
13.0
 44
210.0
 45
297.0
 46
58.27
 47
107.7
 48
0.0
 49
0.0
140
0.0
141
0.0
142
1.0
143
1.0
 70
  1716
 72
     1
 73
     0
 74
     1
  7
OPO_DWF.ctb
 75
    16
147
1.0
 76
     0
 77
     2
 78
   300
148
17.16613684218157
149
24.55902015156926
  0
PLOTSETTINGS
  5
25D
102
{ACAD_REACTORS
330
F5
102
}
330
F5
100
AcDbPlotSettings
  1
e Plot angepasst
  2
DWF ePlot.pc3
  4
UserDefinedMetric (210.00 x 297.00MM)
  6

 40
13.0
 41
13.0
 42
13.0
 43
13.0
 44
210.0
 45
297.0
 46
0.0
 47
59.67
 48
0.0
 49
0.0
140
0.0
141
0.0
142
1.0
143
0.3665841129351039
 70
  1716
 72
     1
 73
     0
 74
     1
  7
OPO_DWF.ctb
 75
     0
147
2.727886901571834
 76
     0
 77
     2
 78
   300
148
17.16613684218157
149
24.55902015156926
  0
PLOTSETTINGS
  5
25E
102
{ACAD_REACTORS
330
F5
102
}
330
F5
100
AcDbPlotSettings
  1
Laser A4
  2
4 Xerox XL.pc3
  4
A4
  6

 40
5.111750125885009
 41
5.11176061630249
 42
5.111740112304687
 43
5.11175537109375
 44
209.9733276367187
 45
296.9259948730469
 46
0.0
 47
43.47999999999999
 48
0.0
 49
0.0
140
0.0
141
0.0
142
1.0
143
0.020166824766453
 70
  1716
 72
     1
 73
     0
 74
     1
  7
OPO.ctb
 75
     0
147
49.58638811913882
 76
     0
 77
     2
 78
   300
148
2.014159285479877
149
2.014159285479877
  0
ACDBPLACEHOLDER
  5
F3
102
{ACAD_REACTORS
330
F2
102
}
330
F2
  0
DICTIONARY
  5
B29
330
B28
100
AcDbDictionary
280
     1
281
     1
  3
ACAD_XREC_ROUNDTRIP
360
B2B
  3
ADSK_XREC_MENTALRAYSETTINGSINFO
360
B2A
  0
RAPIDRTRENDERSETTINGS
  5
AD4
102
{ACAD_REACTORS
330
AD1
102
}
330
AD1
100
AcDbRenderSettings
 90
        2
  1
Hoch
290
     1
290
     0
290
     1
290
     1
  1

  1
Wendet 10 Render-Ebenen an
 90
        2
100
AcDbRapidRTRenderSettings
 90
        3
 70
     0
 90
       10
 90
        1
 70
     2
 70
     2
 40
3.0
 40
3.0
290
     1
  0
RAPIDRTRENDERSETTINGS
  5
AD6
102
{ACAD_REACTORS
330
AD1
102
}
330
AD1
100
AcDbRenderSettings
 90
        2
  1
Mittagsqualität
290
     1
290
     0
290
     1
290
     1
  1

  1
Rendert für 60 Minuten
 90
        4
100
AcDbRapidRTRenderSettings
 90
        3
 70
     1
 90
        1
 90
       60
 70
     2
 70
     2
 40
3.0
 40
3.0
290
     1
  0
RAPIDRTRENDERSETTINGS
  5
AD3
102
{ACAD_REACTORS
330
AD1
102
}
330
AD1
100
AcDbRenderSettings
 90
        2
  1
Mittel
290
     1
290
     0
290
     1
290
     1
  1

  1
Wendet 5 Render-Ebenen an
 90
        1
100
AcDbRapidRTRenderSettings
 90
        3
 70
     0
 90
        5
 90
        1
 70
     1
 70
     2
 40
3.0
 40
3.0
290
     1
  0
RAPIDRTRENDERSETTINGS
  5
AD5
102
{ACAD_REACTORS
330
AD1
102
}
330
AD1
100
AcDbRenderSettings
 90
        2
  1
Morgenqualität
290
     1
290
     0
290
     1
290
     1
  1

  1
Rendert für 10 Minuten
 90
        3
100
AcDbRapidRTRenderSettings
 90
        3
 70
     1
 90
        1
 90
       10
 70
     1
 70
     2
 40
3.0
 40
3.0
290
     1
  0
RAPIDRTRENDERSETTINGS
  5
AD7
102
{ACAD_REACTORS
330
AD1
102
}
330
AD1
100
AcDbRenderSettings
 90
        2
  1
Nachtqualität
290
     1
290
     0
290
     1
290
     1
  1

  1
Rendert für 12 Stunden
 90
        5
100
AcDbRapidRTRenderSettings
 90
        3
 70
     1
 90
        1
 90
      720
 70
     2
 70
     2
 40
3.0
 40
3.0
290
     1
  0
RAPIDRTRENDERSETTINGS
  5
AD2
102
{ACAD_REACTORS
330
AD1
102
}
330
AD1
100
AcDbRenderSettings
 90
        2
  1
Niedrig
290
     1
290
     0
290
     1
290
     1
  1

  1
Wendet 1 Render-Ebene an
 90
        0
100
AcDbRapidRTRenderSettings
 90
        3
 70
     0
 90
        1
 90
        1
 70
     0
 70
     2
 40
3.0
 40
3.0
290
     1
  0
SCALE
  5
AB3
102
{ACAD_REACTORS
330
AB2
102
}
330
AB2
100
AcDbScale
 70
     0
300
1:1
140
1.0
141
1.0
290
     1
  0
SCALE
  5
AB4
102
{ACAD_REACTORS
330
AB2
102
}
330
AB2
100
AcDbScale
 70
     0
300
1:2
140
1.0
141
2.0
290
     0
  0
SCALE
  5
AB5
102
{ACAD_REACTORS
330
AB2
102
}
330
AB2
100
AcDbScale
 70
     0
300
1:4
140
1.0
141
4.0
290
     0
  0
SCALE
  5
AB6
102
{ACAD_REACTORS
330
AB2
102
}
330
AB2
100
AcDbScale
 70
     0
300
1:5
140
1.0
141
5.0
290
     0
  0
SCALE
  5
AB7
102
{ACAD_REACTORS
330
AB2
102
}
330
AB2
100
AcDbScale
 70
     0
300
1:8
140
1.0
141
8.0
290
     0
  0
SCALE
  5
AB8
102
{ACAD_REACTORS
330
AB2
102
}
330
AB2
100
AcDbScale
 70
     0
300
1:10
140
1.0
141
10.0
290
     0
  0
SCALE
  5
AB9
102
{ACAD_REACTORS
330
AB2
102
}
330
AB2
100
AcDbScale
 70
     0
300
1:16
140
1.0
141
16.0
290
     0
  0
SCALE
  5
ABA
102
{ACAD_REACTORS
330
AB2
102
}
330
AB2
100
AcDbScale
 70
     0
300
1:20
140
1.0
141
20.0
290
     0
  0
SCALE
  5
ABB
102
{ACAD_REACTORS
330
AB2
102
}
330
AB2
100
AcDbScale
 70
     0
300
1:30
140
1.0
141
30.0
290
     0
  0
SCALE
  5
ABC
102
{ACAD_REACTORS
330
AB2
102
}
330
AB2
100
AcDbScale
 70
     0
300
1:40
140
1.0
141
40.0
290
     0
  0
SCALE
  5
ABD
102
{ACAD_REACTORS
330
AB2
102
}
330
AB2
100
AcDbScale
 70
     0
300
1:50
140
1.0
141
50.0
290
     0
  0
SCALE
  5
ABE
102
{ACAD_REACTORS
330
AB2
102
}
330
AB2
100
AcDbScale
 70
     0
300
1:100
140
1.0
141
100.0
290
     0
  0
SCALE
  5
ABF
102
{ACAD_REACTORS
330
AB2
102
}
330
AB2
100
AcDbScale
 70
     0
300
2:1
140
2.0
141
1.0
290
     0
  0
SCALE
  5
AC0
102
{ACAD_REACTORS
330
AB2
102
}
330
AB2
100
AcDbScale
 70
     0
300
4:1
140
4.0
141
1.0
290
     0
  0
SCALE
  5
AC1
102
{ACAD_REACTORS
330
AB2
102
}
330
AB2
100
AcDbScale
 70
     0
300
8:1
140
8.0
141
1.0
290
     0
  0
SCALE
  5
AC2
102
{ACAD_REACTORS
330
AB2
102
}
330
AB2
100
AcDbScale
 70
     0
300
10:1
140
10.0
141
1.0
290
     0
  0
SCALE
  5
AC3
102
{ACAD_REACTORS
330
AB2
102
}
330
AB2
100
AcDbScale
 70
     0
300
100:1
140
100.0
141
1.0
290
     0
  0
ACDBSECTIONVIEWSTYLE
  5
AC7
102
{ACAD_XDICTIONARY
360
B24
102
}
102
{ACAD_REACTORS
330
AC6
102
}
330
AC6
100
AcDbModelDocViewStyle
 70
     0
  3
Metric50
290
     0
100
AcDbSectionViewStyle
 70
     0
 71
     0
 90
      102
 71
     1
340
10
 62
   256
 40
5.0
340
0
340
0
 62
   256
 40
5.0
300
I, O, Q, S, X, Z
 40
10.0
 90
        0
 40
2.5
 90
        0
 71
     2
340
16
 90
       25
 62
   256
340
16
 90
       50
 62
   256
 40
5.0
 40
2.5
 40
5.0
 71
     3
340
10
 62
   256
 40
5.0
 90
        0
 40
15.0
 90
        1
300
%<\AcVar ViewSectionStartId>%-%<\AcVar ViewSectionEndId>% (%<\AcVar ViewScale \f "%sn">%)
 71
     4
 62
   256
 62
   257
300
ANSI31
 40
1.0
 90
        0
290
     0
290
     0
 90
        6
 40
0.0
 40
1.570796326794896
 40
0.2617993877991494
 40
1.308996938995747
 40
-0.2617993877991494
 40
1.832595714594046
  0
TABLESTYLE
  5
AB1
102
{ACAD_XDICTIONARY
360
B21
102
}
102
{ACAD_REACTORS
330
AB0
102
}
330
AB0
100
AcDbTableStyle
280
     0
  3
Standard
 70
     0
 71
     0
 40
1.5
 41
1.5
280
     0
281
     0
  7
STANDARD
140
4.5
170
     2
 62
     0
 63
     7
283
     0
 90
      512
 91
        0
  1

274
    -2
284
     1
 64
     0
275
    -2
285
     1
 65
     0
276
    -2
286
     1
 66
     0
277
    -2
287
     1
 67
     0
278
    -2
288
     1
 68
     0
279
    -2
289
     1
 69
     0
  7
STANDARD
140
6.0
170
     5
 62
     0
 63
     7
283
     0
 90
      512
 91
        0
  1

274
    -2
284
     1
 64
     0
275
    -2
285
     1
 65
     0
276
    -2
286
     1
 66
     0
277
    -2
287
     1
 67
     0
278
    -2
288
     1
 68
     0
279
    -2
289
     1
 69
     0
  7
STANDARD
140
4.5
170
     5
 62
     0
 63
     7
283
     0
 90
      512
 91
        0
  1

274
    -2
284
     1
 64
     0
275
    -2
285
     1
 65
     0
276
    -2
286
     1
 66
     0
277
    -2
287
     1
 67
     0
278
    -2
288
     1
 68
     0
279
    -2
289
     1
 69
     0
  0
VISUALSTYLE
  5
A9C
102
{ACAD_REACTORS
330
A96
102
}
330
A96
100
AcDbVisualStyle
  2
2dWireframe
 70
     4
177
     3
291
     0
 70
    58
 90
        0
176
     1
 90
        2
176
     1
 90
        0
176
     1
 90
        0
176
     1
 40
0.6
176
     1
 40
30.0
176
     1
 62
     7
420
 16777215
176
     1
 90
        1
176
     1
 90
        4
176
     1
 62
     7
176
     1
 62
   257
176
     1
 90
        1
176
     1
 90
        1
176
     1
 40
1.0
176
     1
 90
        0
176
     1
 62
   257
176
     1
 40
1.0
176
     1
 90
        1
176
     1
 90
        6
176
     1
 90
        2
176
     1
 62
     7
176
     1
 90
        5
176
     1
 90
        0
176
     1
 90
        0
176
     1
290
     0
176
     1
 90
        1
176
     1
 40
0.0
176
     1
 90
        0
176
     1
290
     1
176
     1
290
     1
176
     1
290
     0
176
     1
290
     0
176
     1
290
     0
176
     1
290
     0
176
     1
290
     0
176
     1
290
     0
176
     1
290
     0
176
     1
 90
       50
176
     1
 40
0.0
176
     1
 40
1.0
176
     1
 90
        0
176
     1
 62
    18
420
        0
176
     1
 90
       50
176
     1
 90
        3
176
     1
 62
     5
420
      255
176
     1
290
     0
176
     1
 90
       50
176
     1
 90
       50
176
     1
 90
       50
176
     1
290
     0
176
     1
 90
       50
176
     1
 62
   256
176
     0
 40
1.0
176
     0
 90
        2
176
     1
  1
strokes_ogs.tif
176
     1
290
     0
176
     1
 40
1.0
176
     1
 40
1.0
176
     1
1001
ACAD
1000
AcDbSavedByObjectVersion
1070
     0
  0
VISUALSTYLE
  5
A9B
102
{ACAD_REACTORS
330
A96
102
}
330
A96
100
AcDbVisualStyle
  2
Basic
 70
     7
177
     3
291
     1
 70
    58
 90
        1
176
     1
 90
        0
176
     1
 90
        1
176
     1
 90
        0
176
     1
 40
0.6
176
     1
 40
30.0
176
     1
 62
     7
420
 16777215
176
     1
 90
        0
176
     1
 90
        4
176
     1
 62
     7
176
     1
 62
   257
176
     1
 90
        1
176
     1
 90
        1
176
     1
 40
1.0
176
     1
 90
        8
176
     1
 62
     7
176
     1
 40
1.0
176
     1
 90
        1
176
     1
 90
        6
176
     1
 90
        2
176
     1
 62
     7
176
     1
 90
        5
176
     1
 90
        0
176
     1
 90
        0
176
     1
290
     0
176
     1
 90
        1
176
     1
 40
0.0
176
     1
 90
        0
176
     1
290
     0
176
     1
290
     1
176
     1
290
     1
176
     1
290
     0
176
     1
290
     0
176
     1
290
     0
176
     1
290
     0
176
     1
290
     0
176
     1
290
     0
176
     1
 90
       50
176
     1
 40
0.0
176
     1
 40
1.0
176
     1
 90
        0
176
     1
 62
    18
420
        0
176
     1
 90
       50
176
     1
 90
        3
176
     1
 62
     5
420
      255
176
     1
290
     0
176
     1
 90
       50
176
     1
 90
       50
176
     1
 90
       50
176
     1
290
     0
176
     1
 90
       50
176
     1
 62
   256
176
     0
 40
1.0
176
     0
 90
        2
176
     1
  1
strokes_ogs.tif
176
     1
290
     0
176
     1
 40
1.0
176
     1
 40
1.0
176
     1
1001
ACAD
1000
AcDbSavedByObjectVersion
1070
     0
  0
VISUALSTYLE
  5
AA2
102
{ACAD_REACTORS
330
A96
102
}
330
A96
100
AcDbVisualStyle
  2
Brighten
 70
    12
177
     3
291
     1
 70
    58
 90
        2
176
     1
 90
        2
176
     1
 90
        0
176
     1
 90
        0
176
     1
 40
0.6
176
     1
 40
30.0
176
     1
 62
     7
420
 16777215
176
     1
 90
        1
176
     1
 90
        4
176
     1
 62
     7
176
     1
 62
   257
176
     1
 90
        1
176
     1
 90
        1
176
     1
 40
1.0
176
     1
 90
        8
176
     1
 62
     7
176
     1
 40
1.0
176
     1
 90
        1
176
     1
 90
        6
176
     1
 90
        2
176
     1
 62
     7
176
     1
 90
        5
176
     1
 90
        0
176
     1
 90
        0
176
     1
290
     0
176
     1
 90
        1
176
     1
 40
50.0
176
     1
 90
        0
176
     1
290
     0
176
     1
290
     1
176
     1
290
     1
176
     1
290
     0
176
     1
290
     0
176
     1
290
     0
176
     1
290
     0
176
     1
290
     0
176
     1
290
     0
176
     1
 90
       50
176
     1
 40
0.0
176
     1
 40
1.0
176
     1
 90
        0
176
     1
 62
    18
420
        0
176
     1
 90
       50
176
     1
 90
        3
176
     1
 62
     5
420
      255
176
     1
290
     0
176
     1
 90
       50
176
     1
 90
       50
176
     1
 90
       50
176
     1
290
     0
176
     1
 90
       50
176
     1
 62
   256
176
     0
 40
1.0
176
     0
 90
        2
176
     1
  1
strokes_ogs.tif
176
     1
290
     0
176
     1
 40
1.0
176
     1
 40
1.0
176
     1
1001
ACAD
1000
AcDbSavedByObjectVersion
1070
     0
  0
VISUALSTYLE
  5
AA6
102
{ACAD_REACTORS
330
A96
102
}
330
A96
100
AcDbVisualStyle
  2
ColorChange
 70
    16
177
     3
291
     1
 70
    58
 90
        2
176
     1
 90
        2
176
     1
 90
        3
176
     1
 90
        0
176
     1
 40
0.6
176
     1
 40
30.0
176
     1
 62
     8
420
  8421504
176
     1
 90
        1
176
     1
 90
        4
176
     1
 62
     7
176
     1
 62
   257
176
     1
 90
        1
176
     1
 90
        1
176
     1
 40
1.0
176
     1
 90
        8
176
     1
 62
     8
420
  8421504
176
     1
 40
1.0
176
     1
 90
        1
176
     1
 90
        6
176
     1
 90
        2
176
     1
 62
     7
176
     1
 90
        5
176
     1
 90
        0
176
     1
 90
        0
176
     1
290
     0
176
     1
 90
        1
176
     1
 40
0.0
176
     1
 90
        0
176
     1
290
     0
176
     1
290
     1
176
     1
290
     1
176
     1
290
     0
176
     1
290
     0
176
     1
290
     0
176
     1
290
     0
176
     1
290
     0
176
     1
290
     0
176
     1
 90
       50
176
     1
 40
0.0
176
     1
 40
1.0
176
     1
 90
        0
176
     1
 62
    18
420
        0
176
     1
 90
       50
176
     1
 90
        3
176
     1
 62
     5
420
      255
176
     1
290
     0
176
     1
 90
       50
176
     1
 90
       50
176
     1
 90
       50
176
     1
290
     0
176
     1
 90
       50
176
     1
 62
   256
176
     0
 40
1.0
176
     0
 90
        2
176
     1
  1
strokes_ogs.tif
176
     1
290
     0
176
     1
 40
1.0
176
     1
 40
1.0
176
     1
1001
ACAD
1000
AcDbSavedByObjectVersion
1070
     0
  0
VISUALSTYLE
  5
A9F
102
{ACAD_REACTORS
330
A96
102
}
330
A96
100
AcDbVisualStyle
  2
Conceptual
 70
     9
177
     3
291
     0
 70
    58
 90
        3
176
     1
 90
        2
176
     1
 90
        0
176
     1
 90
        0
176
     1
 40
0.6
176
     1
 40
30.0
176
     1
 62
     7
420
 16777215
176
     1
 90
        2
176
     1
 90
        2
176
     1
 62
     7
176
     1
 62
   257
176
     1
 90
        1
176
     1
 90
        1
176
     1
 40
179.0
176
     1
 90
        8
176
     1
 62
     7
176
     1
 40
1.0
176
     1
 90
        1
176
     1
 90
        6
176
     1
 90
        2
176
     1
 62
     7
176
     1
 90
        3
176
     1
 90
        0
176
     1
 90
        0
176
     1
290
     0
176
     1
 90
        1
176
     1
 40
0.0
176
     1
 90
        0
176
     1
290
     0
176
     1
290
     1
176
     1
290
     1
176
     1
290
     0
176
     1
290
     0
176
     1
290
     0
176
     1
290
     0
176
     1
290
     0
176
     1
290
     0
176
     1
 90
       50
176
     1
 40
0.0
176
     1
 40
1.0
176
     1
 90
        0
176
     1
 62
    18
420
        0
176
     1
 90
       50
176
     1
 90
        3
176
     1
 62
     5
420
      255
176
     1
290
     0
176
     1
 90
       50
176
     1
 90
       50
176
     1
 90
       50
176
     1
290
     0
176
     1
 90
       50
176
     1
 62
   256
176
     0
 40
1.0
176
     0
 90
        2
176
     1
  1
strokes_ogs.tif
176
     1
290
     0
176
     1
 40
1.0
176
     1
 40
1.0
176
     1
1001
ACAD
1000
AcDbSavedByObjectVersion
1070
     0
  0
VISUALSTYLE
  5
AA1
102
{ACAD_REACTORS
330
A96
102
}
330
A96
100
AcDbVisualStyle
  2
Dim
 70
    11
177
     3
291
     1
 70
    58
 90
        2
176
     1
 90
        2
176
     1
 90
        0
176
     1
 90
        0
176
     1
 40
0.6
176
     1
 40
30.0
176
     1
 62
     7
420
 16777215
176
     1
 90
        1
176
     1
 90
        4
176
     1
 62
     7
176
     1
 62
   257
176
     1
 90
        1
176
     1
 90
        1
176
     1
 40
1.0
176
     1
 90
        8
176
     1
 62
     7
176
     1
 40
1.0
176
     1
 90
        1
176
     1
 90
        6
176
     1
 90
        2
176
     1
 62
     7
176
     1
 90
        5
176
     1
 90
        0
176
     1
 90
        0
176
     1
290
     0
176
     1
 90
        1
176
     1
 40
-50.0
176
     1
 90
        0
176
     1
290
     0
176
     1
290
     1
176
     1
290
     1
176
     1
290
     0
176
     1
290
     0
176
     1
290
     0
176
     1
290
     0
176
     1
290
     0
176
     1
290
     0
176
     1
 90
       50
176
     1
 40
0.0
176
     1
 40
1.0
176
     1
 90
        0
176
     1
 62
    18
420
        0
176
     1
 90
       50
176
     1
 90
        3
176
     1
 62
     5
420
      255
176
     1
290
     0
176
     1
 90
       50
176
     1
 90
       50
176
     1
 90
       50
176
     1
290
     0
176
     1
 90
       50
176
     1
 62
   256
176
     0
 40
1.0
176
     0
 90
        2
176
     1
  1
strokes_ogs.tif
176
     1
290
     0
176
     1
 40
1.0
176
     1
 40
1.0
176
     1
1001
ACAD
1000
AcDbSavedByObjectVersion
1070
     0
  0
VISUALSTYLE
  5
AAE
102
{ACAD_REACTORS
330
A96
102
}
330
A96
100
AcDbVisualStyle
  2
EdgeColorOff
 70
    22
177
     3
291
     1
 70
    58
 90
        2
176
     0
 90
        2
176
     0
 90
        0
176
     0
 90
        0
176
     0
 40
0.6
176
     0
 40
30.0
176
     0
 62
     7
420
 16777215
176
     0
 90
        1
176
     0
 90
        4
176
     0
 62
     7
176
     0
 62
   257
176
     0
 90
        1
176
     0
 90
        1
176
     0
 40
1.0
176
     0
 90
        8
176
     2
 62
     7
176
     0
 40
1.0
176
     0
 90
        1
176
     0
 90
        6
176
     0
 90
        2
176
     0
 62
     7
176
     0
 90
        5
176
     0
 90
        0
176
     0
 90
        0
176
     0
290
     0
176
     0
 90
        1
176
     0
 40
0.0
176
     0
 90
        0
176
     0
290
     0
176
     0
290
     1
176
     0
290
     1
176
     0
290
     0
176
     0
290
     0
176
     0
290
     0
176
     0
290
     0
176
     0
290
     0
176
     0
290
     0
176
     0
 90
       50
176
     0
 40
0.0
176
     0
 40
1.0
176
     0
 90
        0
176
     0
 62
    18
420
        0
176
     0
 90
       50
176
     0
 90
        3
176
     0
 62
     5
420
      255
176
     0
290
     0
176
     0
 90
       50
176
     0
 90
       50
176
     0
 90
       50
176
     0
290
     0
176
     0
 90
       50
176
     0
 62
   256
176
     0
 40
1.0
176
     0
 90
        2
176
     0
  1
strokes_ogs.tif
176
     0
290
     0
176
     0
 40
1.0
176
     0
 40
1.0
176
     0
1001
ACAD
1000
AcDbSavedByObjectVersion
1070
     0
  0
VISUALSTYLE
  5
AA5
102
{ACAD_REACTORS
330
A96
102
}
330
A96
100
AcDbVisualStyle
  2
Facepattern
 70
    15
177
     3
291
     1
 70
    58
 90
        2
176
     1
 90
        2
176
     1
 90
        0
176
     1
 90
        0
176
     1
 40
0.6
176
     1
 40
30.0
176
     1
 62
     7
420
 16777215
176
     1
 90
        1
176
     1
 90
        4
176
     1
 62
     7
176
     1
 62
   257
176
     1
 90
        1
176
     1
 90
        1
176
     1
 40
1.0
176
     1
 90
        8
176
     1
 62
     7
176
     1
 40
1.0
176
     1
 90
        1
176
     1
 90
        6
176
     1
 90
        2
176
     1
 62
     7
176
     1
 90
        5
176
     1
 90
        0
176
     1
 90
        0
176
     1
290
     0
176
     1
 90
        1
176
     1
 40
0.0
176
     1
 90
        0
176
     1
290
     0
176
     1
290
     1
176
     1
290
     1
176
     1
290
     0
176
     1
290
     0
176
     1
290
     0
176
     1
290
     0
176
     1
290
     0
176
     1
290
     0
176
     1
 90
       50
176
     1
 40
0.0
176
     1
 40
1.0
176
     1
 90
        0
176
     1
 62
    18
420
        0
176
     1
 90
       50
176
     1
 90
        3
176
     1
 62
     5
420
      255
176
     1
290
     0
176
     1
 90
       50
176
     1
 90
       50
176
     1
 90
       50
176
     1
290
     0
176
     1
 90
       50
176
     1
 62
   256
176
     0
 40
1.0
176
     0
 90
        2
176
     1
  1
strokes_ogs.tif
176
     1
290
     0
176
     1
 40
1.0
176
     1
 40
1.0
176
     1
1001
ACAD
1000
AcDbSavedByObjectVersion
1070
     0
  0
VISUALSTYLE
  5
A97
102
{ACAD_REACTORS
330
A96
102
}
330
A96
100
AcDbVisualStyle
  2
Flat
 70
     0
177
     3
291
     1
 70
    58
 90
        2
176
     1
 90
        1
176
     1
 90
        1
176
     1
 90
        2
176
     1
 40
0.6
176
     1
 40
30.0
176
     1
 62
     7
420
 16777215
176
     1
 90
        0
176
     1
 90
        0
176
     1
 62
     7
176
     1
 62
   257
176
     1
 90
        1
176
     1
 90
        1
176
     1
 40
1.0
176
     1
 90
        8
176
     1
 62
     7
176
     1
 40
1.0
176
     1
 90
        1
176
     1
 90
        6
176
     1
 90
        2
176
     1
 62
     7
176
     1
 90
        5
176
     1
 90
        0
176
     1
 90
        0
176
     1
290
     0
176
     1
 90
       13
176
     1
 40
0.0
176
     1
 90
        0
176
     1
290
     0
176
     1
290
     1
176
     1
290
     1
176
     1
290
     0
176
     1
290
     0
176
     1
290
     0
176
     1
290
     0
176
     1
290
     0
176
     1
290
     0
176
     1
 90
       50
176
     1
 40
0.0
176
     1
 40
1.0
176
     1
 90
        0
176
     1
 62
    18
420
        0
176
     1
 90
       50
176
     1
 90
        3
176
     1
 62
     5
420
      255
176
     1
290
     0
176
     1
 90
       50
176
     1
 90
       50
176
     1
 90
       50
176
     1
290
     0
176
     1
 90
       50
176
     1
 62
   256
176
     0
 40
1.0
176
     0
 90
        2
176
     1
  1
strokes_ogs.tif
176
     1
290
     0
176
     1
 40
1.0
176
     1
 40
1.0
176
     1
1001
ACAD
1000
AcDbSavedByObjectVersion
1070
     0
  0
VISUALSTYLE
  5
A98
102
{ACAD_REACTORS
330
A96
102
}
330
A96
100
AcDbVisualStyle
  2
FlatWithEdges
 70
     1
177
     3
291
     1
 70
    58
 90
        2
176
     1
 90
        1
176
     1
 90
        1
176
     1
 90
        2
176
     1
 40
0.6
176
     1
 40
30.0
176
     1
 62
     7
420
 16777215
176
     1
 90
        1
176
     1
 90
        0
176
     1
 62
     7
176
     1
 62
   257
176
     1
 90
        1
176
     1
 90
        1
176
     1
 40
1.0
176
     1
 90
        0
176
     1
 62
   257
176
     1
 40
1.0
176
     1
 90
        1
176
     1
 90
        6
176
     1
 90
        2
176
     1
 62
     7
176
     1
 90
        5
176
     1
 90
        0
176
     1
 90
        0
176
     1
290
     0
176
     1
 90
       13
176
     1
 40
0.0
176
     1
 90
        0
176
     1
290
     0
176
     1
290
     1
176
     1
290
     1
176
     1
290
     0
176
     1
290
     0
176
     1
290
     0
176
     1
290
     0
176
     1
290
     0
176
     1
290
     0
176
     1
 90
       50
176
     1
 40
0.0
176
     1
 40
1.0
176
     1
 90
        0
176
     1
 62
    18
420
        0
176
     1
 90
       50
176
     1
 90
        3
176
     1
 62
     5
420
      255
176
     1
290
     0
176
     1
 90
       50
176
     1
 90
       50
176
     1
 90
       50
176
     1
290
     0
176
     1
 90
       50
176
     1
 62
   256
176
     0
 40
1.0
176
     0
 90
        2
176
     1
  1
strokes_ogs.tif
176
     1
290
     0
176
     1
 40
1.0
176
     1
 40
1.0
176
     1
1001
ACAD
1000
AcDbSavedByObjectVersion
1070
     0
  0
VISUALSTYLE
  5
A99
102
{ACAD_REACTORS
330
A96
102
}
330
A96
100
AcDbVisualStyle
  2
Gouraud
 70
     2
177
     3
291
     1
 70
    58
 90
        2
176
     1
 90
        2
176
     1
 90
        1
176
     1
 90
        2
176
     1
 40
0.6
176
     1
 40
30.0
176
     1
 62
     7
420
 16777215
176
     1
 90
        0
176
     1
 90
        0
176
     1
 62
     7
176
     1
 62
   257
176
     1
 90
        1
176
     1
 90
        1
176
     1
 40
1.0
176
     1
 90
        0
176
     1
 62
     7
176
     1
 40
1.0
176
     1
 90
        1
176
     1
 90
        6
176
     1
 90
        2
176
     1
 62
     7
176
     1
 90
        5
176
     1
 90
        0
176
     1
 90
        0
176
     1
290
     0
176
     1
 90
       13
176
     1
 40
0.0
176
     1
 90
        0
176
     1
290
     0
176
     1
290
     1
176
     1
290
     1
176
     1
290
     0
176
     1
290
     0
176
     1
290
     0
176
     1
290
     0
176
     1
290
     0
176
     1
290
     0
176
     1
 90
       50
176
     1
 40
0.0
176
     1
 40
1.0
176
     1
 90
        0
176
     1
 62
    18
420
        0
176
     1
 90
       50
176
     1
 90
        3
176
     1
 62
     5
420
      255
176
     1
290
     0
176
     1
 90
       50
176
     1
 90
       50
176
     1
 90
       50
176
     1
290
     0
176
     1
 90
       50
176
     1
 62
   256
176
     0
 40
1.0
176
     0
 90
        2
176
     1
  1
strokes_ogs.tif
176
     1
290
     0
176
     1
 40
1.0
176
     1
 40
1.0
176
     1
1001
ACAD
1000
AcDbSavedByObjectVersion
1070
     0
  0
VISUALSTYLE
  5
A9A
102
{ACAD_REACTORS
330
A96
102
}
330
A96
100
AcDbVisualStyle
  2
GouraudWithEdges
 70
     3
177
     3
291
     1
 70
    58
 90
        2
176
     1
 90
        2
176
     1
 90
        1
176
     1
 90
        2
176
     1
 40
0.6
176
     1
 40
30.0
176
     1
 62
     7
420
 16777215
176
     1
 90
        1
176
     1
 90
        0
176
     1
 62
     7
176
     1
 62
   257
176
     1
 90
        1
176
     1
 90
        1
176
     1
 40
1.0
176
     1
 90
        0
176
     1
 62
   257
176
     1
 40
1.0
176
     1
 90
        1
176
     1
 90
        6
176
     1
 90
        2
176
     1
 62
     7
176
     1
 90
        5
176
     1
 90
        0
176
     1
 90
        0
176
     1
290
     0
176
     1
 90
       13
176
     1
 40
0.0
176
     1
 90
        0
176
     1
290
     0
176
     1
290
     1
176
     1
290
     1
176
     1
290
     0
176
     1
290
     0
176
     1
290
     0
176
     1
290
     0
176
     1
290
     0
176
     1
290
     0
176
     1
 90
       50
176
     1
 40
0.0
176
     1
 40
1.0
176
     1
 90
        0
176
     1
 62
    18
420
        0
176
     1
 90
       50
176
     1
 90
        3
176
     1
 62
     5
420
      255
176
     1
290
     0
176
     1
 90
       50
176
     1
 90
       50
176
     1
 90
       50
176
     1
290
     0
176
     1
 90
       50
176
     1
 62
   256
176
     0
 40
1.0
176
     0
 90
        2
176
     1
  1
strokes_ogs.tif
176
     1
290
     0
176
     1
 40
1.0
176
     1
 40
1.0
176
     1
1001
ACAD
1000
AcDbSavedByObjectVersion
1070
     0
  0
VISUALSTYLE
  5
A9E
102
{ACAD_REACTORS
330
A96
102
}
330
A96
100
AcDbVisualStyle
  2
Hidden
 70
     6
177
     3
291
     0
 70
    58
 90
        1
176
     1
 90
        2
176
     1
 90
        2
176
     1
 90
        0
176
     1
 40
0.6
176
     1
 40
30.0
176
     1
 62
     7
420
 16777215
176
     1
 90
        2
176
     1
 90
        2
176
     1
 62
     7
176
     1
 62
   257
176
     1
 90
        2
176
     1
 90
        1
176
     1
 40
40.0
176
     1
 90
        0
176
     1
 62
   257
176
     1
 40
1.0
176
     1
 90
        1
176
     1
 90
        6
176
     1
 90
        2
176
     1
 62
     7
176
     1
 90
        3
176
     1
 90
        0
176
     1
 90
        0
176
     1
290
     0
176
     1
 90
        1
176
     1
 40
0.0
176
     1
 90
        0
176
     1
290
     0
176
     1
290
     1
176
     1
290
     1
176
     1
290
     0
176
     1
290
     0
176
     1
290
     0
176
     1
290
     0
176
     1
290
     0
176
     1
290
     0
176
     1
 90
       50
176
     1
 40
0.0
176
     1
 40
1.0
176
     1
 90
        0
176
     1
 62
    18
420
        0
176
     1
 90
       50
176
     1
 90
        3
176
     1
 62
     5
420
      255
176
     1
290
     0
176
     1
 90
       50
176
     1
 90
       50
176
     1
 90
       50
176
     1
290
     0
176
     1
 90
       50
176
     1
 62
   256
176
     0
 40
1.0
176
     0
 90
        2
176
     1
  1
strokes_ogs.tif
176
     1
290
     0
176
     1
 40
1.0
176
     1
 40
1.0
176
     1
1001
ACAD
1000
AcDbSavedByObjectVersion
1070
     0
  0
VISUALSTYLE
  5
AAC
102
{ACAD_REACTORS
330
A96
102
}
330
A96
100
AcDbVisualStyle
  2
JitterOff
 70
    20
177
     3
291
     1
 70
    58
 90
        2
176
     0
 90
        2
176
     0
 90
        0
176
     0
 90
        0
176
     0
 40
0.6
176
     0
 40
30.0
176
     0
 62
     7
420
 16777215
176
     0
 90
        1
176
     0
 90
        4
176
     0
 62
     7
176
     0
 62
   257
176
     0
 90
        1
176
     0
 90
        1
176
     0
 40
1.0
176
     0
 90
       10
176
     2
 62
     7
176
     0
 40
1.0
176
     0
 90
        1
176
     0
 90
        6
176
     0
 90
        2
176
     0
 62
     7
176
     0
 90
        5
176
     0
 90
        0
176
     0
 90
        0
176
     0
290
     0
176
     0
 90
        1
176
     0
 40
0.0
176
     0
 90
        0
176
     0
290
     0
176
     0
290
     1
176
     0
290
     1
176
     0
290
     0
176
     0
290
     0
176
     0
290
     0
176
     0
290
     0
176
     0
290
     0
176
     0
290
     0
176
     0
 90
       50
176
     0
 40
0.0
176
     0
 40
1.0
176
     0
 90
        0
176
     0
 62
    18
420
        0
176
     0
 90
       50
176
     0
 90
        3
176
     0
 62
     5
420
      255
176
     0
290
     0
176
     0
 90
       50
176
     0
 90
       50
176
     0
 90
       50
176
     0
290
     0
176
     0
 90
       50
176
     0
 62
   256
176
     0
 40
1.0
176
     0
 90
        2
176
     0
  1
strokes_ogs.tif
176
     0
290
     0
176
     0
 40
1.0
176
     0
 40
1.0
176
     0
1001
ACAD
1000
AcDbSavedByObjectVersion
1070
     0
  0
VISUALSTYLE
  5
AA4
102
{ACAD_REACTORS
330
A96
102
}
330
A96
100
AcDbVisualStyle
  2
Linepattern
 70
    14
177
     3
291
     1
 70
    58
 90
        2
176
     1
 90
        2
176
     1
 90
        0
176
     1
 90
        0
176
     1
 40
0.6
176
     1
 40
30.0
176
     1
 62
     7
420
 16777215
176
     1
 90
        1
176
     1
 90
        4
176
     1
 62
     7
176
     1
 62
   257
176
     1
 90
        7
176
     1
 90
        7
176
     1
 40
1.0
176
     1
 90
        8
176
     1
 62
     7
176
     1
 40
1.0
176
     1
 90
        1
176
     1
 90
        6
176
     1
 90
        2
176
     1
 62
     7
176
     1
 90
        5
176
     1
 90
        0
176
     1
 90
        0
176
     1
290
     0
176
     1
 90
        1
176
     1
 40
0.0
176
     1
 90
        0
176
     1
290
     0
176
     1
290
     1
176
     1
290
     1
176
     1
290
     0
176
     1
290
     0
176
     1
290
     0
176
     1
290
     0
176
     1
290
     0
176
     1
290
     0
176
     1
 90
       50
176
     1
 40
0.0
176
     1
 40
1.0
176
     1
 90
        0
176
     1
 62
    18
420
        0
176
     1
 90
       50
176
     1
 90
        3
176
     1
 62
     5
420
      255
176
     1
290
     0
176
     1
 90
       50
176
     1
 90
       50
176
     1
 90
       50
176
     1
290
     0
176
     1
 90
       50
176
     1
 62
   256
176
     0
 40
1.0
176
     0
 90
        2
176
     1
  1
strokes_ogs.tif
176
     1
290
     0
176
     1
 40
1.0
176
     1
 40
1.0
176
     1
1001
ACAD
1000
AcDbSavedByObjectVersion
1070
     0
  0
VISUALSTYLE
  5
AAD
102
{ACAD_REACTORS
330
A96
102
}
330
A96
100
AcDbVisualStyle
  2
OverhangOff
 70
    21
177
     3
291
     1
 70
    58
 90
        2
176
     0
 90
        2
176
     0
 90
        0
176
     0
 90
        0
176
     0
 40
0.6
176
     0
 40
30.0
176
     0
 62
     7
420
 16777215
176
     0
 90
        1
176
     0
 90
        4
176
     0
 62
     7
176
     0
 62
   257
176
     0
 90
        1
176
     0
 90
        1
176
     0
 40
1.0
176
     0
 90
        9
176
     2
 62
     7
176
     0
 40
1.0
176
     0
 90
        1
176
     0
 90
        6
176
     0
 90
        2
176
     0
 62
     7
176
     0
 90
        5
176
     0
 90
        0
176
     0
 90
        0
176
     0
290
     0
176
     0
 90
        1
176
     0
 40
0.0
176
     0
 90
        0
176
     0
290
     0
176
     0
290
     1
176
     0
290
     1
176
     0
290
     0
176
     0
290
     0
176
     0
290
     0
176
     0
290
     0
176
     0
290
     0
176
     0
290
     0
176
     0
 90
       50
176
     0
 40
0.0
176
     0
 40
1.0
176
     0
 90
        0
176
     0
 62
    18
420
        0
176
     0
 90
       50
176
     0
 90
        3
176
     0
 62
     5
420
      255
176
     0
290
     0
176
     0
 90
       50
176
     0
 90
       50
176
     0
 90
       50
176
     0
290
     0
176
     0
 90
       50
176
     0
 62
   256
176
     0
 40
1.0
176
     0
 90
        2
176
     0
  1
strokes_ogs.tif
176
     0
290
     0
176
     0
 40
1.0
176
     0
 40
1.0
176
     0
1001
ACAD
1000
AcDbSavedByObjectVersion
1070
     0
  0
VISUALSTYLE
  5
AA0
102
{ACAD_REACTORS
330
A96
102
}
330
A96
100
AcDbVisualStyle
  2
Realistic
 70
     8
177
     3
291
     0
 70
    58
 90
        2
176
     1
 90
        3
176
     1
 90
        0
176
     1
 90
        2
176
     1
 40
0.6
176
     1
 40
30.0
176
     1
 62
     7
420
 16777215
176
     1
 90
        0
176
     1
 90
        0
176
     1
 62
     7
176
     1
 62
   257
176
     1
 90
        1
176
     1
 90
        1
176
     1
 40
1.0
176
     1
 90
        8
176
     1
 62
   257
176
     1
 40
1.0
176
     1
 90
        1
176
     1
 90
        6
176
     1
 90
        2
176
     1
 62
     7
176
     1
 90
        3
176
     1
 90
        0
176
     1
 90
        0
176
     1
290
     0
176
     1
 90
       13
176
     1
 40
0.0
176
     1
 90
        0
176
     1
290
     0
176
     1
290
     1
176
     1
290
     1
176
     1
290
     0
176
     1
290
     0
176
     1
290
     0
176
     1
290
     0
176
     1
290
     0
176
     1
290
     0
176
     1
 90
       50
176
     1
 40
0.0
176
     1
 40
1.0
176
     1
 90
        0
176
     1
 62
    18
420
        0
176
     1
 90
       50
176
     1
 90
        3
176
     1
 62
     5
420
      255
176
     1
290
     0
176
     1
 90
       50
176
     1
 90
       50
176
     1
 90
       50
176
     1
290
     0
176
     1
 90
       50
176
     1
 62
   256
176
     0
 40
1.0
176
     0
 90
        2
176
     1
  1
strokes_ogs.tif
176
     1
290
     0
176
     1
 40
1.0
176
     1
 40
1.0
176
     1
1001
ACAD
1000
AcDbSavedByObjectVersion
1070
     0
  0
VISUALSTYLE
  5
AAB
102
{ACAD_REACTORS
330
A96
102
}
330
A96
100
AcDbVisualStyle
  2
Shaded
 70
    27
177
     3
291
     0
 70
    58
 90
        2
176
     1
 90
        2
176
     1
 90
        1
176
     1
 90
        2
176
     1
 40
0.6
176
     1
 40
30.0
176
     1
 62
     7
420
 16777215
176
     1
 90
        0
176
     1
 90
        4
176
     1
 62
     7
176
     1
 62
   257
176
     1
 90
        1
176
     1
 90
        1
176
     1
 40
1.0
176
     1
 90
        8
176
     1
 62
   257
176
     1
 40
1.0
176
     1
 90
        1
176
     1
 90
        6
176
     1
 90
        2
176
     1
 62
     8
420
  7895160
176
     1
 90
        3
176
     1
 90
        0
176
     1
 90
        0
176
     1
290
     0
176
     1
 90
        5
176
     1
 40
0.0
176
     1
 90
        0
176
     1
290
     0
176
     1
290
     1
176
     1
290
     1
176
     1
290
     0
176
     1
290
     0
176
     1
290
     0
176
     1
290
     0
176
     1
290
     0
176
     1
290
     0
176
     1
 90
       50
176
     1
 40
0.0
176
     1
 40
1.0
176
     1
 90
        0
176
     1
 62
    18
420
        0
176
     1
 90
       50
176
     1
 90
        3
176
     1
 62
     5
420
      255
176
     1
290
     0
176
     1
 90
       50
176
     1
 90
       50
176
     1
 90
       50
176
     1
290
     0
176
     1
 90
       50
176
     1
 62
   256
176
     0
 40
1.0
176
     0
 90
        2
176
     1
  1
strokes_ogs.tif
176
     1
290
     0
176
     1
 40
1.0
176
     1
 40
1.0
176
     1
1001
ACAD
1000
AcDbSavedByObjectVersion
1070
     0
  0
VISUALSTYLE
  5
AAA
102
{ACAD_REACTORS
330
A96
102
}
330
A96
100
AcDbVisualStyle
  2
Shaded with edges
 70
    26
177
     3
291
     0
 70
    58
 90
        2
176
     1
 90
        2
176
     1
 90
        1
176
     1
 90
        2
176
     1
 40
0.6
176
     1
 40
30.0
176
     1
 62
     7
420
 16777215
176
     1
 90
        1
176
     1
 90
        2
176
     1
 62
     7
176
     1
 62
   257
176
     1
 90
        2
176
     1
 90
        1
176
     1
 40
1.0
176
     1
 90
        8
176
     1
 62
   257
176
     1
 40
1.0
176
     1
 90
        1
176
     1
 90
        6
176
     1
 90
        2
176
     1
 62
     7
176
     1
 90
        3
176
     1
 90
        0
176
     1
 90
        0
176
     1
290
     0
176
     1
 90
        5
176
     1
 40
0.0
176
     1
 90
        0
176
     1
290
     0
176
     1
290
     1
176
     1
290
     1
176
     1
290
     0
176
     1
290
     0
176
     1
290
     0
176
     1
290
     0
176
     1
290
     0
176
     1
290
     0
176
     1
 90
       50
176
     1
 40
0.0
176
     1
 40
1.0
176
     1
 90
        0
176
     1
 62
    18
420
        0
176
     1
 90
       50
176
     1
 90
        3
176
     1
 62
     5
420
      255
176
     1
290
     0
176
     1
 90
       50
176
     1
 90
       50
176
     1
 90
       50
176
     1
290
     0
176
     1
 90
       50
176
     1
 62
   256
176
     0
 40
1.0
176
     0
 90
        2
176
     1
  1
strokes_ogs.tif
176
     1
290
     0
176
     1
 40
1.0
176
     1
 40
1.0
176
     1
1001
ACAD
1000
AcDbSavedByObjectVersion
1070
     0
  0
VISUALSTYLE
  5
AA7
102
{ACAD_REACTORS
330
A96
102
}
330
A96
100
AcDbVisualStyle
  2
Shades of Gray
 70
    23
177
     3
291
     0
 70
    58
 90
        2
176
     1
 90
        2
176
     1
 90
        3
176
     1
 90
        0
176
     1
 40
0.6
176
     1
 40
30.0
176
     1
 62
     7
420
 16777215
176
     1
 90
        2
176
     1
 90
        2
176
     1
 62
     7
176
     1
 62
     7
176
     1
 90
        1
176
     1
 90
        1
176
     1
 40
40.0
176
     1
 90
        8
176
     1
 62
     7
176
     1
 40
1.0
176
     1
 90
        1
176
     1
 90
        6
176
     1
 90
        2
176
     1
 62
     7
176
     1
 90
        3
176
     1
 90
        0
176
     1
 90
        0
176
     1
290
     0
176
     1
 90
        1
176
     1
 40
0.0
176
     1
 90
        0
176
     1
290
     0
176
     1
290
     1
176
     1
290
     1
176
     1
290
     0
176
     1
290
     0
176
     1
290
     0
176
     1
290
     0
176
     1
290
     0
176
     1
290
     0
176
     1
 90
       50
176
     1
 40
0.0
176
     1
 40
1.0
176
     1
 90
        0
176
     1
 62
    18
420
        0
176
     1
 90
       50
176
     1
 90
        3
176
     1
 62
     5
420
      255
176
     1
290
     0
176
     1
 90
       50
176
     1
 90
       50
176
     1
 90
       50
176
     1
290
     0
176
     1
 90
       50
176
     1
 62
   256
176
     0
 40
1.0
176
     0
 90
        2
176
     1
  1
strokes_ogs.tif
176
     1
290
     0
176
     1
 40
1.0
176
     1
 40
1.0
176
     1
1001
ACAD
1000
AcDbSavedByObjectVersion
1070
     0
  0
VISUALSTYLE
  5
AA8
102
{ACAD_REACTORS
330
A96
102
}
330
A96
100
AcDbVisualStyle
  2
Sketchy
 70
    24
177
     3
291
     0
 70
    58
 90
        1
176
     1
 90
        2
176
     1
 90
        2
176
     1
 90
        0
176
     1
 40
0.6
176
     1
 40
30.0
176
     1
 62
     7
420
 16777215
176
     1
 90
        2
176
     1
 90
        2
176
     1
 62
     7
176
     1
 62
     7
176
     1
 90
        1
176
     1
 90
        1
176
     1
 40
40.0
176
     1
 90
       11
176
     1
 62
     7
176
     1
 40
1.0
176
     1
 90
        1
176
     1
 90
        6
176
     1
 90
        2
176
     1
 62
     7
176
     1
 90
        6
176
     1
 90
        0
176
     1
 90
        0
176
     1
290
     0
176
     1
 90
        1
176
     1
 40
0.0
176
     1
 90
        0
176
     1
290
     0
176
     1
290
     1
176
     1
290
     1
176
     1
290
     0
176
     1
290
     0
176
     1
290
     0
176
     1
290
     0
176
     1
290
     0
176
     1
290
     0
176
     1
 90
       50
176
     1
 40
0.0
176
     1
 40
1.0
176
     1
 90
        0
176
     1
 62
    18
420
        0
176
     1
 90
       50
176
     1
 90
        3
176
     1
 62
     5
420
      255
176
     1
290
     0
176
     1
 90
       50
176
     1
 90
       50
176
     1
 90
       50
176
     1
290
     0
176
     1
 90
       50
176
     1
 62
   256
176
     0
 40
1.0
176
     0
 90
        2
176
     1
  1
strokes_ogs.tif
176
     1
290
     0
176
     1
 40
1.0
176
     1
 40
1.0
176
     1
1001
ACAD
1000
AcDbSavedByObjectVersion
1070
     0
  0
VISUALSTYLE
  5
AA3
102
{ACAD_REACTORS
330
A96
102
}
330
A96
100
AcDbVisualStyle
  2
Thicken
 70
    13
177
     3
291
     1
 70
    58
 90
        2
176
     1
 90
        2
176
     1
 90
        0
176
     1
 90
        0
176
     1
 40
0.6
176
     1
 40
30.0
176
     1
 62
     7
420
 16777215
176
     1
 90
        1
176
     1
 90
        4
176
     1
 62
     7
176
     1
 62
   257
176
     1
 90
        1
176
     1
 90
        1
176
     1
 40
1.0
176
     1
 90
       12
176
     1
 62
     7
176
     1
 40
1.0
176
     1
 90
        1
176
     1
 90
        6
176
     1
 90
        2
176
     1
 62
     7
176
     1
 90
        5
176
     1
 90
        0
176
     1
 90
        0
176
     1
290
     0
176
     1
 90
        1
176
     1
 40
0.0
176
     1
 90
        0
176
     1
290
     0
176
     1
290
     1
176
     1
290
     1
176
     1
290
     0
176
     1
290
     0
176
     1
290
     0
176
     1
290
     0
176
     1
290
     0
176
     1
290
     0
176
     1
 90
       50
176
     1
 40
0.0
176
     1
 40
1.0
176
     1
 90
        0
176
     1
 62
    18
420
        0
176
     1
 90
       50
176
     1
 90
        3
176
     1
 62
     5
420
      255
176
     1
290
     0
176
     1
 90
       50
176
     1
 90
       50
176
     1
 90
       50
176
     1
290
     0
176
     1
 90
       50
176
     1
 62
   256
176
     0
 40
1.0
176
     0
 90
        2
176
     1
  1
strokes_ogs.tif
176
     1
290
     0
176
     1
 40
1.0
176
     1
 40
1.0
176
     1
1001
ACAD
1000
AcDbSavedByObjectVersion
1070
     0
  0
VISUALSTYLE
  5
A9D
102
{ACAD_REACTORS
330
A96
102
}
330
A96
100
AcDbVisualStyle
  2
Wireframe
 70
     5
177
     3
291
     0
 70
    58
 90
        0
176
     1
 90
        2
176
     1
 90
        0
176
     1
 90
        0
176
     1
 40
0.6
176
     1
 40
30.0
176
     1
 62
     7
420
 16777215
176
     1
 90
        1
176
     1
 90
        4
176
     1
 62
     7
176
     1
 62
   257
176
     1
 90
        1
176
     1
 90
        1
176
     1
 40
1.0
176
     1
 90
        0
176
     1
 62
   257
176
     1
 40
1.0
176
     1
 90
        1
176
     1
 90
        6
176
     1
 90
        2
176
     1
 62
     7
176
     1
 90
        3
176
     1
 90
        0
176
     1
 90
        0
176
     1
290
     0
176
     1
 90
        1
176
     1
 40
0.0
176
     1
 90
        0
176
     1
290
     0
176
     1
290
     1
176
     1
290
     1
176
     1
290
     0
176
     1
290
     0
176
     1
290
     0
176
     1
290
     0
176
     1
290
     0
176
     1
290
     0
176
     1
 90
       50
176
     1
 40
0.0
176
     1
 40
1.0
176
     1
 90
        0
176
     1
 62
    18
420
        0
176
     1
 90
       50
176
     1
 90
        3
176
     1
 62
     5
420
      255
176
     1
290
     0
176
     1
 90
       50
176
     1
 90
       50
176
     1
 90
       50
176
     1
290
     0
176
     1
 90
       50
176
     1
 62
   256
176
     0
 40
1.0
176
     0
 90
        2
176
     1
  1
strokes_ogs.tif
176
     1
290
     0
176
     1
 40
1.0
176
     1
 40
1.0
176
     1
1001
ACAD
1000
AcDbSavedByObjectVersion
1070
     0
  0
VISUALSTYLE
  5
AA9
102
{ACAD_REACTORS
330
A96
102
}
330
A96
100
AcDbVisualStyle
  2
X-Ray
 70
    25
177
     3
291
     0
 70
    58
 90
        2
176
     1
 90
        2
176
     1
 90
        1
176
     1
 90
        1
176
     1
 40
0.5
176
     1
 40
30.0
176
     1
 62
     7
420
 16777215
176
     1
 90
        1
176
     1
 90
        0
176
     1
 62
     7
176
     1
 62
   257
176
     1
 90
        1
176
     1
 90
        1
176
     1
 40
1.0
176
     1
 90
        8
176
     1
 62
     7
176
     1
 40
1.0
176
     1
 90
        1
176
     1
 90
        6
176
     1
 90
        2
176
     1
 62
     7
176
     1
 90
        3
176
     1
 90
        0
176
     1
 90
        0
176
     1
290
     0
176
     1
 90
       13
176
     1
 40
0.0
176
     1
 90
        0
176
     1
290
     0
176
     1
290
     1
176
     1
290
     1
176
     1
290
     0
176
     1
290
     0
176
     1
290
     0
176
     1
290
     0
176
     1
290
     0
176
     1
290
     0
176
     1
 90
       50
176
     1
 40
0.0
176
     1
 40
1.0
176
     1
 90
        0
176
     1
 62
    18
420
        0
176
     1
 90
       50
176
     1
 90
        3
176
     1
 62
     5
420
      255
176
     1
290
     0
176
     1
 90
       50
176
     1
 90
       50
176
     1
 90
       50
176
     1
290
     0
176
     1
 90
       50
176
     1
 62
   256
176
     0
 40
1.0
176
     0
 90
        2
176
     1
  1
strokes_ogs.tif
176
     1
290
     0
176
     1
 40
1.0
176
     1
 40
1.0
176
     1
1001
ACAD
1000
AcDbSavedByObjectVersion
1070
     0
  0
DICTIONARYVAR
  5
B1D
102
{ACAD_REACTORS
330
136
102
}
330
136
100
DictionaryVariables
280
     0
  1
1:1
  0
DICTIONARYVAR
  5
B19
102
{ACAD_REACTORS
330
136
102
}
330
136
100
DictionaryVariables
280
     0
  1
STANDARD
  0
DICTIONARYVAR
  5
B18
102
{ACAD_REACTORS
330
136
102
}
330
136
100
DictionaryVariables
280
     0
  1
STANDARD
  0
DICTIONARYVAR
  5
B1A
102
{ACAD_REACTORS
330
136
102
}
330
136
100
DictionaryVariables
280
     0
  1
Metric50
  0
DICTIONARYVAR
  5
B1B
102
{ACAD_REACTORS
330
136
102
}
330
136
100
DictionaryVariables
280
     0
  1
Metric50
  0
DICTIONARYVAR
  5
B1F
102
{ACAD_REACTORS
330
136
102
}
330
136
100
DictionaryVariables
280
     0
  1
1
  0
DICTIONARYVAR
  5
B20
102
{ACAD_REACTORS
330
136
102
}
330
136
100
DictionaryVariables
280
     0
  1
15
  0
DICTIONARYVAR
  5
B1E
102
{ACAD_REACTORS
330
136
102
}
330
136
100
DictionaryVariables
280
     0
  1
0
  0
DICTIONARYVAR
  5
B1C
102
{ACAD_REACTORS
330
136
102
}
330
136
100
DictionaryVariables
280
     0
  1
0
  0
DICTIONARYVAR
  5
137
102
{ACAD_REACTORS
330
136
102
}
330
136
100
DictionaryVariables
280
     0
  1
96
  0
DICTIONARY
  5
B26
330
AC9
100
AcDbDictionary
280
     1
281
     1
  3
ACAD_XREC_ROUNDTRIP
360
B27
  0
DICTIONARY
  5
A87
330
A86
100
AcDbDictionary
280
     1
281
     1
  3
BUMPTILE
360
A89
  3
DIFFUSETILE
360
A88
  3
OPACITYTILE
360
A8C
  3
REFLECTIONTILE
360
A8B
  3
REFRACTIONTILE
360
A8D
  3
SPECULARTILE
360
A8A
  0
DICTIONARY
  5
A7F
330
A7E
100
AcDbDictionary
280
     1
281
     1
  3
BUMPTILE
360
A81
  3
DIFFUSETILE
360
A80
  3
OPACITYTILE
360
A84
  3
REFLECTIONTILE
360
A83
  3
REFRACTIONTILE
360
A85
  3
SPECULARTILE
360
A82
  0
DICTIONARY
  5
A8F
330
A8E
100
AcDbDictionary
280
     1
281
     1
  3
BUMPTILE
360
A91
  3
DIFFUSETILE
360
A90
  3
OPACITYTILE
360
A94
  3
REFLECTIONTILE
360
A93
  3
REFRACTIONTILE
360
A95
  3
SPECULARTILE
360
A92
  0
XRECORD
  5
B2B
102
{ACAD_REACTORS
330
B29
102
}
330
B29
100
AcDbXrecord
280
     1
102
ACAD_MENTALRAY_SETTING_RT
330
AD8
 70
     1
  0
XRECORD
  5
B2A
102
{ACAD_REACTORS
330
B29
102
}
330
B29
100
AcDbXrecord
280
     1
 70
     2
 71
     3
 72
     0
  0
DICTIONARY
  5
B24
330
AC7
100
AcDbDictionary
280
     1
281
     1
  3
ACAD_XREC_ROUNDTRIP
360
B25
  0
DICTIONARY
  5
B21
330
AB1
100
AcDbDictionary
280
     1
281
     1
  3
ACAD_ROUNDTRIP_2008_TABLESTYLE_CELLSTYLEMAP
360
B22
  0
XRECORD
  5
B27
102
{ACAD_REACTORS
330
B26
102
}
330
B26
100
AcDbXrecord
280
     1
102
DISPLAYNAME
  1
Metric50
102
FLAGS
 90
        0
  0
XRECORD
  5
A89
102
{ACAD_REACTORS
330
A87
102
}
330
A87
100
AcDbXrecord
280
     1
270
     1
271
     1
  0
XRECORD
  5
A88
102
{ACAD_REACTORS
330
A87
102
}
330
A87
100
AcDbXrecord
280
     1
270
     1
271
     1
  0
XRECORD
  5
A8C
102
{ACAD_REACTORS
330
A87
102
}
330
A87
100
AcDbXrecord
280
     1
270
     1
271
     1
  0
XRECORD
  5
A8B
102
{ACAD_REACTORS
330
A87
102
}
330
A87
100
AcDbXrecord
280
     1
270
     1
271
     1
  0
XRECORD
  5
A8D
102
{ACAD_REACTORS
330
A87
102
}
330
A87
100
AcDbXrecord
280
     1
270
     1
271
     1
  0
XRECORD
  5
A8A
102
{ACAD_REACTORS
330
A87
102
}
330
A87
100
AcDbXrecord
280
     1
270
     1
271
     1
  0
XRECORD
  5
A81
102
{ACAD_REACTORS
330
A7F
102
}
330
A7F
100
AcDbXrecord
280
     1
270
     1
271
     1
  0
XRECORD
  5
A80
102
{ACAD_REACTORS
330
A7F
102
}
330
A7F
100
AcDbXrecord
280
     1
270
     1
271
     1
  0
XRECORD
  5
A84
102
{ACAD_REACTORS
330
A7F
102
}
330
A7F
100
AcDbXrecord
280
     1
270
     1
271
     1
  0
XRECORD
  5
A83
102
{ACAD_REACTORS
330
A7F
102
}
330
A7F
100
AcDbXrecord
280
     1
270
     1
271
     1
  0
XRECORD
  5
A85
102
{ACAD_REACTORS
330
A7F
102
}
330
A7F
100
AcDbXrecord
280
     1
270
     1
271
     1
  0
XRECORD
  5
A82
102
{ACAD_REACTORS
330
A7F
102
}
330
A7F
100
AcDbXrecord
280
     1
270
     1
271
     1
  0
XRECORD
  5
A91
102
{ACAD_REACTORS
330
A8F
102
}
330
A8F
100
AcDbXrecord
280
     1
270
     1
271
     1
  0
XRECORD
  5
A90
102
{ACAD_REACTORS
330
A8F
102
}
330
A8F
100
AcDbXrecord
280
     1
270
     1
271
     1
  0
XRECORD
  5
A94
102
{ACAD_REACTORS
330
A8F
102
}
330
A8F
100
AcDbXrecord
280
     1
270
     1
271
     1
  0
XRECORD
  5
A93
102
{ACAD_REACTORS
330
A8F
102
}
330
A8F
100
AcDbXrecord
280
     1
270
     1
271
     1
  0
XRECORD
  5
A95
102
{ACAD_REACTORS
330
A8F
102
}
330
A8F
100
AcDbXrecord
280
     1
270
     1
271
     1
  0
XRECORD
  5
A92
102
{ACAD_REACTORS
330
A8F
102
}
330
A8F
100
AcDbXrecord
280
     1
270
     1
271
     1
  0
XRECORD
  5
B25
102
{ACAD_REACTORS
330
B24
102
}
330
B24
100
AcDbXrecord
280
     1
102
DISPLAYNAME
  1
Metric50
102
FLAGS
 90
        0
  0
CELLSTYLEMAP
  5
B22
102
{ACAD_REACTORS
330
B21
102
}
330
B21
100
AcDbCellStyleMap
 90
        3
300
CELLSTYLE
  1
TABLEFORMAT_BEGIN
 90
        5
170
     1
 91
        0
 92
    32768
 62
   257
 93
        1
300
CONTENTFORMAT
  1
CONTENTFORMAT_BEGIN
 90
        0
 91
        0
 92
      512
 93
        0
300

 40
0.0
140
1.0
 94
        5
 62
     0
340
10
144
6.0
309
CONTENTFORMAT_END
171
     1
301
MARGIN
  1
CELLMARGIN_BEGIN
 40
1.5
 40
1.5
 40
1.5
 40
1.5
 40
4.5
 40
4.5
309
CELLMARGIN_END
 94
        6
 95
        1
302
GRIDFORMAT
  1
GRIDFORMAT_BEGIN
 90
        0
 91
        1
 62
     0
 92
       -2
340
0
 93
        0
 40
1.125
309
GRIDFORMAT_END
 95
        2
302
GRIDFORMAT
  1
GRIDFORMAT_BEGIN
 90
        0
 91
        1
 62
     0
 92
       -2
340
0
 93
        0
 40
1.125
309
GRIDFORMAT_END
 95
        4
302
GRIDFORMAT
  1
GRIDFORMAT_BEGIN
 90
        0
 91
        1
 62
     0
 92
       -2
340
0
 93
        0
 40
1.125
309
GRIDFORMAT_END
 95
        8
302
GRIDFORMAT
  1
GRIDFORMAT_BEGIN
 90
        0
 91
        1
 62
     0
 92
       -2
340
0
 93
        0
 40
1.125
309
GRIDFORMAT_END
 95
       16
302
GRIDFORMAT
  1
GRIDFORMAT_BEGIN
 90
        0
 91
        1
 62
     0
 92
       -2
340
0
 93
        0
 40
1.125
309
GRIDFORMAT_END
 95
       32
302
GRIDFORMAT
  1
GRIDFORMAT_BEGIN
 90
        0
 91
        1
 62
     0
 92
       -2
340
0
 93
        0
 40
1.125
309
GRIDFORMAT_END
309
TABLEFORMAT_END
  1
CELLSTYLE_BEGIN
 90
        1
 91
        1
300
_TITLE
309
CELLSTYLE_END
300
CELLSTYLE
  1
TABLEFORMAT_BEGIN
 90
        5
170
     1
 91
        0
 92
        0
 62
   257
 93
        1
300
CONTENTFORMAT
  1
CONTENTFORMAT_BEGIN
 90
        0
 91
        0
 92
      512
 93
        0
300

 40
0.0
140
1.0
 94
        5
 62
     0
340
10
144
4.5
309
CONTENTFORMAT_END
171
     1
301
MARGIN
  1
CELLMARGIN_BEGIN
 40
1.5
 40
1.5
 40
1.5
 40
1.5
 40
4.5
 40
4.5
309
CELLMARGIN_END
 94
        6
 95
        1
302
GRIDFORMAT
  1
GRIDFORMAT_BEGIN
 90
        0
 91
        1
 62
     0
 92
       -2
340
0
 93
        0
 40
1.125
309
GRIDFORMAT_END
 95
        2
302
GRIDFORMAT
  1
GRIDFORMAT_BEGIN
 90
        0
 91
        1
 62
     0
 92
       -2
340
0
 93
        0
 40
1.125
309
GRIDFORMAT_END
 95
        4
302
GRIDFORMAT
  1
GRIDFORMAT_BEGIN
 90
        0
 91
        1
 62
     0
 92
       -2
340
0
 93
        0
 40
1.125
309
GRIDFORMAT_END
 95
        8
302
GRIDFORMAT
  1
GRIDFORMAT_BEGIN
 90
        0
 91
        1
 62
     0
 92
       -2
340
0
 93
        0
 40
1.125
309
GRIDFORMAT_END
 95
       16
302
GRIDFORMAT
  1
GRIDFORMAT_BEGIN
 90
        0
 91
        1
 62
     0
 92
       -2
340
0
 93
        0
 40
1.125
309
GRIDFORMAT_END
 95
       32
302
GRIDFORMAT
  1
GRIDFORMAT_BEGIN
 90
        0
 91
        1
 62
     0
 92
       -2
340
0
 93
        0
 40
1.125
309
GRIDFORMAT_END
309
TABLEFORMAT_END
  1
CELLSTYLE_BEGIN
 90
        2
 91
        1
300
_HEADER
309
CELLSTYLE_END
300
CELLSTYLE
  1
TABLEFORMAT_BEGIN
 90
        5
170
     1
 91
        0
 92
        0
 62
   257
 93
        1
300
CONTENTFORMAT
  1
CONTENTFORMAT_BEGIN
 90
        0
 91
        0
 92
      512
 93
        0
300

 40
0.0
140
1.0
 94
        2
 62
     0
340
10
144
4.5
309
CONTENTFORMAT_END
171
     1
301
MARGIN
  1
CELLMARGIN_BEGIN
 40
1.5
 40
1.5
 40
1.5
 40
1.5
 40
4.5
 40
4.5
309
CELLMARGIN_END
 94
        6
 95
        1
302
GRIDFORMAT
  1
GRIDFORMAT_BEGIN
 90
        0
 91
        1
 62
     0
 92
       -2
340
0
 93
        0
 40
1.125
309
GRIDFORMAT_END
 95
        2
302
GRIDFORMAT
  1
GRIDFORMAT_BEGIN
 90
        0
 91
        1
 62
     0
 92
       -2
340
0
 93
        0
 40
1.125
309
GRIDFORMAT_END
 95
        4
302
GRIDFORMAT
  1
GRIDFORMAT_BEGIN
 90
        0
 91
        1
 62
     0
 92
       -2
340
0
 93
        0
 40
1.125
309
GRIDFORMAT_END
 95
        8
302
GRIDFORMAT
  1
GRIDFORMAT_BEGIN
 90
        0
 91
        1
 62
     0
 92
       -2
340
0
 93
        0
 40
1.125
309
GRIDFORMAT_END
 95
       16
302
GRIDFORMAT
  1
GRIDFORMAT_BEGIN
 90
        0
 91
        1
 62
     0
 92
       -2
340
0
 93
        0
 40
1.125
309
GRIDFORMAT_END
 95
       32
302
GRIDFORMAT
  1
GRIDFORMAT_BEGIN
 90
        0
 91
        1
 62
     0
 92
       -2
340
0
 93
        0
 40
1.125
309
GRIDFORMAT_END
309
TABLEFORMAT_END
  1
CELLSTYLE_BEGIN
 90
        3
 91
        2
300
_DATA
309
CELLSTYLE_END
  0
ENDSEC
  0
EOF
