  0
SECTION
  2
HEADER
  9
$ACADVER
  1
AC1009
  9
$INSBASE
 10
0.0
 20
0.0
 30
0.0
  9
$EXTMIN
 10
-11.009215448295199
 20
-16.113280395643411
 30
-0.0000000000112498
  9
$EXTMAX
 10
13.526917043522641
 20
23.57482965287624
 30
0.0000000000002956
  9
$LIMMIN
 10
-150.0
 20
-150.0
  9
$LIMMAX
 10
150.0
 20
150.0
  9
$ORTHOMODE
 70
     0
  9
$REGENMODE
 70
     1
  9
$FILLMODE
 70
     1
  9
$QTEXTMODE
 70
     0
  9
$MIRRTEXT
 70
     0
  9
$DRAGMODE
 70
     2
  9
$LTSCALE
 40
3.0
  9
$OSMODE
 70
   111
  9
$ATTMODE
 70
     1
  9
$TEXTSIZE
 40
3.5
  9
$TRACEWID
 40
1.0
  9
$TEXTSTYLE
  7
BESCHLAG
  9
$CLAYER
  8
0
  9
$CELTYPE
  6
BYLAYER
  9
$CECOLOR
 62
   256
  9
$DIMSCALE
 40
1.0
  9
$DIMASZ
 40
2.0
  9
$DIMEXO
 40
2.0
  9
$DIMDLI
 40
0.0
  9
$DIMRND
 40
0.0
  9
$DIMDLE
 40
1.0
  9
$DIMEXE
 40
1.0
  9
$DIMTP
 40
0.0
  9
$DIMTM
 40
0.0
  9
$DIMTXT
 40
3.5
  9
$DIMCEN
 40
0.0
  9
$DIMTSZ
 40
0.0
  9
$DIMTOL
 70
     0
  9
$DIMLIM
 70
     0
  9
$DIMTIH
 70
     0
  9
$DIMTOH
 70
     0
  9
$DIMSE1
 70
     0
  9
$DIMSE2
 70
     0
  9
$DIMTAD
 70
     1
  9
$DIMZIN
 70
     8
  9
$DIMBLK
  1

  9
$DIMASO
 70
     1
  9
$DIMSHO
 70
     1
  9
$DIMPOST
  1

  9
$DIMAPOST
  1

  9
$DIMALT
 70
     0
  9
$DIMALTD
 70
     2
  9
$DIMALTF
 40
0.039370078740157
  9
$DIMLFAC
 40
1.0
  9
$DIMTOFL
 70
     1
  9
$DIMTVP
 40
0.0
  9
$DIMTIX
 70
     1
  9
$DIMSOXD
 70
     0
  9
$DIMSAH
 70
     1
  9
$DIMBLK1
  1
OBLIQUE
  9
$DIMBLK2
  1
OBLIQUE
  9
$DIMSTYLE
  2
OPO-SSTRICH
  9
$DIMCLRD
 70
   256
  9
$DIMCLRE
 70
   256
  9
$DIMCLRT
 70
   256
  9
$DIMTFAC
 40
0.7114285714285716
  9
$DIMGAP
 40
1.0
  9
$LUNITS
 70
     2
  9
$LUPREC
 70
     1
  9
$SKETCHINC
 40
1.0
  9
$FILLETRAD
 40
0.0
  9
$AUNITS
 70
     0
  9
$AUPREC
 70
     1
  9
$MENU
  1
D:\ACL_CGWG\CGTAB13
  9
$ELEVATION
 40
0.0
  9
$PELEVATION
 40
0.0
  9
$THICKNESS
 40
0.0
  9
$LIMCHECK
 70
     0
  9
$BLIPMODE
 70
     0
  9
$CHAMFERA
 40
1.0
  9
$CHAMFERB
 40
1.0
  9
$SKPOLY
 70
     0
  9
$TDCREATE
 40
2451739.8548019668
  9
$TDUPDATE
 40
2452086.7386335991
  9
$TDINDWG
 40
0.0007406481
  9
$TDUSRTIMER
 40
0.0007406481
  9
$USRTIMER
 70
     1
  9
$ANGBASE
 50
0.0
  9
$ANGDIR
 70
     0
  9
$PDMODE
 70
    35
  9
$PDSIZE
 40
5.0
  9
$PLINEWID
 40
0.0
  9
$COORDS
 70
     1
  9
$SPLFRAME
 70
     0
  9
$SPLINETYPE
 70
     6
  9
$SPLINESEGS
 70
     8
  9
$ATTDIA
 70
     1
  9
$ATTREQ
 70
     1
  9
$HANDLING
 70
-16383
  9
$HANDSEED
  5
409
  9
$SURFTAB1
 70
    12
  9
$SURFTAB2
 70
    12
  9
$SURFTYPE
 70
     6
  9
$SURFU
 70
    12
  9
$SURFV
 70
    12
  9
$UCSNAME
  2

  9
$UCSORG
 10
0.0
 20
0.0
 30
0.0
  9
$UCSXDIR
 10
1.0
 20
0.0
 30
0.0
  9
$UCSYDIR
 10
0.0
 20
1.0
 30
0.0
  9
$PUCSNAME
  2

  9
$PUCSORG
 10
0.0
 20
0.0
 30
0.0
  9
$PUCSXDIR
 10
1.0
 20
0.0
 30
0.0
  9
$PUCSYDIR
 10
0.0
 20
1.0
 30
0.0
  9
$USERI1
 70
     0
  9
$USERI2
 70
     0
  9
$USERI3
 70
     0
  9
$USERI4
 70
     0
  9
$USERI5
 70
     0
  9
$USERR1
 40
0.0
  9
$USERR2
 40
0.0
  9
$USERR3
 40
0.0
  9
$USERR4
 40
0.0
  9
$USERR5
 40
0.0
  9
$WORLDVIEW
 70
     1
  9
$SHADEDGE
 70
     3
  9
$SHADEDIF
 70
    70
  9
$TILEMODE
 70
     1
  9
$MAXACTVP
 70
    48
  9
$PLIMCHECK
 70
     0
  9
$PEXTMIN
 10
1.0000000000000000E+020
 20
1.0000000000000000E+020
 30
1.0000000000000000E+020
  9
$PEXTMAX
 10
-1.0000000000000000E+020
 20
-1.0000000000000000E+020
 30
-1.0000000000000000E+020
  9
$PLIMMIN
 10
0.0
 20
0.0
  9
$PLIMMAX
 10
420.0
 20
297.0
  9
$UNITMODE
 70
     0
  9
$VISRETAIN
 70
     1
  9
$PLINEGEN
 70
     0
  9
$PSLTSCALE
 70
     1
  0
ENDSEC
  0
SECTION
  2
TABLES
  0
TABLE
  2
VPORT
 70
     2
  0
VPORT
  2
*ACTIVE
 70
     0
 10
0.0
 20
0.0
 11
1.0
 21
1.0
 12
1.258850797613714
 22
3.7307746286164161
 13
0.0
 23
0.0
 14
0.5
 24
0.5
 15
10.0
 25
10.0
 16
0.0
 26
0.0
 36
1.0
 17
0.0
 27
0.0
 37
0.0
 40
40.010340982607772
 41
1.6070460704607039
 42
50.0
 43
0.0
 44
0.0
 50
0.0
 51
0.0
 71
     0
 72
   800
 73
     1
 74
     1
 75
     0
 76
     0
 77
     0
 78
     0
  0
ENDTAB
  0
TABLE
  2
LTYPE
 70
     2
  0
LTYPE
  2
CONTINUOUS
 70
     0
  3
_______________________________________________
 72
    65
 73
     2
 40
1.0
 49
1.0
 49
0.0
  0
LTYPE
  2
STRICHPUNKT
 70
     0
  3
__ . __ . __ . __ . __ . __ . __ . __ . __ . __
 72
    65
 73
     4
 40
1.0
 49
0.5
 49
-0.25
 49
0.0
 49
-0.25
  0
ENDTAB
  0
TABLE
  2
LAYER
 70
     7
  0
LAYER
  2
0
 70
     0
 62
    30
  6
CONTINUOUS
  0
LAYER
  2
1
 70
     0
 62
     2
  6
CONTINUOUS
  0
LAYER
  2
2
 70
     0
 62
     9
  6
CONTINUOUS
  0
LAYER
  2
4
 70
     1
 62
     4
  6
CONTINUOUS
  0
LAYER
  2
5
 70
     0
 62
     1
  6
CONTINUOUS
  0
LAYER
  2
6
 70
     0
 62
     3
  6
CONTINUOUS
  0
LAYER
  2
DEFPOINTS
 70
     0
 62
     7
  6
CONTINUOUS
  0
ENDTAB
  0
TABLE
  2
STYLE
 70
     2
  0
STYLE
  2
STANDARD
 70
     0
 40
0.0
 41
1.0
 50
0.0
 71
     0
 42
2.5
  3
txt
  4

  0
STYLE
  2
BESCHLAG
 70
     0
 40
0.0
 41
1.0
 50
0.0
 71
     0
 42
3.5
  3
txt
  4

  0
ENDTAB
  0
TABLE
  2
VIEW
 70
     0
  0
ENDTAB
  0
TABLE
  2
UCS
 70
     0
  0
ENDTAB
  0
TABLE
  2
APPID
 70
     1
  0
APPID
  2
ACAD
 70
     0
  0
ENDTAB
  0
TABLE
  2
DIMSTYLE
 70
     1
  0
DIMSTYLE
  2
OPO-SSTRICH
 70
     0
  3

  4

  5

  6
OBLIQUE
  7
OBLIQUE
 40
1.0
 41
2.0
 42
2.0
 43
0.0
 44
1.0
 45
0.0
 46
1.0
 47
0.0
 48
0.0
140
3.5
141
0.0
142
0.0
143
0.039370078740157
144
1.0
145
0.0
146
0.7114285714285716
147
1.0
 71
     0
 72
     0
 73
     0
 74
     0
 75
     0
 76
     0
 77
     1
 78
     8
170
     0
171
     2
172
     1
173
     1
174
     1
175
     0
176
   256
177
   256
178
   256
  0
ENDTAB
  0
ENDSEC
  0
SECTION
  2
BLOCKS
  0
BLOCK
  8
0
  2
$MODEL_SPACE
 70
     0
 10
0.0
 20
0.0
 30
0.0
  3
$MODEL_SPACE
  1

  0
ENDBLK
  5
1C
  8
0
  0
BLOCK
 67
     1
  8
0
  2
$PAPER_SPACE
 70
     0
 10
0.0
 20
0.0
 30
0.0
  3
$PAPER_SPACE
  1

  0
ENDBLK
  5
19
 67
     1
  8
0
  0
BLOCK
  8
0
  2
_OBLIQUE
 70
     0
 10
0.0
 20
0.0
 30
0.0
  3
_OBLIQUE
  1

  0
LINE
  5
204
  8
0
 62
     0
 10
-0.5
 20
-0.5
 30
0.0
 11
0.5
 21
0.5
 31
0.0
  0
ENDBLK
  5
206
  8
0
  0
BLOCK
  8
0
  2
NULLPUNKT
 70
     0
 10
0.0
 20
0.0
 30
0.0
  3
NULLPUNKT
  1

  0
SOLID
  5
254
  8
5
 10
0.0
 20
0.0
 30
0.0
 11
2.0
 21
0.0
 31
0.0
 12
0.0
 22
-2.0
 32
0.0
 13
0.0
 23
-2.0
 33
0.0
  0
SOLID
  5
255
  8
5
 10
0.0
 20
0.0
 30
0.0
 11
-2.0
 21
0.0
 31
0.0
 12
0.0
 22
2.0
 32
0.0
 13
0.0
 23
2.0
 33
0.0
  0
POLYLINE
  5
256
  8
5
 66
     1
 10
0.0
 20
0.0
 30
0.0
  0
VERTEX
  5
3BE
  8
5
 10
0.0
 20
2.0
 30
0.0
  0
VERTEX
  5
3BF
  8
5
 10
0.0
 20
-2.0
 30
0.0
  0
SEQEND
  5
3C0
  8
5
  0
POLYLINE
  5
257
  8
5
 66
     1
 10
0.0
 20
0.0
 30
0.0
  0
VERTEX
  5
3C1
  8
5
 10
-2.0
 20
0.0
 30
0.0
  0
VERTEX
  5
3C2
  8
5
 10
2.0
 20
0.0
 30
0.0
  0
SEQEND
  5
3C3
  8
5
  0
CIRCLE
  5
258
  8
5
 10
0.0
 20
0.0
 30
0.0
 40
2.0
  0
ENDBLK
  5
25A
  8
0
  0
BLOCK
  8
0
  2
*X2
 70
     1
 10
0.0
 20
0.0
 30
0.0
  3
*X2
  1

  0
LINE
  5
294
  8
0
 62
     0
 10
245.31727601617081
 20
-606.03928853243235
 30
0.0
 11
246.81727601617069
 21
-604.53928853243235
 31
0.0
  0
LINE
  5
295
  8
0
 62
     0
 10
244.07071326658021
 20
-605.87163771964981
 30
0.0
 11
245.40306245379759
 21
-604.53928853243235
 31
0.0
  0
LINE
  5
296
  8
0
 62
     0
 10
244.0680797532435
 20
-604.46005767061342
 30
0.0
 11
245.06807975324341
 21
-603.46005767061342
 31
0.0
  0
LINE
  5
297
  8
0
 62
     0
 10
244.0680797532435
 20
-603.0458441082402
 30
0.0
 11
245.24690383913159
 21
-601.86702002235222
 31
0.0
  0
LINE
  5
298
  8
0
 62
     0
 10
244.0680797532435
 20
-601.63163054586721
 30
0.0
 11
244.66042176667841
 21
-601.03928853243235
 31
0.0
  0
LINE
  5
299
  8
0
 62
     0
 10
246.7314895785438
 20
-606.03928853243235
 30
0.0
 11
248.2314895785438
 21
-604.53928853243235
 31
0.0
  0
LINE
  5
29A
  8
0
 62
     0
 10
248.14570314091699
 20
-606.03928853243235
 30
0.0
 11
249.64570314091691
 21
-604.53928853243235
 31
0.0
  0
LINE
  5
29B
  8
0
 62
     0
 10
252.36807975324319
 20
-601.81691192010612
 30
0.0
 11
253.14570314091691
 21
-601.03928853243235
 31
0.0
  0
LINE
  5
29C
  8
0
 62
     0
 10
249.5599167032901
 20
-606.03928853243235
 30
0.0
 11
251.05991670329001
 21
-604.53928853243235
 31
0.0
  0
LINE
  5
29D
  8
0
 62
     0
 10
253.0680797532435
 20
-602.53112548247896
 30
0.0
 11
254.06807975324341
 21
-601.53112548247896
 31
0.0
  0
LINE
  5
29E
  8
0
 62
     0
 10
250.97413026566309
 20
-606.03928853243235
 30
0.0
 11
252.47413026566309
 21
-604.53928853243235
 31
0.0
  0
LINE
  5
29F
  8
0
 62
     0
 10
253.0680797532435
 20
-603.94533904485195
 30
0.0
 11
254.06807975324341
 21
-602.94533904485195
 31
0.0
  0
LINE
  5
2A0
  8
0
 62
     0
 10
252.3883438280362
 20
-606.03928853243235
 30
0.0
 11
254.06807975324341
 21
-604.35955260722517
 31
0.0
  0
LINE
  5
2A1
  8
0
 62
     0
 10
253.80255739040931
 20
-606.03928853243235
 30
0.0
 11
254.06807975324341
 21
-605.77376616959816
 31
0.0
  0
ENDBLK
  5
2A3
  8
0
  0
BLOCK
  8
0
  2
*D3
 70
     1
 10
0.0
 20
0.0
 30
0.0
  3
*D3
  1

  0
LINE
  5
2E6
  8
1
 10
2.0
 20
5.0
 30
0.0
 11
13.51630413793805
 21
4.9999999999999956
 31
0.0
  0
LINE
  5
2E7
  8
1
 10
-4.0
 20
8.5
 30
0.0
 11
13.51630413793805
 21
8.4999999999999911
 31
0.0
  0
LINE
  5
2E8
  8
1
 10
12.51630413793805
 20
3.999999999999996
 30
0.0
 11
12.51630413793805
 21
9.4999999999999911
 31
0.0
  0
TEXT
  5
2E9
  8
0
 10
10.73526730301308
 20
9.2089839923525432
 30
0.0
 40
3.5
  1
3.5
 50
90.0
  7
BESCHLAG
  0
INSERT
  5
2EA
  8
1
  2
_OBLIQUE
 10
12.51630413793805
 20
4.9999999999999956
 30
0.0
 41
2.0
 42
2.0
 43
2.0
 50
270.0
  0
INSERT
  5
2EB
  8
1
  2
_OBLIQUE
 10
12.51630413793805
 20
8.4999999999999911
 30
0.0
 41
2.0
 42
2.0
 43
2.0
 50
90.0
  0
POINT
  5
2EC
  8
DEFPOINTS
 62
     0
 10
0.0
 20
5.0
 30
0.0
  0
POINT
  5
2ED
  8
DEFPOINTS
 62
     0
 10
-6.0
 20
8.5
 30
0.0
  0
POINT
  5
2EE
  8
DEFPOINTS
 62
     0
 10
12.51630413793805
 20
8.4999999999999911
 30
0.0
  0
ENDBLK
  5
2CD
  8
0
  0
BLOCK
  8
0
  2
*D4
 70
     1
 10
0.0
 20
0.0
 30
0.0
  3
*D4
  1

  0
LINE
  5
2EF
  8
1
 10
-10.0
 20
-2.0
 30
0.0
 11
-10.0
 21
-16.11030998316846
 31
0.0
  0
LINE
  5
2F0
  8
1
 10
-0.0000000000000001
 20
-2.0
 30
0.0
 11
-0.000000000000001
 21
-16.11030998316846
 31
0.0
  0
LINE
  5
2F1
  8
1
 10
-11.0
 20
-15.11030998316846
 30
0.0
 11
0.9999999999999991
 21
-15.11030998316846
 31
0.0
  0
INSERT
  5
2F2
  8
1
  2
_OBLIQUE
 10
-10.0
 20
-15.11030998316846
 30
0.0
 41
2.0
 42
2.0
 43
2.0
 50
180.0
  0
INSERT
  5
2F3
  8
1
  2
_OBLIQUE
 10
-0.0000000000000009
 20
-15.11030998316846
 30
0.0
 41
2.0
 42
2.0
 43
2.0
  0
TEXT
  5
2F4
  8
0
 10
-7.8685197817189652
 20
-14.04346141563777
 30
0.0
 40
3.5
  1
10
  7
BESCHLAG
  0
POINT
  5
2F5
  8
DEFPOINTS
 62
     0
 10
-10.0
 20
0.0
 30
0.0
  0
POINT
  5
2F6
  8
DEFPOINTS
 62
     0
 10
0.0
 20
0.0
 30
0.0
  0
POINT
  5
2F7
  8
DEFPOINTS
 62
     0
 10
-0.0000000000000009
 20
-15.11030998316846
 30
0.0
  0
ENDBLK
  5
2D9
  8
0
  0
BLOCK
  8
0
  2
*D5
 70
     1
 10
0.0
 20
0.0
 30
0.0
  3
*D5
  1

  0
LINE
  5
2F8
  8
1
 10
2.0
 20
-0.0000000000000006
 30
0.0
 11
13.51630413793804
 21
-0.0000000000000038
 31
0.0
  0
LINE
  5
2F9
  8
1
 10
2.0
 20
5.0
 30
0.0
 11
13.51630413793805
 21
4.9999999999999956
 31
0.0
  0
LINE
  5
2FA
  8
1
 10
12.51630413793805
 20
-1.0000000000000031
 30
0.0
 11
12.51630413793805
 21
5.9999999999999956
 31
0.0
  0
INSERT
  5
2FB
  8
1
  2
_OBLIQUE
 10
12.51630413793805
 20
-0.0000000000000035
 30
0.0
 41
2.0
 42
2.0
 43
2.0
 50
270.0
  0
INSERT
  5
2FC
  8
1
  2
_OBLIQUE
 10
12.51630413793805
 20
4.9999999999999956
 30
0.0
 41
2.0
 42
2.0
 43
2.0
 50
90.0
  0
TEXT
  5
2FD
  8
0
 10
11.45661791692849
 20
1.136766712141881
 30
0.0
 40
3.5
  1
5
 50
90.0
  7
BESCHLAG
  0
POINT
  5
2FE
  8
DEFPOINTS
 62
     0
 10
0.0
 20
0.0
 30
0.0
  0
POINT
  5
2FF
  8
DEFPOINTS
 62
     0
 10
0.0
 20
5.0
 30
0.0
  0
POINT
  5
300
  8
DEFPOINTS
 62
     0
 10
12.51630413793805
 20
4.9999999999999956
 30
0.0
  0
ENDBLK
  5
2E5
  8
0
  0
ENDSEC
  0
SECTION
  2
ENTITIES
  0
INSERT
  5
25B
  8
5
  2
NULLPUNKT
 10
0.0
 20
0.0
 30
0.0
  0
INSERT
  5
2B6
  8
2
  2
*X2
 10
-254.06807975324341
 20
606.03928853243235
 30
0.0
1001
ACAD
1000
HATCH
1002
{
1070
    16
1000
_U,I
1040
1.0
1040
0.7853981633974483
1070
     0
1002
}
  0
POLYLINE
  5
2B7
  8
5
 66
     1
 10
0.0
 20
0.0
 30
0.0
  0
VERTEX
  5
3C4
  8
5
 10
-6.0
 20
10.0
 30
0.0
  0
VERTEX
  5
3C5
  8
5
 10
-6.0
 20
8.5
 30
0.0
  0
VERTEX
  5
3C6
  8
5
 10
0.0
 20
8.5
 30
0.0
  0
SEQEND
  5
3C7
  8
5
  0
POLYLINE
  5
2B8
  8
6
 66
     1
 10
0.0
 20
0.0
 30
0.0
 70
     1
  0
VERTEX
  5
3C8
  8
6
 10
-6.7287960311386987
 20
4.3750510266861511
 30
0.0
 42
-0.3491661681579718
  0
VERTEX
  5
3C9
  8
6
 10
-6.2242639228429653
 20
4.9982978584748698
 30
0.0
  0
VERTEX
  5
3CA
  8
6
 10
-4.0158121856247808
 20
4.9982978584748698
 30
0.0
 42
-0.3803193669681215
  0
VERTEX
  5
3CB
  8
6
 10
-3.3390622315364449
 20
4.1087106850050068
 30
0.0
  0
VERTEX
  5
3CC
  8
6
 10
-3.3390622315364449
 20
3.4291649196079561
 30
0.0
 42
-0.2833203699984759
  0
VERTEX
  5
3CD
  8
6
 10
-4.0064368575935978
 20
2.7702114157243609
 30
0.0
  0
VERTEX
  5
3CE
  8
6
 10
-6.1093532664303893
 20
2.7702114157243609
 30
0.0
 42
-0.2919982932858083
  0
VERTEX
  5
3CF
  8
6
 10
-6.7287960311386987
 20
3.364772428822334
 30
0.0
  0
SEQEND
  5
3D0
  8
6
  0
POLYLINE
  5
2B9
  8
6
 66
     1
 10
0.0
 20
0.0
 30
0.0
  0
VERTEX
  5
3D1
  8
6
 10
-2.630527432344933
 20
1.7426320795088941
 30
0.0
  0
VERTEX
  5
3D2
  8
6
 10
-7.1376480115523
 20
1.7426320795088941
 30
0.0
 42
-0.1696954651108379
  0
VERTEX
  5
3D3
  8
6
 10
-7.6780056730503921
 20
1.931462225812538
 30
0.0
  0
VERTEX
  5
3D4
  8
6
 10
-8.9243144813676736
 20
3.0990096867872121
 30
0.0
  0
VERTEX
  5
3D5
  8
6
 10
-8.9243144813676736
 20
3.5172356768516688
 30
0.0
  0
VERTEX
  5
3D6
  8
6
 10
-8.2445096926312544
 20
3.7176355903920921
 30
0.0
  0
VERTEX
  5
3D7
  8
6
 10
-8.2445096926312544
 20
5.0
 30
0.0
  0
VERTEX
  5
3D8
  8
6
 10
-9.7611911319145293
 20
5.0
 30
0.0
  0
VERTEX
  5
3D9
  8
6
 10
-9.7611911319145293
 20
5.4428176902288206
 30
0.0
 42
-0.2540269605425094
  0
VERTEX
  5
3DA
  8
6
 10
-8.7240530723888696
 20
6.2966957023268151
 30
0.0
  0
VERTEX
  5
3DB
  8
6
 10
-3.128736556068815
 20
6.2966957023268151
 30
0.0
 42
1.1750180217696331
  0
VERTEX
  5
3DC
  8
6
 10
-3.5147447414883568
 20
7.084552013568099
 30
0.0
 42
0.1198833152030244
  0
VERTEX
  5
3DD
  8
6
 10
-9.4149579607678788
 20
7.5701305455445427
 30
0.0
 42
-1.036378075569043
  0
VERTEX
  5
3DE
  8
6
 10
-9.5084431775862868
 20
8.2913334035863482
 30
0.0
 42
-0.0303262569459768
  0
VERTEX
  5
3DF
  8
6
 10
-4.4883461335411994
 20
8.5
 30
0.0
 42
-0.3603369118027708
  0
VERTEX
  5
3E0
  8
6
 10
-0.2388088680859255
 20
5.0
 30
0.0
  0
VERTEX
  5
3E1
  8
6
 10
-1.760411410032702
 20
5.0
 30
0.0
  0
VERTEX
  5
3E2
  8
6
 10
-1.760411410032702
 20
3.7873399366267222
 30
0.0
  0
VERTEX
  5
3E3
  8
6
 10
-1.080606621296283
 20
3.447531374288701
 30
0.0
  0
VERTEX
  5
3E4
  8
6
 10
-1.080606621296283
 20
3.177427070842441
 30
0.0
  0
VERTEX
  5
3E5
  8
6
 10
-2.4053544459266041
 20
1.86175792324957
 30
0.0
 42
-0.1487578823938294
  0
VERTEX
  5
3E6
  8
6
 10
-2.630527432344933
 20
1.7426320795088941
 30
0.0
 42
0.1965725914261801
  0
SEQEND
  5
3E7
  8
6
  0
DIMENSION
  5
2BA
  8
1
  2
*D3
 10
12.51630413793805
 20
8.4999999999999911
 30
0.0
 11
9.0163041379380502
 21
12.61229231431707
 31
0.0
 70
   128
 13
0.0
 23
5.0
 33
0.0
 14
-6.0
 24
8.5
 34
0.0
 50
90.0
  0
DIMENSION
  5
2BB
  8
1
  2
*D4
 10
-0.0000000000000009
 20
-15.11030998316846
 30
0.0
 11
-5.0000000000000009
 21
-12.32330452614254
 31
0.0
 70
     0
 13
-10.0
 23
0.0
 33
0.0
 14
0.0
 24
0.0
 34
0.0
  0
POLYLINE
  5
2BC
  8
5
 66
     1
 10
0.0
 20
0.0
 30
0.0
  0
VERTEX
  5
3E8
  8
5
 10
-10.0
 20
10.0
 30
0.0
  0
VERTEX
  5
3E9
  8
5
 10
-10.0
 20
0.0
 30
0.0
  0
VERTEX
  5
3EA
  8
5
 10
0.0
 20
0.0
 30
0.0
  0
VERTEX
  5
3EB
  8
5
 10
0.0
 20
-5.0
 30
0.0
  0
SEQEND
  5
3EC
  8
5
  0
POLYLINE
  5
2BD
  8
6
 66
     1
 10
0.0
 20
0.0
 30
0.0
 70
     1
  0
VERTEX
  5
3ED
  8
6
 10
-1.0
 20
4.300000000000181
 30
0.0
  0
VERTEX
  5
3EE
  8
6
 10
-1.54187618062815
 20
3.912945585265788
 30
0.0
 42
-0.6100294174932186
  0
VERTEX
  5
3EF
  8
6
 10
-1.700000000000272
 20
3.9943189323864772
 30
0.0
  0
VERTEX
  5
3F0
  8
6
 10
-1.700000000000272
 20
4.7000000000000446
 30
0.0
 42
-0.4142135623730951
  0
VERTEX
  5
3F1
  8
6
 10
-1.4000000000000901
 20
5.0
 30
0.0
  0
VERTEX
  5
3F2
  8
6
 10
-0.2000000000002728
 20
5.0
 30
0.0
 42
-0.4142135623730951
  0
VERTEX
  5
3F3
  8
6
 10
0.0
 20
4.800000000000181
 30
0.0
  0
VERTEX
  5
3F4
  8
6
 10
0.0
 20
0.2000000000000455
 30
0.0
 42
-0.4142135623730951
  0
VERTEX
  5
3F5
  8
6
 10
-0.2000000000002728
 20
0.0
 30
0.0
  0
VERTEX
  5
3F6
  8
6
 10
-9.8000000000001801
 20
0.0
 30
0.0
 42
-0.4142135623730951
  0
VERTEX
  5
3F7
  8
6
 10
-10.0
 20
0.2000000000002728
 30
0.0
  0
VERTEX
  5
3F8
  8
6
 10
-10.0
 20
4.800000000000181
 30
0.0
 42
-0.4142135623730951
  0
VERTEX
  5
3F9
  8
6
 10
-9.8000000000001801
 20
5.0
 30
0.0
  0
VERTEX
  5
3FA
  8
6
 10
-8.6000000000003638
 20
5.0
 30
0.0
 42
-0.4142135623730951
  0
VERTEX
  5
3FB
  8
6
 10
-8.3000000000001801
 20
4.7000000000000446
 30
0.0
  0
VERTEX
  5
3FC
  8
6
 10
-8.3000000000001801
 20
3.9943189323864772
 30
0.0
 42
-0.6100294174932186
  0
VERTEX
  5
3FD
  8
6
 10
-8.4581238193718491
 20
3.912945585265788
 30
0.0
  0
VERTEX
  5
3FE
  8
6
 10
-9.0
 20
4.300000000000181
 30
0.0
  0
VERTEX
  5
3FF
  8
6
 10
-9.0
 20
1.700000000000045
 30
0.0
 42
0.4142135623730951
  0
VERTEX
  5
400
  8
6
 10
-8.8000000000001801
 20
1.5
 30
0.0
  0
VERTEX
  5
401
  8
6
 10
-1.200000000000272
 20
1.5
 30
0.0
 42
0.4142135623730951
  0
VERTEX
  5
402
  8
6
 10
-1.0
 20
1.700000000000045
 30
0.0
  0
SEQEND
  5
403
  8
6
  0
POLYLINE
  5
2BE
  8
4
 66
     1
 10
0.0
 20
0.0
 30
0.0
 70
     1
  0
VERTEX
  5
404
  8
4
 10
-10.0
 20
0.0
 30
0.0
  0
VERTEX
  5
405
  8
4
 10
-10.0
 20
5.0
 30
0.0
  0
VERTEX
  5
406
  8
4
 10
0.0
 20
5.0
 30
0.0
  0
VERTEX
  5
407
  8
4
 10
0.0
 20
0.0
 30
0.0
  0
SEQEND
  5
408
  8
4
  0
LINE
  5
2BF
  8
6
  6
STRICHPUNKT
 10
-5.0000000000004539
 20
1.9470267528704419
 30
0.0
 11
-5.0000000000004539
 21
-10.05297324712955
 31
0.0
  0
DIMENSION
  5
2C0
  8
1
  2
*D5
 10
12.51630413793805
 20
4.9999999999999956
 30
0.0
 11
9.7364610274332737
 21
2.4999999999999978
 31
0.0
 70
     0
 13
0.0
 23
0.0
 33
0.0
 14
0.0
 24
5.0
 34
0.0
 50
90.0
  0
TEXT
  5
2C1
  8
1
 10
-10.380502985428389
 20
20.392193286026892
 30
0.0
 40
2.5
  1
Hebgo 127/627
  0
VIEWPORT
  5
22
 67
     1
  8
0
 10
210.0
 20
170.2366863905325
 30
0.0
 40
420.0
 41
340.47337278106511
 68
     1
 69
     1
1001
ACAD
1000
MVIEW
1002
{
1070
    16
1010
0.0
1020
0.0
1030
0.0
1010
0.0
1020
0.0
1030
1.0
1040
0.0
1040
340.47337278106511
1040
210.0
1040
170.2366863905325
1040
50.0
1040
0.0
1040
0.0
1070
     0
1070
   100
1070
     1
1070
     1
1070
     0
1070
     0
1070
     0
1070
     0
1040
0.0
1040
0.0
1040
0.0
1040
5.0
1040
5.0
1040
10.0
1040
10.0
1070
     0
1002
{
1002
}
1002
}
  0
ENDSEC
  0
EOF
