  0
SECTION
  2
HEADER
  9
$ACADVER
  1
AC1009
  9
$INSBASE
 10
0.0
 20
0.0
 30
0.0
  9
$EXTMIN
 10
-32.34100258250362
 20
-13.252257443093979
 30
-0.000000000000013
  9
$EXTMAX
 10
8.5601811978968954
 20
18.01300103312019
 30
0.0000000000000023
  9
$LIMMIN
 10
-150.0
 20
-150.0
  9
$LIMMAX
 10
150.0
 20
150.0
  9
$ORTHOMODE
 70
     0
  9
$REGENMODE
 70
     1
  9
$FILLMODE
 70
     1
  9
$QTEXTMODE
 70
     0
  9
$MIRRTEXT
 70
     0
  9
$DRAGMODE
 70
     2
  9
$LTSCALE
 40
1.0
  9
$OSMODE
 70
   111
  9
$ATTMODE
 70
     1
  9
$TEXTSIZE
 40
3.5
  9
$TRACEWID
 40
1.0
  9
$TEXTSTYLE
  7
BESCHLAG
  9
$CLAYER
  8
0
  9
$CELTYPE
  6
BYLAYER
  9
$CECOLOR
 62
   256
  9
$DIMSCALE
 40
1.0
  9
$DIMASZ
 40
2.0
  9
$DIMEXO
 40
2.0
  9
$DIMDLI
 40
0.0
  9
$DIMRND
 40
0.0
  9
$DIMDLE
 40
1.0
  9
$DIMEXE
 40
1.0
  9
$DIMTP
 40
0.0
  9
$DIMTM
 40
0.0
  9
$DIMTXT
 40
3.5
  9
$DIMCEN
 40
0.0
  9
$DIMTSZ
 40
0.0
  9
$DIMTOL
 70
     0
  9
$DIMLIM
 70
     0
  9
$DIMTIH
 70
     0
  9
$DIMTOH
 70
     0
  9
$DIMSE1
 70
     0
  9
$DIMSE2
 70
     0
  9
$DIMTAD
 70
     1
  9
$DIMZIN
 70
     8
  9
$DIMBLK
  1

  9
$DIMASO
 70
     1
  9
$DIMSHO
 70
     1
  9
$DIMPOST
  1

  9
$DIMAPOST
  1

  9
$DIMALT
 70
     0
  9
$DIMALTD
 70
     2
  9
$DIMALTF
 40
0.039370078740157
  9
$DIMLFAC
 40
1.0
  9
$DIMTOFL
 70
     1
  9
$DIMTVP
 40
0.0
  9
$DIMTIX
 70
     1
  9
$DIMSOXD
 70
     0
  9
$DIMSAH
 70
     1
  9
$DIMBLK1
  1
OBLIQUE
  9
$DIMBLK2
  1
OBLIQUE
  9
$DIMSTYLE
  2
OPO-SSTRICH
  9
$DIMCLRD
 70
   256
  9
$DIMCLRE
 70
   256
  9
$DIMCLRT
 70
   256
  9
$DIMTFAC
 40
0.7114285714285716
  9
$DIMGAP
 40
1.0
  9
$LUNITS
 70
     2
  9
$LUPREC
 70
     1
  9
$SKETCHINC
 40
1.0
  9
$FILLETRAD
 40
0.0
  9
$AUNITS
 70
     0
  9
$AUPREC
 70
     1
  9
$MENU
  1
D:\ACL_CGWG\CGTAB13
  9
$ELEVATION
 40
0.0
  9
$PELEVATION
 40
0.0
  9
$THICKNESS
 40
0.0
  9
$LIMCHECK
 70
     0
  9
$BLIPMODE
 70
     0
  9
$CHAMFERA
 40
1.0
  9
$CHAMFERB
 40
1.0
  9
$SKPOLY
 70
     0
  9
$TDCREATE
 40
2451739.8425424881
  9
$TDUPDATE
 40
2452086.7145677428
  9
$TDINDWG
 40
0.0010666551
  9
$TDUSRTIMER
 40
0.0010664815
  9
$USRTIMER
 70
     1
  9
$ANGBASE
 50
0.0
  9
$ANGDIR
 70
     0
  9
$PDMODE
 70
    35
  9
$PDSIZE
 40
5.0
  9
$PLINEWID
 40
0.0
  9
$COORDS
 70
     1
  9
$SPLFRAME
 70
     0
  9
$SPLINETYPE
 70
     6
  9
$SPLINESEGS
 70
     8
  9
$ATTDIA
 70
     1
  9
$ATTREQ
 70
     1
  9
$HANDLING
 70
-16383
  9
$HANDSEED
  5
479
  9
$SURFTAB1
 70
    12
  9
$SURFTAB2
 70
    12
  9
$SURFTYPE
 70
     6
  9
$SURFU
 70
    12
  9
$SURFV
 70
    12
  9
$UCSNAME
  2

  9
$UCSORG
 10
0.0
 20
0.0
 30
0.0
  9
$UCSXDIR
 10
1.0
 20
0.0
 30
0.0
  9
$UCSYDIR
 10
0.0
 20
1.0
 30
0.0
  9
$PUCSNAME
  2

  9
$PUCSORG
 10
0.0
 20
0.0
 30
0.0
  9
$PUCSXDIR
 10
1.0
 20
0.0
 30
0.0
  9
$PUCSYDIR
 10
0.0
 20
1.0
 30
0.0
  9
$USERI1
 70
     0
  9
$USERI2
 70
     0
  9
$USERI3
 70
     0
  9
$USERI4
 70
     0
  9
$USERI5
 70
     0
  9
$USERR1
 40
0.0
  9
$USERR2
 40
0.0
  9
$USERR3
 40
0.0
  9
$USERR4
 40
0.0
  9
$USERR5
 40
0.0
  9
$WORLDVIEW
 70
     1
  9
$SHADEDGE
 70
     3
  9
$SHADEDIF
 70
    70
  9
$TILEMODE
 70
     1
  9
$MAXACTVP
 70
    48
  9
$PLIMCHECK
 70
     0
  9
$PEXTMIN
 10
1.0000000000000000E+020
 20
1.0000000000000000E+020
 30
1.0000000000000000E+020
  9
$PEXTMAX
 10
-1.0000000000000000E+020
 20
-1.0000000000000000E+020
 30
-1.0000000000000000E+020
  9
$PLIMMIN
 10
0.0
 20
0.0
  9
$PLIMMAX
 10
420.0
 20
297.0
  9
$UNITMODE
 70
     0
  9
$VISRETAIN
 70
     1
  9
$PLINEGEN
 70
     0
  9
$PSLTSCALE
 70
     1
  0
ENDSEC
  0
SECTION
  2
TABLES
  0
TABLE
  2
VPORT
 70
     3
  0
VPORT
  2
*ACTIVE
 70
     0
 10
0.0
 20
0.0
 11
1.0
 21
1.0
 12
-11.890410692303361
 22
2.3803717950131058
 13
0.0
 23
0.0
 14
0.5
 24
0.5
 15
10.0
 25
10.0
 16
0.0
 26
0.0
 36
1.0
 17
0.0
 27
0.0
 37
0.0
 40
31.519103605926329
 41
1.6070460704607039
 42
50.0
 43
0.0
 44
0.0
 50
0.0
 51
0.0
 71
     0
 72
   800
 73
     1
 74
     1
 75
     0
 76
     0
 77
     0
 78
     0
  0
ENDTAB
  0
TABLE
  2
LTYPE
 70
     1
  0
LTYPE
  2
CONTINUOUS
 70
     0
  3
_______________________________________________
 72
    65
 73
     2
 40
1.0
 49
1.0
 49
0.0
  0
ENDTAB
  0
TABLE
  2
LAYER
 70
     5
  0
LAYER
  2
0
 70
     0
 62
    30
  6
CONTINUOUS
  0
LAYER
  2
1
 70
     0
 62
     2
  6
CONTINUOUS
  0
LAYER
  2
5
 70
     0
 62
     1
  6
CONTINUOUS
  0
LAYER
  2
6
 70
     0
 62
     3
  6
CONTINUOUS
  0
LAYER
  2
DEFPOINTS
 70
     0
 62
     7
  6
CONTINUOUS
  0
ENDTAB
  0
TABLE
  2
STYLE
 70
     2
  0
STYLE
  2
STANDARD
 70
     0
 40
0.0
 41
1.0
 50
0.0
 71
     0
 42
2.5
  3
txt
  4

  0
STYLE
  2
BESCHLAG
 70
     0
 40
0.0
 41
1.0
 50
0.0
 71
     0
 42
3.5
  3
txt
  4

  0
ENDTAB
  0
TABLE
  2
VIEW
 70
     0
  0
ENDTAB
  0
TABLE
  2
UCS
 70
     0
  0
ENDTAB
  0
TABLE
  2
APPID
 70
     1
  0
APPID
  2
ACAD
 70
     0
  0
ENDTAB
  0
TABLE
  2
DIMSTYLE
 70
     1
  0
DIMSTYLE
  2
OPO-SSTRICH
 70
     0
  3

  4

  5

  6
OBLIQUE
  7
OBLIQUE
 40
1.0
 41
2.0
 42
2.0
 43
0.0
 44
1.0
 45
0.0
 46
1.0
 47
0.0
 48
0.0
140
3.5
141
0.0
142
0.0
143
0.039370078740157
144
1.0
145
0.0
146
0.7114285714285716
147
1.0
 71
     0
 72
     0
 73
     0
 74
     0
 75
     0
 76
     0
 77
     1
 78
     8
170
     0
171
     2
172
     1
173
     1
174
     1
175
     0
176
   256
177
   256
178
   256
  0
ENDTAB
  0
ENDSEC
  0
SECTION
  2
BLOCKS
  0
BLOCK
  8
0
  2
$MODEL_SPACE
 70
     0
 10
0.0
 20
0.0
 30
0.0
  3
$MODEL_SPACE
  1

  0
ENDBLK
  5
1C
  8
0
  0
BLOCK
 67
     1
  8
0
  2
$PAPER_SPACE
 70
     0
 10
0.0
 20
0.0
 30
0.0
  3
$PAPER_SPACE
  1

  0
ENDBLK
  5
19
 67
     1
  8
0
  0
BLOCK
  8
0
  2
_OBLIQUE
 70
     0
 10
0.0
 20
0.0
 30
0.0
  3
_OBLIQUE
  1

  0
LINE
  5
204
  8
0
 62
     0
 10
-0.5
 20
-0.5
 30
0.0
 11
0.5
 21
0.5
 31
0.0
  0
ENDBLK
  5
206
  8
0
  0
BLOCK
  8
0
  2
NULLPUNKT
 70
     0
 10
0.0
 20
0.0
 30
0.0
  3
NULLPUNKT
  1

  0
SOLID
  5
254
  8
5
 10
0.0
 20
0.0
 30
0.0
 11
2.0
 21
0.0
 31
0.0
 12
0.0
 22
-2.0
 32
0.0
 13
0.0
 23
-2.0
 33
0.0
  0
SOLID
  5
255
  8
5
 10
0.0
 20
0.0
 30
0.0
 11
-2.0
 21
0.0
 31
0.0
 12
0.0
 22
2.0
 32
0.0
 13
0.0
 23
2.0
 33
0.0
  0
POLYLINE
  5
256
  8
5
 66
     1
 10
0.0
 20
0.0
 30
0.0
  0
VERTEX
  5
442
  8
5
 10
0.0
 20
2.0
 30
0.0
  0
VERTEX
  5
443
  8
5
 10
0.0
 20
-2.0
 30
0.0
  0
SEQEND
  5
444
  8
5
  0
POLYLINE
  5
257
  8
5
 66
     1
 10
0.0
 20
0.0
 30
0.0
  0
VERTEX
  5
445
  8
5
 10
-2.0
 20
0.0
 30
0.0
  0
VERTEX
  5
446
  8
5
 10
2.0
 20
0.0
 30
0.0
  0
SEQEND
  5
447
  8
5
  0
CIRCLE
  5
258
  8
5
 10
0.0
 20
0.0
 30
0.0
 40
2.0
  0
ENDBLK
  5
25A
  8
0
  0
BLOCK
  8
0
  2
*D2
 70
     1
 10
0.0
 20
0.0
 30
0.0
  3
*D2
  1

  0
LINE
  5
2E6
  8
1
 10
2.0
 20
-0.0000000000000006
 30
0.0
 11
8.5484262471579751
 21
-0.0000000000000024
 31
0.0
  0
LINE
  5
2E7
  8
1
 10
-7.0
 20
6.0
 30
0.0
 11
8.5484262471579768
 21
5.9999999999999947
 31
0.0
  0
LINE
  5
2E8
  8
1
 10
7.5484262471579751
 20
-1.000000000000002
 30
0.0
 11
7.5484262471579759
 21
6.9999999999999947
 31
0.0
  0
INSERT
  5
2E9
  8
1
  2
_OBLIQUE
 10
7.5484262471579751
 20
-0.0000000000000021
 30
0.0
 41
2.0
 42
2.0
 43
2.0
 50
270.0
  0
INSERT
  5
2EA
  8
1
  2
_OBLIQUE
 10
7.5484262471579751
 20
5.9999999999999947
 30
0.0
 41
2.0
 42
2.0
 43
2.0
 50
90.0
  0
TEXT
  5
2EB
  8
0
 10
6.4815776796272786
 20
1.6606412005457001
 30
0.0
 40
3.5
  1
6
 50
90.0
  7
BESCHLAG
  0
POINT
  5
2EC
  8
DEFPOINTS
 62
     0
 10
0.0
 20
0.0
 30
0.0
  0
POINT
  5
2ED
  8
DEFPOINTS
 62
     0
 10
-9.0
 20
6.0
 30
0.0
  0
POINT
  5
2EE
  8
DEFPOINTS
 62
     0
 10
7.5484262471579751
 20
5.9999999999999947
 30
0.0
  0
ENDBLK
  5
2BF
  8
0
  0
BLOCK
  8
0
  2
*D3
 70
     1
 10
0.0
 20
0.0
 30
0.0
  3
*D3
  1

  0
LINE
  5
2EF
  8
1
 10
-20.0
 20
0.0000000000000006
 30
0.0
 11
-27.84451895953088
 21
0.0000000000000028
 31
0.0
  0
LINE
  5
2F0
  8
1
 10
-20.0
 20
3.0
 30
0.0
 11
-27.84451895953088
 21
3.0000000000000022
 31
0.0
  0
LINE
  5
2F1
  8
1
 10
-26.84451895953088
 20
0.0000000000000025
 30
0.0
 11
-26.84451895953088
 21
-1.9999999999999969
 31
0.0
  0
LINE
  5
2F2
  8
1
 10
-26.84451895953088
 20
3.0000000000000022
 30
0.0
 11
-26.84451895953088
 21
5.0000000000000018
 31
0.0
  0
LINE
  5
2F3
  8
1
 10
-26.84451895953088
 20
0.0000000000000025
 30
0.0
 11
-26.84451895953088
 21
3.0000000000000022
 31
0.0
  0
INSERT
  5
2F4
  8
1
  2
_OBLIQUE
 10
-26.84451895953088
 20
0.0000000000000025
 30
0.0
 41
2.0
 42
2.0
 43
2.0
 50
90.0
  0
INSERT
  5
2F5
  8
1
  2
_OBLIQUE
 10
-26.84451895953088
 20
3.0000000000000022
 30
0.0
 41
2.0
 42
2.0
 43
2.0
 50
270.0
  0
TEXT
  5
2F6
  8
0
 10
-27.913754975901959
 20
0.1487039563437909
 30
0.0
 40
3.5
  1
3
 50
90.0
  7
BESCHLAG
  0
POINT
  5
2F7
  8
DEFPOINTS
 62
     0
 10
-18.0
 20
0.0
 30
0.0
  0
POINT
  5
2F8
  8
DEFPOINTS
 62
     0
 10
-18.0
 20
3.0
 30
0.0
  0
POINT
  5
2F9
  8
DEFPOINTS
 62
     0
 10
-26.84451895953088
 20
3.0000000000000022
 30
0.0
  0
ENDBLK
  5
2CD
  8
0
  0
BLOCK
  8
0
  2
*D4
 70
     1
 10
0.0
 20
0.0
 30
0.0
  3
*D4
  1

  0
LINE
  5
2FA
  8
1
 10
-18.0
 20
-2.0
 30
0.0
 11
-18.0
 21
-13.251631544664511
 31
0.0
  0
LINE
  5
2FB
  8
1
 10
-12.0
 20
1.0
 30
0.0
 11
-12.0
 21
-13.251631544664511
 31
0.0
  0
LINE
  5
2FC
  8
1
 10
-19.0
 20
-12.251631544664519
 30
0.0
 11
-11.0
 21
-12.251631544664519
 31
0.0
  0
INSERT
  5
2FD
  8
1
  2
_OBLIQUE
 10
-18.0
 20
-12.251631544664519
 30
0.0
 41
2.0
 42
2.0
 43
2.0
 50
180.0
  0
INSERT
  5
2FE
  8
1
  2
_OBLIQUE
 10
-12.0
 20
-12.251631544664519
 30
0.0
 41
2.0
 42
2.0
 43
2.0
  0
TEXT
  5
2FF
  8
0
 10
-16.339358799454288
 20
-11.184782977133819
 30
0.0
 40
3.5
  1
6
  7
BESCHLAG
  0
POINT
  5
300
  8
DEFPOINTS
 62
     0
 10
-18.0
 20
0.0
 30
0.0
  0
POINT
  5
301
  8
DEFPOINTS
 62
     0
 10
-12.0
 20
3.0
 30
0.0
  0
POINT
  5
302
  8
DEFPOINTS
 62
     0
 10
-12.0
 20
-12.251631544664519
 30
0.0
  0
ENDBLK
  5
2D9
  8
0
  0
BLOCK
  8
0
  2
*D5
 70
     1
 10
0.0
 20
0.0
 30
0.0
  3
*D5
  1

  0
LINE
  5
303
  8
1
 10
-12.0
 20
1.0
 30
0.0
 11
-12.0
 21
-13.251631544664511
 31
0.0
  0
LINE
  5
304
  8
1
 10
-0.0000000000000001
 20
-2.0
 30
0.0
 11
-0.0000000000000008
 21
-13.251631544664511
 31
0.0
  0
LINE
  5
305
  8
1
 10
-13.0
 20
-12.251631544664519
 30
0.0
 11
0.9999999999999992
 21
-12.251631544664519
 31
0.0
  0
INSERT
  5
306
  8
1
  2
_OBLIQUE
 10
-12.0
 20
-12.251631544664519
 30
0.0
 41
2.0
 42
2.0
 43
2.0
 50
180.0
  0
INSERT
  5
307
  8
1
  2
_OBLIQUE
 10
-0.0000000000000008
 20
-12.251631544664519
 30
0.0
 41
2.0
 42
2.0
 43
2.0
  0
TEXT
  5
308
  8
0
 10
-8.8565825375170544
 20
-11.244469198143371
 30
0.0
 40
3.5
  1
12
  7
BESCHLAG
  0
POINT
  5
309
  8
DEFPOINTS
 62
     0
 10
-12.0
 20
3.0
 30
0.0
  0
POINT
  5
30A
  8
DEFPOINTS
 62
     0
 10
0.0
 20
0.0
 30
0.0
  0
POINT
  5
30B
  8
DEFPOINTS
 62
     0
 10
-0.0000000000000008
 20
-12.251631544664519
 30
0.0
  0
ENDBLK
  5
2E5
  8
0
  0
ENDSEC
  0
SECTION
  2
ENTITIES
  0
INSERT
  5
25B
  8
5
  2
NULLPUNKT
 10
0.0
 20
0.0
 30
0.0
  0
DIMENSION
  5
2AB
  8
1
  2
*D2
 10
7.5484262471579751
 20
5.9999999999999947
 30
0.0
 11
4.7614207901320542
 21
2.9999999999999969
 31
0.0
 70
     0
 13
0.0
 23
0.0
 33
0.0
 14
-9.0
 24
6.0
 34
0.0
 50
90.0
  0
POLYLINE
  5
2AC
  8
6
 66
     1
 10
0.0
 20
0.0
 30
0.0
  0
VERTEX
  5
448
  8
6
 10
-10.171670392760459
 20
0.0
 30
0.0
 42
0.0646435199786064
  0
VERTEX
  5
449
  8
6
 10
-12.379957250889669
 20
1.379384280893873
 30
0.0
 42
0.1125665335284929
  0
VERTEX
  5
44A
  8
6
 10
-12.584792033565909
 20
1.4345169073217221
 30
0.0
  0
VERTEX
  5
44B
  8
6
 10
-13.216554996215111
 20
1.38196024190347
 30
0.0
 42
0.6302345758719495
  0
VERTEX
  5
44C
  8
6
 10
-13.26232243345839
 20
1.1746060819681361
 30
0.0
 42
0.1098177843927569
  0
VERTEX
  5
44D
  8
6
 10
-12.6227160320077
 20
0.5206883561907035
 30
0.0
 42
-0.6726124601074272
  0
VERTEX
  5
44E
  8
6
 10
-12.78174859399496
 20
0.0
 30
0.0
 42
-0.2057599603979975
  0
VERTEX
  5
44F
  8
6
 10
-13.86107024569719
 20
0.5130148401088946
 30
0.0
 42
0.0160829616726935
  0
VERTEX
  5
450
  8
6
 10
-14.36527893449283
 20
1.2533669277088391
 30
0.0
 42
0.2383850641236563
  0
VERTEX
  5
451
  8
6
 10
-14.59374847520621
 20
1.4030125690254629
 30
0.0
  0
VERTEX
  5
452
  8
6
 10
-15.846454101286319
 20
1.4030125690254629
 30
0.0
 42
0.6765496730121891
  0
VERTEX
  5
453
  8
6
 10
-15.90941807245917
 20
1.206110420264394
 30
0.0
 42
0.1002235719108843
  0
VERTEX
  5
454
  8
6
 10
-15.05068764792758
 20
0.5051387211253769
 30
0.0
 42
-0.67352016257996
  0
VERTEX
  5
455
  8
6
 10
-15.27127896639376
 20
0.0
 30
0.0
 42
-0.1487644767413127
  0
VERTEX
  5
456
  8
6
 10
-16.185157129246811
 20
0.2588629884714919
 30
0.0
 42
-0.0824414740518082
  0
VERTEX
  5
457
  8
6
 10
-17.264478872244119
 20
1.2218625894124671
 30
0.0
 42
-0.1871953559334254
  0
VERTEX
  5
458
  8
6
 10
-17.359017995687282
 20
1.4817734147661661
 30
0.0
  0
VERTEX
  5
459
  8
6
 10
-17.359017995687282
 20
2.5166986234216888
 30
0.0
 42
-0.3795266734994605
  0
VERTEX
  5
45A
  8
6
 10
-16.917835450050461
 20
3.0
 30
0.0
  0
VERTEX
  5
45B
  8
6
 10
-12.0
 20
3.0
 30
0.0
  0
VERTEX
  5
45C
  8
6
 10
-12.0
 20
3.607214914616633
 30
0.0
  0
VERTEX
  5
45D
  8
6
 10
-11.46982707965889
 20
3.607214914616633
 30
0.0
 42
-0.2574996337031372
  0
VERTEX
  5
45E
  8
6
 10
-11.320555089178921
 20
3.5248806907773078
 30
0.0
 42
0.0849093702918099
  0
VERTEX
  5
45F
  8
6
 10
-10.40948123897715
 20
2.5111405114492982
 30
0.0
 42
0.1429557098656329
  0
VERTEX
  5
460
  8
6
 10
-8.6079227483342038
 20
1.9914057027608569
 30
0.0
  0
VERTEX
  5
461
  8
6
 10
-1.9965808992792511
 20
1.9914057027608569
 30
0.0
 42
1.340023664716099
  0
VERTEX
  5
462
  8
6
 10
-2.5166222445091071
 20
2.9707839837827801
 30
0.0
 42
0.1230296824142601
  0
VERTEX
  5
463
  8
6
 10
-6.032553929821006
 20
4.428758283275215
 30
0.0
 42
0.0572877754683872
  0
VERTEX
  5
464
  8
6
 10
-10.362463409504009
 20
4.8356348364644637
 30
0.0
 42
-1.0669757046387109
  0
VERTEX
  5
465
  8
6
 10
-10.18157946333667
 20
5.7737113256606563
 30
0.0
 42
-0.093019644359448
  0
VERTEX
  5
466
  8
6
 10
-3.4549577335606041
 20
5.2289554792343997
 30
0.0
 42
-0.1829098254132479
  0
VERTEX
  5
467
  8
6
 10
-0.2329624241506281
 20
2.9255754809398691
 30
0.0
 42
-0.160802021046614
  0
VERTEX
  5
468
  8
6
 10
-0.0520784779837413
 20
2.2022394078510379
 30
0.0
  0
VERTEX
  5
469
  8
6
 10
-0.0520784779837413
 20
0.0
 30
0.0
  0
SEQEND
  5
46A
  8
6
  0
POLYLINE
  5
2AD
  8
6
 66
     1
 10
0.0
 20
0.0
 30
0.0
  0
VERTEX
  5
46B
  8
6
 10
-0.0520784779837413
 20
0.0
 30
0.0
  0
VERTEX
  5
46C
  8
6
 10
-10.171670392760459
 20
0.0
 30
0.0
 42
0.1451158472737957
  0
SEQEND
  5
46D
  8
6
  0
TEXT
  5
2AE
  8
1
 10
-6.9122880104043807
 20
8.8583459045230484
 30
0.0
 40
2.5
  1
Hebgo 632
 41
0.9
  7
BESCHLAG
  0
DIMENSION
  5
2AF
  8
1
  2
*D3
 10
-26.84451895953088
 20
3.0000000000000022
 30
0.0
 11
-29.632718140977001
 21
1.499999999999998
 31
0.0
 70
     0
 13
-18.0
 23
0.0
 33
0.0
 14
-18.0
 24
3.0
 34
0.0
 50
90.0
  0
DIMENSION
  5
2B0
  8
1
  2
*D4
 10
-12.0
 20
-12.251631544664519
 30
0.0
 11
-15.0
 21
-9.4646260876385995
 31
0.0
 70
     0
 13
-18.0
 23
0.0
 33
0.0
 14
-12.0
 24
3.0
 34
0.0
  0
POLYLINE
  5
2B1
  8
5
 66
     1
 10
0.0
 20
0.0
 30
0.0
  0
VERTEX
  5
46E
  8
5
 10
-12.0
 20
18.0
 30
0.0
  0
VERTEX
  5
46F
  8
5
 10
-12.0
 20
3.0
 30
0.0
  0
VERTEX
  5
470
  8
5
 10
-18.0
 20
3.0
 30
0.0
  0
VERTEX
  5
471
  8
5
 10
-18.0
 20
0.0
 30
0.0
  0
VERTEX
  5
472
  8
5
 10
0.0
 20
0.0
 30
0.0
  0
VERTEX
  5
473
  8
5
 10
0.0
 20
-10.0
 30
0.0
  0
SEQEND
  5
474
  8
5
  0
DIMENSION
  5
2B2
  8
1
  2
*D5
 10
-0.0000000000000008
 20
-12.251631544664519
 30
0.0
 11
-6.0
 21
-9.4944691981433742
 31
0.0
 70
     0
 13
-12.0
 23
3.0
 33
0.0
 14
0.0
 24
0.0
 34
0.0
  0
POLYLINE
  5
2B3
  8
5
 66
     1
 10
0.0
 20
0.0
 30
0.0
  0
VERTEX
  5
475
  8
5
 10
-9.0
 20
18.0
 30
0.0
  0
VERTEX
  5
476
  8
5
 10
-9.0
 20
6.0
 30
0.0
  0
VERTEX
  5
477
  8
5
 10
6.2701755759790103
 20
6.0
 30
0.0
  0
SEQEND
  5
478
  8
5
  0
VIEWPORT
  5
22
 67
     1
  8
0
 10
210.0
 20
170.2366863905325
 30
0.0
 40
420.0
 41
340.47337278106511
 68
     1
 69
     1
1001
ACAD
1000
MVIEW
1002
{
1070
    16
1010
0.0
1020
0.0
1030
0.0
1010
0.0
1020
0.0
1030
1.0
1040
0.0
1040
340.47337278106511
1040
210.0
1040
170.2366863905325
1040
50.0
1040
0.0
1040
0.0
1070
     0
1070
   100
1070
     1
1070
     1
1070
     0
1070
     0
1070
     0
1070
     0
1040
0.0
1040
0.0
1040
0.0
1040
5.0
1040
5.0
1040
10.0
1040
10.0
1070
     0
1002
{
1002
}
1002
}
  0
ENDSEC
  0
EOF
