  0
SECTION
  2
HEADER
  9
$ACADVER
  1
AC1009
  9
$INSBASE
 10
0.0
 20
0.0
 30
0.0
  9
$EXTMIN
 10
-40.168761380678923
 20
-15.58685217237427
 30
-0.0000000000000058
  9
$EXTMAX
 10
13.526917043522641
 20
14.007568899550961
 30
0.0000000000000104
  9
$LIMMIN
 10
-150.0
 20
-150.0
  9
$LIMMAX
 10
150.0
 20
150.0
  9
$ORTHOMODE
 70
     0
  9
$REGENMODE
 70
     1
  9
$FILLMODE
 70
     1
  9
$QTEXTMODE
 70
     0
  9
$MIRRTEXT
 70
     0
  9
$DRAGMODE
 70
     2
  9
$LTSCALE
 40
1.0
  9
$OSMODE
 70
   111
  9
$ATTMODE
 70
     1
  9
$TEXTSIZE
 40
3.5
  9
$TRACEWID
 40
1.0
  9
$TEXTSTYLE
  7
BESCHLAG
  9
$CLAYER
  8
0
  9
$CELTYPE
  6
BYLAYER
  9
$CECOLOR
 62
   256
  9
$DIMSCALE
 40
1.0
  9
$DIMASZ
 40
2.0
  9
$DIMEXO
 40
2.0
  9
$DIMDLI
 40
0.0
  9
$DIMRND
 40
0.0
  9
$DIMDLE
 40
1.0
  9
$DIMEXE
 40
1.0
  9
$DIMTP
 40
0.0
  9
$DIMTM
 40
0.0
  9
$DIMTXT
 40
3.5
  9
$DIMCEN
 40
0.0
  9
$DIMTSZ
 40
0.0
  9
$DIMTOL
 70
     0
  9
$DIMLIM
 70
     0
  9
$DIMTIH
 70
     0
  9
$DIMTOH
 70
     0
  9
$DIMSE1
 70
     0
  9
$DIMSE2
 70
     0
  9
$DIMTAD
 70
     1
  9
$DIMZIN
 70
     8
  9
$DIMBLK
  1

  9
$DIMASO
 70
     1
  9
$DIMSHO
 70
     1
  9
$DIMPOST
  1

  9
$DIMAPOST
  1

  9
$DIMALT
 70
     0
  9
$DIMALTD
 70
     2
  9
$DIMALTF
 40
0.039370078740157
  9
$DIMLFAC
 40
1.0
  9
$DIMTOFL
 70
     1
  9
$DIMTVP
 40
0.0
  9
$DIMTIX
 70
     1
  9
$DIMSOXD
 70
     0
  9
$DIMSAH
 70
     1
  9
$DIMBLK1
  1
OBLIQUE
  9
$DIMBLK2
  1
OBLIQUE
  9
$DIMSTYLE
  2
OPO-SSTRICH
  9
$DIMCLRD
 70
   256
  9
$DIMCLRE
 70
   256
  9
$DIMCLRT
 70
   256
  9
$DIMTFAC
 40
0.7114285714285716
  9
$DIMGAP
 40
1.0
  9
$LUNITS
 70
     2
  9
$LUPREC
 70
     1
  9
$SKETCHINC
 40
1.0
  9
$FILLETRAD
 40
0.0
  9
$AUNITS
 70
     0
  9
$AUPREC
 70
     1
  9
$MENU
  1
D:\ACL_CGWG\CGTAB13
  9
$ELEVATION
 40
0.0
  9
$PELEVATION
 40
0.0
  9
$THICKNESS
 40
0.0
  9
$LIMCHECK
 70
     0
  9
$BLIPMODE
 70
     0
  9
$CHAMFERA
 40
1.0
  9
$CHAMFERB
 40
1.0
  9
$SKPOLY
 70
     0
  9
$TDCREATE
 40
2451739.8466858328
  9
$TDUPDATE
 40
2452086.7161778118
  9
$TDINDWG
 40
0.0007780903
  9
$TDUSRTIMER
 40
0.0007780903
  9
$USRTIMER
 70
     1
  9
$ANGBASE
 50
0.0
  9
$ANGDIR
 70
     0
  9
$PDMODE
 70
    35
  9
$PDSIZE
 40
5.0
  9
$PLINEWID
 40
0.0
  9
$COORDS
 70
     1
  9
$SPLFRAME
 70
     0
  9
$SPLINETYPE
 70
     6
  9
$SPLINESEGS
 70
     8
  9
$ATTDIA
 70
     1
  9
$ATTREQ
 70
     1
  9
$HANDLING
 70
-16383
  9
$HANDSEED
  5
43A
  9
$SURFTAB1
 70
    12
  9
$SURFTAB2
 70
    12
  9
$SURFTYPE
 70
     6
  9
$SURFU
 70
    12
  9
$SURFV
 70
    12
  9
$UCSNAME
  2

  9
$UCSORG
 10
0.0
 20
0.0
 30
0.0
  9
$UCSXDIR
 10
1.0
 20
0.0
 30
0.0
  9
$UCSYDIR
 10
0.0
 20
1.0
 30
0.0
  9
$PUCSNAME
  2

  9
$PUCSORG
 10
0.0
 20
0.0
 30
0.0
  9
$PUCSXDIR
 10
1.0
 20
0.0
 30
0.0
  9
$PUCSYDIR
 10
0.0
 20
1.0
 30
0.0
  9
$USERI1
 70
     0
  9
$USERI2
 70
     0
  9
$USERI3
 70
     0
  9
$USERI4
 70
     0
  9
$USERI5
 70
     0
  9
$USERR1
 40
0.0
  9
$USERR2
 40
0.0
  9
$USERR3
 40
0.0
  9
$USERR4
 40
0.0
  9
$USERR5
 40
0.0
  9
$WORLDVIEW
 70
     1
  9
$SHADEDGE
 70
     3
  9
$SHADEDIF
 70
    70
  9
$TILEMODE
 70
     1
  9
$MAXACTVP
 70
    48
  9
$PLIMCHECK
 70
     0
  9
$PEXTMIN
 10
1.0000000000000000E+020
 20
1.0000000000000000E+020
 30
1.0000000000000000E+020
  9
$PEXTMAX
 10
-1.0000000000000000E+020
 20
-1.0000000000000000E+020
 30
-1.0000000000000000E+020
  9
$PLIMMIN
 10
0.0
 20
0.0
  9
$PLIMMAX
 10
420.0
 20
297.0
  9
$UNITMODE
 70
     0
  9
$VISRETAIN
 70
     1
  9
$PLINEGEN
 70
     0
  9
$PSLTSCALE
 70
     1
  0
ENDSEC
  0
SECTION
  2
TABLES
  0
TABLE
  2
VPORT
 70
     3
  0
VPORT
  2
*ACTIVE
 70
     0
 10
0.0
 20
0.0
 11
1.0
 21
1.0
 12
-13.32092216857813
 22
-0.789641636411659
 13
0.0
 23
0.0
 14
0.5
 24
0.5
 15
10.0
 25
10.0
 16
0.0
 26
0.0
 36
1.0
 17
0.0
 27
0.0
 37
0.0
 40
33.581463184130591
 41
1.6070460704607039
 42
50.0
 43
0.0
 44
0.0
 50
0.0
 51
0.0
 71
     0
 72
   800
 73
     1
 74
     1
 75
     0
 76
     0
 77
     0
 78
     0
  0
ENDTAB
  0
TABLE
  2
LTYPE
 70
     1
  0
LTYPE
  2
CONTINUOUS
 70
     0
  3
_______________________________________________
 72
    65
 73
     2
 40
1.0
 49
1.0
 49
0.0
  0
ENDTAB
  0
TABLE
  2
LAYER
 70
     5
  0
LAYER
  2
0
 70
     0
 62
    30
  6
CONTINUOUS
  0
LAYER
  2
1
 70
     0
 62
     2
  6
CONTINUOUS
  0
LAYER
  2
5
 70
     0
 62
     1
  6
CONTINUOUS
  0
LAYER
  2
6
 70
     0
 62
     3
  6
CONTINUOUS
  0
LAYER
  2
DEFPOINTS
 70
     0
 62
     7
  6
CONTINUOUS
  0
ENDTAB
  0
TABLE
  2
STYLE
 70
     2
  0
STYLE
  2
STANDARD
 70
     0
 40
0.0
 41
1.0
 50
0.0
 71
     0
 42
2.5
  3
txt
  4

  0
STYLE
  2
BESCHLAG
 70
     0
 40
0.0
 41
1.0
 50
0.0
 71
     0
 42
3.5
  3
txt
  4

  0
ENDTAB
  0
TABLE
  2
VIEW
 70
     0
  0
ENDTAB
  0
TABLE
  2
UCS
 70
     0
  0
ENDTAB
  0
TABLE
  2
APPID
 70
     1
  0
APPID
  2
ACAD
 70
     0
  0
ENDTAB
  0
TABLE
  2
DIMSTYLE
 70
     1
  0
DIMSTYLE
  2
OPO-SSTRICH
 70
     0
  3

  4

  5

  6
OBLIQUE
  7
OBLIQUE
 40
1.0
 41
2.0
 42
2.0
 43
0.0
 44
1.0
 45
0.0
 46
1.0
 47
0.0
 48
0.0
140
3.5
141
0.0
142
0.0
143
0.039370078740157
144
1.0
145
0.0
146
0.7114285714285716
147
1.0
 71
     0
 72
     0
 73
     0
 74
     0
 75
     0
 76
     0
 77
     1
 78
     8
170
     0
171
     2
172
     1
173
     1
174
     1
175
     0
176
   256
177
   256
178
   256
  0
ENDTAB
  0
ENDSEC
  0
SECTION
  2
BLOCKS
  0
BLOCK
  8
0
  2
$MODEL_SPACE
 70
     0
 10
0.0
 20
0.0
 30
0.0
  3
$MODEL_SPACE
  1

  0
ENDBLK
  5
1C
  8
0
  0
BLOCK
 67
     1
  8
0
  2
$PAPER_SPACE
 70
     0
 10
0.0
 20
0.0
 30
0.0
  3
$PAPER_SPACE
  1

  0
ENDBLK
  5
19
 67
     1
  8
0
  0
BLOCK
  8
0
  2
_OBLIQUE
 70
     0
 10
0.0
 20
0.0
 30
0.0
  3
_OBLIQUE
  1

  0
LINE
  5
204
  8
0
 62
     0
 10
-0.5
 20
-0.5
 30
0.0
 11
0.5
 21
0.5
 31
0.0
  0
ENDBLK
  5
206
  8
0
  0
BLOCK
  8
0
  2
NULLPUNKT
 70
     0
 10
0.0
 20
0.0
 30
0.0
  3
NULLPUNKT
  1

  0
SOLID
  5
254
  8
5
 10
0.0
 20
0.0
 30
0.0
 11
2.0
 21
0.0
 31
0.0
 12
0.0
 22
-2.0
 32
0.0
 13
0.0
 23
-2.0
 33
0.0
  0
SOLID
  5
255
  8
5
 10
0.0
 20
0.0
 30
0.0
 11
-2.0
 21
0.0
 31
0.0
 12
0.0
 22
2.0
 32
0.0
 13
0.0
 23
2.0
 33
0.0
  0
POLYLINE
  5
256
  8
5
 66
     1
 10
0.0
 20
0.0
 30
0.0
  0
VERTEX
  5
402
  8
5
 10
0.0
 20
2.0
 30
0.0
  0
VERTEX
  5
403
  8
5
 10
0.0
 20
-2.0
 30
0.0
  0
SEQEND
  5
404
  8
5
  0
POLYLINE
  5
257
  8
5
 66
     1
 10
0.0
 20
0.0
 30
0.0
  0
VERTEX
  5
405
  8
5
 10
-2.0
 20
0.0
 30
0.0
  0
VERTEX
  5
406
  8
5
 10
2.0
 20
0.0
 30
0.0
  0
SEQEND
  5
407
  8
5
  0
CIRCLE
  5
258
  8
5
 10
0.0
 20
0.0
 30
0.0
 40
2.0
  0
ENDBLK
  5
25A
  8
0
  0
BLOCK
  8
0
  2
*D2
 70
     1
 10
0.0
 20
0.0
 30
0.0
  3
*D2
  1

  0
LINE
  5
2E4
  8
1
 10
-25.0
 20
4.0
 30
0.0
 11
-35.738639654269257
 21
4.0000000000000027
 31
0.0
  0
LINE
  5
2E5
  8
1
 10
-25.0
 20
0.0000000000000006
 30
0.0
 11
-35.738639654269257
 21
0.0000000000000036
 31
0.0
  0
LINE
  5
2E6
  8
1
 10
-34.738639654269257
 20
4.0000000000000027
 30
0.0
 11
-34.738639654269257
 21
6.0000000000000027
 31
0.0
  0
LINE
  5
2E7
  8
1
 10
-34.738639654269257
 20
0.0000000000000033
 30
0.0
 11
-34.738639654269257
 21
-1.999999999999996
 31
0.0
  0
LINE
  5
2E8
  8
1
 10
-34.738639654269257
 20
4.0000000000000027
 30
0.0
 11
-34.738639654269257
 21
0.0000000000000033
 31
0.0
  0
INSERT
  5
2E9
  8
1
  2
_OBLIQUE
 10
-34.738639654269257
 20
4.0000000000000027
 30
0.0
 41
2.0
 42
2.0
 43
2.0
 50
270.0
  0
INSERT
  5
2EA
  8
1
  2
_OBLIQUE
 10
-34.738639654269257
 20
0.0000000000000033
 30
0.0
 41
2.0
 42
2.0
 43
2.0
 50
90.0
  0
TEXT
  5
2EB
  8
0
 10
-35.738639654269257
 20
0.7274897680763961
 30
0.0
 40
3.5
  1
4
 50
90.0
  7
BESCHLAG
  0
POINT
  5
2EC
  8
DEFPOINTS
 62
     0
 10
-23.0
 20
4.0
 30
0.0
  0
POINT
  5
2ED
  8
DEFPOINTS
 62
     0
 10
-23.0
 20
0.0
 30
0.0
  0
POINT
  5
2EE
  8
DEFPOINTS
 62
     0
 10
-34.738639654269257
 20
0.0000000000000033
 30
0.0
  0
ENDBLK
  5
2BF
  8
0
  0
BLOCK
  8
0
  2
*D3
 70
     1
 10
0.0
 20
0.0
 30
0.0
  3
*D3
  1

  0
LINE
  5
2EF
  8
1
 10
-23.0
 20
-2.0
 30
0.0
 11
-23.0
 21
-15.58491963018411
 31
0.0
  0
LINE
  5
2F0
  8
1
 10
-15.0
 20
-2.0
 30
0.0
 11
-15.0
 21
-15.58491963018411
 31
0.0
  0
LINE
  5
2F1
  8
1
 10
-24.0
 20
-14.58491963018411
 30
0.0
 11
-14.0
 21
-14.58491963018411
 31
0.0
  0
INSERT
  5
2F2
  8
1
  2
_OBLIQUE
 10
-23.0
 20
-14.58491963018411
 30
0.0
 41
2.0
 42
2.0
 43
2.0
 50
180.0
  0
INSERT
  5
2F3
  8
1
  2
_OBLIQUE
 10
-15.0
 20
-14.58491963018411
 30
0.0
 41
2.0
 42
2.0
 43
2.0
  0
TEXT
  5
2F4
  8
0
 10
-20.351296043656209
 20
-13.518071062653419
 30
0.0
 40
3.5
  1
8
  7
BESCHLAG
  0
POINT
  5
2F5
  8
DEFPOINTS
 62
     0
 10
-23.0
 20
0.0
 30
0.0
  0
POINT
  5
2F6
  8
DEFPOINTS
 62
     0
 10
-15.0
 20
0.0
 30
0.0
  0
POINT
  5
2F7
  8
DEFPOINTS
 62
     0
 10
-15.0
 20
-14.58491963018411
 30
0.0
  0
ENDBLK
  5
2CB
  8
0
  0
BLOCK
  8
0
  2
*D4
 70
     1
 10
0.0
 20
0.0
 30
0.0
  3
*D4
  1

  0
LINE
  5
2F8
  8
1
 10
-15.0
 20
-2.0
 30
0.0
 11
-15.0
 21
-15.58491963018411
 31
0.0
  0
LINE
  5
2F9
  8
1
 10
-0.0000000000000001
 20
-2.0
 30
0.0
 11
-0.000000000000001
 21
-15.58491963018411
 31
0.0
  0
LINE
  5
2FA
  8
1
 10
-16.0
 20
-14.58491963018411
 30
0.0
 11
0.9999999999999991
 21
-14.58491963018411
 31
0.0
  0
INSERT
  5
2FB
  8
1
  2
_OBLIQUE
 10
-15.0
 20
-14.58491963018411
 30
0.0
 41
2.0
 42
2.0
 43
2.0
 50
180.0
  0
INSERT
  5
2FC
  8
1
  2
_OBLIQUE
 10
-0.0000000000000009
 20
-14.58491963018411
 30
0.0
 41
2.0
 42
2.0
 43
2.0
  0
TEXT
  5
2FD
  8
0
 10
-10.387619372442019
 20
-13.518071062653419
 30
0.0
 40
3.5
  1
15
  7
BESCHLAG
  0
POINT
  5
2FE
  8
DEFPOINTS
 62
     0
 10
-15.0
 20
0.0
 30
0.0
  0
POINT
  5
2FF
  8
DEFPOINTS
 62
     0
 10
0.0
 20
0.0
 30
0.0
  0
POINT
  5
300
  8
DEFPOINTS
 62
     0
 10
-0.0000000000000009
 20
-14.58491963018411
 30
0.0
  0
ENDBLK
  5
2D7
  8
0
  0
BLOCK
  8
0
  2
*D5
 70
     1
 10
0.0
 20
0.0
 30
0.0
  3
*D5
  1

  0
LINE
  5
301
  8
1
 10
-9.0
 20
5.9999999999999991
 30
0.0
 11
13.50412557112122
 21
5.999999999999992
 31
0.0
  0
LINE
  5
302
  8
1
 10
-21.0
 20
-0.0000000000000006
 30
0.0
 11
13.50412557112122
 21
-0.0000000000000103
 31
0.0
  0
LINE
  5
303
  8
1
 10
12.50412557112122
 20
6.999999999999992
 30
0.0
 11
12.50412557112122
 21
-1.00000000000001
 31
0.0
  0
INSERT
  5
304
  8
1
  2
_OBLIQUE
 10
12.50412557112122
 20
5.999999999999992
 30
0.0
 41
2.0
 42
2.0
 43
2.0
 50
90.0
  0
INSERT
  5
305
  8
1
  2
_OBLIQUE
 10
12.50412557112122
 20
-0.0000000000000101
 30
0.0
 41
2.0
 42
2.0
 43
2.0
 50
270.0
  0
TEXT
  5
306
  8
0
 10
11.43727700359052
 20
1.6606412005456961
 30
0.0
 40
3.5
  1
6
 50
90.0
  7
BESCHLAG
  0
POINT
  5
307
  8
DEFPOINTS
 62
     0
 10
-11.0
 20
6.0
 30
0.0
  0
POINT
  5
308
  8
DEFPOINTS
 62
     0
 10
-23.0
 20
0.0
 30
0.0
  0
POINT
  5
309
  8
DEFPOINTS
 62
     0
 10
12.50412557112122
 20
-0.0000000000000101
 30
0.0
  0
ENDBLK
  5
2E3
  8
0
  0
ENDSEC
  0
SECTION
  2
ENTITIES
  0
INSERT
  5
25B
  8
5
  2
NULLPUNKT
 10
0.0
 20
0.0
 30
0.0
  0
POLYLINE
  5
2AA
  8
6
 66
     1
 10
0.0
 20
0.0
 30
0.0
 70
     1
  0
VERTEX
  5
408
  8
6
 10
-15.36465816611849
 20
2.687517105978344
 30
0.0
 42
0.1255903472544773
  0
VERTEX
  5
409
  8
6
 10
-14.92345564064407
 20
3.5695993330047031
 30
0.0
  0
VERTEX
  5
40A
  8
6
 10
-15.0
 20
5.4491472876561602
 30
0.0
  0
VERTEX
  5
40B
  8
6
 10
-15.0
 20
6.7045303245347441
 30
0.0
 42
-0.3030260886157909
  0
VERTEX
  5
40C
  8
6
 10
-14.1693067674546
 20
6.2622180026941123
 30
0.0
 42
0.0327363492565937
  0
VERTEX
  5
40D
  8
6
 10
-12.66141793892575
 20
3.9603884917341921
 30
0.0
 42
0.1516780574434434
  0
VERTEX
  5
40E
  8
6
 10
-10.9235598926366
 20
2.9381997590241999
 30
0.0
 42
-0.1394371260738143
  0
VERTEX
  5
40F
  8
6
 10
-2.6783674308012451
 20
1.620189450367661
 30
0.0
 42
0.781909699958905
  0
VERTEX
  5
410
  8
6
 10
-1.1455578446916661
 20
3.9559630750668471
 30
0.0
 42
0.1775383549415584
  0
VERTEX
  5
411
  8
6
 10
-2.8569471846444681
 20
4.92300310193309
 30
0.0
  0
VERTEX
  5
412
  8
6
 10
-9.4893691442816817
 20
5.0115290828091474
 30
0.0
 42
0.1370172271530425
  0
VERTEX
  5
413
  8
6
 10
-10.446586755259879
 20
4.5064320048237496
 30
0.0
 42
-0.2932905843771996
  0
VERTEX
  5
414
  8
6
 10
-10.93768107832784
 20
4.5510646075924788
 30
0.0
  0
VERTEX
  5
415
  8
6
 10
-11.97939634136946
 20
5.4734720316898802
 30
0.0
 42
-0.2204049175401562
  0
VERTEX
  5
416
  8
6
 10
-12.04507077252628
 20
5.6236734570610452
 30
0.0
  0
VERTEX
  5
417
  8
6
 10
-12.04507077252628
 20
5.9748087006719279
 30
0.0
 42
-0.3908827348577391
  0
VERTEX
  5
418
  8
6
 10
-11.900615931166151
 20
6.137132032763474
 30
0.0
  0
VERTEX
  5
419
  8
6
 10
-2.4215946780618651
 20
6.137132032763474
 30
0.0
 42
-0.3749026797926295
  0
VERTEX
  5
41A
  8
6
 10
0.7978233118124081
 20
3.2185830311357222
 30
0.0
 42
-0.2941846850700244
  0
VERTEX
  5
41B
  8
6
 10
-1.3005382984274541
 20
0.0
 30
0.0
  0
VERTEX
  5
41C
  8
6
 10
-20.411331575378881
 20
0.0
 30
0.0
 42
-0.0980173812940699
  0
VERTEX
  5
41D
  8
6
 10
-21.680438726772991
 20
0.9737898468176808
 30
0.0
 42
-0.2355896391344016
  0
VERTEX
  5
41E
  8
6
 10
-21.590211961312889
 20
1.930931938172193
 30
0.0
 42
-0.1685043559430312
  0
VERTEX
  5
41F
  8
6
 10
-19.815752039185551
 20
3.930406826516446
 30
0.0
 42
-0.1664180345968526
  0
VERTEX
  5
420
  8
6
 10
-19.103962994176982
 20
3.980518959415007
 30
0.0
 42
-0.5413849556030098
  0
VERTEX
  5
421
  8
6
 10
-19.078899995379281
 20
3.469375010273438
 30
0.0
 42
0.0052316930712576
  0
VERTEX
  5
422
  8
6
 10
-19.61023550946765
 20
2.9933095769346201
 30
0.0
 42
0.054152680530166
  0
VERTEX
  5
423
  8
6
 10
-20.191696945622422
 20
2.452098336667063
 30
0.0
 42
0.9349225624350127
  0
VERTEX
  5
424
  8
6
 10
-20.026281183768791
 20
2.2466385234619111
 30
0.0
  0
VERTEX
  5
425
  8
6
 10
-18.52250155802221
 20
2.346862789259148
 30
0.0
 42
0.2594323004936584
  0
VERTEX
  5
426
  8
6
 10
-18.3019471837083
 20
2.4871768524697009
 30
0.0
 42
-0.2179033253512271
  0
VERTEX
  5
427
  8
6
 10
-16.978621088882392
 20
3.975507791672384
 30
0.0
 42
-0.1112925639295422
  0
VERTEX
  5
428
  8
6
 10
-16.24176912060511
 20
3.9855301840916582
 30
0.0
 42
-0.5856445095830515
  0
VERTEX
  5
429
  8
6
 10
-16.226731276009101
 20
3.4393077191474499
 30
0.0
 42
-0.0198357983581517
  0
VERTEX
  5
42A
  8
6
 10
-16.595233430866301
 20
3.0752885736553699
 30
0.0
 42
0.1280421017227575
  0
VERTEX
  5
42B
  8
6
 10
-17.108948697736189
 20
2.422031045541075
 30
0.0
 42
0.5229847949340832
  0
VERTEX
  5
42C
  8
6
 10
-16.9685959346807
 20
2.1263693020239312
 30
0.0
 42
0.1251403261995197
  0
VERTEX
  5
42D
  8
6
 10
-16.131491895683659
 20
2.1414029760539961
 30
0.0
 42
0.1197091363202444
  0
SEQEND
  5
42E
  8
6
  0
DIMENSION
  5
2AB
  8
1
  2
*D2
 10
-34.738639654269257
 20
0.0000000000000033
 30
0.0
 11
-37.488639654269257
 21
1.999999999999998
 31
0.0
 70
     0
 13
-23.0
 23
4.0
 33
0.0
 14
-23.0
 24
0.0
 34
0.0
 50
90.0
  0
DIMENSION
  5
2AC
  8
1
  2
*D3
 10
-15.0
 20
-14.58491963018411
 30
0.0
 11
-19.0
 21
-11.79791417315819
 31
0.0
 70
     0
 13
-23.0
 23
0.0
 33
0.0
 14
-15.0
 24
0.0
 34
0.0
  0
DIMENSION
  5
2AD
  8
1
  2
*D4
 10
-0.0000000000000009
 20
-14.58491963018411
 30
0.0
 11
-7.5000000000000009
 21
-11.79791417315819
 31
0.0
 70
     0
 13
-15.0
 23
0.0
 33
0.0
 14
0.0
 24
0.0
 34
0.0
  0
DIMENSION
  5
2AE
  8
1
  2
*D5
 10
12.50412557112122
 20
-0.0000000000000101
 30
0.0
 11
9.7171201140953016
 21
2.9999999999999929
 31
0.0
 70
     0
 13
-11.0
 23
6.0
 33
0.0
 14
-23.0
 24
0.0
 34
0.0
 50
90.0
  0
POLYLINE
  5
2AF
  8
5
 66
     1
 10
0.0
 20
0.0
 30
0.0
  0
VERTEX
  5
42F
  8
5
 10
-11.0
 20
13.94371462543608
 30
0.0
  0
VERTEX
  5
430
  8
5
 10
-11.0
 20
6.0
 30
0.0
  0
VERTEX
  5
431
  8
5
 10
2.7686455178518372
 20
6.0
 30
0.0
  0
SEQEND
  5
432
  8
5
  0
POLYLINE
  5
2B0
  8
5
 66
     1
 10
0.0
 20
0.0
 30
0.0
  0
VERTEX
  5
433
  8
5
 10
-15.0
 20
14.0
 30
0.0
  0
VERTEX
  5
434
  8
5
 10
-15.0
 20
4.0
 30
0.0
  0
VERTEX
  5
435
  8
5
 10
-23.0
 20
4.0
 30
0.0
  0
VERTEX
  5
436
  8
5
 10
-23.0
 20
0.0
 30
0.0
  0
VERTEX
  5
437
  8
5
 10
0.0
 20
0.0
 30
0.0
  0
VERTEX
  5
438
  8
5
 10
0.0
 20
-10.0
 30
0.0
  0
SEQEND
  5
439
  8
5
  0
TEXT
  5
2B1
  8
1
 10
-8.9825484432146823
 20
9.6758150578795608
 30
0.0
 40
2.5
  1
Hebgo 633
 41
0.9
  7
BESCHLAG
  0
VIEWPORT
  5
22
 67
     1
  8
0
 10
210.0
 20
170.2366863905325
 30
0.0
 40
420.0
 41
340.47337278106511
 68
     1
 69
     1
1001
ACAD
1000
MVIEW
1002
{
1070
    16
1010
0.0
1020
0.0
1030
0.0
1010
0.0
1020
0.0
1030
1.0
1040
0.0
1040
340.47337278106511
1040
210.0
1040
170.2366863905325
1040
50.0
1040
0.0
1040
0.0
1070
     0
1070
   100
1070
     1
1070
     1
1070
     0
1070
     0
1070
     0
1070
     0
1040
0.0
1040
0.0
1040
0.0
1040
5.0
1040
5.0
1040
10.0
1040
10.0
1070
     0
1002
{
1002
}
1002
}
  0
ENDSEC
  0
EOF
