  0
SECTION
  2
HEADER
  9
$ACADVER
  1
AC1009
  9
$INSBASE
 10
0.0
 20
0.0
 30
0.0
  9
$EXTMIN
 10
-101.30023293923681
 20
-27.892269185878359
 30
0.0
  9
$EXTMAX
 10
11.6099191423309
 20
33.891008707262188
 30
0.0
  9
$LIMMIN
 10
-150.0
 20
-150.0
  9
$LIMMAX
 10
150.0
 20
150.0
  9
$ORTHOMODE
 70
     0
  9
$REGENMODE
 70
     1
  9
$FILLMODE
 70
     1
  9
$QTEXTMODE
 70
     0
  9
$MIRRTEXT
 70
     0
  9
$DRAGMODE
 70
     2
  9
$LTSCALE
 40
4.0
  9
$OSMODE
 70
   111
  9
$ATTMODE
 70
     1
  9
$TEXTSIZE
 40
3.5
  9
$TRACEWID
 40
1.0
  9
$TEXTSTYLE
  7
BESCHLAG
  9
$CLAYER
  8
0
  9
$CELTYPE
  6
BYLAYER
  9
$CECOLOR
 62
   256
  9
$DIMSCALE
 40
1.0
  9
$DIMASZ
 40
2.0
  9
$DIMEXO
 40
2.0
  9
$DIMDLI
 40
0.0
  9
$DIMRND
 40
0.0
  9
$DIMDLE
 40
1.0
  9
$DIMEXE
 40
1.0
  9
$DIMTP
 40
0.0
  9
$DIMTM
 40
0.0
  9
$DIMTXT
 40
3.5
  9
$DIMCEN
 40
0.0
  9
$DIMTSZ
 40
0.0
  9
$DIMTOL
 70
     0
  9
$DIMLIM
 70
     0
  9
$DIMTIH
 70
     0
  9
$DIMTOH
 70
     0
  9
$DIMSE1
 70
     0
  9
$DIMSE2
 70
     0
  9
$DIMTAD
 70
     1
  9
$DIMZIN
 70
     8
  9
$DIMBLK
  1

  9
$DIMASO
 70
     1
  9
$DIMSHO
 70
     1
  9
$DIMPOST
  1

  9
$DIMAPOST
  1

  9
$DIMALT
 70
     0
  9
$DIMALTD
 70
     2
  9
$DIMALTF
 40
0.039370078740157
  9
$DIMLFAC
 40
1.0
  9
$DIMTOFL
 70
     1
  9
$DIMTVP
 40
0.0
  9
$DIMTIX
 70
     1
  9
$DIMSOXD
 70
     0
  9
$DIMSAH
 70
     1
  9
$DIMBLK1
  1
OBLIQUE
  9
$DIMBLK2
  1
OBLIQUE
  9
$DIMSTYLE
  2
OPO-SSTRICH
  9
$DIMCLRD
 70
   256
  9
$DIMCLRE
 70
   256
  9
$DIMCLRT
 70
   256
  9
$DIMTFAC
 40
0.7114285714285716
  9
$DIMGAP
 40
1.0
  9
$LUNITS
 70
     2
  9
$LUPREC
 70
     1
  9
$SKETCHINC
 40
1.0
  9
$FILLETRAD
 40
0.0
  9
$AUNITS
 70
     0
  9
$AUPREC
 70
     1
  9
$MENU
  1
D:\ACL_CGWG\CGTAB13
  9
$ELEVATION
 40
0.0
  9
$PELEVATION
 40
0.0
  9
$THICKNESS
 40
0.0
  9
$LIMCHECK
 70
     0
  9
$BLIPMODE
 70
     0
  9
$CHAMFERA
 40
1.0
  9
$CHAMFERB
 40
1.0
  9
$SKPOLY
 70
     0
  9
$TDCREATE
 40
2451739.8756096181
  9
$TDUPDATE
 40
2452087.6169787501
  9
$TDINDWG
 40
0.0010697454
  9
$TDUSRTIMER
 40
0.0010697454
  9
$USRTIMER
 70
     1
  9
$ANGBASE
 50
0.0
  9
$ANGDIR
 70
     0
  9
$PDMODE
 70
    35
  9
$PDSIZE
 40
5.0
  9
$PLINEWID
 40
0.0
  9
$COORDS
 70
     1
  9
$SPLFRAME
 70
     0
  9
$SPLINETYPE
 70
     6
  9
$SPLINESEGS
 70
     8
  9
$ATTDIA
 70
     1
  9
$ATTREQ
 70
     1
  9
$HANDLING
 70
-16383
  9
$HANDSEED
  5
5F3
  9
$SURFTAB1
 70
    12
  9
$SURFTAB2
 70
    12
  9
$SURFTYPE
 70
     6
  9
$SURFU
 70
    12
  9
$SURFV
 70
    12
  9
$UCSNAME
  2

  9
$UCSORG
 10
0.0
 20
0.0
 30
0.0
  9
$UCSXDIR
 10
1.0
 20
0.0
 30
0.0
  9
$UCSYDIR
 10
0.0
 20
1.0
 30
0.0
  9
$PUCSNAME
  2

  9
$PUCSORG
 10
0.0
 20
0.0
 30
0.0
  9
$PUCSXDIR
 10
1.0
 20
0.0
 30
0.0
  9
$PUCSYDIR
 10
0.0
 20
1.0
 30
0.0
  9
$USERI1
 70
     0
  9
$USERI2
 70
     0
  9
$USERI3
 70
     0
  9
$USERI4
 70
     0
  9
$USERI5
 70
     0
  9
$USERR1
 40
0.0
  9
$USERR2
 40
0.0
  9
$USERR3
 40
0.0
  9
$USERR4
 40
0.0
  9
$USERR5
 40
0.0
  9
$WORLDVIEW
 70
     1
  9
$SHADEDGE
 70
     3
  9
$SHADEDIF
 70
    70
  9
$TILEMODE
 70
     1
  9
$MAXACTVP
 70
    48
  9
$PLIMCHECK
 70
     0
  9
$PEXTMIN
 10
1.0000000000000000E+020
 20
1.0000000000000000E+020
 30
1.0000000000000000E+020
  9
$PEXTMAX
 10
-1.0000000000000000E+020
 20
-1.0000000000000000E+020
 30
-1.0000000000000000E+020
  9
$PLIMMIN
 10
0.0
 20
0.0
  9
$PLIMMAX
 10
420.0
 20
297.0
  9
$UNITMODE
 70
     0
  9
$VISRETAIN
 70
     1
  9
$PLINEGEN
 70
     0
  9
$PSLTSCALE
 70
     1
  0
ENDSEC
  0
SECTION
  2
TABLES
  0
TABLE
  2
VPORT
 70
     2
  0
VPORT
  2
*ACTIVE
 70
     0
 10
0.0
 20
0.0
 11
1.0
 21
1.0
 12
-44.837951013862501
 22
4.1979603233781111
 13
0.0
 23
0.0
 14
0.5
 24
0.5
 15
10.0
 25
10.0
 16
0.0
 26
0.0
 36
1.0
 17
0.0
 27
0.0
 37
0.0
 40
70.669864913683853
 41
1.6070460704607039
 42
50.0
 43
0.0
 44
0.0
 50
0.0
 51
0.0
 71
     0
 72
   800
 73
     1
 74
     1
 75
     0
 76
     0
 77
     0
 78
     0
  0
ENDTAB
  0
TABLE
  2
LTYPE
 70
     2
  0
LTYPE
  2
CONTINUOUS
 70
     0
  3
_______________________________________________
 72
    65
 73
     2
 40
1.0
 49
1.0
 49
0.0
  0
LTYPE
  2
STRICHPUNKT
 70
     0
  3
__ . __ . __ . __ . __ . __ . __ . __ . __ . __
 72
    65
 73
     4
 40
1.0
 49
0.5
 49
-0.25
 49
0.0
 49
-0.25
  0
ENDTAB
  0
TABLE
  2
LAYER
 70
     7
  0
LAYER
  2
0
 70
     0
 62
    30
  6
CONTINUOUS
  0
LAYER
  2
1
 70
     0
 62
     2
  6
CONTINUOUS
  0
LAYER
  2
2
 70
     0
 62
     9
  6
CONTINUOUS
  0
LAYER
  2
4
 70
     1
 62
     4
  6
CONTINUOUS
  0
LAYER
  2
5
 70
     0
 62
     1
  6
CONTINUOUS
  0
LAYER
  2
6
 70
     0
 62
     3
  6
CONTINUOUS
  0
LAYER
  2
DEFPOINTS
 70
     0
 62
     7
  6
CONTINUOUS
  0
ENDTAB
  0
TABLE
  2
STYLE
 70
     2
  0
STYLE
  2
STANDARD
 70
     0
 40
0.0
 41
1.0
 50
0.0
 71
     0
 42
2.5
  3
txt
  4

  0
STYLE
  2
BESCHLAG
 70
     0
 40
0.0
 41
1.0
 50
0.0
 71
     0
 42
3.5
  3
txt
  4

  0
ENDTAB
  0
TABLE
  2
VIEW
 70
     0
  0
ENDTAB
  0
TABLE
  2
UCS
 70
     0
  0
ENDTAB
  0
TABLE
  2
APPID
 70
     1
  0
APPID
  2
ACAD
 70
     0
  0
ENDTAB
  0
TABLE
  2
DIMSTYLE
 70
     1
  0
DIMSTYLE
  2
OPO-SSTRICH
 70
     0
  3

  4

  5

  6
OBLIQUE
  7
OBLIQUE
 40
1.0
 41
2.0
 42
2.0
 43
0.0
 44
1.0
 45
0.0
 46
1.0
 47
0.0
 48
0.0
140
3.5
141
0.0
142
0.0
143
0.039370078740157
144
1.0
145
0.0
146
0.7114285714285716
147
1.0
 71
     0
 72
     0
 73
     0
 74
     0
 75
     0
 76
     0
 77
     1
 78
     8
170
     0
171
     2
172
     1
173
     1
174
     1
175
     0
176
   256
177
   256
178
   256
  0
ENDTAB
  0
ENDSEC
  0
SECTION
  2
BLOCKS
  0
BLOCK
  8
0
  2
$MODEL_SPACE
 70
     0
 10
0.0
 20
0.0
 30
0.0
  3
$MODEL_SPACE
  1

  0
ENDBLK
  5
1C
  8
0
  0
BLOCK
 67
     1
  8
0
  2
$PAPER_SPACE
 70
     0
 10
0.0
 20
0.0
 30
0.0
  3
$PAPER_SPACE
  1

  0
ENDBLK
  5
19
 67
     1
  8
0
  0
BLOCK
  8
0
  2
_OBLIQUE
 70
     0
 10
0.0
 20
0.0
 30
0.0
  3
_OBLIQUE
  1

  0
LINE
  5
204
  8
0
 62
     0
 10
-0.5
 20
-0.5
 30
0.0
 11
0.5
 21
0.5
 31
0.0
  0
ENDBLK
  5
206
  8
0
  0
BLOCK
  8
0
  2
NULLPUNKT
 70
     0
 10
0.0
 20
0.0
 30
0.0
  3
NULLPUNKT
  1

  0
SOLID
  5
254
  8
5
 10
0.0
 20
0.0
 30
0.0
 11
2.0
 21
0.0
 31
0.0
 12
0.0
 22
-2.0
 32
0.0
 13
0.0
 23
-2.0
 33
0.0
  0
SOLID
  5
255
  8
5
 10
0.0
 20
0.0
 30
0.0
 11
-2.0
 21
0.0
 31
0.0
 12
0.0
 22
2.0
 32
0.0
 13
0.0
 23
2.0
 33
0.0
  0
POLYLINE
  5
256
  8
5
 66
     1
 10
0.0
 20
0.0
 30
0.0
  0
VERTEX
  5
4BD
  8
5
 10
0.0
 20
2.0
 30
0.0
  0
VERTEX
  5
4BE
  8
5
 10
0.0
 20
-2.0
 30
0.0
  0
SEQEND
  5
4BF
  8
5
  0
POLYLINE
  5
257
  8
5
 66
     1
 10
0.0
 20
0.0
 30
0.0
  0
VERTEX
  5
4C0
  8
5
 10
-2.0
 20
0.0
 30
0.0
  0
VERTEX
  5
4C1
  8
5
 10
2.0
 20
0.0
 30
0.0
  0
SEQEND
  5
4C2
  8
5
  0
CIRCLE
  5
258
  8
5
 10
0.0
 20
0.0
 30
0.0
 40
2.0
  0
ENDBLK
  5
25A
  8
0
  0
BLOCK
  8
0
  2
*X2
 70
     1
 10
0.0
 20
0.0
 30
0.0
  3
*X2
  1

  0
LINE
  5
26C
  8
0
 62
     0
 10
409.0194960582092
 20
-293.5618017287444
 30
0.0
 11
411.57438311129522
 21
-291.00691467565821
 31
0.0
  0
LINE
  5
26D
  8
0
 62
     0
 10
407.0849014316093
 20
-293.79934008049651
 30
0.0
 11
409.61415899364511
 21
-291.27008251846058
 31
0.0
  0
LINE
  5
26E
  8
0
 62
     0
 10
405.15030680500928
 20
-294.03687843224873
 30
0.0
 11
407.65393487599511
 21
-291.5332503612629
 31
0.0
  0
LINE
  5
26F
  8
0
 62
     0
 10
403.21571217840938
 20
-294.27441678400089
 30
0.0
 11
405.69371075834499
 21
-291.79641820406528
 31
0.0
  0
LINE
  5
270
  8
0
 62
     0
 10
401.28111755180947
 20
-294.51195513575311
 30
0.0
 11
403.73348664069499
 21
-292.05958604686759
 31
0.0
  0
LINE
  5
271
  8
0
 62
     0
 10
399.34652292520963
 20
-294.74949348750528
 30
0.0
 11
401.77326252304499
 21
-292.32275388967003
 31
0.0
  0
LINE
  5
272
  8
0
 62
     0
 10
397.41192829860978
 20
-294.9870318392575
 30
0.0
 11
399.81303840539499
 21
-292.58592173247229
 31
0.0
  0
LINE
  5
273
  8
0
 62
     0
 10
395.47733367200982
 20
-295.22457019100972
 30
0.0
 11
397.85281428774482
 21
-292.8490895752746
 31
0.0
  0
LINE
  5
274
  8
0
 62
     0
 10
393.54273904540992
 20
-295.46210854276183
 30
0.0
 11
395.89259017009471
 21
-293.11225741807698
 31
0.0
  0
LINE
  5
275
  8
0
 62
     0
 10
391.60814441881001
 20
-295.6996468945141
 30
0.0
 11
393.93236605244459
 21
-293.37542526087941
 31
0.0
  0
LINE
  5
276
  8
0
 62
     0
 10
389.67354979221011
 20
-295.93718524626621
 30
0.0
 11
391.97214193479471
 21
-293.63859310368173
 31
0.0
  0
LINE
  5
277
  8
0
 62
     0
 10
387.73895516561021
 20
-296.17472359801849
 30
0.0
 11
390.01191781714459
 21
-293.9017609464841
 31
0.0
  0
LINE
  5
278
  8
0
 62
     0
 10
385.80436053901019
 20
-296.4122619497706
 30
0.0
 11
388.05169369949459
 21
-294.16492878928631
 31
0.0
  0
LINE
  5
279
  8
0
 62
     0
 10
383.8697659124104
 20
-296.64980030152282
 30
0.0
 11
386.09146958184448
 21
-294.42809663208863
 31
0.0
  0
LINE
  5
27A
  8
0
 62
     0
 10
381.9351712858105
 20
-296.88733865327498
 30
0.0
 11
384.13124546419442
 21
-294.691264474891
 31
0.0
  0
LINE
  5
27B
  8
0
 62
     0
 10
385.0508438894733
 20
-293.77166604961212
 30
0.0
 11
385.13875528965332
 21
-293.6837546494321
 31
0.0
  0
LINE
  5
27C
  8
0
 62
     0
 10
380.00057665921048
 20
-297.1248770050272
 30
0.0
 11
382.17102134654431
 21
-294.95443231769337
 31
0.0
  0
LINE
  5
27D
  8
0
 62
     0
 10
382.90751380898928
 20
-294.2179398552484
 30
0.0
 11
383.1785311720032
 21
-293.94692249223459
 31
0.0
  0
LINE
  5
27E
  8
0
 62
     0
 10
378.06598203261069
 20
-297.36241535677942
 30
0.0
 11
380.21079722889442
 21
-295.21760016049569
 31
0.0
  0
LINE
  5
27F
  8
0
 62
     0
 10
380.76418372850389
 20
-294.66421366088622
 30
0.0
 11
381.2183070543532
 21
-294.21009033503691
 31
0.0
  0
LINE
  5
280
  8
0
 62
     0
 10
367.35259636191591
 20
-306.37874475262629
 30
0.0
 11
368.69859343990657
 21
-305.03274767463557
 31
0.0
  0
LINE
  5
281
  8
0
 62
     0
 10
378.62085364801987
 20
-295.11048746652239
 30
0.0
 11
379.25808293670309
 21
-294.47325817783911
 31
0.0
  0
LINE
  5
282
  8
0
 62
     0
 10
376.13138740601067
 20
-297.59995370853159
 30
0.0
 11
378.25057311124442
 21
-295.4807680032979
 31
0.0
  0
LINE
  5
283
  8
0
 62
     0
 10
367.1670110619479
 20
-304.86727377774668
 30
0.0
 11
368.51300813993851
 21
-303.52127669975602
 31
0.0
  0
LINE
  5
284
  8
0
 62
     0
 10
376.47752356753421
 20
-295.55676127216037
 30
0.0
 11
377.29785881905309
 21
-294.73642602064149
 31
0.0
  0
LINE
  5
285
  8
0
 62
     0
 10
374.19679277941083
 20
-297.83749206028381
 30
0.0
 11
376.29034899359431
 21
-295.74393584610033
 31
0.0
  0
LINE
  5
286
  8
0
 62
     0
 10
366.98142576197978
 20
-303.35580280286717
 30
0.0
 11
368.32742283997038
 21
-302.00980572487629
 31
0.0
  0
LINE
  5
287
  8
0
 62
     0
 10
372.26219815281098
 20
-298.07503041203603
 30
0.0
 11
375.33763470140298
 21
-294.99959386344392
 31
0.0
  0
LINE
  5
288
  8
0
 62
     0
 10
366.79584046201171
 20
-301.8443318279875
 30
0.0
 11
368.14183754000243
 21
-300.49833474999679
 31
0.0
  0
LINE
  5
289
  8
0
 62
     0
 10
370.32760352621102
 20
-298.31256876378808
 30
0.0
 11
373.37741058375292
 21
-295.26276170624629
 31
0.0
  0
LINE
  5
28A
  8
0
 62
     0
 10
366.61025516204347
 20
-300.33286085310789
 30
0.0
 11
367.9562522400343
 21
-298.98686377511711
 31
0.0
  0
LINE
  5
28B
  8
0
 62
     0
 10
368.39300889961112
 20
-298.5501071155403
 30
0.0
 11
371.41718646610292
 21
-295.52592954904861
 31
0.0
  0
LINE
  5
28C
  8
0
 62
     0
 10
366.42466986207552
 20
-298.82138987822822
 30
0.0
 11
369.45696234845281
 21
-295.78909739185087
 31
0.0
  0
LINE
  5
28D
  8
0
 62
     0
 10
410.95409068480899
 20
-293.32426337699212
 30
0.0
 11
413.53460722894528
 21
-290.74374683285578
 31
0.0
  0
LINE
  5
28E
  8
0
 62
     0
 10
412.83820947100708
 20
-293.13720086564172
 30
0.0
 11
415.49483134659539
 21
-290.4805789900534
 31
0.0
  0
LINE
  5
28F
  8
0
 62
     0
 10
413.01425475205667
 20
-294.6582118594398
 30
0.0
 11
414.51425475205679
 21
-293.1582118594398
 31
0.0
  0
LINE
  5
290
  8
0
 62
     0
 10
414.82327993800862
 20
-292.84918667348791
 30
0.0
 11
417.45505546424539
 21
-290.21741114725108
 31
0.0
  0
LINE
  5
291
  8
0
 62
     0
 10
413.01425475205667
 20
-296.35526813428748
 30
0.0
 11
414.51425475205679
 21
-294.8552681342876
 31
0.0
  0
LINE
  5
292
  8
0
 62
     0
 10
416.75787456460858
 20
-292.61164832173557
 30
0.0
 11
419.4152795818955
 21
-289.95424330444888
 31
0.0
  0
LINE
  5
293
  8
0
 62
     0
 10
413.01425475205667
 20
-298.05232440913528
 30
0.0
 11
414.51425475205679
 21
-296.55232440913528
 31
0.0
  0
LINE
  5
294
  8
0
 62
     0
 10
431.3142547520568
 20
-279.75232440913533
 30
0.0
 11
432.88969906504491
 21
-278.17688009614699
 31
0.0
  0
LINE
  5
295
  8
0
 62
     0
 10
418.69246919120872
 20
-292.37410996998341
 30
0.0
 11
421.3755036995455
 21
-289.69107546164651
 31
0.0
  0
LINE
  5
296
  8
0
 62
     0
 10
413.01425475205667
 20
-299.74938068398302
 30
0.0
 11
414.51425475205679
 21
-298.24938068398302
 31
0.0
  0
LINE
  5
297
  8
0
 62
     0
 10
431.3142547520568
 20
-281.44938068398301
 30
0.0
 11
434.49050504597483
 21
-278.27313039006498
 31
0.0
  0
LINE
  5
298
  8
0
 62
     0
 10
420.62706381780851
 20
-292.13657161823107
 30
0.0
 11
423.33572781719562
 21
-289.42790761884407
 31
0.0
  0
LINE
  5
299
  8
0
 62
     0
 10
413.01425475205667
 20
-301.44643695883059
 30
0.0
 11
414.51425475205679
 21
-299.9464369588307
 31
0.0
  0
LINE
  5
29A
  8
0
 62
     0
 10
434.28381161474039
 20
-280.17688009614699
 30
0.0
 11
436.08903318339861
 21
-278.37165852748888
 31
0.0
  0
LINE
  5
29B
  8
0
 62
     0
 10
422.56165844440852
 20
-291.89903326647891
 30
0.0
 11
425.29595193484579
 21
-289.1647397760417
 31
0.0
  0
LINE
  5
29C
  8
0
 62
     0
 10
431.63112634280162
 20
-282.82956536808581
 30
0.0
 11
433.11425475205669
 21
-281.34643695883079
 31
0.0
  0
LINE
  5
29D
  8
0
 62
     0
 10
413.01425475205667
 20
-303.14349323367838
 30
0.0
 11
414.51425475205679
 21
-301.64349323367838
 31
0.0
  0
LINE
  5
29E
  8
0
 62
     0
 10
435.98086788958801
 20
-280.17688009614699
 30
0.0
 11
437.9375613208224
 21
-278.22018666491277
 31
0.0
  0
LINE
  5
29F
  8
0
 62
     0
 10
424.49625307100843
 20
-291.66149491472657
 30
0.0
 11
426.56361030732472
 21
-289.59413767841039
 31
0.0
  0
LINE
  5
2A0
  8
0
 62
     0
 10
432.25229205104768
 20
-283.9054559346875
 30
0.0
 11
433.56998350467171
 21
-282.58776448106352
 31
0.0
  0
LINE
  5
2A1
  8
0
 62
     0
 10
414.3460894582463
 20
-303.50871480233661
 30
0.0
 11
415.67792416443581
 21
-302.1768800961471
 31
0.0
  0
LINE
  5
2A2
  8
0
 62
     0
 10
437.71608616307952
 20
-280.1387180975035
 30
0.0
 11
438.27609275341308
 21
-279.57871150716983
 31
0.0
  0
LINE
  5
2A3
  8
0
 62
     0
 10
425.01425475205662
 20
-292.84054950852612
 30
0.0
 11
428.49820493392463
 21
-289.35659932665823
 31
0.0
  0
LINE
  5
2A4
  8
0
 62
     0
 10
432.23579378297399
 20
-285.61901047760892
 30
0.0
 11
434.19114921291771
 21
-283.6636550476652
 31
0.0
  0
LINE
  5
2A5
  8
0
 62
     0
 10
416.19461759567019
 20
-303.3572429397604
 30
0.0
 11
417.37498043928349
 21
-302.1768800961471
 31
0.0
  0
LINE
  5
2A6
  8
0
 62
     0
 10
432.23579378297399
 20
-287.31606675245661
 30
0.0
 11
434.31425475205668
 21
-285.23760578337391
 31
0.0
  0
LINE
  5
2A7
  8
0
 62
     0
 10
425.01425475205662
 20
-294.53760578337392
 30
0.0
 11
426.81425475205668
 21
-292.73760578337391
 31
0.0
  0
LINE
  5
2A8
  8
0
 62
     0
 10
428.1749804392835
 20
-291.37688009614709
 30
0.0
 11
430.43279956052459
 21
-289.11906097490601
 31
0.0
  0
LINE
  5
2A9
  8
0
 62
     0
 10
418.04314573309398
 20
-303.20577107718429
 30
0.0
 11
419.07203671413117
 21
-302.1768800961471
 31
0.0
  0
LINE
  5
2AA
  8
0
 62
     0
 10
429.87203671413118
 20
-291.37688009614709
 30
0.0
 11
434.31425475205668
 21
-286.93466205822159
 31
0.0
  0
LINE
  5
2AB
  8
0
 62
     0
 10
425.01425475205662
 20
-296.23466205822149
 30
0.0
 11
426.81425475205668
 21
-294.43466205822159
 31
0.0
  0
LINE
  5
2AC
  8
0
 62
     0
 10
419.39167387051782
 20
-303.55429921460819
 30
0.0
 11
420.76480367007719
 21
-302.18116941504888
 31
0.0
  0
LINE
  5
2AD
  8
0
 62
     0
 10
431.56909298897898
 20
-291.37688009614709
 30
0.0
 11
434.31425475205668
 21
-288.63171833306927
 31
0.0
  0
LINE
  5
2AE
  8
0
 62
     0
 10
425.36909298897882
 20
-297.57688009614708
 30
0.0
 11
427.4690929889789
 21
-295.476880096147
 31
0.0
  0
LINE
  5
2AF
  8
0
 62
     0
 10
427.0661492638265
 20
-297.57688009614708
 30
0.0
 11
429.1661492638267
 21
-295.476880096147
 31
0.0
  0
LINE
  5
2B0
  8
0
 62
     0
 10
433.26614926382661
 20
-291.37688009614709
 30
0.0
 11
434.31425475205668
 21
-290.32877460791701
 31
0.0
  0
LINE
  5
2B1
  8
0
 62
     0
 10
428.7632055386743
 20
-297.57688009614708
 30
0.0
 11
430.86320553867438
 21
-295.476880096147
 31
0.0
  0
LINE
  5
2B2
  8
0
 62
     0
 10
430.46026181352192
 20
-297.57688009614708
 30
0.0
 11
432.560261813522
 21
-295.476880096147
 31
0.0
  0
LINE
  5
2B3
  8
0
 62
     0
 10
432.15731808836972
 20
-297.57688009614708
 30
0.0
 11
433.92490098848509
 21
-295.80929719603171
 31
0.0
  0
LINE
  5
2B4
  8
0
 62
     0
 10
432.51425475205679
 20
-298.91699970730792
 30
0.0
 11
434.31425475205663
 21
-297.11699970730803
 31
0.0
  0
LINE
  5
2B5
  8
0
 62
     0
 10
432.51425475205679
 20
-300.61405598215549
 30
0.0
 11
434.31425475205663
 21
-298.81405598215559
 31
0.0
  0
LINE
  5
2B6
  8
0
 62
     0
 10
432.51425475205679
 20
-302.31111225700329
 30
0.0
 11
434.31425475205663
 21
-300.51111225700339
 31
0.0
  0
LINE
  5
2B7
  8
0
 62
     0
 10
438.41425475205659
 20
-296.41111225700342
 30
0.0
 11
439.64848691291297
 21
-295.17688009614699
 31
0.0
  0
LINE
  5
2B8
  8
0
 62
     0
 10
432.85489896990862
 20
-303.66752431399908
 30
0.0
 11
434.41834458343232
 21
-302.10407870047538
 31
0.0
  0
LINE
  5
2B9
  8
0
 62
     0
 10
438.41425475205659
 20
-298.10816853185099
 30
0.0
 11
441.3455431877606
 21
-295.17688009614699
 31
0.0
  0
LINE
  5
2BA
  8
0
 62
     0
 10
434.70342710733252
 20
-303.51605245142292
 30
0.0
 11
436.04259946260839
 21
-302.1768800961471
 31
0.0
  0
LINE
  5
2BB
  8
0
 62
     0
 10
441.04259946260828
 20
-297.17688009614699
 30
0.0
 11
442.21425475205649
 21
-296.00522480669878
 31
0.0
  0
LINE
  5
2BC
  8
0
 62
     0
 10
438.41425475205659
 20
-299.8052248066989
 30
0.0
 11
440.21425475205649
 21
-298.00522480669878
 31
0.0
  0
LINE
  5
2BD
  8
0
 62
     0
 10
436.55195524475641
 20
-303.36458058884682
 30
0.0
 11
437.73965573745619
 21
-302.1768800961471
 31
0.0
  0
LINE
  5
2BE
  8
0
 62
     0
 10
438.41425475205659
 20
-301.50228108154658
 30
0.0
 11
441.56551171219672
 21
-298.35102412140662
 31
0.0
  0
LINE
  5
2BF
  8
0
 62
     0
 10
438.4004833821802
 20
-303.2131087262706
 30
0.0
 11
440.2142547520566
 21
-301.39933735639431
 31
0.0
  0
LINE
  5
2C0
  8
0
 62
     0
 10
441.461146889887
 20
-300.1524452185638
 30
0.0
 11
443.25981584661758
 21
-298.35377626183322
 31
0.0
  0
LINE
  5
2C1
  8
0
 62
     0
 10
439.7490115196041
 20
-303.5616368636945
 30
0.0
 11
440.2142547520566
 21
-303.09639363124211
 31
0.0
  0
LINE
  5
2C2
  8
0
 62
     0
 10
443.15581920368322
 20
-300.15482917961538
 30
0.0
 11
444.95411998103867
 21
-298.35652840225993
 31
0.0
  0
LINE
  5
2C3
  8
0
 62
     0
 10
444.85049151747921
 20
-300.15721314066701
 30
0.0
 11
446.64842411545959
 21
-298.35928054268669
 31
0.0
  0
LINE
  5
2C4
  8
0
 62
     0
 10
446.54516383127537
 20
-300.1595971017187
 30
0.0
 11
448.34272824988068
 21
-298.3620326831134
 31
0.0
  0
LINE
  5
2C5
  8
0
 62
     0
 10
448.23983614507159
 20
-300.16198106277028
 30
0.0
 11
450.03703238430171
 21
-298.36478482354011
 31
0.0
  0
LINE
  5
2C6
  8
0
 62
     0
 10
449.93450845886753
 20
-300.16436502382192
 30
0.0
 11
451.73133651872263
 21
-298.36753696396681
 31
0.0
  0
LINE
  5
2C7
  8
0
 62
     0
 10
451.62918077266369
 20
-300.16674898487349
 30
0.0
 11
453.42564065314372
 21
-298.37028910439358
 31
0.0
  0
LINE
  5
2C8
  8
0
 62
     0
 10
453.32385308645968
 20
-300.16913294592513
 30
0.0
 11
455.31405296876829
 21
-298.17893306361651
 31
0.0
  0
LINE
  5
2C9
  8
0
 62
     0
 10
454.35880943276169
 20
-300.83123287447091
 30
0.0
 11
456.13294985069791
 21
-299.05709245653469
 31
0.0
  0
ENDBLK
  5
2CB
  8
0
  0
BLOCK
  8
0
  2
*X3
 70
     1
 10
0.0
 20
0.0
 30
0.0
  3
*X3
  1

  0
LINE
  5
30B
  8
0
 62
     0
 10
348.64603031132509
 20
-303.34028607110139
 30
0.0
 11
351.64603031132532
 21
-300.34028607110122
 31
0.0
  0
LINE
  5
30C
  8
0
 62
     0
 10
354.74474926965559
 20
-297.24156711277089
 30
0.0
 11
356.8471274910633
 21
-295.13918889136329
 31
0.0
  0
LINE
  5
30D
  8
0
 62
     0
 10
347.77303575050422
 20
-302.7990670695491
 30
0.0
 11
349.99202050559529
 21
-300.58008231445802
 31
0.0
  0
LINE
  5
30E
  8
0
 62
     0
 10
353.02741443188899
 20
-297.54468838816439
 30
0.0
 11
355.4329139286902
 21
-295.13918889136329
 31
0.0
  0
LINE
  5
30F
  8
0
 62
     0
 10
345.81760318657888
 20
-303.34028607110139
 30
0.0
 11
348.81760318657899
 21
-300.34028607110127
 31
0.0
  0
LINE
  5
310
  8
0
 62
     0
 10
351.31007959412261
 20
-297.84780966355771
 30
0.0
 11
354.01870036631709
 21
-295.13918889136329
 31
0.0
  0
LINE
  5
311
  8
0
 62
     0
 10
344.40338962420577
 20
-303.34028607110139
 30
0.0
 11
347.403389624206
 21
-300.34028607110127
 31
0.0
  0
LINE
  5
312
  8
0
 62
     0
 10
349.60448680394393
 20
-298.13918889136318
 30
0.0
 11
352.60448680394398
 21
-295.13918889136329
 31
0.0
  0
LINE
  5
313
  8
0
 62
     0
 10
342.98917606183272
 20
-303.34028607110139
 30
0.0
 11
345.98917606183289
 21
-300.34028607110127
 31
0.0
  0
LINE
  5
314
  8
0
 62
     0
 10
348.19027324157082
 20
-298.13918889136318
 30
0.0
 11
351.19027324157088
 21
-295.13918889136329
 31
0.0
  0
LINE
  5
315
  8
0
 62
     0
 10
341.57496249945967
 20
-303.34028607110139
 30
0.0
 11
344.57496249945979
 21
-300.34028607110122
 31
0.0
  0
LINE
  5
316
  8
0
 62
     0
 10
346.77605967919777
 20
-298.13918889136318
 30
0.0
 11
349.04515721562723
 21
-295.87009135493378
 31
0.0
  0
LINE
  5
317
  8
0
 62
     0
 10
340.81425475205651
 20
-302.68678025613139
 30
0.0
 11
342.23982366058073
 21
-301.26121134760717
 31
0.0
  0
LINE
  5
318
  8
0
 62
     0
 10
345.36184611682472
 20
-298.13918889136318
 30
0.0
 11
348.33805043444067
 21
-295.16298457374728
 31
0.0
  0
LINE
  5
319
  8
0
 62
     0
 10
340.81425475205651
 20
-301.27256669375828
 30
0.0
 11
340.82561009820762
 21
-301.26121134760717
 31
0.0
  0
LINE
  5
31A
  8
0
 62
     0
 10
343.94763255445162
 20
-298.13918889136318
 30
0.0
 11
346.9476325544515
 21
-295.13918889136318
 31
0.0
  0
LINE
  5
31B
  8
0
 62
     0
 10
342.81425475205668
 20
-297.858353131385
 30
0.0
 11
345.53341899207851
 21
-295.13918889136318
 31
0.0
  0
LINE
  5
31C
  8
0
 62
     0
 10
342.81425475205668
 20
-296.4441395690119
 30
0.0
 11
344.11920542970529
 21
-295.13918889136318
 31
0.0
  0
LINE
  5
31D
  8
0
 62
     0
 10
350.0602438736982
 20
-303.34028607110139
 30
0.0
 11
352.42086190402409
 21
-300.97966804077549
 31
0.0
  0
LINE
  5
31E
  8
0
 62
     0
 10
355.42716333792998
 20
-297.97336660686949
 30
0.0
 11
357.81279790274652
 21
-295.58773204205312
 31
0.0
  0
LINE
  5
31F
  8
0
 62
     0
 10
351.4744574360713
 20
-303.34028607110139
 30
0.0
 11
354.11762524314162
 21
-300.69711826403102
 31
0.0
  0
LINE
  5
320
  8
0
 62
     0
 10
358.1749938795366
 20
-296.63974962763609
 30
0.0
 11
359.1755546158094
 21
-295.63918889136318
 31
0.0
  0
LINE
  5
321
  8
0
 62
     0
 10
352.88867099844441
 20
-303.34028607110139
 30
0.0
 11
355.88867099844452
 21
-300.34028607110122
 31
0.0
  0
LINE
  5
322
  8
0
 62
     0
 10
359.73951146172419
 20
-296.48944560782161
 30
0.0
 11
360.58976817818251
 21
-295.63918889136318
 31
0.0
  0
LINE
  5
323
  8
0
 62
     0
 10
354.30288456081752
 20
-303.34028607110139
 30
0.0
 11
356.87089604632172
 21
-300.77227458559707
 31
0.0
  0
LINE
  5
324
  8
0
 62
     0
 10
360.74679185642162
 20
-296.89637877549723
 30
0.0
 11
362.50398174055562
 21
-295.13918889136329
 31
0.0
  0
LINE
  5
325
  8
0
 62
     0
 10
355.71709812319062
 20
-303.34028607110139
 30
0.0
 11
357.559172887388
 21
-301.4982113069039
 31
0.0
  0
LINE
  5
326
  8
0
 62
     0
 10
361.47272857772839
 20
-297.58465561656351
 30
0.0
 11
363.31425475205668
 21
-295.74312944223527
 31
0.0
  0
LINE
  5
327
  8
0
 62
     0
 10
357.13131168556367
 20
-303.34028607110139
 30
0.0
 11
358.51943872187542
 21
-301.95215903478959
 31
0.0
  0
LINE
  5
328
  8
0
 62
     0
 10
361.92667630561408
 20
-298.54492145105093
 30
0.0
 11
363.31425475205668
 21
-297.15734300460832
 31
0.0
  0
LINE
  5
329
  8
0
 62
     0
 10
359.04552524793678
 20
-302.84028607110127
 30
0.0
 11
359.94241207869902
 21
-301.9433992403392
 31
0.0
  0
LINE
  5
32A
  8
0
 62
     0
 10
361.9179165111637
 20
-299.96789480787447
 30
0.0
 11
363.31425475205651
 21
-298.5715565669816
 31
0.0
  0
LINE
  5
32B
  8
0
 62
     0
 10
360.41199678118329
 20
-302.88802810022798
 30
0.0
 11
363.31425475205651
 21
-299.98577012935471
 31
0.0
  0
LINE
  5
32C
  8
0
 62
     0
 10
361.37395237268299
 20
-303.34028607110139
 30
0.0
 11
363.31425475205651
 21
-301.39998369172781
 31
0.0
  0
LINE
  5
32D
  8
0
 62
     0
 10
362.7881659350561
 20
-303.34028607110139
 30
0.0
 11
363.31425475205651
 21
-302.81419725410092
 31
0.0
  0
LINE
  5
32E
  8
0
 62
     0
 10
357.39925575389981
 20
-303.34028607110139
 30
0.0
 11
355.01117302917561
 21
-300.95220334637708
 31
0.0
  0
LINE
  5
32F
  8
0
 62
     0
 10
351.9745971036877
 20
-297.91562742088928
 30
0.0
 11
349.7562066631092
 21
-295.69723698031078
 31
0.0
  0
LINE
  5
330
  8
0
 62
     0
 10
355.9850421915267
 20
-303.34028607110139
 30
0.0
 11
353.29383819140912
 21
-300.6490820709837
 31
0.0
  0
LINE
  5
331
  8
0
 62
     0
 10
350.27783376457018
 20
-297.63307764414492
 30
0.0
 11
347.78394501178849
 21
-295.13918889136318
 31
0.0
  0
LINE
  5
332
  8
0
 62
     0
 10
354.5708286291536
 20
-303.34028607110139
 30
0.0
 11
351.57650335364258
 21
-300.34596079559032
 31
0.0
  0
LINE
  5
333
  8
0
 62
     0
 10
349.3697314494155
 20
-298.13918889136318
 30
0.0
 11
346.36973144941538
 21
-295.13918889136318
 31
0.0
  0
LINE
  5
334
  8
0
 62
     0
 10
353.15661506678049
 20
-303.34028607110139
 30
0.0
 11
350.89408928536801
 21
-301.07776028968891
 31
0.0
  0
LINE
  5
335
  8
0
 62
     0
 10
347.95551788704239
 20
-298.13918889136318
 30
0.0
 11
344.95551788704228
 21
-295.13918889136318
 31
0.0
  0
LINE
  5
336
  8
0
 62
     0
 10
351.74240150440738
 20
-303.34028607110139
 30
0.0
 11
348.74240150440738
 21
-300.34028607110127
 31
0.0
  0
LINE
  5
337
  8
0
 62
     0
 10
346.54130432466928
 20
-298.13918889136318
 30
0.0
 11
343.54130432466928
 21
-295.13918889136318
 31
0.0
  0
LINE
  5
338
  8
0
 62
     0
 10
350.32818794203428
 20
-303.34028607110139
 30
0.0
 11
347.32818794203422
 21
-300.34028607110127
 31
0.0
  0
LINE
  5
339
  8
0
 62
     0
 10
345.12709076229618
 20
-298.13918889136318
 30
0.0
 11
342.81425475205668
 21
-295.82635288112368
 31
0.0
  0
LINE
  5
33A
  8
0
 62
     0
 10
348.91397437966123
 20
-303.34028607110139
 30
0.0
 11
345.91397437966111
 21
-300.34028607110122
 31
0.0
  0
LINE
  5
33B
  8
0
 62
     0
 10
343.71287719992318
 20
-298.13918889136318
 30
0.0
 11
342.81425475205668
 21
-297.24056644349679
 31
0.0
  0
LINE
  5
33C
  8
0
 62
     0
 10
346.90700778467232
 20
-302.74753303848553
 30
0.0
 11
344.49976081728789
 21
-300.34028607110122
 31
0.0
  0
LINE
  5
33D
  8
0
 62
     0
 10
346.08554725491501
 20
-303.34028607110139
 30
0.0
 11
343.41036364173868
 21
-300.665102457925
 31
0.0
  0
LINE
  5
33E
  8
0
 62
     0
 10
344.67133369254191
 20
-303.34028607110139
 30
0.0
 11
342.5922589690478
 21
-301.26121134760717
 31
0.0
  0
LINE
  5
33F
  8
0
 62
     0
 10
343.25712013016891
 20
-303.34028607110139
 30
0.0
 11
341.1780454066747
 21
-301.26121134760717
 31
0.0
  0
LINE
  5
340
  8
0
 62
     0
 10
341.84290656779581
 20
-303.34028607110139
 30
0.0
 11
340.81425475205651
 21
-302.31163425536198
 31
0.0
  0
LINE
  5
341
  8
0
 62
     0
 10
358.31346931627291
 20
-302.84028607110127
 30
0.0
 11
355.81346931627269
 21
-300.3402860711011
 31
0.0
  0
LINE
  5
342
  8
0
 62
     0
 10
352.70667516299898
 20
-297.23349191782751
 30
0.0
 11
350.61237213653482
 21
-295.13918889136329
 31
0.0
  0
LINE
  5
343
  8
0
 62
     0
 10
353.61237213653499
 20
-298.1391888913634
 30
0.0
 11
353.1592780308099
 21
-297.68609478563837
 31
0.0
  0
LINE
  5
344
  8
0
 62
     0
 10
359.72768287864602
 20
-302.84028607110127
 30
0.0
 11
358.91062266805261
 21
-302.02322586050798
 31
0.0
  0
LINE
  5
345
  8
0
 62
     0
 10
354.4034385021165
 20
-297.51604169457181
 30
0.0
 11
352.02658569890792
 21
-295.13918889136329
 31
0.0
  0
LINE
  5
346
  8
0
 62
     0
 10
361.64189644101901
 20
-303.34028607110139
 30
0.0
 11
360.17233344821551
 21
-301.87072307829777
 31
0.0
  0
LINE
  5
347
  8
0
 62
     0
 10
356.44079926128097
 20
-298.13918889136329
 30
0.0
 11
353.44079926128097
 21
-295.13918889136329
 31
0.0
  0
LINE
  5
348
  8
0
 62
     0
 10
362.96018237772438
 20
-303.24435844543359
 30
0.0
 11
361.06057744762541
 21
-301.34475351533462
 31
0.0
  0
LINE
  5
349
  8
0
 62
     0
 10
357.1092387179545
 20
-297.39341478566371
 30
0.0
 11
354.85501282365408
 21
-295.13918889136329
 31
0.0
  0
LINE
  5
34A
  8
0
 62
     0
 10
363.31425475205651
 20
-302.18421725739262
 30
0.0
 11
361.68573956758951
 21
-300.55570207292561
 31
0.0
  0
LINE
  5
34B
  8
0
 62
     0
 10
357.8982901603635
 20
-296.76825266569961
 30
0.0
 11
356.26922638602719
 21
-295.13918889136329
 31
0.0
  0
LINE
  5
34C
  8
0
 62
     0
 10
363.31425475205651
 20
-300.77000369501951
 30
0.0
 11
362.00548052238958
 21
-299.46122946535257
 31
0.0
  0
LINE
  5
34D
  8
0
 62
     0
 10
358.99276276793648
 20
-296.44851171089948
 30
0.0
 11
358.18343994840018
 21
-295.63918889136318
 31
0.0
  0
LINE
  5
34E
  8
0
 62
     0
 10
363.31425475205651
 20
-299.3557901326464
 30
0.0
 11
359.59765351077328
 21
-295.63918889136318
 31
0.0
  0
LINE
  5
34F
  8
0
 62
     0
 10
363.31425475205668
 20
-297.94157657027353
 30
0.0
 11
360.88806091260147
 21
-295.51538273081832
 31
0.0
  0
LINE
  5
350
  8
0
 62
     0
 10
363.31425475205668
 20
-296.52736300790042
 30
0.0
 11
361.92608063551961
 21
-295.13918889136329
 31
0.0
  0
ENDBLK
  5
352
  8
0
  0
BLOCK
  8
0
  2
*D4
 70
     1
 10
0.0
 20
0.0
 30
0.0
  3
*D4
  1

  0
LINE
  5
3C0
  8
1
 10
-28.999999999999769
 20
-12.525899772360839
 30
0.0
 11
-28.999999999999769
 21
-24.711692475452079
 31
0.0
  0
LINE
  5
3C1
  8
1
 10
-97.999999999999773
 20
-15.030650887779069
 30
0.0
 11
-97.999999999999773
 21
-24.711692475452079
 31
0.0
  0
LINE
  5
3C2
  8
1
 10
-27.999999999999769
 20
-23.711692475452079
 30
0.0
 11
-98.999999999999773
 21
-23.711692475452079
 31
0.0
  0
INSERT
  5
3C3
  8
1
  2
_OBLIQUE
 10
-28.999999999999769
 20
-23.711692475452079
 30
0.0
 41
2.0
 42
2.0
 43
2.0
  0
INSERT
  5
3C4
  8
1
  2
_OBLIQUE
 10
-97.999999999999773
 20
-23.711692475452079
 30
0.0
 41
2.0
 42
2.0
 43
2.0
 50
180.0
  0
TEXT
  5
3C5
  8
0
 10
-66.203785811732374
 20
-22.644843907921391
 30
0.0
 40
3.5
  1
69
  7
BESCHLAG
  0
POINT
  5
3C6
  8
DEFPOINTS
 62
     0
 10
-28.999999999999769
 20
-10.525899772360839
 30
0.0
  0
POINT
  5
3C7
  8
DEFPOINTS
 62
     0
 10
-97.999999999999773
 20
-13.030650887779069
 30
0.0
  0
POINT
  5
3C8
  8
DEFPOINTS
 62
     0
 10
-97.999999999999773
 20
-23.711692475452079
 30
0.0
  0
ENDBLK
  5
38E
  8
0
  0
BLOCK
  8
0
  2
*D5
 70
     1
 10
0.0
 20
0.0
 30
0.0
  3
*D5
  1

  0
LINE
  5
3C9
  8
1
 10
-28.999999999999769
 20
6.5
 30
0.0
 11
-28.999999999999769
 21
-24.711692475452079
 31
0.0
  0
LINE
  5
3CA
  8
1
 10
-22.999999999999769
 20
13.0
 30
0.0
 11
-22.999999999999769
 21
-24.711692475452079
 31
0.0
  0
LINE
  5
3CB
  8
1
 10
-29.999999999999769
 20
-23.711692475452079
 30
0.0
 11
-21.999999999999769
 21
-23.711692475452079
 31
0.0
  0
INSERT
  5
3CC
  8
1
  2
_OBLIQUE
 10
-28.999999999999769
 20
-23.711692475452079
 30
0.0
 41
2.0
 42
2.0
 43
2.0
 50
180.0
  0
INSERT
  5
3CD
  8
1
  2
_OBLIQUE
 10
-22.999999999999769
 20
-23.711692475452079
 30
0.0
 41
2.0
 42
2.0
 43
2.0
  0
TEXT
  5
3CE
  8
0
 10
-27.339358799454072
 20
-22.644843907921391
 30
0.0
 40
3.5
  1
6
  7
BESCHLAG
  0
POINT
  5
3CF
  8
DEFPOINTS
 62
     0
 10
-28.999999999999769
 20
8.5
 30
0.0
  0
POINT
  5
3D0
  8
DEFPOINTS
 62
     0
 10
-22.999999999999769
 20
15.0
 30
0.0
  0
POINT
  5
3D1
  8
DEFPOINTS
 62
     0
 10
-22.999999999999769
 20
-23.711692475452079
 30
0.0
  0
ENDBLK
  5
39A
  8
0
  0
BLOCK
  8
0
  2
*D6
 70
     1
 10
0.0
 20
0.0
 30
0.0
  3
*D6
  1

  0
LINE
  5
3F7
  8
1
 10
-33.999999999999773
 20
25.49999999999994
 30
0.0
 11
-40.688032348196877
 21
25.49999999999994
 31
0.0
  0
LINE
  5
3F8
  8
1
 10
-34.000000000000227
 20
0.5000000000000006
 30
0.0
 11
-40.688032348196877
 21
0.5000000000000026
 31
0.0
  0
LINE
  5
3F9
  8
1
 10
-39.688032348196877
 20
26.49999999999994
 30
0.0
 11
-39.688032348196877
 21
-0.4999999999999979
 31
0.0
  0
TEXT
  5
3FA
  8
0
 10
-40.754880915727583
 20
15.845725505822861
 30
0.0
 40
3.5
  1
25
 50
90.0
  7
BESCHLAG
  0
INSERT
  5
3FB
  8
1
  2
_OBLIQUE
 10
-39.688032348196877
 20
25.49999999999994
 30
0.0
 41
2.0
 42
2.0
 43
2.0
 50
90.0
  0
INSERT
  5
3FC
  8
1
  2
_OBLIQUE
 10
-39.688032348196877
 20
0.5000000000000022
 30
0.0
 41
2.0
 42
2.0
 43
2.0
 50
270.0
  0
POINT
  5
3FD
  8
DEFPOINTS
 62
     0
 10
-31.999999999999769
 20
25.49999999999994
 30
0.0
  0
POINT
  5
3FE
  8
DEFPOINTS
 62
     0
 10
-32.00000000000022
 20
0.5
 30
0.0
  0
POINT
  5
3FF
  8
DEFPOINTS
 62
     0
 10
-39.688032348196877
 20
0.5000000000000022
 30
0.0
  0
ENDBLK
  5
3A7
  8
0
  0
BLOCK
  8
0
  2
*D7
 70
     1
 10
0.0
 20
0.0
 30
0.0
  3
*D7
  1

  0
LINE
  5
3DC
  8
1
 10
-22.999999999999769
 20
13.0
 30
0.0
 11
-22.999999999999769
 21
-24.711692475452079
 31
0.0
  0
LINE
  5
3DD
  8
1
 10
-0.0000000000000001
 20
-2.0
 30
0.0
 11
-0.0000000000000015
 21
-24.711692475452079
 31
0.0
  0
LINE
  5
3DE
  8
1
 10
-23.999999999999769
 20
-23.711692475452079
 30
0.0
 11
0.9999999999999985
 21
-23.711692475452079
 31
0.0
  0
INSERT
  5
3DF
  8
1
  2
_OBLIQUE
 10
-22.999999999999769
 20
-23.711692475452079
 30
0.0
 41
2.0
 42
2.0
 43
2.0
 50
180.0
  0
INSERT
  5
3E0
  8
1
  2
_OBLIQUE
 10
-0.0000000000000015
 20
-23.711692475452079
 30
0.0
 41
2.0
 42
2.0
 43
2.0
  0
TEXT
  5
3E1
  8
0
 10
-14.179911323328669
 20
-22.642456459081
 30
0.0
 40
3.5
  1
23
  7
BESCHLAG
  0
POINT
  5
3E2
  8
DEFPOINTS
 62
     0
 10
-22.999999999999769
 20
15.0
 30
0.0
  0
POINT
  5
3E3
  8
DEFPOINTS
 62
     0
 10
0.0
 20
0.0
 30
0.0
  0
POINT
  5
3E4
  8
DEFPOINTS
 62
     0
 10
-0.0000000000000015
 20
-23.711692475452079
 30
0.0
  0
ENDBLK
  5
3B3
  8
0
  0
BLOCK
  8
0
  2
*D8
 70
     1
 10
0.0
 20
0.0
 30
0.0
  3
*D8
  1

  0
LINE
  5
3E5
  8
1
 10
2.0
 20
-0.0000000000000006
 30
0.0
 11
11.6099191423309
 21
-0.0000000000000033
 31
0.0
  0
LINE
  5
3E6
  8
1
 10
1.5500000000001819
 20
8.5376912047838687
 30
0.0
 11
11.6099191423309
 21
8.5376912047838651
 31
0.0
  0
LINE
  5
3E7
  8
1
 10
10.6099191423309
 20
-1.0000000000000031
 30
0.0
 11
10.609919142330909
 21
9.5376912047838651
 31
0.0
  0
INSERT
  5
3E8
  8
1
  2
_OBLIQUE
 10
10.6099191423309
 20
-0.000000000000003
 30
0.0
 41
2.0
 42
2.0
 43
2.0
 50
270.0
  0
INSERT
  5
3E9
  8
1
  2
_OBLIQUE
 10
10.609919142330909
 20
8.5376912047838651
 30
0.0
 41
2.0
 42
2.0
 43
2.0
 50
90.0
  0
TEXT
  5
3EA
  8
0
 10
9.5430705748002111
 20
0.8691184536879772
 30
0.0
 40
3.5
  1
8.5
 50
90.0
  7
BESCHLAG
  0
POINT
  5
3EB
  8
DEFPOINTS
 62
     0
 10
0.0
 20
0.0
 30
0.0
  0
POINT
  5
3EC
  8
DEFPOINTS
 62
     0
 10
-0.4499999999998181
 20
8.5376912047838687
 30
0.0
  0
POINT
  5
3ED
  8
DEFPOINTS
 62
     0
 10
10.609919142330909
 20
8.5376912047838651
 30
0.0
  0
ENDBLK
  5
3BF
  8
0
  0
ENDSEC
  0
SECTION
  2
ENTITIES
  0
INSERT
  5
25B
  8
5
  2
NULLPUNKT
 10
0.0
 20
0.0
 30
0.0
  0
DIMENSION
  5
36E
  8
1
  2
*D4
 10
-97.999999999999773
 20
-23.711692475452079
 30
0.0
 11
-63.499999999999773
 21
-20.924687018426159
 31
0.0
 70
     0
 13
-28.999999999999769
 23
-10.525899772360839
 33
0.0
 14
-97.999999999999773
 24
-13.030650887779069
 34
0.0
  0
INSERT
  5
36F
  8
2
  2
*X2
 10
-463.31425475205651
 20
303.6768800961471
 30
0.0
1001
ACAD
1000
HATCH
1002
{
1070
    16
1000
_U,I
1040
1.1999999999999991
1040
0.7853981633974483
1070
     0
1002
}
  0
POLYLINE
  5
370
  8
5
 66
     1
 10
0.0
 20
0.0
 30
0.0
  0
VERTEX
  5
4C3
  8
5
 10
-53.0
 20
-11.96316912996212
 30
0.0
  0
VERTEX
  5
4C4
  8
5
 10
-53.0
 20
0.0
 30
0.0
  0
VERTEX
  5
4C5
  8
5
 10
-101.30023293923681
 20
-5.1802378698973817
 30
0.0
  0
SEQEND
  5
4C6
  8
5
  0
POLYLINE
  5
371
  8
6
 66
     1
 10
0.0
 20
0.0
 30
0.0
  0
VERTEX
  5
4C7
  8
6
 10
-31.078460969082471
 20
19.799999999999951
 30
0.0
  0
VERTEX
  5
4C8
  8
6
 10
-31.078460969082471
 20
14.779198975154941
 30
0.0
  0
VERTEX
  5
4C9
  8
6
 10
-37.371177420138793
 20
14.00655054882554
 30
0.0
  0
VERTEX
  5
4CA
  8
6
 10
-38.4855929151854
 20
14.87722735706188
 30
0.0
  0
VERTEX
  5
4CB
  8
6
 10
-39.356269723421519
 20
13.76281186201526
 30
0.0
  0
VERTEX
  5
4CC
  8
6
 10
-40.470685218468127
 20
14.6334886702516
 30
0.0
  0
VERTEX
  5
4CD
  8
6
 10
-41.341362026704253
 20
13.519073175204991
 30
0.0
  0
VERTEX
  5
4CE
  8
6
 10
-42.455777521750861
 20
14.389749983441099
 30
0.0
  0
VERTEX
  5
4CF
  8
6
 10
-43.326454329986973
 20
13.275334488394719
 30
0.0
  0
VERTEX
  5
4D0
  8
6
 10
-44.44086982503336
 20
14.14601129663083
 30
0.0
  0
VERTEX
  5
4D1
  8
6
 10
-45.3115466332697
 20
13.031595801584441
 30
0.0
  0
VERTEX
  5
4D2
  8
6
 10
-46.425962128315859
 20
13.90227260982055
 30
0.0
  0
VERTEX
  5
4D3
  8
6
 10
-47.296638936552199
 20
12.78785711477417
 30
0.0
  0
VERTEX
  5
4D4
  8
6
 10
-48.411054431598579
 20
13.65853392301028
 30
0.0
  0
VERTEX
  5
4D5
  8
6
 10
-49.281731239834691
 20
12.54411842796366
 30
0.0
  0
VERTEX
  5
4D6
  8
6
 10
-50.396146734881313
 20
13.4147952362
 30
0.0
  0
VERTEX
  5
4D7
  8
6
 10
-51.266823543117432
 20
12.300379741153391
 30
0.0
  0
VERTEX
  5
4D8
  8
6
 10
-52.38123903816404
 20
13.17105654938973
 30
0.0
  0
VERTEX
  5
4D9
  8
6
 10
-53.251915846400152
 20
12.05664105434311
 30
0.0
  0
VERTEX
  5
4DA
  8
6
 10
-54.366331341446767
 20
12.92731786257945
 30
0.0
  0
VERTEX
  5
4DB
  8
6
 10
-55.237008149682879
 20
11.812902367532841
 30
0.0
  0
VERTEX
  5
4DC
  8
6
 10
-56.351423644729259
 20
12.68357917576918
 30
0.0
  0
VERTEX
  5
4DD
  8
6
 10
-57.222100452965599
 20
11.569163680722561
 30
0.0
  0
VERTEX
  5
4DE
  8
6
 10
-58.336515948011993
 20
12.439840488958669
 30
0.0
  0
VERTEX
  5
4DF
  8
6
 10
-59.207192756248112
 20
11.325424993912289
 30
0.0
  0
VERTEX
  5
4E0
  8
6
 10
-60.321608251294492
 20
12.1961018021484
 30
0.0
  0
VERTEX
  5
4E1
  8
6
 10
-61.192285059530832
 20
11.081686307102011
 30
0.0
  0
VERTEX
  5
4E2
  8
6
 10
-62.306700554577212
 20
11.95236311533813
 30
0.0
  0
VERTEX
  5
4E3
  8
6
 10
-63.177377362813331
 20
10.83794762029174
 30
0.0
  0
VERTEX
  5
4E4
  8
6
 10
-64.291792857859946
 20
11.70862442852785
 30
0.0
  0
VERTEX
  5
4E5
  8
6
 10
-65.162469666096058
 20
10.594208933481459
 30
0.0
  0
VERTEX
  5
4E6
  8
6
 10
-66.276885161142673
 20
11.46488574171758
 30
0.0
  0
VERTEX
  5
4E7
  8
6
 10
-67.147561969378785
 20
10.350470246670961
 30
0.0
  0
VERTEX
  5
4E8
  8
6
 10
-68.261977464425172
 20
11.2211470549073
 30
0.0
  0
VERTEX
  5
4E9
  8
6
 10
-69.132654272661512
 20
10.106731559860689
 30
0.0
  0
VERTEX
  5
4EA
  8
6
 10
-70.247069767707899
 20
10.977408368097031
 30
0.0
  0
VERTEX
  5
4EB
  8
6
 10
-71.117746575944011
 20
9.8629928730504162
 30
0.0
  0
VERTEX
  5
4EC
  8
6
 10
-72.232162070990384
 20
10.73366968128675
 30
0.0
  0
VERTEX
  5
4ED
  8
6
 10
-73.102838879226738
 20
9.6192541862401413
 30
0.0
  0
VERTEX
  5
4EE
  8
6
 10
-74.217254374273125
 20
10.489930994476479
 30
0.0
  0
VERTEX
  5
4EF
  8
6
 10
-75.087931182509237
 20
9.3755154994298664
 30
0.0
  0
VERTEX
  5
4F0
  8
6
 10
-76.202346677555852
 20
10.246192307666201
 30
0.0
  0
VERTEX
  5
4F1
  8
6
 10
-77.073023485791964
 20
9.1317768126195915
 30
0.0
  0
VERTEX
  5
4F2
  8
6
 10
-78.187438980838579
 20
10.002453620855929
 30
0.0
  0
VERTEX
  5
4F3
  8
6
 10
-79.058115789074691
 20
8.8880381258093166
 30
0.0
  0
VERTEX
  5
4F4
  8
6
 10
-80.172531284121064
 20
9.7587149340454271
 30
0.0
  0
VERTEX
  5
4F5
  8
6
 10
-81.043208092357418
 20
8.6442994389990417
 30
0.0
  0
VERTEX
  5
4F6
  8
6
 10
-82.157623587403805
 20
9.514976247235154
 30
0.0
  0
VERTEX
  5
4F7
  8
6
 10
-83.028300395639917
 20
8.4005607521887669
 30
0.0
  0
VERTEX
  5
4F8
  8
6
 10
-84.142715890686304
 20
9.2712375604248791
 30
0.0
  0
VERTEX
  5
4F9
  8
6
 10
-85.013392698922416
 20
8.1568220653784902
 30
0.0
  0
VERTEX
  5
4FA
  8
6
 10
-86.127808193969031
 20
9.0274988736146042
 30
0.0
  0
VERTEX
  5
4FB
  8
6
 10
-86.998485002205143
 20
7.9130833785682171
 30
0.0
  0
VERTEX
  5
4FC
  8
6
 10
-88.112900497251758
 20
8.7837601868043294
 30
0.0
  0
VERTEX
  5
4FD
  8
6
 10
-88.983577305487856
 20
7.6693446917577139
 30
0.0
  0
VERTEX
  5
4FE
  8
6
 10
-90.097992800534485
 20
8.5400214999940545
 30
0.0
  0
VERTEX
  5
4FF
  8
6
 10
-90.968669608770597
 20
7.4256060049474391
 30
0.0
  0
VERTEX
  5
500
  8
6
 10
-92.083085103816984
 20
8.2962828131837796
 30
0.0
  0
VERTEX
  5
501
  8
6
 10
-92.953761912053324
 20
7.1818673181371651
 30
0.0
  0
VERTEX
  5
502
  8
6
 10
-94.068177407099711
 20
8.0525441263735047
 30
0.0
  0
VERTEX
  5
503
  8
6
 10
-97.016253506140401
 20
5.8871233094730542
 30
0.0
  0
VERTEX
  5
504
  8
6
 10
-95.954771525081469
 20
-2.7579536713228658
 30
0.0
 42
0.4142135623730971
  0
VERTEX
  5
505
  8
6
 10
-95.620446876567485
 20
-3.01915671379379
 30
0.0
  0
VERTEX
  5
506
  8
6
 10
-94.727155340090349
 20
-2.9094743047292009
 30
0.0
 42
0.4142135623730956
  0
VERTEX
  5
507
  8
6
 10
-94.465952297619424
 20
-2.5751496562152161
 30
0.0
  0
VERTEX
  5
508
  8
6
 10
-95.367785438817464
 20
4.7696918659305529
 30
0.0
 42
-0.4142135623730951
  0
VERTEX
  5
509
  8
6
 10
-95.106582396346766
 20
5.1040165144445382
 30
0.0
  0
VERTEX
  5
50A
  8
6
 10
-50.636560803021439
 20
10.56424858912373
 30
0.0
 42
-0.4504671536907993
  0
VERTEX
  5
50B
  8
6
 10
-50.29999999999972
 20
10.266484743631279
 30
0.0
  0
VERTEX
  5
50C
  8
6
 10
-50.29999999999972
 20
0.5
 30
0.0
  0
VERTEX
  5
50D
  8
6
 10
-49.79999999999972
 20
0.0
 30
0.0
  0
VERTEX
  5
50E
  8
6
 10
-49.299999999999727
 20
0.5
 30
0.0
  0
VERTEX
  5
50F
  8
6
 10
-48.799999999999727
 20
0.0
 30
0.0
  0
VERTEX
  5
510
  8
6
 10
-48.299999999999727
 20
0.5
 30
0.0
  0
VERTEX
  5
511
  8
6
 10
-47.79999999999972
 20
0.0
 30
0.0
  0
VERTEX
  5
512
  8
6
 10
-47.29999999999972
 20
0.5
 30
0.0
  0
VERTEX
  5
513
  8
6
 10
-46.799999999999727
 20
0.0
 30
0.0
  0
VERTEX
  5
514
  8
6
 10
-46.299999999999727
 20
0.5
 30
0.0
  0
VERTEX
  5
515
  8
6
 10
-45.79999999999972
 20
0.0
 30
0.0
  0
VERTEX
  5
516
  8
6
 10
-45.29999999999972
 20
0.5
 30
0.0
  0
VERTEX
  5
517
  8
6
 10
-44.79999999999972
 20
0.0
 30
0.0
  0
VERTEX
  5
518
  8
6
 10
-44.299999999999727
 20
0.5
 30
0.0
  0
VERTEX
  5
519
  8
6
 10
-43.799999999999727
 20
0.0
 30
0.0
  0
VERTEX
  5
51A
  8
6
 10
-43.29999999999972
 20
0.5
 30
0.0
  0
VERTEX
  5
51B
  8
6
 10
-42.79999999999972
 20
0.0
 30
0.0
  0
VERTEX
  5
51C
  8
6
 10
-42.29999999999972
 20
0.5
 30
0.0
  0
VERTEX
  5
51D
  8
6
 10
-42.29999999999972
 20
1.1999999999998181
 30
0.0
 42
0.4142135623730951
  0
VERTEX
  5
51E
  8
6
 10
-42.599999999999902
 20
1.5
 30
0.0
  0
VERTEX
  5
51F
  8
6
 10
-48.5
 20
1.5
 30
0.0
 42
-0.4142135623730956
  0
VERTEX
  5
520
  8
6
 10
-48.799999999999727
 20
1.7999999999999541
 30
0.0
  0
VERTEX
  5
521
  8
6
 10
-48.799999999999727
 20
10.52433232152748
 30
0.0
 42
-0.3788661086953132
  0
VERTEX
  5
522
  8
6
 10
-48.53656080302153
 20
10.8220961670197
 30
0.0
  0
VERTEX
  5
523
  8
6
 10
-38.636560803021439
 20
12.03766331995871
 30
0.0
 42
-0.4504671536908001
  0
VERTEX
  5
524
  8
6
 10
-38.299999999999727
 20
11.739899474466251
 30
0.0
  0
VERTEX
  5
525
  8
6
 10
-38.299999999999727
 20
6.3999999999998627
 30
0.0
 42
0.4142135623730959
  0
VERTEX
  5
526
  8
6
 10
-38.0
 20
6.0999999999999091
 30
0.0
  0
VERTEX
  5
527
  8
6
 10
-31.099999999999898
 20
6.0999999999999091
 30
0.0
 42
-0.414213562373096
  0
VERTEX
  5
528
  8
6
 10
-30.79999999999972
 20
5.7999999999999536
 30
0.0
  0
VERTEX
  5
529
  8
6
 10
-30.79999999999972
 20
0.349999999999909
 30
0.0
  0
VERTEX
  5
52A
  8
6
 10
-30.449999999999822
 20
0.0
 30
0.0
  0
VERTEX
  5
52B
  8
6
 10
-29.949999999999811
 20
0.5
 30
0.0
  0
VERTEX
  5
52C
  8
6
 10
-29.449999999999822
 20
0.0
 30
0.0
  0
VERTEX
  5
52D
  8
6
 10
-28.949999999999811
 20
0.5
 30
0.0
  0
VERTEX
  5
52E
  8
6
 10
-28.449999999999811
 20
0.0
 30
0.0
  0
VERTEX
  5
52F
  8
6
 10
-27.949999999999822
 20
0.5
 30
0.0
  0
VERTEX
  5
530
  8
6
 10
-27.449999999999811
 20
0.0
 30
0.0
  0
VERTEX
  5
531
  8
6
 10
-26.949999999999822
 20
0.5
 30
0.0
  0
VERTEX
  5
532
  8
6
 10
-26.449999999999811
 20
0.0
 30
0.0
  0
VERTEX
  5
533
  8
6
 10
-25.949999999999811
 20
0.5
 30
0.0
  0
VERTEX
  5
534
  8
6
 10
-25.449999999999822
 20
0.0
 30
0.0
  0
VERTEX
  5
535
  8
6
 10
-24.949999999999811
 20
0.5
 30
0.0
  0
VERTEX
  5
536
  8
6
 10
-24.449999999999822
 20
0.0
 30
0.0
  0
VERTEX
  5
537
  8
6
 10
-23.949999999999811
 20
0.5
 30
0.0
  0
VERTEX
  5
538
  8
6
 10
-23.449999999999811
 20
0.0
 30
0.0
  0
VERTEX
  5
539
  8
6
 10
-23.099999999999909
 20
0.349999999999909
 30
0.0
  0
VERTEX
  5
53A
  8
6
 10
-23.099999999999909
 20
3.2259349309085792
 30
0.0
 42
-0.4244748162096039
  0
VERTEX
  5
53B
  8
6
 10
-22.789530150989091
 20
3.5257521790144888
 30
0.0
  0
VERTEX
  5
53C
  8
6
 10
-9.6920462795746971
 20
3.5073274421674792
 30
0.0
 42
-0.1990523613993445
  0
VERTEX
  5
53D
  8
6
 10
-9.4829998426498605
 20
3.4119914895607049
 30
0.0
  0
VERTEX
  5
53E
  8
6
 10
-8.9311125154467845
 20
2.8195252885473101
 30
0.0
 42
0.414371337763161
  0
VERTEX
  5
53F
  8
6
 10
-8.5069967214922144
 20
2.8046004735606398
 30
0.0
  0
VERTEX
  5
540
  8
6
 10
-7.1119363979159971
 20
4.1055152713674943
 30
0.0
 42
0.4142135623730888
  0
VERTEX
  5
541
  8
6
 10
-7.0971297954490629
 20
4.5295208898719457
 30
0.0
  0
VERTEX
  5
542
  8
6
 10
-8.3966420510655553
 20
5.9230771710888339
 30
0.0
 42
0.4140983237049574
  0
VERTEX
  5
543
  8
6
 10
-8.8205613250102033
 20
5.9379642594083171
 30
0.0
  0
VERTEX
  5
544
  8
6
 10
-9.4124039212192656
 20
5.3864973195597941
 30
0.0
 42
-0.1988101110404441
  0
VERTEX
  5
545
  8
6
 10
-9.6273869336887401
 20
5.3061666677922403
 30
0.0
  0
VERTEX
  5
546
  8
6
 10
-22.81046984901058
 20
5.327580589120088
 30
0.0
 42
-0.4040262258351575
  0
VERTEX
  5
547
  8
6
 10
-23.099999999999909
 20
5.6273978372257707
 30
0.0
  0
VERTEX
  5
548
  8
6
 10
-23.099999999999909
 20
6.1999999999998181
 30
0.0
 42
-0.4142135623730855
  0
VERTEX
  5
549
  8
6
 10
-22.79999999999972
 20
6.5
 30
0.0
  0
VERTEX
  5
54A
  8
6
 10
-21.39999999999986
 20
6.5
 30
0.0
 42
0.4142135623730951
  0
VERTEX
  5
54B
  8
6
 10
-21.099999999999898
 20
6.7999999999999536
 30
0.0
  0
VERTEX
  5
54C
  8
6
 10
-21.099999999999898
 20
8.1999999999998181
 30
0.0
 42
0.4142135623730951
  0
VERTEX
  5
54D
  8
6
 10
-21.39999999999986
 20
8.5
 30
0.0
  0
VERTEX
  5
54E
  8
6
 10
-24.599999999999909
 20
8.5
 30
0.0
 42
0.4142135623730951
  0
VERTEX
  5
54F
  8
6
 10
-24.89999999999986
 20
8.1999999999998181
 30
0.0
  0
VERTEX
  5
550
  8
6
 10
-24.89999999999986
 20
1.7999999999999541
 30
0.0
 42
-0.4142135623730951
  0
VERTEX
  5
551
  8
6
 10
-25.199999999999811
 20
1.5
 30
0.0
  0
VERTEX
  5
552
  8
6
 10
-28.699999999999811
 20
1.5
 30
0.0
 42
-0.4142135623730971
  0
VERTEX
  5
553
  8
6
 10
-28.999999999999769
 20
1.7999999999999541
 30
0.0
  0
VERTEX
  5
554
  8
6
 10
-28.999999999999769
 20
6.7999999999999536
 30
0.0
  0
VERTEX
  5
555
  8
6
 10
-29.619999999999891
 20
8.5
 30
0.0
  0
VERTEX
  5
556
  8
6
 10
-29.999999999999769
 20
8.5
 30
0.0
  0
VERTEX
  5
557
  8
6
 10
-29.999999999999769
 20
8.2000000000000455
 30
0.0
  0
VERTEX
  5
558
  8
6
 10
-36.199999999999811
 20
8.2000000000000455
 30
0.0
 42
-0.4142135623730951
  0
VERTEX
  5
559
  8
6
 10
-36.499999999999773
 20
8.5
 30
0.0
  0
VERTEX
  5
55A
  8
6
 10
-36.499999999999773
 20
12.0
 30
0.0
 42
-0.414213562373096
  0
VERTEX
  5
55B
  8
6
 10
-36.199999999999811
 20
12.299999999999949
 30
0.0
  0
VERTEX
  5
55C
  8
6
 10
-29.849999999999898
 20
12.299999999999949
 30
0.0
 42
0.4142135623730951
  0
VERTEX
  5
55D
  8
6
 10
-28.999999999999769
 20
13.14999999999986
 30
0.0
  0
VERTEX
  5
55E
  8
6
 10
-28.999999999999769
 20
19.799999999999951
 30
0.0
  0
VERTEX
  5
55F
  8
6
 10
-30.199999999999811
 20
21.878460969082589
 30
0.0
  0
VERTEX
  5
560
  8
6
 10
-30.199999999999811
 20
22.49999999999994
 30
0.0
 42
-0.4142135623730951
  0
VERTEX
  5
561
  8
6
 10
-29.199999999999822
 20
23.49999999999994
 30
0.0
  0
VERTEX
  5
562
  8
6
 10
-25.849999999999909
 20
23.49999999999994
 30
0.0
 42
0.414213562373093
  0
VERTEX
  5
563
  8
6
 10
-24.999999999999769
 20
24.349999999999849
 30
0.0
  0
VERTEX
  5
564
  8
6
 10
-24.999999999999769
 20
25.07999999999987
 30
0.0
  0
VERTEX
  5
565
  8
6
 10
-25.419999999999838
 20
25.49999999999994
 30
0.0
  0
VERTEX
  5
566
  8
6
 10
-26.57999999999992
 20
25.49999999999994
 30
0.0
  0
VERTEX
  5
567
  8
6
 10
-26.999999999999769
 20
25.07999999999987
 30
0.0
  0
VERTEX
  5
568
  8
6
 10
-27.419999999999611
 20
25.49999999999994
 30
0.0
  0
VERTEX
  5
569
  8
6
 10
-28.07999999999992
 20
25.49999999999994
 30
0.0
  0
VERTEX
  5
56A
  8
6
 10
-28.499999999999769
 20
25.07999999999987
 30
0.0
  0
VERTEX
  5
56B
  8
6
 10
-28.919999999999622
 20
25.49999999999994
 30
0.0
  0
VERTEX
  5
56C
  8
6
 10
-31.179999999999829
 20
25.49999999999994
 30
0.0
  0
VERTEX
  5
56D
  8
6
 10
-31.999999999999769
 20
24.679999999999779
 30
0.0
  0
VERTEX
  5
56E
  8
6
 10
-31.999999999999769
 20
21.3961524227065
 30
0.0
  0
VERTEX
  5
56F
  8
6
 10
-30.999999999999769
 20
19.664101615137721
 30
0.0
  0
SEQEND
  5
570
  8
6
  0
POLYLINE
  5
372
  8
4
 66
     1
 10
0.0
 20
0.0
 30
0.0
  0
VERTEX
  5
571
  8
4
 10
-94.429391494597894
 20
-2.8729135017074441
 30
0.0
  0
VERTEX
  5
572
  8
4
 10
-95.918210722059925
 20
-3.0557175168153199
 30
0.0
  0
VERTEX
  5
573
  8
4
 10
-97.016253506140401
 20
5.8871233094730542
 30
0.0
  0
VERTEX
  5
574
  8
4
 10
-94.068177407099711
 20
8.0525441263735047
 30
0.0
  0
VERTEX
  5
575
  8
4
 10
-31.999999999999769
 20
15.789074948209411
 30
0.0
  0
VERTEX
  5
576
  8
4
 10
-31.999999999999769
 20
25.49999999999994
 30
0.0
  0
VERTEX
  5
577
  8
4
 10
-24.999999999999769
 20
25.49999999999994
 30
0.0
  0
VERTEX
  5
578
  8
4
 10
-24.999999999999769
 20
23.49999999999994
 30
0.0
  0
VERTEX
  5
579
  8
4
 10
-28.999999999999769
 20
23.49999999999994
 30
0.0
  0
VERTEX
  5
57A
  8
4
 10
-28.999999999999769
 20
8.5
 30
0.0
  0
VERTEX
  5
57B
  8
4
 10
-21.099999999999898
 20
8.5
 30
0.0
  0
VERTEX
  5
57C
  8
4
 10
-21.099999999999898
 20
6.0184776630701426
 30
0.0
  0
VERTEX
  5
57D
  8
4
 10
-6.9284840231409808
 20
6.0184776630701426
 30
0.0
  0
VERTEX
  5
57E
  8
4
 10
-6.9284840231409808
 20
2.7240065840462639
 30
0.0
  0
VERTEX
  5
57F
  8
4
 10
-23.099999999999909
 20
2.7240065840462639
 30
0.0
  0
VERTEX
  5
580
  8
4
 10
-23.099999999999909
 20
0.0
 30
0.0
  0
VERTEX
  5
581
  8
4
 10
-50.29999999999972
 20
0.0
 30
0.0
  0
VERTEX
  5
582
  8
4
 10
-50.29999999999972
 20
1.5
 30
0.0
  0
SEQEND
  5
583
  8
4
  0
POLYLINE
  5
373
  8
6
 66
     1
 10
0.0
 20
0.0
 30
0.0
 70
     1
  0
VERTEX
  5
584
  8
6
 10
-26.435915344747851
 20
7.3868442657271771
 30
0.0
 42
-0.0975808667201897
  0
VERTEX
  5
585
  8
6
 10
-25.08355020983981
 20
8.5086029345877705
 30
0.0
  0
VERTEX
  5
586
  8
6
 10
-23.61357842055099
 20
8.5
 30
0.0
  0
VERTEX
  5
587
  8
6
 10
-22.35819538367241
 20
8.5
 30
0.0
 42
0.3030260886157909
  0
VERTEX
  5
588
  8
6
 10
-22.800507705512921
 20
9.3306932325453982
 30
0.0
 42
-0.0387458456970907
  0
VERTEX
  5
589
  8
6
 10
-25.03961150826558
 20
9.956658230967605
 30
0.0
 42
-0.1516780574434434
  0
VERTEX
  5
58A
  8
6
 10
-26.061800240975568
 20
11.694516277256749
 30
0.0
 42
0.1394371260738143
  0
VERTEX
  5
58B
  8
6
 10
-27.379810549632111
 20
19.939708739092112
 30
0.0
 42
-0.781909699958905
  0
VERTEX
  5
58C
  8
6
 10
-25.044036924932922
 20
21.47251832520163
 30
0.0
 42
-0.1775383549415584
  0
VERTEX
  5
58D
  8
6
 10
-24.076996898066682
 20
19.761128985248881
 30
0.0
  0
VERTEX
  5
58E
  8
6
 10
-24.1256029499541
 20
13.12870702561167
 30
0.0
 42
-0.1370172271530425
  0
VERTEX
  5
58F
  8
6
 10
-24.63070002793938
 20
12.17148941463347
 30
0.0
 42
0.2932905843771996
  0
VERTEX
  5
590
  8
6
 10
-24.586067425170761
 20
11.68039509156551
 30
0.0
  0
VERTEX
  5
591
  8
6
 10
-23.66366000107336
 20
10.638679828523889
 30
0.0
 42
0.2204049175401562
  0
VERTEX
  5
592
  8
6
 10
-23.513458575702309
 20
10.573005397367069
 30
0.0
  0
VERTEX
  5
593
  8
6
 10
-23.162323332091319
 20
10.573005397367069
 30
0.0
 42
0.3908827348577391
  0
VERTEX
  5
594
  8
6
 10
-22.999999999999769
 20
10.71746023872719
 30
0.0
  0
VERTEX
  5
595
  8
6
 10
-22.999999999999769
 20
20.196481491831491
 30
0.0
 42
0.4072424960060579
  0
VERTEX
  5
596
  8
6
 10
-25.78141696886405
 20
23.415899481705701
 30
0.0
 42
0.2941846850700244
  0
VERTEX
  5
597
  8
6
 10
-28.999999999999769
 20
21.317537871465841
 30
0.0
  0
VERTEX
  5
598
  8
6
 10
-28.999999999999769
 20
2.206744594514475
 30
0.0
 42
0.5282780345420202
  0
VERTEX
  5
599
  8
6
 10
-27.993666354988811
 20
1.522753599496695
 30
0.0
 42
0.1197237422775389
  0
VERTEX
  5
59A
  8
6
 10
-27.073469654449578
 20
1.5498129827049061
 30
0.0
 42
0.3760451047558904
  0
VERTEX
  5
59B
  8
6
 10
-25.06959317348332
 20
2.802324130707802
 30
0.0
 42
0.1664180345968526
  0
VERTEX
  5
59C
  8
6
 10
-25.019481040584651
 20
3.5141131757163739
 30
0.0
 42
0.5413849556030098
  0
VERTEX
  5
59D
  8
6
 10
-25.530624989726221
 20
3.539176174514068
 30
0.0
 42
-0.0052316930712576
  0
VERTEX
  5
59E
  8
6
 10
-26.006690423065258
 20
3.0078406604256989
 30
0.0
 42
-0.054152680530166
  0
VERTEX
  5
59F
  8
6
 10
-26.547901663332588
 20
2.426379224270931
 30
0.0
 42
-0.9349225624350127
  0
VERTEX
  5
5A0
  8
6
 10
-26.753361476537972
 20
2.5917949861245679
 30
0.0
  0
VERTEX
  5
5A1
  8
6
 10
-26.653137210740621
 20
4.0955746118711431
 30
0.0
 42
-0.2594323004936584
  0
VERTEX
  5
5A2
  8
6
 10
-26.512823147530071
 20
4.3161289861850491
 30
0.0
 42
0.2179033253512271
  0
VERTEX
  5
5A3
  8
6
 10
-25.024492208327501
 20
5.639455081010964
 30
0.0
 42
0.1112925639295422
  0
VERTEX
  5
5A4
  8
6
 10
-25.014469815908111
 20
6.3763070492882434
 30
0.0
 42
0.5856445095830515
  0
VERTEX
  5
5A5
  8
6
 10
-25.560692280852429
 20
6.3913448938842521
 30
0.0
 42
0.0198357983581517
  0
VERTEX
  5
5A6
  8
6
 10
-25.924711426344398
 20
6.0228427390270554
 30
0.0
 42
-0.1280421017227575
  0
VERTEX
  5
5A7
  8
6
 10
-26.577968954458811
 20
5.5091274721571599
 30
0.0
 42
-0.5229847949340832
  0
VERTEX
  5
5A8
  8
6
 10
-26.873630697975841
 20
5.649480235212649
 30
0.0
 42
-0.0222969752795857
  0
VERTEX
  5
5A9
  8
6
 10
-26.94680892860287
 20
6.5254923670352118
 30
0.0
 42
-0.1163185948326834
  0
SEQEND
  5
5AA
  8
6
  0
DIMENSION
  5
374
  8
1
  2
*D5
 10
-22.999999999999769
 20
-23.711692475452079
 30
0.0
 11
-25.999999999999769
 21
-20.924687018426159
 31
0.0
 70
     0
 13
-28.999999999999769
 23
8.5
 33
0.0
 14
-22.999999999999769
 24
15.0
 34
0.0
  0
POLYLINE
  5
375
  8
5
 66
     1
 10
0.0
 20
0.0
 30
0.0
  0
VERTEX
  5
5AB
  8
5
 10
0.0
 20
-11.98615426501919
 30
0.0
  0
VERTEX
  5
5AC
  8
5
 10
0.0
 20
0.0
 30
0.0
  0
VERTEX
  5
5AD
  8
5
 10
-48.0
 20
0.0
 30
0.0
  0
VERTEX
  5
5AE
  8
5
 10
-48.0
 20
-11.98615426501919
 30
0.0
  0
SEQEND
  5
5AF
  8
5
  0
TEXT
  5
376
  8
1
 10
-82.134572318104347
 20
14.70923183598506
 30
0.0
 40
2.5
  1
Hebgo 162/633
  0
DIMENSION
  5
377
  8
1
  2
*D6
 10
-39.688032348196877
 20
0.5000000000000022
 30
0.0
 11
-42.475037805222797
 21
18.53876779777374
 31
0.0
 70
   128
 13
-31.999999999999769
 23
25.49999999999994
 33
0.0
 14
-32.00000000000022
 24
0.5
 34
0.0
 50
90.0
  0
POINT
  5
378
  8
5
 10
-28.999999999999769
 20
8.5
 30
0.0
  0
POINT
  5
379
  8
5
 10
-28.999999999999769
 20
8.5
 30
0.0
  0
DIMENSION
  5
37A
  8
1
  2
*D7
 10
-0.0000000000000015
 20
-23.711692475452079
 30
0.0
 11
-11.499999999999879
 21
-20.923493294005969
 31
0.0
 70
     0
 13
-22.999999999999769
 23
15.0
 33
0.0
 14
0.0
 24
0.0
 34
0.0
  0
LINE
  5
37B
  8
6
  6
STRICHPUNKT
 10
-13.999999999999771
 20
9.3001413397664692
 30
0.0
 11
-13.999999999999771
 21
-15.3399529210485
 31
0.0
  0
TEXT
  5
37C
  8
1
 10
-19.050219139716319
 20
-27.448203701567301
 30
0.0
 40
1.5
  1
VAR. 25, 27
  0
DIMENSION
  5
37D
  8
1
  2
*D8
 10
10.609919142330909
 20
8.5376912047838651
 30
0.0
 11
7.8229136853049859
 21
4.2688456023919326
 31
0.0
 70
     0
 13
0.0
 23
0.0
 33
0.0
 14
-0.4499999999998181
 24
8.5376912047838687
 34
0.0
 50
90.0
  0
POLYLINE
  5
37E
  8
5
 66
     1
 10
0.0
 20
0.0
 30
0.0
  0
VERTEX
  5
5B0
  8
5
 10
-22.999999999999769
 20
33.891008707262188
 30
0.0
  0
VERTEX
  5
5B1
  8
5
 10
-22.999999999999769
 20
15.0
 30
0.0
  0
VERTEX
  5
5B2
  8
5
 10
1.0
 20
15.0
 30
0.0
  0
VERTEX
  5
5B3
  8
5
 10
1.0
 20
-3.0
 30
0.0
  0
VERTEX
  5
5B4
  8
5
 10
4.9481751402765886
 20
-3.0
 30
0.0
  0
SEQEND
  5
5B5
  8
5
  0
INSERT
  5
37F
  8
2
  2
*X3
 10
-363.31425475205651
 20
303.6768800961471
 30
0.0
1001
ACAD
1000
HATCH
1002
{
1070
    16
1000
_U,I
1040
1.0
1040
0.7853981633974483
1070
     1
1002
}
  0
POLYLINE
  5
380
  8
6
 66
     1
 10
0.0
 20
0.0
 30
0.0
  0
VERTEX
  5
5B6
  8
6
 10
0.0000000000002274
 20
5.3882397946526899
 30
0.0
  0
VERTEX
  5
5B7
  8
6
 10
0.0000000000002274
 20
8.0876912047838232
 30
0.0
  0
VERTEX
  5
5B8
  8
6
 10
-0.4499999999998181
 20
8.5376912047838687
 30
0.0
  0
VERTEX
  5
5B9
  8
6
 10
-2.0499999999999541
 20
8.5376912047838687
 30
0.0
  0
VERTEX
  5
5BA
  8
6
 10
-2.4999999999997722
 20
8.0876912047838232
 30
0.0
  0
VERTEX
  5
5BB
  8
6
 10
-2.4999999999997722
 20
8.0376912047838687
 30
0.0
  0
VERTEX
  5
5BC
  8
6
 10
-5.4999999999997717
 20
8.0376912047838687
 30
0.0
  0
VERTEX
  5
5BD
  8
6
 10
-5.4999999999997717
 20
8.0876912047838232
 30
0.0
  0
VERTEX
  5
5BE
  8
6
 10
-5.9499999999998181
 20
8.5376912047838687
 30
0.0
  0
VERTEX
  5
5BF
  8
6
 10
-12.999999999999771
 20
8.5376912047838687
 30
0.0
  0
VERTEX
  5
5C0
  8
6
 10
-13.999999999999771
 20
7.5376912047838678
 30
0.0
  0
VERTEX
  5
5C1
  8
6
 10
-14.999999999999771
 20
8.5376912047838687
 30
0.0
  0
VERTEX
  5
5C2
  8
6
 10
-20.299999999999951
 20
8.5376912047838687
 30
0.0
  0
VERTEX
  5
5C3
  8
6
 10
-20.499999999999769
 20
8.3376912047838232
 30
0.0
  0
VERTEX
  5
5C4
  8
6
 10
-20.499999999999769
 20
5.5376912047838678
 30
0.0
  0
VERTEX
  5
5C5
  8
6
 10
-13.579587173670911
 20
5.5376912047838678
 30
0.0
  0
VERTEX
  5
5C6
  8
6
 10
-12.591236345765081
 20
6.4586164812897087
 30
0.0
  0
VERTEX
  5
5C7
  8
6
 10
-11.732459632218021
 20
5.5376912047836413
 30
0.0
  0
VERTEX
  5
5C8
  8
6
 10
-11.579587173670911
 20
5.5376912047838678
 30
0.0
  0
VERTEX
  5
5C9
  8
6
 10
-10.591236345765081
 20
6.4586164812897087
 30
0.0
  0
VERTEX
  5
5CA
  8
6
 10
-9.7324596322180241
 20
5.5376912047836413
 30
0.0
  0
VERTEX
  5
5CB
  8
6
 10
-9.5795871736709142
 20
5.5376912047838678
 30
0.0
  0
VERTEX
  5
5CC
  8
6
 10
-8.5912363457650827
 20
6.4586164812897087
 30
0.0
  0
VERTEX
  5
5CD
  8
6
 10
-7.7324596322180241
 20
5.5376912047836413
 30
0.0
  0
VERTEX
  5
5CE
  8
6
 10
-6.6746442086891866
 20
5.5376912047838678
 30
0.0
 42
-4.8836046478686121
  0
VERTEX
  5
5CF
  8
6
 10
-6.6746442086891866
 20
3.3365940250457689
 30
0.0
  0
VERTEX
  5
5D0
  8
6
 10
-7.7324596322180241
 20
3.3365940250459971
 30
0.0
  0
VERTEX
  5
5D1
  8
6
 10
-8.5912363457650827
 20
2.415668748539928
 30
0.0
  0
VERTEX
  5
5D2
  8
6
 10
-9.5795871736709142
 20
3.3365940250457689
 30
0.0
  0
VERTEX
  5
5D3
  8
6
 10
-9.7324596322180241
 20
3.3365940250459971
 30
0.0
  0
VERTEX
  5
5D4
  8
6
 10
-10.591236345765081
 20
2.415668748539928
 30
0.0
  0
VERTEX
  5
5D5
  8
6
 10
-11.579587173670911
 20
3.3365940250457689
 30
0.0
  0
VERTEX
  5
5D6
  8
6
 10
-11.732459632218021
 20
3.3365940250459971
 30
0.0
  0
VERTEX
  5
5D7
  8
6
 10
-12.591236345765081
 20
2.415668748539928
 30
0.0
  0
VERTEX
  5
5D8
  8
6
 10
-13.579587173670911
 20
3.3365940250457689
 30
0.0
  0
VERTEX
  5
5D9
  8
6
 10
-19.579074723493932
 20
3.3365940250459971
 30
0.0
  0
VERTEX
  5
5DA
  8
6
 10
-20.499999999999769
 20
2.415668748539928
 30
0.0
  0
VERTEX
  5
5DB
  8
6
 10
-22.5
 20
2.415668748539928
 30
0.0
  0
VERTEX
  5
5DC
  8
6
 10
-22.5
 20
0.5365940250458153
 30
0.0
  0
VERTEX
  5
5DD
  8
6
 10
-22.299999999999951
 20
0.3365940250457697
 30
0.0
  0
VERTEX
  5
5DE
  8
6
 10
-17.0
 20
0.3365940250457697
 30
0.0
  0
VERTEX
  5
5DF
  8
6
 10
-16.0
 20
1.3365940250457691
 30
0.0
  0
VERTEX
  5
5E0
  8
6
 10
-15.0
 20
0.3365940250457697
 30
0.0
  0
VERTEX
  5
5E1
  8
6
 10
-5.5
 20
0.3365940250457697
 30
0.0
  0
VERTEX
  5
5E2
  8
6
 10
-5.5
 20
0.3865940250457243
 30
0.0
  0
VERTEX
  5
5E3
  8
6
 10
-5.0499999999999536
 20
0.8365940250457697
 30
0.0
  0
VERTEX
  5
5E4
  8
6
 10
-2.9499999999998181
 20
0.8365940250457697
 30
0.0
  0
VERTEX
  5
5E5
  8
6
 10
-2.5
 20
0.3865940250457243
 30
0.0
  0
VERTEX
  5
5E6
  8
6
 10
-2.5
 20
0.3365940250457697
 30
0.0
  0
VERTEX
  5
5E7
  8
6
 10
-0.4499999999998181
 20
0.3365940250457697
 30
0.0
  0
VERTEX
  5
5E8
  8
6
 10
0.0
 20
0.7865940250458153
 30
0.0
  0
VERTEX
  5
5E9
  8
6
 10
0.0
 20
5.5376912047838678
 30
0.0
  0
SEQEND
  5
5EA
  8
6
  0
POLYLINE
  5
381
  8
5
 66
     1
 10
0.0
 20
0.0
 30
0.0
  0
VERTEX
  5
5EB
  8
5
 10
3.8041438526099678
 20
15.0
 30
0.0
  0
VERTEX
  5
5EC
  8
5
 10
5.0
 20
15.0
 30
0.0
  0
VERTEX
  5
5ED
  8
5
 10
5.0
 20
13.254045909564409
 30
0.0
  0
SEQEND
  5
5EE
  8
5
  0
POLYLINE
  5
382
  8
5
 66
     1
 10
0.0
 20
0.0
 30
0.0
  0
VERTEX
  5
5EF
  8
5
 10
1.804143852609968
 20
15.0
 30
0.0
  0
VERTEX
  5
5F0
  8
5
 10
3.0
 20
15.0
 30
0.0
  0
VERTEX
  5
5F1
  8
5
 10
3.0
 20
13.254045909564409
 30
0.0
  0
SEQEND
  5
5F2
  8
5
  0
VIEWPORT
  5
22
 67
     1
  8
0
 10
210.0
 20
170.2366863905325
 30
0.0
 40
420.0
 41
340.47337278106511
 68
     1
 69
     1
1001
ACAD
1000
MVIEW
1002
{
1070
    16
1010
0.0
1020
0.0
1030
0.0
1010
0.0
1020
0.0
1030
1.0
1040
0.0
1040
340.47337278106511
1040
210.0
1040
170.2366863905325
1040
50.0
1040
0.0
1040
0.0
1070
     0
1070
   100
1070
     1
1070
     1
1070
     0
1070
     0
1070
     0
1070
     0
1040
0.0
1040
0.0
1040
0.0
1040
5.0
1040
5.0
1040
10.0
1040
10.0
1070
     0
1002
{
1002
}
1002
}
  0
ENDSEC
  0
EOF
