  0
SECTION
  2
HEADER
  9
$ACADVER
  1
AC1009
  9
$INSBASE
 10
0.0
 20
0.0
 30
0.0
  9
$EXTMIN
 10
-11.444947362204619
 20
-29.720646959451869
 30
0.0
  9
$EXTMAX
 10
31.368489408687381
 20
2.0
 30
0.0
  9
$LIMMIN
 10
-150.0
 20
-150.0
  9
$LIMMAX
 10
150.0
 20
150.0
  9
$ORTHOMODE
 70
     0
  9
$REGENMODE
 70
     1
  9
$FILLMODE
 70
     1
  9
$QTEXTMODE
 70
     0
  9
$MIRRTEXT
 70
     0
  9
$DRAGMODE
 70
     2
  9
$LTSCALE
 40
3.0
  9
$OSMODE
 70
   111
  9
$ATTMODE
 70
     1
  9
$TEXTSIZE
 40
3.5
  9
$TRACEWID
 40
1.0
  9
$TEXTSTYLE
  7
BESCHLAG
  9
$CLAYER
  8
0
  9
$CELTYPE
  6
BYLAYER
  9
$CECOLOR
 62
   256
  9
$DIMSCALE
 40
1.0
  9
$DIMASZ
 40
2.0
  9
$DIMEXO
 40
2.0
  9
$DIMDLI
 40
0.0
  9
$DIMRND
 40
0.0
  9
$DIMDLE
 40
1.0
  9
$DIMEXE
 40
1.0
  9
$DIMTP
 40
0.0
  9
$DIMTM
 40
0.0
  9
$DIMTXT
 40
3.5
  9
$DIMCEN
 40
0.0
  9
$DIMTSZ
 40
0.0
  9
$DIMTOL
 70
     0
  9
$DIMLIM
 70
     0
  9
$DIMTIH
 70
     0
  9
$DIMTOH
 70
     0
  9
$DIMSE1
 70
     0
  9
$DIMSE2
 70
     0
  9
$DIMTAD
 70
     1
  9
$DIMZIN
 70
     8
  9
$DIMBLK
  1

  9
$DIMASO
 70
     1
  9
$DIMSHO
 70
     1
  9
$DIMPOST
  1

  9
$DIMAPOST
  1

  9
$DIMALT
 70
     0
  9
$DIMALTD
 70
     2
  9
$DIMALTF
 40
0.039370078740157
  9
$DIMLFAC
 40
1.0
  9
$DIMTOFL
 70
     1
  9
$DIMTVP
 40
0.0
  9
$DIMTIX
 70
     1
  9
$DIMSOXD
 70
     0
  9
$DIMSAH
 70
     1
  9
$DIMBLK1
  1
OBLIQUE
  9
$DIMBLK2
  1
OBLIQUE
  9
$DIMSTYLE
  2
OPO-SSTRICH
  9
$DIMCLRD
 70
   256
  9
$DIMCLRE
 70
   256
  9
$DIMCLRT
 70
   256
  9
$DIMTFAC
 40
0.7114285714285716
  9
$DIMGAP
 40
1.0
  9
$LUNITS
 70
     2
  9
$LUPREC
 70
     1
  9
$SKETCHINC
 40
1.0
  9
$FILLETRAD
 40
0.0
  9
$AUNITS
 70
     0
  9
$AUPREC
 70
     1
  9
$MENU
  1
D:\ACL_CGWG\CGTAB13
  9
$ELEVATION
 40
0.0
  9
$PELEVATION
 40
0.0
  9
$THICKNESS
 40
0.0
  9
$LIMCHECK
 70
     0
  9
$BLIPMODE
 70
     0
  9
$CHAMFERA
 40
1.0
  9
$CHAMFERB
 40
1.0
  9
$SKPOLY
 70
     0
  9
$TDCREATE
 40
2451739.9012434832
  9
$TDUPDATE
 40
2452087.6442399411
  9
$TDINDWG
 40
0.0011768981
  9
$TDUSRTIMER
 40
0.001176713
  9
$USRTIMER
 70
     1
  9
$ANGBASE
 50
0.0
  9
$ANGDIR
 70
     0
  9
$PDMODE
 70
    35
  9
$PDSIZE
 40
5.0
  9
$PLINEWID
 40
0.0
  9
$COORDS
 70
     1
  9
$SPLFRAME
 70
     0
  9
$SPLINETYPE
 70
     6
  9
$SPLINESEGS
 70
     8
  9
$ATTDIA
 70
     1
  9
$ATTREQ
 70
     1
  9
$HANDLING
 70
-16383
  9
$HANDSEED
  5
46B
  9
$SURFTAB1
 70
    12
  9
$SURFTAB2
 70
    12
  9
$SURFTYPE
 70
     6
  9
$SURFU
 70
    12
  9
$SURFV
 70
    12
  9
$UCSNAME
  2

  9
$UCSORG
 10
0.0
 20
0.0
 30
0.0
  9
$UCSXDIR
 10
1.0
 20
0.0
 30
0.0
  9
$UCSYDIR
 10
0.0
 20
1.0
 30
0.0
  9
$PUCSNAME
  2

  9
$PUCSORG
 10
0.0
 20
0.0
 30
0.0
  9
$PUCSXDIR
 10
1.0
 20
0.0
 30
0.0
  9
$PUCSYDIR
 10
0.0
 20
1.0
 30
0.0
  9
$USERI1
 70
     0
  9
$USERI2
 70
     0
  9
$USERI3
 70
     0
  9
$USERI4
 70
     0
  9
$USERI5
 70
     0
  9
$USERR1
 40
0.0
  9
$USERR2
 40
0.0
  9
$USERR3
 40
0.0
  9
$USERR4
 40
0.0
  9
$USERR5
 40
0.0
  9
$WORLDVIEW
 70
     1
  9
$SHADEDGE
 70
     3
  9
$SHADEDIF
 70
    70
  9
$TILEMODE
 70
     1
  9
$MAXACTVP
 70
    48
  9
$PLIMCHECK
 70
     0
  9
$PEXTMIN
 10
1.0000000000000000E+020
 20
1.0000000000000000E+020
 30
1.0000000000000000E+020
  9
$PEXTMAX
 10
-1.0000000000000000E+020
 20
-1.0000000000000000E+020
 30
-1.0000000000000000E+020
  9
$PLIMMIN
 10
0.0
 20
0.0
  9
$PLIMMAX
 10
420.0
 20
297.0
  9
$UNITMODE
 70
     0
  9
$VISRETAIN
 70
     1
  9
$PLINEGEN
 70
     0
  9
$PSLTSCALE
 70
     1
  0
ENDSEC
  0
SECTION
  2
TABLES
  0
TABLE
  2
VPORT
 70
     2
  0
VPORT
  2
*ACTIVE
 70
     0
 10
0.0
 20
0.0
 11
1.0
 21
1.0
 12
9.9563605733640088
 22
-13.858794483657441
 13
0.0
 23
0.0
 14
0.5
 24
0.5
 15
10.0
 25
10.0
 16
0.0
 26
0.0
 36
1.0
 17
0.0
 27
0.0
 37
0.0
 40
32.00365791274772
 41
1.6070460704607039
 42
50.0
 43
0.0
 44
0.0
 50
0.0
 51
0.0
 71
     0
 72
   800
 73
     1
 74
     1
 75
     0
 76
     0
 77
     0
 78
     0
  0
ENDTAB
  0
TABLE
  2
LTYPE
 70
     2
  0
LTYPE
  2
CONTINUOUS
 70
     0
  3
_______________________________________________
 72
    65
 73
     2
 40
1.0
 49
1.0
 49
0.0
  0
LTYPE
  2
STRICHPUNKT
 70
     0
  3
__ . __ . __ . __ . __ . __ . __ . __ . __ . __
 72
    65
 73
     4
 40
1.0
 49
0.5
 49
-0.25
 49
0.0
 49
-0.25
  0
ENDTAB
  0
TABLE
  2
LAYER
 70
     7
  0
LAYER
  2
0
 70
     0
 62
    30
  6
CONTINUOUS
  0
LAYER
  2
1
 70
     0
 62
     2
  6
CONTINUOUS
  0
LAYER
  2
2
 70
     0
 62
     9
  6
CONTINUOUS
  0
LAYER
  2
4
 70
     1
 62
     4
  6
CONTINUOUS
  0
LAYER
  2
5
 70
     0
 62
     1
  6
CONTINUOUS
  0
LAYER
  2
6
 70
     0
 62
     3
  6
CONTINUOUS
  0
LAYER
  2
DEFPOINTS
 70
     0
 62
     7
  6
CONTINUOUS
  0
ENDTAB
  0
TABLE
  2
STYLE
 70
     2
  0
STYLE
  2
STANDARD
 70
     0
 40
0.0
 41
1.0
 50
0.0
 71
     0
 42
2.5
  3
txt
  4

  0
STYLE
  2
BESCHLAG
 70
     0
 40
0.0
 41
1.0
 50
0.0
 71
     0
 42
3.5
  3
txt
  4

  0
ENDTAB
  0
TABLE
  2
VIEW
 70
     0
  0
ENDTAB
  0
TABLE
  2
UCS
 70
     0
  0
ENDTAB
  0
TABLE
  2
APPID
 70
     1
  0
APPID
  2
ACAD
 70
     0
  0
ENDTAB
  0
TABLE
  2
DIMSTYLE
 70
     1
  0
DIMSTYLE
  2
OPO-SSTRICH
 70
     0
  3

  4

  5

  6
OBLIQUE
  7
OBLIQUE
 40
1.0
 41
2.0
 42
2.0
 43
0.0
 44
1.0
 45
0.0
 46
1.0
 47
0.0
 48
0.0
140
3.5
141
0.0
142
0.0
143
0.039370078740157
144
1.0
145
0.0
146
0.7114285714285716
147
1.0
 71
     0
 72
     0
 73
     0
 74
     0
 75
     0
 76
     0
 77
     1
 78
     8
170
     0
171
     2
172
     1
173
     1
174
     1
175
     0
176
   256
177
   256
178
   256
  0
ENDTAB
  0
ENDSEC
  0
SECTION
  2
BLOCKS
  0
BLOCK
  8
0
  2
$MODEL_SPACE
 70
     0
 10
0.0
 20
0.0
 30
0.0
  3
$MODEL_SPACE
  1

  0
ENDBLK
  5
1C
  8
0
  0
BLOCK
 67
     1
  8
0
  2
$PAPER_SPACE
 70
     0
 10
0.0
 20
0.0
 30
0.0
  3
$PAPER_SPACE
  1

  0
ENDBLK
  5
19
 67
     1
  8
0
  0
BLOCK
  8
0
  2
_OBLIQUE
 70
     0
 10
0.0
 20
0.0
 30
0.0
  3
_OBLIQUE
  1

  0
LINE
  5
204
  8
0
 62
     0
 10
-0.5
 20
-0.5
 30
0.0
 11
0.5
 21
0.5
 31
0.0
  0
ENDBLK
  5
206
  8
0
  0
BLOCK
  8
0
  2
NULLPUNKT
 70
     0
 10
0.0
 20
0.0
 30
0.0
  3
NULLPUNKT
  1

  0
SOLID
  5
254
  8
5
 10
0.0
 20
0.0
 30
0.0
 11
2.0
 21
0.0
 31
0.0
 12
0.0
 22
-2.0
 32
0.0
 13
0.0
 23
-2.0
 33
0.0
  0
SOLID
  5
255
  8
5
 10
0.0
 20
0.0
 30
0.0
 11
-2.0
 21
0.0
 31
0.0
 12
0.0
 22
2.0
 32
0.0
 13
0.0
 23
2.0
 33
0.0
  0
POLYLINE
  5
256
  8
5
 66
     1
 10
0.0
 20
0.0
 30
0.0
  0
VERTEX
  5
40C
  8
5
 10
0.0
 20
2.0
 30
0.0
  0
VERTEX
  5
40D
  8
5
 10
0.0
 20
-2.0
 30
0.0
  0
SEQEND
  5
40E
  8
5
  0
POLYLINE
  5
257
  8
5
 66
     1
 10
0.0
 20
0.0
 30
0.0
  0
VERTEX
  5
40F
  8
5
 10
-2.0
 20
0.0
 30
0.0
  0
VERTEX
  5
410
  8
5
 10
2.0
 20
0.0
 30
0.0
  0
SEQEND
  5
411
  8
5
  0
CIRCLE
  5
258
  8
5
 10
0.0
 20
0.0
 30
0.0
 40
2.0
  0
ENDBLK
  5
25A
  8
0
  0
BLOCK
  8
0
  2
*X2
 70
     1
 10
0.0
 20
0.0
 30
0.0
  3
*X2
  1

  0
LINE
  5
292
  8
0
 62
     0
 10
1358.1520629584161
 20
177.28373837688179
 30
0.0
 11
1359.7977483763509
 21
178.9294237948167
 31
0.0
  0
LINE
  5
293
  8
0
 62
     0
 10
1361.9563775427221
 20
181.08805296118811
 30
0.0
 11
1363.2563775427229
 21
182.38805296118841
 31
0.0
  0
LINE
  5
294
  8
0
 62
     0
 10
1357.506377542722
 20
178.05226652356151
 30
0.0
 11
1358.5762260883789
 21
179.1221150692177
 31
0.0
  0
LINE
  5
295
  8
0
 62
     0
 10
1361.9563775427221
 20
182.50226652356119
 30
0.0
 11
1363.2563775427229
 21
183.80226652356151
 31
0.0
  0
LINE
  5
296
  8
0
 62
     0
 10
1357.506377542722
 20
179.46648008593459
 30
0.0
 11
1358.556377542722
 21
180.5164800859344
 31
0.0
  0
LINE
  5
297
  8
0
 62
     0
 10
1361.9563775427221
 20
183.9164800859343
 30
0.0
 11
1362.9565698753031
 21
184.91667241851519
 31
0.0
  0
LINE
  5
298
  8
0
 62
     0
 10
1357.2604064141119
 20
180.63472251969679
 30
0.0
 11
1358.556377542722
 21
181.93069364830751
 31
0.0
  0
LINE
  5
299
  8
0
 62
     0
 10
1357.4782634338101
 20
182.2667931017682
 30
0.0
 11
1358.556377542722
 21
183.34490721068059
 31
0.0
  0
LINE
  5
29A
  8
0
 62
     0
 10
1357.3694777751659
 20
183.57222100549711
 30
0.0
 11
1358.6173547187691
 21
184.8200979491003
 31
0.0
  0
LINE
  5
29B
  8
0
 62
     0
 10
1357.5063775427229
 20
175.2238393988153
 30
0.0
 11
1361.211961938724
 21
178.9294237948167
 31
0.0
  0
LINE
  5
29C
  8
0
 62
     0
 10
1361.9563775427221
 20
179.67383939881501
 30
0.0
 11
1363.2563775427229
 21
180.9738393988153
 31
0.0
  0
LINE
  5
29D
  8
0
 62
     0
 10
1357.3999572137359
 20
173.70320550745569
 30
0.0
 11
1363.2563775427229
 21
179.55962583644219
 31
0.0
  0
LINE
  5
29E
  8
0
 62
     0
 10
1357.347426478445
 20
172.23646120979191
 30
0.0
 11
1363.2563775427229
 21
178.14541227406909
 31
0.0
  0
LINE
  5
29F
  8
0
 62
     0
 10
1358.4546026258431
 20
171.92942379481681
 30
0.0
 11
1363.2563775427229
 21
176.73119871169601
 31
0.0
  0
LINE
  5
2A0
  8
0
 62
     0
 10
1359.868816188216
 20
171.92942379481681
 30
0.0
 11
1363.2563775427229
 21
175.3169851493229
 31
0.0
  0
LINE
  5
2A1
  8
0
 62
     0
 10
1361.2832097505041
 20
171.92960379473169
 30
0.0
 11
1363.2561975428071
 21
173.90259158703481
 31
0.0
  0
ENDBLK
  5
2A3
  8
0
  0
BLOCK
  8
0
  2
*D3
 70
     1
 10
0.0
 20
0.0
 30
0.0
  3
*D3
  1

  0
LINE
  5
2F4
  8
1
 10
7.9999999999999991
 20
-4.0
 30
0.0
 11
19.24757433545755
 21
-4.0000000000000027
 31
0.0
  0
LINE
  5
2F5
  8
1
 10
2.0
 20
-0.0000000000000006
 30
0.0
 11
19.24757433545755
 21
-0.0000000000000055
 31
0.0
  0
LINE
  5
2F6
  8
1
 10
18.24757433545755
 20
-4.0000000000000027
 30
0.0
 11
18.24757433545755
 21
-6.0000000000000044
 31
0.0
  0
LINE
  5
2F7
  8
1
 10
18.24757433545755
 20
-0.0000000000000052
 30
0.0
 11
18.24757433545755
 21
1.999999999999994
 31
0.0
  0
LINE
  5
2F8
  8
1
 10
18.24757433545755
 20
-4.0000000000000027
 30
0.0
 11
18.24757433545755
 21
-0.0000000000000052
 31
0.0
  0
INSERT
  5
2F9
  8
1
  2
_OBLIQUE
 10
18.24757433545755
 20
-4.0000000000000027
 30
0.0
 41
2.0
 42
2.0
 43
2.0
 50
90.0
  0
INSERT
  5
2FA
  8
1
  2
_OBLIQUE
 10
18.24757433545755
 20
-0.0000000000000052
 30
0.0
 41
2.0
 42
2.0
 43
2.0
 50
270.0
  0
TEXT
  5
2FB
  8
0
 10
17.24757433545755
 20
-3.272510231923603
 30
0.0
 40
3.5
  1
4
 50
90.0
  7
BESCHLAG
  0
POINT
  5
2FC
  8
DEFPOINTS
 62
     0
 10
6.0
 20
-4.0
 30
0.0
  0
POINT
  5
2FD
  8
DEFPOINTS
 62
     0
 10
0.0
 20
0.0
 30
0.0
  0
POINT
  5
2FE
  8
DEFPOINTS
 62
     0
 10
18.24757433545755
 20
-0.0000000000000052
 30
0.0
  0
ENDBLK
  5
2DB
  8
0
  0
BLOCK
  8
0
  2
*D4
 70
     1
 10
0.0
 20
0.0
 30
0.0
  3
*D4
  1

  0
LINE
  5
2FF
  8
1
 10
6.0
 20
-17.0
 30
0.0
 11
19.24757433545755
 21
-17.0
 31
0.0
  0
LINE
  5
300
  8
1
 10
7.9999999999999991
 20
-4.0
 30
0.0
 11
19.24757433545755
 21
-4.0000000000000027
 31
0.0
  0
LINE
  5
301
  8
1
 10
18.24757433545755
 20
-18.0
 30
0.0
 11
18.24757433545755
 21
-3.0000000000000031
 31
0.0
  0
INSERT
  5
302
  8
1
  2
_OBLIQUE
 10
18.24757433545755
 20
-17.0
 30
0.0
 41
2.0
 42
2.0
 43
2.0
 50
270.0
  0
INSERT
  5
303
  8
1
  2
_OBLIQUE
 10
18.24757433545755
 20
-4.0000000000000027
 30
0.0
 41
2.0
 42
2.0
 43
2.0
 50
90.0
  0
TEXT
  5
304
  8
0
 10
17.178338319086478
 20
-13.374488403819919
 30
0.0
 40
3.5
  1
13
 50
90.0
  7
BESCHLAG
  0
POINT
  5
305
  8
DEFPOINTS
 62
     0
 10
4.0
 20
-17.0
 30
0.0
  0
POINT
  5
306
  8
DEFPOINTS
 62
     0
 10
6.0
 20
-4.0
 30
0.0
  0
POINT
  5
307
  8
DEFPOINTS
 62
     0
 10
18.24757433545755
 20
-4.0000000000000027
 30
0.0
  0
ENDBLK
  5
2E7
  8
0
  0
BLOCK
  8
0
  2
*D5
 70
     1
 10
0.0
 20
0.0
 30
0.0
  3
*D5
  1

  0
LINE
  5
308
  8
1
 10
-0.0000000000000001
 20
-19.0
 30
0.0
 11
-0.0000000000000008
 21
-29.720646959451869
 31
0.0
  0
LINE
  5
309
  8
1
 10
6.0
 20
-17.0
 30
0.0
 11
5.9999999999999991
 21
-29.720646959451869
 31
0.0
  0
LINE
  5
30A
  8
1
 10
-1.0
 20
-28.720646959451869
 30
0.0
 11
6.9999999999999991
 21
-28.720646959451869
 31
0.0
  0
INSERT
  5
30B
  8
1
  2
_OBLIQUE
 10
-0.0000000000000007
 20
-28.720646959451869
 30
0.0
 41
2.0
 42
2.0
 43
2.0
 50
180.0
  0
INSERT
  5
30C
  8
1
  2
_OBLIQUE
 10
5.9999999999999991
 20
-28.720646959451869
 30
0.0
 41
2.0
 42
2.0
 43
2.0
  0
TEXT
  5
30D
  8
0
 10
1.660641200545701
 20
-27.653798391921171
 30
0.0
 40
3.5
  1
6
  7
BESCHLAG
  0
POINT
  5
30E
  8
DEFPOINTS
 62
     0
 10
0.0
 20
-17.0
 30
0.0
  0
POINT
  5
30F
  8
DEFPOINTS
 62
     0
 10
6.0
 20
-15.0
 30
0.0
  0
POINT
  5
310
  8
DEFPOINTS
 62
     0
 10
5.9999999999999991
 20
-28.720646959451869
 30
0.0
  0
ENDBLK
  5
2F3
  8
0
  0
ENDSEC
  0
SECTION
  2
ENTITIES
  0
INSERT
  5
25B
  8
5
  2
NULLPUNKT
 10
0.0
 20
0.0
 30
0.0
  0
POLYLINE
  5
2BC
  8
6
 66
     1
 10
0.0
 20
0.0
 30
0.0
 70
     1
  0
VERTEX
  5
412
  8
6
 10
2.9999999999997722
 20
-8.4497289022071982
 30
0.0
 42
0.1858042863250297
  0
VERTEX
  5
413
  8
6
 10
3.3858873401100018
 20
-8.3012022379350583
 30
0.0
  0
VERTEX
  5
414
  8
6
 10
4.5262271857372971
 20
-7.1611178436928631
 30
0.0
  0
VERTEX
  5
415
  8
6
 10
4.5262271857372971
 20
-6.7651224314728324
 30
0.0
  0
VERTEX
  5
416
  8
6
 10
4.3147269916446467
 20
-6.7651224314728324
 30
0.0
  0
VERTEX
  5
417
  8
6
 10
3.94460197949752
 20
-7.0382346594254841
 30
0.0
  0
VERTEX
  5
418
  8
6
 10
3.94460197949752
 20
-5.9448707249950976
 30
0.0
  0
VERTEX
  5
419
  8
6
 10
4.4997894977179831
 20
-5.5396074402378872
 30
0.0
  0
VERTEX
  5
41A
  8
6
 10
4.4997894977179831
 20
-5.099561620886333
 30
0.0
  0
VERTEX
  5
41B
  8
6
 10
4.2442271452905507
 20
-5.099561620886333
 30
0.0
  0
VERTEX
  5
41C
  8
6
 10
3.8476644451243369
 20
-5.3374335560522459
 30
0.0
  0
VERTEX
  5
41D
  8
6
 10
3.8476644451243369
 20
-4.5761378291226711
 30
0.0
 42
-0.3143413491924476
  0
VERTEX
  5
41E
  8
6
 10
4.4997894977179831
 20
-3.971872745465816
 30
0.0
 42
0.0525802491828312
  0
VERTEX
  5
41F
  8
6
 10
6.2887274931154016
 20
-3.5386533786247578
 30
0.0
 42
0.2941899476925632
  0
VERTEX
  5
420
  8
6
 10
7.0709999106122723
 20
-1.799158450168761
 30
0.0
 42
0.2218808675059864
  0
VERTEX
  5
421
  8
6
 10
5.6355205483969248
 20
-0.3148292503519769
 30
0.0
 42
0.1841430777102483
  0
VERTEX
  5
422
  8
6
 10
0.5212365598738417
 20
-0.9294109859408763
 30
0.0
 42
1.036550211925505
  0
VERTEX
  5
423
  8
6
 10
0.7573759464396517
 20
-1.3083723070037641
 30
0.0
 42
0.0623280433284819
  0
VERTEX
  5
424
  8
6
 10
2.553278881672667
 20
-0.9666857620525206
 30
0.0
 42
-0.1908064339977625
  0
VERTEX
  5
425
  8
6
 10
5.5050225238062458
 20
-1.1468477285561669
 30
0.0
 42
-0.2498387444718729
  0
VERTEX
  5
426
  8
6
 10
6.0331649223444401
 20
-1.822215872986134
 30
0.0
 42
-0.5375006586226123
  0
VERTEX
  5
427
  8
6
 10
5.2929146797068816
 20
-2.8265638059463072
 30
0.0
 42
-0.0017648196310027
  0
VERTEX
  5
428
  8
6
 10
2.9840391984378121
 20
-2.756083220372147
 30
0.0
 42
0.0752540349745939
  0
VERTEX
  5
429
  8
6
 10
1.054101510332202
 20
-3.1349161620971691
 30
0.0
 42
0.2750755003841435
  0
VERTEX
  5
42A
  8
6
 10
0.5253514617875226
 20
-3.734000974889113
 30
0.0
 42
0.4980642202224989
  0
VERTEX
  5
42B
  8
6
 10
0.7016014051878301
 20
-3.9278225029236178
 30
0.0
  0
VERTEX
  5
42C
  8
6
 10
1.6181015912256951
 20
-3.9278225029236178
 30
0.0
 42
-0.4033442221785025
  0
VERTEX
  5
42D
  8
6
 10
2.152335554875207
 20
-4.6025447218009949
 30
0.0
  0
VERTEX
  5
42E
  8
6
 10
2.152335554875207
 20
-5.3374335560522459
 30
0.0
  0
VERTEX
  5
42F
  8
6
 10
1.755772854708993
 20
-5.099561620886333
 30
0.0
  0
VERTEX
  5
430
  8
6
 10
1.5002105022815611
 20
-5.099561620886333
 30
0.0
  0
VERTEX
  5
431
  8
6
 10
1.5002105022815611
 20
-5.5396074402378872
 30
0.0
  0
VERTEX
  5
432
  8
6
 10
2.0553980205020248
 20
-5.9448707249950976
 30
0.0
  0
VERTEX
  5
433
  8
6
 10
2.0553980205020248
 20
-7.0382346594254841
 30
0.0
  0
VERTEX
  5
434
  8
6
 10
1.685273008354897
 20
-6.7651224314728324
 30
0.0
  0
VERTEX
  5
435
  8
6
 10
1.473772814262247
 20
-6.7651224314728324
 30
0.0
  0
VERTEX
  5
436
  8
6
 10
1.473772814262247
 20
-7.1611178436928631
 30
0.0
  0
VERTEX
  5
437
  8
6
 10
2.6141126598893152
 20
-8.3012022379350583
 30
0.0
 42
0.1858042863250297
  0
SEQEND
  5
438
  8
6
  0
INSERT
  5
2BF
  8
2
  2
*X2
 10
-1357.256377542722
 20
-188.9294237948167
 30
0.0
1001
ACAD
1000
HATCH
1002
{
1070
    16
1000
_U,I
1040
1.0
1040
0.7853981633974483
1070
     0
1002
}
  0
TEXT
  5
2C0
  8
1
 10
7.4820642383940594
 20
-21.96296565683587
 30
0.0
 40
2.4999999499999999
  1
Hebgo 129/634
  0
DIMENSION
  5
2C5
  8
1
  2
*D3
 10
18.24757433545755
 20
-0.0000000000000052
 30
0.0
 11
15.49757433545755
 21
-2.0000000000000009
 31
0.0
 70
     0
 13
6.0
 23
-4.0
 33
0.0
 14
0.0
 24
0.0
 34
0.0
 50
90.0
  0
DIMENSION
  5
2C6
  8
1
  2
*D4
 10
18.24757433545755
 20
-4.0000000000000027
 30
0.0
 11
15.45937515401144
 21
-10.5
 31
0.0
 70
     0
 13
4.0
 23
-17.0
 33
0.0
 14
6.0
 24
-4.0
 34
0.0
 50
90.0
  0
DIMENSION
  5
2C7
  8
1
  2
*D5
 10
5.9999999999999991
 20
-28.720646959451869
 30
0.0
 11
2.9999999999999991
 21
-25.933641502425949
 31
0.0
 70
     0
 13
0.0
 23
-17.0
 33
0.0
 14
6.0
 24
-15.0
 34
0.0
  0
LINE
  5
2C8
  8
6
  6
STRICHPUNKT
 10
6.3283713652065208
 20
-12.000000002980411
 30
0.0
 11
-11.444947362204619
 21
-12.000000002980411
 31
0.0
  0
POINT
  5
2C9
  8
5
 10
2.9999999999997722
 20
-4.0
 30
0.0
  0
LINE
  5
2CA
  8
5
 10
10.450540533564199
 20
0.0
 30
0.0
 11
-6.6232785350455279
 21
0.0
 31
0.0
  0
POLYLINE
  5
2CB
  8
5
 66
     1
 10
0.0
 20
0.0
 30
0.0
  0
VERTEX
  5
439
  8
5
 10
-11.180073512979099
 20
-1.0
 30
0.0
  0
VERTEX
  5
43A
  8
5
 10
0.0
 20
-1.0
 30
0.0
  0
VERTEX
  5
43B
  8
5
 10
0.0
 20
-20.498696033152552
 30
0.0
  0
SEQEND
  5
43C
  8
5
  0
POLYLINE
  5
2CC
  8
4
 66
     1
 10
0.0
 20
0.0
 30
0.0
 70
     1
  0
VERTEX
  5
43D
  8
4
 10
6.0
 20
-15.0
 30
0.0
  0
VERTEX
  5
43E
  8
4
 10
6.0
 20
-4.0
 30
0.0
  0
VERTEX
  5
43F
  8
4
 10
0.0
 20
-4.0
 30
0.0
  0
VERTEX
  5
440
  8
4
 10
0.0
 20
-17.0
 30
0.0
  0
VERTEX
  5
441
  8
4
 10
4.0
 20
-17.0
 30
0.0
 42
0.4142135623730951
  0
SEQEND
  5
442
  8
4
  0
POLYLINE
  5
2CD
  8
6
 66
     1
 10
0.0
 20
0.0
 30
0.0
 70
     1
  0
VERTEX
  5
443
  8
6
 10
0.3260398644697489
 20
-4.0
 30
0.0
  0
VERTEX
  5
444
  8
6
 10
0.9600000000000363
 20
-4.0
 30
0.0
 42
-0.4142135623730951
  0
VERTEX
  5
445
  8
6
 10
1.75
 20
-4.7899999999999627
 30
0.0
  0
VERTEX
  5
446
  8
6
 10
1.75
 20
-4.800000000000181
 30
0.0
 42
-0.4142135623730951
  0
VERTEX
  5
447
  8
6
 10
1.5499999999999541
 20
-5.0
 30
0.0
  0
VERTEX
  5
448
  8
6
 10
1.2999999999999541
 20
-5.0
 30
0.0
  0
VERTEX
  5
449
  8
6
 10
1.2999999999999541
 20
-9.7000000000000455
 30
0.0
 42
0.4142135623730951
  0
VERTEX
  5
44A
  8
6
 10
1.5999999999999091
 20
-10.0
 30
0.0
  0
VERTEX
  5
44B
  8
6
 10
4.3999999999998627
 20
-10.0
 30
0.0
 42
0.4142135623730951
  0
VERTEX
  5
44C
  8
6
 10
4.6999999999998181
 20
-9.7000000000000455
 30
0.0
  0
VERTEX
  5
44D
  8
6
 10
4.6999999999998181
 20
-5.0
 30
0.0
  0
VERTEX
  5
44E
  8
6
 10
4.4499999999998181
 20
-5.0
 30
0.0
 42
-0.4142135623730951
  0
VERTEX
  5
44F
  8
6
 10
4.25
 20
-4.800000000000181
 30
0.0
  0
VERTEX
  5
450
  8
6
 10
4.25
 20
-4.7899999999999627
 30
0.0
 42
-0.4142135623730951
  0
VERTEX
  5
451
  8
6
 10
5.0399999999999627
 20
-4.0
 30
0.0
  0
VERTEX
  5
452
  8
6
 10
5.5999999999999091
 20
-4.0
 30
0.0
 42
-0.4142135623730951
  0
VERTEX
  5
453
  8
6
 10
6.0
 20
-4.4000000000000901
 30
0.0
  0
VERTEX
  5
454
  8
6
 10
6.0
 20
-15.0
 30
0.0
 42
-0.4142135623730951
  0
VERTEX
  5
455
  8
6
 10
4.0
 20
-17.0
 30
0.0
  0
VERTEX
  5
456
  8
6
 10
0.4499999999998181
 20
-17.0
 30
0.0
 42
-0.4142135623730951
  0
VERTEX
  5
457
  8
6
 10
0.25
 20
-16.800000000000178
 30
0.0
  0
VERTEX
  5
458
  8
6
 10
0.25
 20
-16.75
 30
0.0
 42
-1.0000000000002269
  0
VERTEX
  5
459
  8
6
 10
0.25
 20
-16.25
 30
0.0
 42
-1.0
  0
VERTEX
  5
45A
  8
6
 10
0.25
 20
-15.75
 30
0.0
 42
-1.0000000000002269
  0
VERTEX
  5
45B
  8
6
 10
0.25
 20
-15.25
 30
0.0
 42
-1.0000000000002269
  0
VERTEX
  5
45C
  8
6
 10
0.25
 20
-14.75
 30
0.0
 42
-0.6247756116406003
  0
VERTEX
  5
45D
  8
6
 10
0.25
 20
-14.25
 30
0.0
  0
VERTEX
  5
45E
  8
6
 10
0.25
 20
-13.08284271267803
 30
0.0
 42
-0.1989123678307154
  0
VERTEX
  5
45F
  8
6
 10
0.3085786440078664
 20
-12.9414213561954
 30
0.0
  0
VERTEX
  5
460
  8
6
 10
1.1085786437624841
 20
-12.141421359217469
 30
0.0
 42
0.4142135623730951
  0
VERTEX
  5
461
  8
6
 10
1.1085786437624841
 20
-11.85857864674289
 30
0.0
  0
VERTEX
  5
462
  8
6
 10
0.308578643517194
 20
-11.058578643720461
 30
0.0
 42
-0.1989123669286006
  0
VERTEX
  5
463
  8
6
 10
0.25
 20
-10.91715728772896
 30
0.0
  0
VERTEX
  5
464
  8
6
 10
0.25
 20
-9.0
 30
0.0
 42
-1.0
  0
VERTEX
  5
465
  8
6
 10
0.25
 20
-8.5
 30
0.0
 42
-1.0
  0
VERTEX
  5
466
  8
6
 10
0.25
 20
-8.0
 30
0.0
 42
-1.0
  0
VERTEX
  5
467
  8
6
 10
0.25
 20
-7.5
 30
0.0
 42
-1.0
  0
VERTEX
  5
468
  8
6
 10
0.25
 20
-7.0
 30
0.0
  0
VERTEX
  5
469
  8
6
 10
0.0270761369961292
 20
-4.3249136439562781
 30
0.0
 42
-0.4387801104018188
  0
SEQEND
  5
46A
  8
6
  0
VIEWPORT
  5
22
 67
     1
  8
0
 10
210.0
 20
170.2366863905325
 30
0.0
 40
420.0
 41
340.47337278106511
 68
     1
 69
     1
1001
ACAD
1000
MVIEW
1002
{
1070
    16
1010
0.0
1020
0.0
1030
0.0
1010
0.0
1020
0.0
1030
1.0
1040
0.0
1040
340.47337278106511
1040
210.0
1040
170.2366863905325
1040
50.0
1040
0.0
1040
0.0
1070
     0
1070
   100
1070
     1
1070
     1
1070
     0
1070
     0
1070
     0
1070
     0
1040
0.0
1040
0.0
1040
0.0
1040
5.0
1040
5.0
1040
10.0
1040
10.0
1070
     0
1002
{
1002
}
1002
}
  0
ENDSEC
  0
EOF
