  0
SECTION
  2
HEADER
  9
$ACADVER
  1
AC1009
  9
$INSBASE
 10
0.0
 20
0.0
 30
0.0
  9
$EXTMIN
 10
-6.0195914190489921
 20
-20.004271611110539
 30
-0.0000000000000058
  9
$EXTMAX
 10
17.807007380536561
 20
10.047913133222551
 30
0.0000000000000104
  9
$LIMMIN
 10
-150.0
 20
-150.0
  9
$LIMMAX
 10
150.0
 20
150.0
  9
$ORTHOMODE
 70
     0
  9
$REGENMODE
 70
     1
  9
$FILLMODE
 70
     1
  9
$QTEXTMODE
 70
     0
  9
$MIRRTEXT
 70
     0
  9
$DRAGMODE
 70
     2
  9
$LTSCALE
 40
1.0
  9
$OSMODE
 70
   111
  9
$ATTMODE
 70
     1
  9
$TEXTSIZE
 40
3.5
  9
$TRACEWID
 40
1.0
  9
$TEXTSTYLE
  7
BESCHLAG
  9
$CLAYER
  8
0
  9
$CELTYPE
  6
BYLAYER
  9
$CECOLOR
 62
   256
  9
$DIMSCALE
 40
1.0
  9
$DIMASZ
 40
2.0
  9
$DIMEXO
 40
2.0
  9
$DIMDLI
 40
0.0
  9
$DIMRND
 40
0.0
  9
$DIMDLE
 40
1.0
  9
$DIMEXE
 40
1.0
  9
$DIMTP
 40
0.0
  9
$DIMTM
 40
0.0
  9
$DIMTXT
 40
3.5
  9
$DIMCEN
 40
0.0
  9
$DIMTSZ
 40
0.0
  9
$DIMTOL
 70
     0
  9
$DIMLIM
 70
     0
  9
$DIMTIH
 70
     0
  9
$DIMTOH
 70
     0
  9
$DIMSE1
 70
     0
  9
$DIMSE2
 70
     0
  9
$DIMTAD
 70
     1
  9
$DIMZIN
 70
     8
  9
$DIMBLK
  1

  9
$DIMASO
 70
     1
  9
$DIMSHO
 70
     1
  9
$DIMPOST
  1

  9
$DIMAPOST
  1

  9
$DIMALT
 70
     0
  9
$DIMALTD
 70
     2
  9
$DIMALTF
 40
0.039370078740157
  9
$DIMLFAC
 40
1.0
  9
$DIMTOFL
 70
     1
  9
$DIMTVP
 40
0.0
  9
$DIMTIX
 70
     1
  9
$DIMSOXD
 70
     0
  9
$DIMSAH
 70
     1
  9
$DIMBLK1
  1
OBLIQUE
  9
$DIMBLK2
  1
OBLIQUE
  9
$DIMSTYLE
  2
OPO-SSTRICH
  9
$DIMCLRD
 70
   256
  9
$DIMCLRE
 70
   256
  9
$DIMCLRT
 70
   256
  9
$DIMTFAC
 40
0.7114285714285716
  9
$DIMGAP
 40
1.0
  9
$LUNITS
 70
     2
  9
$LUPREC
 70
     1
  9
$SKETCHINC
 40
1.0
  9
$FILLETRAD
 40
0.0
  9
$AUNITS
 70
     0
  9
$AUPREC
 70
     1
  9
$MENU
  1
D:\ACL_CGWG\CGTAB13
  9
$ELEVATION
 40
0.0
  9
$PELEVATION
 40
0.0
  9
$THICKNESS
 40
0.0
  9
$LIMCHECK
 70
     0
  9
$BLIPMODE
 70
     0
  9
$CHAMFERA
 40
1.0
  9
$CHAMFERB
 40
1.0
  9
$SKPOLY
 70
     0
  9
$TDCREATE
 40
2451739.8503085179
  9
$TDUPDATE
 40
2452086.7408737489
  9
$TDINDWG
 40
0.0010128935
  9
$TDUSRTIMER
 40
0.0010128935
  9
$USRTIMER
 70
     1
  9
$ANGBASE
 50
0.0
  9
$ANGDIR
 70
     0
  9
$PDMODE
 70
    35
  9
$PDSIZE
 40
5.0
  9
$PLINEWID
 40
0.0
  9
$COORDS
 70
     1
  9
$SPLFRAME
 70
     0
  9
$SPLINETYPE
 70
     6
  9
$SPLINESEGS
 70
     8
  9
$ATTDIA
 70
     1
  9
$ATTREQ
 70
     1
  9
$HANDLING
 70
-16383
  9
$HANDSEED
  5
429
  9
$SURFTAB1
 70
    12
  9
$SURFTAB2
 70
    12
  9
$SURFTYPE
 70
     6
  9
$SURFU
 70
    12
  9
$SURFV
 70
    12
  9
$UCSNAME
  2

  9
$UCSORG
 10
0.0
 20
0.0
 30
0.0
  9
$UCSXDIR
 10
1.0
 20
0.0
 30
0.0
  9
$UCSYDIR
 10
0.0
 20
1.0
 30
0.0
  9
$PUCSNAME
  2

  9
$PUCSORG
 10
0.0
 20
0.0
 30
0.0
  9
$PUCSXDIR
 10
1.0
 20
0.0
 30
0.0
  9
$PUCSYDIR
 10
0.0
 20
1.0
 30
0.0
  9
$USERI1
 70
     0
  9
$USERI2
 70
     0
  9
$USERI3
 70
     0
  9
$USERI4
 70
     0
  9
$USERI5
 70
     0
  9
$USERR1
 40
0.0
  9
$USERR2
 40
0.0
  9
$USERR3
 40
0.0
  9
$USERR4
 40
0.0
  9
$USERR5
 40
0.0
  9
$WORLDVIEW
 70
     1
  9
$SHADEDGE
 70
     3
  9
$SHADEDIF
 70
    70
  9
$TILEMODE
 70
     1
  9
$MAXACTVP
 70
    48
  9
$PLIMCHECK
 70
     0
  9
$PEXTMIN
 10
1.0000000000000000E+020
 20
1.0000000000000000E+020
 30
1.0000000000000000E+020
  9
$PEXTMAX
 10
-1.0000000000000000E+020
 20
-1.0000000000000000E+020
 30
-1.0000000000000000E+020
  9
$PLIMMIN
 10
0.0
 20
0.0
  9
$PLIMMAX
 10
420.0
 20
297.0
  9
$UNITMODE
 70
     0
  9
$VISRETAIN
 70
     1
  9
$PLINEGEN
 70
     0
  9
$PSLTSCALE
 70
     1
  0
ENDSEC
  0
SECTION
  2
TABLES
  0
TABLE
  2
VPORT
 70
     2
  0
VPORT
  2
*ACTIVE
 70
     0
 10
0.0
 20
0.0
 11
1.0
 21
1.0
 12
5.8937079807437849
 22
-4.9781792389439943
 13
0.0
 23
0.0
 14
0.5
 24
0.5
 15
10.0
 25
10.0
 16
0.0
 26
0.0
 36
1.0
 17
0.0
 27
0.0
 37
0.0
 40
30.296180831567181
 41
1.6070460704607039
 42
50.0
 43
0.0
 44
0.0
 50
0.0
 51
0.0
 71
     0
 72
   800
 73
     1
 74
     1
 75
     0
 76
     0
 77
     0
 78
     0
  0
ENDTAB
  0
TABLE
  2
LTYPE
 70
     1
  0
LTYPE
  2
CONTINUOUS
 70
     0
  3
_______________________________________________
 72
    65
 73
     2
 40
1.0
 49
1.0
 49
0.0
  0
ENDTAB
  0
TABLE
  2
LAYER
 70
     7
  0
LAYER
  2
0
 70
     0
 62
    30
  6
CONTINUOUS
  0
LAYER
  2
1
 70
     0
 62
     2
  6
CONTINUOUS
  0
LAYER
  2
2
 70
     0
 62
     9
  6
CONTINUOUS
  0
LAYER
  2
4
 70
     1
 62
     4
  6
CONTINUOUS
  0
LAYER
  2
5
 70
     0
 62
     1
  6
CONTINUOUS
  0
LAYER
  2
6
 70
     0
 62
     3
  6
CONTINUOUS
  0
LAYER
  2
DEFPOINTS
 70
     0
 62
     7
  6
CONTINUOUS
  0
ENDTAB
  0
TABLE
  2
STYLE
 70
     2
  0
STYLE
  2
STANDARD
 70
     0
 40
0.0
 41
1.0
 50
0.0
 71
     0
 42
2.5
  3
txt
  4

  0
STYLE
  2
BESCHLAG
 70
     0
 40
0.0
 41
1.0
 50
0.0
 71
     0
 42
3.5
  3
txt
  4

  0
ENDTAB
  0
TABLE
  2
VIEW
 70
     0
  0
ENDTAB
  0
TABLE
  2
UCS
 70
     0
  0
ENDTAB
  0
TABLE
  2
APPID
 70
     1
  0
APPID
  2
ACAD
 70
     0
  0
ENDTAB
  0
TABLE
  2
DIMSTYLE
 70
     1
  0
DIMSTYLE
  2
OPO-SSTRICH
 70
     0
  3

  4

  5

  6
OBLIQUE
  7
OBLIQUE
 40
1.0
 41
2.0
 42
2.0
 43
0.0
 44
1.0
 45
0.0
 46
1.0
 47
0.0
 48
0.0
140
3.5
141
0.0
142
0.0
143
0.039370078740157
144
1.0
145
0.0
146
0.7114285714285716
147
1.0
 71
     0
 72
     0
 73
     0
 74
     0
 75
     0
 76
     0
 77
     1
 78
     8
170
     0
171
     2
172
     1
173
     1
174
     1
175
     0
176
   256
177
   256
178
   256
  0
ENDTAB
  0
ENDSEC
  0
SECTION
  2
BLOCKS
  0
BLOCK
  8
0
  2
$MODEL_SPACE
 70
     0
 10
0.0
 20
0.0
 30
0.0
  3
$MODEL_SPACE
  1

  0
ENDBLK
  5
1C
  8
0
  0
BLOCK
 67
     1
  8
0
  2
$PAPER_SPACE
 70
     0
 10
0.0
 20
0.0
 30
0.0
  3
$PAPER_SPACE
  1

  0
ENDBLK
  5
19
 67
     1
  8
0
  0
BLOCK
  8
0
  2
_OBLIQUE
 70
     0
 10
0.0
 20
0.0
 30
0.0
  3
_OBLIQUE
  1

  0
LINE
  5
204
  8
0
 62
     0
 10
-0.5
 20
-0.5
 30
0.0
 11
0.5
 21
0.5
 31
0.0
  0
ENDBLK
  5
206
  8
0
  0
BLOCK
  8
0
  2
NULLPUNKT
 70
     0
 10
0.0
 20
0.0
 30
0.0
  3
NULLPUNKT
  1

  0
SOLID
  5
254
  8
5
 10
0.0
 20
0.0
 30
0.0
 11
2.0
 21
0.0
 31
0.0
 12
0.0
 22
-2.0
 32
0.0
 13
0.0
 23
-2.0
 33
0.0
  0
SOLID
  5
255
  8
5
 10
0.0
 20
0.0
 30
0.0
 11
-2.0
 21
0.0
 31
0.0
 12
0.0
 22
2.0
 32
0.0
 13
0.0
 23
2.0
 33
0.0
  0
POLYLINE
  5
256
  8
5
 66
     1
 10
0.0
 20
0.0
 30
0.0
  0
VERTEX
  5
3BF
  8
5
 10
0.0
 20
2.0
 30
0.0
  0
VERTEX
  5
3C0
  8
5
 10
0.0
 20
-2.0
 30
0.0
  0
SEQEND
  5
3C1
  8
5
  0
POLYLINE
  5
257
  8
5
 66
     1
 10
0.0
 20
0.0
 30
0.0
  0
VERTEX
  5
3C2
  8
5
 10
-2.0
 20
0.0
 30
0.0
  0
VERTEX
  5
3C3
  8
5
 10
2.0
 20
0.0
 30
0.0
  0
SEQEND
  5
3C4
  8
5
  0
CIRCLE
  5
258
  8
5
 10
0.0
 20
0.0
 30
0.0
 40
2.0
  0
ENDBLK
  5
25A
  8
0
  0
BLOCK
  8
0
  2
*X2
 70
     1
 10
0.0
 20
0.0
 30
0.0
  3
*X2
  1

  0
LINE
  5
294
  8
0
 62
     0
 10
253.57860083749301
 20
-421.00126841447309
 30
0.0
 11
254.3786008374932
 21
-420.20126841447302
 31
0.0
  0
LINE
  5
295
  8
0
 62
     0
 10
257.68289529219788
 20
-416.89697395976839
 30
0.0
 11
258.57310967306552
 21
-416.0067595789007
 31
0.0
  0
LINE
  5
296
  8
0
 62
     0
 10
253.57860083749301
 20
-419.5870548521001
 30
0.0
 11
254.3786008374932
 21
-418.78705485209991
 31
0.0
  0
LINE
  5
297
  8
0
 62
     0
 10
253.48095848990121
 20
-418.27048363731882
 30
0.0
 11
254.3786008374932
 21
-417.37284128972681
 31
0.0
  0
LINE
  5
298
  8
0
 62
     0
 10
253.5786008374931
 20
-416.75862772735388
 30
0.0
 11
254.36574382394261
 21
-415.97148474090437
 31
0.0
  0
LINE
  5
299
  8
0
 62
     0
 10
253.57893136777341
 20
-422.41515144656591
 30
0.0
 11
254.37913948482949
 21
-421.6149433295098
 31
0.0
  0
LINE
  5
29A
  8
0
 62
     0
 10
257.7786008374934
 20
-418.21548197684592
 30
0.0
 11
258.67728513433872
 21
-417.3167976800006
 31
0.0
  0
LINE
  5
29B
  8
0
 62
     0
 10
254.51132241694401
 20
-422.89697395976827
 30
0.0
 11
255.5113224169441
 21
-421.89697395976827
 31
0.0
  0
LINE
  5
29C
  8
0
 62
     0
 10
257.7786008374934
 20
-419.62969553921897
 30
0.0
 11
258.57860083749313
 21
-418.82969553921941
 31
0.0
  0
LINE
  5
29D
  8
0
 62
     0
 10
255.92553597931709
 20
-422.89697395976827
 30
0.0
 11
256.9255359793172
 21
-421.89697395976827
 31
0.0
  0
LINE
  5
29E
  8
0
 62
     0
 10
257.7786008374934
 20
-421.04390910159208
 30
0.0
 11
258.57860083749313
 21
-420.24390910159241
 31
0.0
  0
LINE
  5
29F
  8
0
 62
     0
 10
257.3397495416902
 20
-422.89697395976827
 30
0.0
 11
258.57860083749313
 21
-421.6581226639654
 31
0.0
  0
ENDBLK
  5
2A1
  8
0
  0
BLOCK
  8
0
  2
*D3
 70
     1
 10
0.0
 20
0.0
 30
0.0
  3
*D3
  1

  0
LINE
  5
2DF
  8
1
 10
3.5906754281172648
 20
-0.0000000000000006
 30
0.0
 11
13.12320508075708
 21
-0.0000000000000033
 31
0.0
  0
LINE
  5
2E0
  8
1
 10
3.5906754281172648
 20
3.9999999999999991
 30
0.0
 11
13.12320508075708
 21
3.999999999999996
 31
0.0
  0
LINE
  5
2E1
  8
1
 10
12.12320508075708
 20
-0.000000000000003
 30
0.0
 11
12.12320508075708
 21
-2.0000000000000031
 31
0.0
  0
LINE
  5
2E2
  8
1
 10
12.12320508075708
 20
3.999999999999996
 30
0.0
 11
12.12320508075709
 21
5.9999999999999973
 31
0.0
  0
LINE
  5
2E3
  8
1
 10
12.12320508075708
 20
-0.000000000000003
 30
0.0
 11
12.12320508075708
 21
3.999999999999996
 31
0.0
  0
INSERT
  5
2E4
  8
1
  2
_OBLIQUE
 10
12.12320508075708
 20
-0.000000000000003
 30
0.0
 41
2.0
 42
2.0
 43
2.0
 50
90.0
  0
INSERT
  5
2E5
  8
1
  2
_OBLIQUE
 10
12.12320508075708
 20
3.999999999999996
 30
0.0
 41
2.0
 42
2.0
 43
2.0
 50
270.0
  0
TEXT
  5
2E6
  8
0
 10
11.12320508075708
 20
0.7274897680763973
 30
0.0
 40
3.5
  1
4
 50
90.0
  7
BESCHLAG
  0
POINT
  5
2E7
  8
DEFPOINTS
 62
     0
 10
1.590675428117265
 20
0.0
 30
0.0
  0
POINT
  5
2E8
  8
DEFPOINTS
 62
     0
 10
1.590675428117265
 20
3.9999999999999991
 30
0.0
  0
POINT
  5
2E9
  8
DEFPOINTS
 62
     0
 10
12.12320508075708
 20
3.999999999999996
 30
0.0
  0
ENDBLK
  5
2C6
  8
0
  0
BLOCK
  8
0
  2
*D4
 70
     1
 10
0.0
 20
0.0
 30
0.0
  3
*D4
  1

  0
LINE
  5
2EA
  8
1
 10
2.1232050807570881
 20
-7.0
 30
0.0
 11
13.12320508075708
 21
-7.0000000000000027
 31
0.0
  0
LINE
  5
2EB
  8
1
 10
2.1232050807570881
 20
-0.0000000000000006
 30
0.0
 11
13.12320508075708
 21
-0.0000000000000037
 31
0.0
  0
LINE
  5
2EC
  8
1
 10
12.12320508075708
 20
-8.0000000000000036
 30
0.0
 11
12.12320508075708
 21
0.9999999999999966
 31
0.0
  0
INSERT
  5
2ED
  8
1
  2
_OBLIQUE
 10
12.12320508075708
 20
-7.0000000000000027
 30
0.0
 41
2.0
 42
2.0
 43
2.0
 50
270.0
  0
INSERT
  5
2EE
  8
1
  2
_OBLIQUE
 10
12.12320508075708
 20
-0.0000000000000034
 30
0.0
 41
2.0
 42
2.0
 43
2.0
 50
90.0
  0
TEXT
  5
2EF
  8
0
 10
11.12320508075708
 20
-4.8644270122783091
 30
0.0
 40
3.5
  1
7
 50
90.0
  7
BESCHLAG
  0
POINT
  5
2F0
  8
DEFPOINTS
 62
     0
 10
0.1232050807570886
 20
-7.0
 30
0.0
  0
POINT
  5
2F1
  8
DEFPOINTS
 62
     0
 10
0.1232050807570886
 20
0.0
 30
0.0
  0
POINT
  5
2F2
  8
DEFPOINTS
 62
     0
 10
12.12320508075708
 20
-0.0000000000000034
 30
0.0
  0
ENDBLK
  5
2D2
  8
0
  0
BLOCK
  8
0
  2
*D5
 70
     1
 10
0.0
 20
0.0
 30
0.0
  3
*D5
  1

  0
LINE
  5
2F3
  8
1
 10
-0.0000000000000001
 20
-9.0
 30
0.0
 11
-0.0000000000000008
 21
-20.0
 31
0.0
  0
LINE
  5
2F4
  8
1
 10
-5.0000000000002274
 20
-9.0
 30
0.0
 11
-5.0000000000002283
 21
-20.0
 31
0.0
  0
LINE
  5
2F5
  8
1
 10
0.9999999999999992
 20
-19.0
 30
0.0
 11
-6.0000000000002283
 21
-19.0
 31
0.0
  0
INSERT
  5
2F6
  8
1
  2
_OBLIQUE
 10
-0.0000000000000007
 20
-19.0
 30
0.0
 41
2.0
 42
2.0
 43
2.0
  0
INSERT
  5
2F7
  8
1
  2
_OBLIQUE
 10
-5.0000000000002283
 20
-19.0
 30
0.0
 41
2.0
 42
2.0
 43
2.0
 50
180.0
  0
TEXT
  5
2F8
  8
0
 10
-3.8632332878582321
 20
-17.940313778990451
 30
0.0
 40
3.5
  1
5
  7
BESCHLAG
  0
POINT
  5
2F9
  8
DEFPOINTS
 62
     0
 10
0.0
 20
-7.0
 30
0.0
  0
POINT
  5
2FA
  8
DEFPOINTS
 62
     0
 10
-5.0000000000002274
 20
-7.0
 30
0.0
  0
POINT
  5
2FB
  8
DEFPOINTS
 62
     0
 10
-5.0000000000002283
 20
-19.0
 30
0.0
  0
ENDBLK
  5
2DE
  8
0
  0
ENDSEC
  0
SECTION
  2
ENTITIES
  0
INSERT
  5
25B
  8
5
  2
NULLPUNKT
 10
0.0
 20
0.0
 30
0.0
  0
INSERT
  5
2B0
  8
2
  2
*X2
 10
-258.57860083749318
 20
415.89697395976839
 30
0.0
1001
ACAD
1000
HATCH
1002
{
1070
    16
1000
_U,I
1040
1.0
1040
0.7853981633974483
1070
     0
1002
}
  0
DIMENSION
  5
2B1
  8
1
  2
*D3
 10
12.12320508075708
 20
3.999999999999996
 30
0.0
 11
9.3732050807570886
 21
1.9999999999999989
 31
0.0
 70
     0
 13
1.590675428117265
 23
0.0
 33
0.0
 14
1.590675428117265
 24
4.0
 34
0.0
 50
90.0
  0
DIMENSION
  5
2B2
  8
1
  2
*D4
 10
12.12320508075708
 20
-0.0000000000000034
 30
0.0
 11
9.3732050807570886
 21
-3.5000000000000009
 31
0.0
 70
     0
 13
0.1232050807570886
 23
-7.0
 33
0.0
 14
0.1232050807570886
 24
0.0
 34
0.0
 50
90.0
  0
POLYLINE
  5
2B3
  8
4
 66
     1
 10
0.0
 20
0.0
 30
0.0
 70
     1
  0
VERTEX
  5
3C5
  8
4
 10
-5.0000000000002274
 20
0.0
 30
0.0
  0
VERTEX
  5
3C6
  8
4
 10
-5.0000000000002274
 20
-7.0
 30
0.0
  0
VERTEX
  5
3C7
  8
4
 10
0.0
 20
-7.0
 30
0.0
  0
VERTEX
  5
3C8
  8
4
 10
0.0
 20
0.0
 30
0.0
  0
SEQEND
  5
3C9
  8
4
  0
POLYLINE
  5
2B4
  8
6
 66
     1
 10
0.0
 20
0.0
 30
0.0
 70
     1
  0
VERTEX
  5
3CA
  8
6
 10
-2.5
 20
-4.4497289022071982
 30
0.0
 42
0.1858042863250297
  0
VERTEX
  5
3CB
  8
6
 10
-2.1141126598895421
 20
-4.3012022379349437
 30
0.0
  0
VERTEX
  5
3CC
  8
6
 10
-0.9737728142622472
 20
-3.1611178436928631
 30
0.0
  0
VERTEX
  5
3CD
  8
6
 10
-0.9737728142622472
 20
-2.6651224314725819
 30
0.0
  0
VERTEX
  5
3CE
  8
6
 10
-1.1852730083551251
 20
-2.6651224314725819
 30
0.0
  0
VERTEX
  5
3CF
  8
6
 10
-1.555398020501797
 20
-2.9382346594254609
 30
0.0
  0
VERTEX
  5
3D0
  8
6
 10
-1.555398020501797
 20
-2.0448707249950071
 30
0.0
  0
VERTEX
  5
3D1
  8
6
 10
-1.000210502281333
 20
-1.5396074402377731
 30
0.0
  0
VERTEX
  5
3D2
  8
6
 10
-1.000210502281333
 20
-1.099561620886333
 30
0.0
  0
VERTEX
  5
3D3
  8
6
 10
-1.255772854708993
 20
-1.099561620886333
 30
0.0
  0
VERTEX
  5
3D4
  8
6
 10
-1.652335554875207
 20
-1.3374335560521331
 30
0.0
  0
VERTEX
  5
3D5
  8
6
 10
-1.652335554875207
 20
-0.576137829122672
 30
0.0
 42
-0.3143413491924476
  0
VERTEX
  5
3D6
  8
6
 10
-1.000210502281333
 20
0.0281272545341835
 30
0.0
 42
0.0525802491828312
  0
VERTEX
  5
3D7
  8
6
 10
0.7887274931158573
 20
0.4613466213752418
 30
0.0
 42
0.2941899476925632
  0
VERTEX
  5
3D8
  8
6
 10
1.570999910612954
 20
2.2008415498312379
 30
0.0
 42
0.2154492399871716
  0
VERTEX
  5
3D9
  8
6
 10
0.1355205483973805
 20
3.7697909787534618
 30
0.0
 42
0.1837585169342591
  0
VERTEX
  5
3DA
  8
6
 10
-4.9787634401261576
 20
3.0705890140592369
 30
0.0
 42
1.036550211925505
  0
VERTEX
  5
3DB
  8
6
 10
-4.7426240535603483
 20
2.6916276929963479
 30
0.0
 42
0.0623280433284819
  0
VERTEX
  5
3DC
  8
6
 10
-2.9467211183271038
 20
3.0333142379474789
 30
0.0
 42
-0.1908064339977625
  0
VERTEX
  5
3DD
  8
6
 10
0.0050225238069288
 20
2.8531522714439461
 30
0.0
 42
-0.2498387444718729
  0
VERTEX
  5
3DE
  8
6
 10
0.5331649223448949
 20
2.1777841270139779
 30
0.0
 42
-0.5375006586226123
  0
VERTEX
  5
3DF
  8
6
 10
-0.2070853202926628
 20
1.1734361940538061
 30
0.0
 42
-0.0017648196310027
  0
VERTEX
  5
3E0
  8
6
 10
-2.5159608015619588
 20
1.243916779627966
 30
0.0
 42
0.0752540349745939
  0
VERTEX
  5
3E1
  8
6
 10
-4.4458984896675702
 20
0.8650838379028301
 30
0.0
 42
0.2750755003841435
  0
VERTEX
  5
3E2
  8
6
 10
-4.9746485382122501
 20
0.2659990251110003
 30
0.0
 42
0.4980642202224989
  0
VERTEX
  5
3E3
  8
6
 10
-4.7983985948119416
 20
0.0721774970763818
 30
0.0
  0
VERTEX
  5
3E4
  8
6
 10
-3.8818984087740769
 20
0.0721774970763818
 30
0.0
 42
-0.4033442221785025
  0
VERTEX
  5
3E5
  8
6
 10
-3.3476644451245638
 20
-0.6025447218008823
 30
0.0
  0
VERTEX
  5
3E6
  8
6
 10
-3.3476644451245638
 20
-1.3374335560521331
 30
0.0
  0
VERTEX
  5
3E7
  8
6
 10
-3.744227145290778
 20
-1.099561620886333
 30
0.0
  0
VERTEX
  5
3E8
  8
6
 10
-3.9997894977184378
 20
-1.099561620886333
 30
0.0
  0
VERTEX
  5
3E9
  8
6
 10
-3.9997894977184378
 20
-1.5396074402377731
 30
0.0
  0
VERTEX
  5
3EA
  8
6
 10
-3.4446019794979739
 20
-2.0448707249950071
 30
0.0
  0
VERTEX
  5
3EB
  8
6
 10
-3.4446019794979739
 20
-2.9382346594254609
 30
0.0
  0
VERTEX
  5
3EC
  8
6
 10
-3.8147269916446471
 20
-2.6651224314725819
 30
0.0
  0
VERTEX
  5
3ED
  8
6
 10
-4.0262271857375254
 20
-2.6651224314725819
 30
0.0
  0
VERTEX
  5
3EE
  8
6
 10
-4.0262271857375254
 20
-3.1611178436928631
 30
0.0
  0
VERTEX
  5
3EF
  8
6
 10
-2.8858873401102301
 20
-4.3012022379349437
 30
0.0
 42
0.1858042863250297
  0
SEQEND
  5
3F0
  8
6
  0
POLYLINE
  5
2B5
  8
6
 66
     1
 10
0.0
 20
0.0
 30
0.0
 70
     1
  0
VERTEX
  5
3F1
  8
6
 10
-4.2000000000000446
 20
-1.0
 30
0.0
  0
VERTEX
  5
3F2
  8
6
 10
-4.2000000000000446
 20
-5.7000000000000446
 30
0.0
 42
0.4142135623730951
  0
VERTEX
  5
3F3
  8
6
 10
-3.8999999999998631
 20
-6.0
 30
0.0
  0
VERTEX
  5
3F4
  8
6
 10
-2.5
 20
-6.0
 30
0.0
  0
VERTEX
  5
3F5
  8
6
 10
-1.0999999999999091
 20
-6.0
 30
0.0
 42
0.4142135623730951
  0
VERTEX
  5
3F6
  8
6
 10
-0.7999999999997272
 20
-5.7000000000000446
 30
0.0
  0
VERTEX
  5
3F7
  8
6
 10
-0.7999999999997272
 20
-1.0
 30
0.0
  0
VERTEX
  5
3F8
  8
6
 10
-1.0999999999999091
 20
-1.0
 30
0.0
 42
-0.4142135623730951
  0
VERTEX
  5
3F9
  8
6
 10
-1.25
 20
-0.8500000000000227
 30
0.0
  0
VERTEX
  5
3FA
  8
6
 10
-1.25
 20
-0.8000000000000682
 30
0.0
 42
-0.4142135623730951
  0
VERTEX
  5
3FB
  8
6
 10
-0.4499999999998181
 20
0.0
 30
0.0
  0
VERTEX
  5
3FC
  8
6
 10
-0.1499999999996362
 20
0.0
 30
0.0
 42
-0.4142135623730951
  0
VERTEX
  5
3FD
  8
6
 10
0.0
 20
-0.1499999999999773
 30
0.0
  0
VERTEX
  5
3FE
  8
6
 10
0.0
 20
-1.1866025403784299
 30
0.0
  0
VERTEX
  5
3FF
  8
6
 10
0.0799038105678847
 20
-1.325000000000045
 30
0.0
 42
-0.2679491924310219
  0
VERTEX
  5
400
  8
6
 10
0.0799038105678847
 20
-1.4750000000000221
 30
0.0
  0
VERTEX
  5
401
  8
6
 10
0.0
 20
-1.6133974596216369
 30
0.0
  0
VERTEX
  5
402
  8
6
 10
0.0
 20
-1.6866025403784299
 30
0.0
  0
VERTEX
  5
403
  8
6
 10
0.0799038105678847
 20
-1.825000000000045
 30
0.0
 42
-0.2679491924310219
  0
VERTEX
  5
404
  8
6
 10
0.0799038105678847
 20
-1.9750000000000221
 30
0.0
  0
VERTEX
  5
405
  8
6
 10
0.0
 20
-2.1133974596216372
 30
0.0
  0
VERTEX
  5
406
  8
6
 10
0.0
 20
-2.1866025403784302
 30
0.0
  0
VERTEX
  5
407
  8
6
 10
0.0799038105678847
 20
-2.325000000000045
 30
0.0
 42
-0.2679491924310219
  0
VERTEX
  5
408
  8
6
 10
0.0799038105678847
 20
-2.4750000000000218
 30
0.0
  0
VERTEX
  5
409
  8
6
 10
0.0
 20
-2.6133974596216372
 30
0.0
  0
VERTEX
  5
40A
  8
6
 10
0.0
 20
-6.5
 30
0.0
 42
-0.4142135623730951
  0
VERTEX
  5
40B
  8
6
 10
-0.5
 20
-7.0
 30
0.0
  0
VERTEX
  5
40C
  8
6
 10
-2.5
 20
-7.0
 30
0.0
  0
VERTEX
  5
40D
  8
6
 10
-4.5000000000002274
 20
-7.0
 30
0.0
 42
-0.4142135623730951
  0
VERTEX
  5
40E
  8
6
 10
-5.0000000000002274
 20
-6.5
 30
0.0
  0
VERTEX
  5
40F
  8
6
 10
-5.0000000000002274
 20
-2.6133974596216372
 30
0.0
  0
VERTEX
  5
410
  8
6
 10
-5.0799038105676573
 20
-2.4750000000000218
 30
0.0
 42
-0.2679491924310219
  0
VERTEX
  5
411
  8
6
 10
-5.0799038105676573
 20
-2.325000000000045
 30
0.0
  0
VERTEX
  5
412
  8
6
 10
-5.0000000000002274
 20
-2.1866025403784302
 30
0.0
  0
VERTEX
  5
413
  8
6
 10
-5.0000000000002274
 20
-2.1133974596216372
 30
0.0
  0
VERTEX
  5
414
  8
6
 10
-5.0799038105676573
 20
-1.9750000000000221
 30
0.0
 42
-0.2679491924310219
  0
VERTEX
  5
415
  8
6
 10
-5.0799038105676573
 20
-1.825000000000045
 30
0.0
  0
VERTEX
  5
416
  8
6
 10
-5.0000000000002274
 20
-1.6866025403784299
 30
0.0
  0
VERTEX
  5
417
  8
6
 10
-5.0000000000002274
 20
-1.6133974596216369
 30
0.0
  0
VERTEX
  5
418
  8
6
 10
-5.0799038105676573
 20
-1.4750000000000221
 30
0.0
 42
-0.2679491924310219
  0
VERTEX
  5
419
  8
6
 10
-5.0799038105676573
 20
-1.325000000000045
 30
0.0
  0
VERTEX
  5
41A
  8
6
 10
-5.0000000000002274
 20
-1.1866025403784299
 30
0.0
  0
VERTEX
  5
41B
  8
6
 10
-5.0000000000002274
 20
-0.1499999999999773
 30
0.0
 42
-0.4142135623730951
  0
VERTEX
  5
41C
  8
6
 10
-4.8500000000001364
 20
0.0
 30
0.0
  0
VERTEX
  5
41D
  8
6
 10
-4.5499999999999536
 20
0.0
 30
0.0
 42
-0.4142135623730951
  0
VERTEX
  5
41E
  8
6
 10
-3.7500000000002269
 20
-0.8000000000000682
 30
0.0
  0
VERTEX
  5
41F
  8
6
 10
-3.7500000000002269
 20
-0.8500000000000227
 30
0.0
 42
-0.4142135623730951
  0
VERTEX
  5
420
  8
6
 10
-3.8999999999998631
 20
-1.0
 30
0.0
  0
SEQEND
  5
421
  8
6
  0
POLYLINE
  5
2B6
  8
5
 66
     1
 10
0.0
 20
0.0
 30
0.0
  0
VERTEX
  5
422
  8
5
 10
-6.0000000000002274
 20
0.0
 30
0.0
  0
VERTEX
  5
423
  8
5
 10
-5.0000000000002274
 20
0.0
 30
0.0
  0
VERTEX
  5
424
  8
5
 10
-5.0000000000002274
 20
-7.0
 30
0.0
  0
VERTEX
  5
425
  8
5
 10
0.0
 20
-7.0
 30
0.0
  0
VERTEX
  5
426
  8
5
 10
0.0
 20
0.0
 30
0.0
  0
VERTEX
  5
427
  8
5
 10
1.0
 20
0.0
 30
0.0
  0
SEQEND
  5
428
  8
5
  0
DIMENSION
  5
2B7
  8
1
  2
*D5
 10
-5.0000000000002283
 20
-19.0
 30
0.0
 11
-2.5000000000001141
 21
-16.220156889495222
 31
0.0
 70
     0
 13
0.0
 23
-7.0
 33
0.0
 14
-5.0000000000002274
 24
-7.0
 34
0.0
 50
180.0
  0
LINE
  5
2B8
  8
5
 10
-5.0000000000002274
 20
4.0
 30
0.0
 11
0.0
 21
4.0
 31
0.0
  0
TEXT
  5
301
  8
1
 10
-3.708486119403005
 20
6.8768207671732853
 30
0.0
 40
2.5
  1
Hebgo 131/634
 41
0.9
  7
BESCHLAG
  0
VIEWPORT
  5
22
 67
     1
  8
0
 10
210.0
 20
170.2366863905325
 30
0.0
 40
420.0
 41
340.47337278106511
 68
     1
 69
     1
1001
ACAD
1000
MVIEW
1002
{
1070
    16
1010
0.0
1020
0.0
1030
0.0
1010
0.0
1020
0.0
1030
1.0
1040
0.0
1040
340.47337278106511
1040
210.0
1040
170.2366863905325
1040
50.0
1040
0.0
1040
0.0
1070
     0
1070
   100
1070
     1
1070
     1
1070
     0
1070
     0
1070
     0
1070
     0
1040
0.0
1040
0.0
1040
0.0
1040
5.0
1040
5.0
1040
10.0
1040
10.0
1070
     0
1002
{
1002
}
1002
}
  0
ENDSEC
  0
EOF
