  0
SECTION
  2
HEADER
  9
$ACADVER
  1
AC1015
  9
$ACADMAINTVER
 70
    13
  9
$DWGCODEPAGE
  3
ANSI_1252
  9
$INSBASE
 10
0.0
 20
0.0
 30
0.0
  9
$EXTMIN
 10
-25.4931787175989
 20
-21.76887616102485
 30
0.0
  9
$EXTMAX
 10
22.34751781222894
 20
9.983710053648536
 30
0.0
  9
$LIMMIN
 10
-150.0
 20
-150.0
  9
$LIMMAX
 10
150.0
 20
150.0
  9
$ORTHOMODE
 70
     0
  9
$REGENMODE
 70
     1
  9
$FILLMODE
 70
     1
  9
$QTEXTMODE
 70
     0
  9
$MIRRTEXT
 70
     0
  9
$LTSCALE
 40
3.0
  9
$ATTMODE
 70
     1
  9
$TEXTSIZE
 40
3.5
  9
$TRACEWID
 40
1.0
  9
$TEXTSTYLE
  7
Beschlag
  9
$CLAYER
  8
2
  9
$CELTYPE
  6
BYLAYER
  9
$CECOLOR
 62
   256
  9
$CELTSCALE
 40
1.0
  9
$DISPSILH
 70
     1
  9
$DIMSCALE
 40
1.0
  9
$DIMASZ
 40
2.0
  9
$DIMEXO
 40
2.0
  9
$DIMDLI
 40
0.0
  9
$DIMRND
 40
0.0
  9
$DIMDLE
 40
1.0
  9
$DIMEXE
 40
1.0
  9
$DIMTP
 40
0.0
  9
$DIMTM
 40
0.0
  9
$DIMTXT
 40
3.5
  9
$DIMCEN
 40
0.0
  9
$DIMTSZ
 40
0.0
  9
$DIMTOL
 70
     0
  9
$DIMLIM
 70
     0
  9
$DIMTIH
 70
     0
  9
$DIMTOH
 70
     0
  9
$DIMSE1
 70
     0
  9
$DIMSE2
 70
     0
  9
$DIMTAD
 70
     1
  9
$DIMZIN
 70
     8
  9
$DIMBLK
  1

  9
$DIMASO
 70
     1
  9
$DIMSHO
 70
     1
  9
$DIMPOST
  1

  9
$DIMAPOST
  1

  9
$DIMALT
 70
     0
  9
$DIMALTD
 70
     2
  9
$DIMALTF
 40
0.039370078740157
  9
$DIMLFAC
 40
1.0
  9
$DIMTOFL
 70
     1
  9
$DIMTVP
 40
0.0
  9
$DIMTIX
 70
     1
  9
$DIMSOXD
 70
     0
  9
$DIMSAH
 70
     1
  9
$DIMBLK1
  1
Oblique
  9
$DIMBLK2
  1
Oblique
  9
$DIMSTYLE
  2
OPO-SSTRICH
  9
$DIMCLRD
 70
   256
  9
$DIMCLRE
 70
   256
  9
$DIMCLRT
 70
   256
  9
$DIMTFAC
 40
0.7114285714285716
  9
$DIMGAP
 40
1.0
  9
$DIMJUST
 70
     0
  9
$DIMSD1
 70
     0
  9
$DIMSD2
 70
     0
  9
$DIMTOLJ
 70
     1
  9
$DIMTZIN
 70
     8
  9
$DIMALTZ
 70
     8
  9
$DIMALTTZ
 70
     8
  9
$DIMUPT
 70
     0
  9
$DIMDEC
 70
     1
  9
$DIMTDEC
 70
     1
  9
$DIMALTU
 70
     2
  9
$DIMALTTD
 70
     2
  9
$DIMTXSTY
  7
Beschlag
  9
$DIMAUNIT
 70
     0
  9
$DIMADEC
 70
     1
  9
$DIMALTRND
 40
0.0
  9
$DIMAZIN
 70
     2
  9
$DIMDSEP
 70
    46
  9
$DIMATFIT
 70
     3
  9
$DIMFRAC
 70
     0
  9
$DIMLDRBLK
  1
Oblique
  9
$DIMLUNIT
 70
     2
  9
$DIMLWD
 70
    -2
  9
$DIMLWE
 70
    -2
  9
$DIMTMOVE
 70
     2
  9
$LUNITS
 70
     2
  9
$LUPREC
 70
     1
  9
$SKETCHINC
 40
1.0
  9
$FILLETRAD
 40
0.5
  9
$AUNITS
 70
     0
  9
$AUPREC
 70
     1
  9
$MENU
  1
D:\ACL_CGWG\CGTAB13
  9
$ELEVATION
 40
0.0
  9
$PELEVATION
 40
0.0
  9
$THICKNESS
 40
0.0
  9
$LIMCHECK
 70
     0
  9
$CHAMFERA
 40
1.0
  9
$CHAMFERB
 40
1.0
  9
$CHAMFERC
 40
1.0
  9
$CHAMFERD
 40
0.7853981633974483
  9
$SKPOLY
 70
     0
  9
$TDCREATE
 40
2451739.905307430
  9
$TDUCREATE
 40
2451739.863640764
  9
$TDUPDATE
 40
2452243.468586146
  9
$TDUUPDATE
 40
2452243.426919479
  9
$TDINDWG
 40
0.0497179977
  9
$TDUSRTIMER
 40
0.0497178125
  9
$USRTIMER
 70
     1
  9
$ANGBASE
 50
0.0
  9
$ANGDIR
 70
     0
  9
$PDMODE
 70
    35
  9
$PDSIZE
 40
5.0
  9
$PLINEWID
 40
0.0
  9
$SPLFRAME
 70
     0
  9
$SPLINETYPE
 70
     6
  9
$SPLINESEGS
 70
     8
  9
$HANDSEED
  5
5CA
  9
$SURFTAB1
 70
    12
  9
$SURFTAB2
 70
    12
  9
$SURFTYPE
 70
     6
  9
$SURFU
 70
    12
  9
$SURFV
 70
    12
  9
$UCSBASE
  2

  9
$UCSNAME
  2

  9
$UCSORG
 10
0.0
 20
0.0
 30
0.0
  9
$UCSXDIR
 10
1.0
 20
0.0
 30
0.0
  9
$UCSYDIR
 10
0.0
 20
1.0
 30
0.0
  9
$UCSORTHOREF
  2

  9
$UCSORTHOVIEW
 70
     0
  9
$UCSORGTOP
 10
0.0
 20
0.0
 30
0.0
  9
$UCSORGBOTTOM
 10
0.0
 20
0.0
 30
0.0
  9
$UCSORGLEFT
 10
0.0
 20
0.0
 30
0.0
  9
$UCSORGRIGHT
 10
0.0
 20
0.0
 30
0.0
  9
$UCSORGFRONT
 10
0.0
 20
0.0
 30
0.0
  9
$UCSORGBACK
 10
0.0
 20
0.0
 30
0.0
  9
$PUCSBASE
  2

  9
$PUCSNAME
  2

  9
$PUCSORG
 10
0.0
 20
0.0
 30
0.0
  9
$PUCSXDIR
 10
1.0
 20
0.0
 30
0.0
  9
$PUCSYDIR
 10
0.0
 20
1.0
 30
0.0
  9
$PUCSORTHOREF
  2

  9
$PUCSORTHOVIEW
 70
     0
  9
$PUCSORGTOP
 10
0.0
 20
0.0
 30
0.0
  9
$PUCSORGBOTTOM
 10
0.0
 20
0.0
 30
0.0
  9
$PUCSORGLEFT
 10
0.0
 20
0.0
 30
0.0
  9
$PUCSORGRIGHT
 10
0.0
 20
0.0
 30
0.0
  9
$PUCSORGFRONT
 10
0.0
 20
0.0
 30
0.0
  9
$PUCSORGBACK
 10
0.0
 20
0.0
 30
0.0
  9
$USERI1
 70
     0
  9
$USERI2
 70
     0
  9
$USERI3
 70
     0
  9
$USERI4
 70
     0
  9
$USERI5
 70
     0
  9
$USERR1
 40
0.0
  9
$USERR2
 40
0.0
  9
$USERR3
 40
0.0
  9
$USERR4
 40
0.0
  9
$USERR5
 40
0.0
  9
$WORLDVIEW
 70
     1
  9
$SHADEDGE
 70
     3
  9
$SHADEDIF
 70
    70
  9
$TILEMODE
 70
     1
  9
$MAXACTVP
 70
    48
  9
$PINSBASE
 10
0.0
 20
0.0
 30
0.0
  9
$PLIMCHECK
 70
     0
  9
$PEXTMIN
 10
1.000000000000000E+20
 20
1.000000000000000E+20
 30
1.000000000000000E+20
  9
$PEXTMAX
 10
-1.000000000000000E+20
 20
-1.000000000000000E+20
 30
-1.000000000000000E+20
  9
$PLIMMIN
 10
0.0
 20
0.0
  9
$PLIMMAX
 10
420.0
 20
297.0
  9
$UNITMODE
 70
     0
  9
$VISRETAIN
 70
     1
  9
$PLINEGEN
 70
     0
  9
$PSLTSCALE
 70
     1
  9
$TREEDEPTH
 70
  3020
  9
$CMLSTYLE
  2
STANDARD
  9
$CMLJUST
 70
     0
  9
$CMLSCALE
 40
1.0
  9
$PROXYGRAPHICS
 70
     1
  9
$MEASUREMENT
 70
     1
  9
$CELWEIGHT
370
    -1
  9
$ENDCAPS
280
     0
  9
$JOINSTYLE
280
     0
  9
$LWDISPLAY
290
     0
  9
$INSUNITS
 70
     0
  9
$HYPERLINKBASE
  1

  9
$STYLESHEET
  1
Hebgo Laser.ctb
  9
$XEDIT
290
     1
  9
$CEPSNTYPE
380
     0
  9
$PSTYLEMODE
290
     1
  9
$FINGERPRINTGUID
  2
{DEF6964E-5F8B-11D3-8AEE-0008C71A8CF4}
  9
$VERSIONGUID
  2
{25617C14-7513-4E13-BA76-2D0A20993F17}
  9
$EXTNAMES
290
     1
  9
$PSVPSCALE
 40
0.0
  9
$OLESTARTUP
290
     0
  0
ENDSEC
  0
SECTION
  2
CLASSES
  0
CLASS
  1
ACDBDICTIONARYWDFLT
  2
AcDbDictionaryWithDefault
  3
AutoCAD 2000
 90
        0
280
     0
281
     0
  0
CLASS
  1
ACDBPLACEHOLDER
  2
AcDbPlaceHolder
  3
AutoCAD 2000
 90
        0
280
     0
281
     0
  0
CLASS
  1
LAYOUT
  2
AcDbLayout
  3
AutoCAD 2000
 90
        0
280
     0
281
     0
  0
CLASS
  1
DICTIONARYVAR
  2
AcDbDictionaryVar
  3
AutoCAD 2000
 90
        0
280
     0
281
     0
  0
CLASS
  1
LONG_TRANSACTION
  2
AcDbLongTransaction
  3
AutoCAD 2000
 90
    32768
280
     0
281
     0
  0
CLASS
  1
LWPOLYLINE
  2
AcDbPolyline
  3
AutoCAD 2000
 90
    32768
280
     0
281
     1
  0
CLASS
  1
HATCH
  2
AcDbHatch
  3
AutoCAD 2000
 90
    32768
280
     0
281
     1
  0
CLASS
  1
XRECORD
  2
AcDbXrecord
  3
AutoCAD 2000
 90
    32768
280
     0
281
     0
  0
CLASS
  1
PLOTSETTINGS
  2
AcDbPlotSettings
  3
AutoCAD 2000
 90
        0
280
     0
281
     0
  0
CLASS
  1
LONG_TRANSACTION
  2
AcDbLongTransaction
  3
AutoCAD 2000
 90
    32768
280
     0
281
     0
  0
CLASS
  1
LWPOLYLINE
  2
AcDbPolyline
  3
AutoCAD 2000
 90
    32768
280
     0
281
     1
  0
CLASS
  1
HATCH
  2
AcDbHatch
  3
AutoCAD 2000
 90
    32768
280
     0
281
     1
  0
CLASS
  1
XRECORD
  2
AcDbXrecord
  3
AutoCAD 2000
 90
    32768
280
     0
281
     0
  0
CLASS
  1
LONG_TRANSACTION
  2
AcDbLongTransaction
  3
AutoCAD 2000
 90
    32768
280
     0
281
     0
  0
CLASS
  1
LWPOLYLINE
  2
AcDbPolyline
  3
AutoCAD 2000
 90
    32768
280
     0
281
     1
  0
CLASS
  1
HATCH
  2
AcDbHatch
  3
AutoCAD 2000
 90
    32768
280
     0
281
     1
  0
CLASS
  1
XRECORD
  2
AcDbXrecord
  3
AutoCAD 2000
 90
    32768
280
     0
281
     0
  0
CLASS
  1
LONG_TRANSACTION
  2
AcDbLongTransaction
  3
AutoCAD 2000
 90
    32768
280
     0
281
     0
  0
CLASS
  1
LWPOLYLINE
  2
AcDbPolyline
  3
AutoCAD 2000
 90
    32768
280
     0
281
     1
  0
CLASS
  1
HATCH
  2
AcDbHatch
  3
AutoCAD 2000
 90
    32768
280
     0
281
     1
  0
CLASS
  1
XRECORD
  2
AcDbXrecord
  3
AutoCAD 2000
 90
    32768
280
     0
281
     0
  0
CLASS
  1
LONG_TRANSACTION
  2
AcDbLongTransaction
  3
AutoCAD 2000
 90
    32768
280
     0
281
     0
  0
CLASS
  1
LWPOLYLINE
  2
AcDbPolyline
  3
AutoCAD 2000
 90
    32768
280
     0
281
     1
  0
CLASS
  1
HATCH
  2
AcDbHatch
  3
AutoCAD 2000
 90
    32768
280
     0
281
     1
  0
CLASS
  1
XRECORD
  2
AcDbXrecord
  3
AutoCAD 2000
 90
    32768
280
     0
281
     0
  0
CLASS
  1
SORTENTSTABLE
  2
AcDbSortentsTable
  3
AutoCAD 2000
 90
        0
280
     0
281
     0
  0
ENDSEC
  0
SECTION
  2
TABLES
  0
TABLE
  2
VPORT
  5
8
330
0
100
AcDbSymbolTable
 70
     2
  0
VPORT
  5
5C9
330
8
100
AcDbSymbolTableRecord
100
AcDbViewportTableRecord
  2
*Active
 70
     0
 10
0.0
 20
0.0
 11
1.0
 21
1.0
 12
-1.567839879505072
 22
-5.893706583759865
 13
0.0
 23
0.0
 14
0.5
 24
0.5
 15
10.0
 25
10.0
 16
0.0
 26
0.0
 36
1.0
 17
0.0
 27
0.0
 37
0.0
 40
32.0400592518229
 41
1.581486310299869
 42
50.0
 43
0.0
 44
0.0
 50
0.0
 51
0.0
 71
     0
 72
   800
 73
     1
 74
     1
 75
     0
 76
     0
 77
     0
 78
     0
281
     0
 65
     1
110
0.0
120
0.0
130
0.0
111
1.0
121
0.0
131
0.0
112
0.0
122
1.0
132
0.0
 79
     0
146
0.0
  0
ENDTAB
  0
TABLE
  2
LTYPE
  5
5
330
0
100
AcDbSymbolTable
 70
     2
  0
LTYPE
  5
14
330
5
100
AcDbSymbolTableRecord
100
AcDbLinetypeTableRecord
  2
BYBLOCK
 70
     0
  3

 72
    65
 73
     0
 40
0.0
  0
LTYPE
  5
15
330
5
100
AcDbSymbolTableRecord
100
AcDbLinetypeTableRecord
  2
BYLAYER
 70
     0
  3

 72
    65
 73
     0
 40
0.0
  0
LTYPE
  5
16
330
5
100
AcDbSymbolTableRecord
100
AcDbLinetypeTableRecord
  2
CONTINUOUS
 70
     0
  3
_______________________________________________
 72
    65
 73
     2
 40
1.0
 49
1.0
 74
     0
 49
0.0
 74
     0
  0
LTYPE
  5
2A3
330
5
100
AcDbSymbolTableRecord
100
AcDbLinetypeTableRecord
  2
STRICHPUNKT
 70
     0
  3
__ . __ . __ . __ . __ . __ . __ . __ . __ . __
 72
    65
 73
     4
 40
1.0
 49
0.5
 74
     0
 49
-0.25
 74
     0
 49
0.0
 74
     0
 49
-0.25
 74
     0
  0
ENDTAB
  0
TABLE
  2
LAYER
  5
2
330
0
100
AcDbSymbolTable
 70
     7
  0
LAYER
  5
F
330
2
100
AcDbSymbolTableRecord
100
AcDbLayerTableRecord
  2
0
 70
     0
 62
    30
  6
CONTINUOUS
370
    -3
390
F3
  0
LAYER
  5
120
330
2
100
AcDbSymbolTableRecord
100
AcDbLayerTableRecord
  2
1
 70
     0
 62
     2
  6
CONTINUOUS
370
    -3
390
F3
  0
LAYER
  5
121
330
2
100
AcDbSymbolTableRecord
100
AcDbLayerTableRecord
  2
2
 70
     0
 62
     9
  6
CONTINUOUS
370
    -3
390
F3
  0
LAYER
  5
123
330
2
100
AcDbSymbolTableRecord
100
AcDbLayerTableRecord
  2
4
 70
     0
 62
     4
  6
CONTINUOUS
370
    -3
390
F3
  0
LAYER
  5
124
330
2
100
AcDbSymbolTableRecord
100
AcDbLayerTableRecord
  2
5
 70
     0
 62
     1
  6
CONTINUOUS
370
    -3
390
F3
  0
LAYER
  5
125
330
2
100
AcDbSymbolTableRecord
100
AcDbLayerTableRecord
  2
6
 70
     0
 62
     3
  6
CONTINUOUS
370
    35
390
F3
  0
LAYER
  5
207
330
2
100
AcDbSymbolTableRecord
100
AcDbLayerTableRecord
  2
Defpoints
 70
     0
 62
     7
  6
CONTINUOUS
290
     0
370
    -3
390
F3
  0
ENDTAB
  0
TABLE
  2
STYLE
  5
3
330
0
100
AcDbSymbolTable
 70
     2
  0
STYLE
  5
10
330
3
100
AcDbSymbolTableRecord
100
AcDbTextStyleTableRecord
  2
STANDARD
 70
     0
 40
0.0
 41
1.0
 50
0.0
 71
     0
 42
2.5
  3
ARIAL.TTF
  4

1001
ACAD
1000
Arial
1071
       34
  0
STYLE
  5
12B
330
3
100
AcDbSymbolTableRecord
100
AcDbTextStyleTableRecord
  2
Beschlag
 70
     0
 40
0.0
 41
1.0
 50
0.0
 71
     0
 42
3.5
  3
ARIAL.TTF
  4

1001
ACAD
1000
Arial
1071
       34
  0
ENDTAB
  0
TABLE
  2
VIEW
  5
6
330
0
100
AcDbSymbolTable
 70
     0
  0
ENDTAB
  0
TABLE
  2
UCS
  5
7
330
0
100
AcDbSymbolTable
 70
     0
  0
ENDTAB
  0
TABLE
  2
APPID
  5
9
330
0
100
AcDbSymbolTable
 70
     1
  0
APPID
  5
11
330
9
100
AcDbSymbolTableRecord
100
AcDbRegAppTableRecord
  2
ACAD
 70
     0
  0
ENDTAB
  0
TABLE
  2
DIMSTYLE
  5
A
330
0
100
AcDbSymbolTable
 70
     1
100
AcDbDimStyleTable
 71
     1
340
209
  0
DIMSTYLE
105
209
102
{ACAD_REACTORS
330
2B8
330
2B9
330
2BD
330
488
330
57C
102
}
330
A
100
AcDbSymbolTableRecord
100
AcDbDimStyleTableRecord
  2
OPO-SSTRICH
 70
     0
 41
2.0
 42
2.0
 43
0.0
 44
1.0
 46
1.0
 73
     0
 74
     0
 77
     1
 78
     8
 79
     2
140
3.5
141
0.0
143
0.039370078740157
146
0.7114285714285716
147
1.0
172
     1
173
     1
174
     1
176
   256
177
   256
178
   256
179
     1
271
     1
272
     1
279
     2
284
     8
285
     8
286
     8
340
12B
341
203
343
203
344
203
  0
ENDTAB
  0
TABLE
  2
BLOCK_RECORD
  5
1
330
0
100
AcDbSymbolTable
 70
     7
  0
BLOCK_RECORD
  5
1A
102
{ACAD_XDICTIONARY
360
1F6
102
}
330
1
100
AcDbSymbolTableRecord
100
AcDbBlockTableRecord
  2
*MODEL_SPACE
340
F6
  0
BLOCK_RECORD
  5
17
102
{ACAD_XDICTIONARY
360
1F4
102
}
330
1
100
AcDbSymbolTableRecord
100
AcDbBlockTableRecord
  2
*PAPER_SPACE
340
F7
  0
BLOCK_RECORD
  5
203
330
1
100
AcDbSymbolTableRecord
100
AcDbBlockTableRecord
  2
_Oblique
340
0
102
{BLKREFS
331
59B
331
59C
331
5A4
331
5A5
331
5AD
331
5AE
331
5B6
331
5B7
331
5C0
331
5C1
102
}
  0
BLOCK_RECORD
  5
253
330
1
100
AcDbSymbolTableRecord
100
AcDbBlockTableRecord
  2
NullPunkt
340
0
102
{BLKREFS
331
25B
102
}
  0
BLOCK_RECORD
  5
2C7
330
1
100
AcDbSymbolTableRecord
100
AcDbBlockTableRecord
  2
*D2
340
0
  0
BLOCK_RECORD
  5
2D5
330
1
100
AcDbSymbolTableRecord
100
AcDbBlockTableRecord
  2
*D3
340
0
  0
BLOCK_RECORD
  5
2E1
330
1
100
AcDbSymbolTableRecord
100
AcDbBlockTableRecord
  2
*D4
340
0
  0
BLOCK_RECORD
  5
489
330
1
100
AcDbSymbolTableRecord
100
AcDbBlockTableRecord
  2
*D5
340
0
  0
BLOCK_RECORD
  5
57D
330
1
100
AcDbSymbolTableRecord
100
AcDbBlockTableRecord
  2
*D6
340
0
  0
ENDTAB
  0
ENDSEC
  0
SECTION
  2
BLOCKS
  0
BLOCK
  5
1B
330
1A
100
AcDbEntity
  8
0
100
AcDbBlockBegin
  2
*MODEL_SPACE
 70
     0
 10
0.0
 20
0.0
 30
0.0
  3
*MODEL_SPACE
  1

  0
ENDBLK
  5
1C
330
1A
100
AcDbEntity
  8
0
100
AcDbBlockEnd
  0
BLOCK
  5
18
330
17
100
AcDbEntity
 67
     1
  8
0
100
AcDbBlockBegin
  2
*PAPER_SPACE
 70
     0
 10
0.0
 20
0.0
 30
0.0
  3
*PAPER_SPACE
  1

  0
ENDBLK
  5
19
330
17
100
AcDbEntity
 67
     1
  8
0
100
AcDbBlockEnd
  0
BLOCK
  5
205
330
203
100
AcDbEntity
  8
0
100
AcDbBlockBegin
  2
_Oblique
 70
     0
 10
0.0
 20
0.0
 30
0.0
  3
_Oblique
  1

  0
LINE
  5
204
330
203
100
AcDbEntity
  8
0
 62
     0
370
    -2
100
AcDbLine
 10
-0.5
 20
-0.5
 30
0.0
 11
0.5
 21
0.5
 31
0.0
  0
ENDBLK
  5
206
330
203
100
AcDbEntity
  8
0
100
AcDbBlockEnd
  0
BLOCK
  5
259
330
253
100
AcDbEntity
  8
0
100
AcDbBlockBegin
  2
NullPunkt
 70
     0
 10
0.0
 20
0.0
 30
0.0
  3
NullPunkt
  1

  0
SOLID
  5
254
330
253
100
AcDbEntity
  8
5
100
AcDbTrace
 10
0.0
 20
0.0
 30
0.0
 11
2.0
 21
0.0
 31
0.0
 12
0.0
 22
-2.0
 32
0.0
 13
0.0
 23
-2.0
 33
0.0
  0
SOLID
  5
255
330
253
100
AcDbEntity
  8
5
100
AcDbTrace
 10
0.0
 20
0.0
 30
0.0
 11
-2.0
 21
0.0
 31
0.0
 12
0.0
 22
2.0
 32
0.0
 13
0.0
 23
2.0
 33
0.0
  0
LWPOLYLINE
  5
256
330
253
100
AcDbEntity
  8
5
100
AcDbPolyline
 90
        2
 70
     0
 43
0.0
 10
0.0
 20
2.0
 10
0.0
 20
-2.0
  0
LWPOLYLINE
  5
257
330
253
100
AcDbEntity
  8
5
100
AcDbPolyline
 90
        2
 70
     0
 43
0.0
 10
-2.0
 20
0.0
 10
2.0
 20
0.0
  0
CIRCLE
  5
258
330
253
100
AcDbEntity
  8
5
100
AcDbCircle
 10
0.0
 20
0.0
 30
0.0
 40
2.0
  0
ENDBLK
  5
25A
330
253
100
AcDbEntity
  8
0
100
AcDbBlockEnd
  0
BLOCK
  5
2D3
330
2C7
100
AcDbEntity
  8
0
100
AcDbBlockBegin
  2
*D2
 70
     1
 10
0.0
 20
0.0
 30
0.0
  3
*D2
  1

  0
LINE
  5
5BC
330
2C7
100
AcDbEntity
  8
1
370
    -2
100
AcDbLine
 10
2.0
 20
-0.0000000000000006
 30
0.0
 11
22.34751781222894
 21
-0.0000000000000063
 31
0.0
  0
LINE
  5
5BD
330
2C7
100
AcDbEntity
  8
1
370
    -2
100
AcDbLine
 10
2.0
 20
1.999999999999999
 30
0.0
 11
22.34751781222894
 21
1.999999999999993
 31
0.0
  0
LINE
  5
5BE
330
2C7
100
AcDbEntity
  8
1
370
    -2
100
AcDbLine
 10
21.34751781222894
 20
-1.000000000000005
 30
0.0
 11
21.34751781222894
 21
2.999999999999993
 31
0.0
  0
MTEXT
  5
5BF
330
2C7
100
AcDbEntity
  8
1
100
AcDbMText
 10
18.56051235520302
 20
6.433573628000516
 30
0.0
 40
3.5
 41
0.0
 71
     5
 72
     1
  1
\A1;0-4
  7
Beschlag
 11
0.0000000000000001
 21
1.0
 31
0.0
 73
     1
 44
1.0
  0
INSERT
  5
5C0
330
2C7
100
AcDbEntity
  8
1
370
    -2
100
AcDbBlockReference
  2
_Oblique
 10
21.34751781222894
 20
-0.000000000000006
 30
0.0
 41
2.0
 42
2.0
 43
2.0
 50
270.0
  0
INSERT
  5
5C1
330
2C7
100
AcDbEntity
  8
1
370
    -2
100
AcDbBlockReference
  2
_Oblique
 10
21.34751781222894
 20
1.999999999999993
 30
0.0
 41
2.0
 42
2.0
 43
2.0
 50
90.0
  0
POINT
  5
5C2
330
2C7
100
AcDbEntity
  8
Defpoints
 62
     0
100
AcDbPoint
 10
0.0
 20
0.0
 30
0.0
  0
POINT
  5
5C3
330
2C7
100
AcDbEntity
  8
Defpoints
 62
     0
100
AcDbPoint
 10
0.0
 20
2.0
 30
0.0
  0
POINT
  5
5C4
330
2C7
100
AcDbEntity
  8
Defpoints
 62
     0
100
AcDbPoint
 10
21.34751781222894
 20
1.999999999999993
 30
0.0
  0
ENDBLK
  5
2D4
330
2C7
100
AcDbEntity
  8
0
100
AcDbBlockEnd
  0
BLOCK
  5
2DF
330
2D5
100
AcDbEntity
  8
0
100
AcDbBlockBegin
  2
*D3
 70
     1
 10
0.0
 20
0.0
 30
0.0
  3
*D3
  1

  0
LINE
  5
5B3
330
2D5
100
AcDbEntity
  8
1
370
    -2
100
AcDbLine
 10
2.0
 20
-8.0
 30
0.0
 11
22.34751781222894
 21
-8.000000000000007
 31
0.0
  0
LINE
  5
5B4
330
2D5
100
AcDbEntity
  8
1
370
    -2
100
AcDbLine
 10
2.0
 20
-0.0000000000000006
 30
0.0
 11
22.34751781222894
 21
-0.0000000000000063
 31
0.0
  0
LINE
  5
5B5
330
2D5
100
AcDbEntity
  8
1
370
    -2
100
AcDbLine
 10
21.34751781222893
 20
-9.000000000000007
 30
0.0
 11
21.34751781222894
 21
0.9999999999999939
 31
0.0
  0
INSERT
  5
5B6
330
2D5
100
AcDbEntity
  8
1
370
    -2
100
AcDbBlockReference
  2
_Oblique
 10
21.34751781222893
 20
-8.000000000000007
 30
0.0
 41
2.0
 42
2.0
 43
2.0
 50
270.0
  0
INSERT
  5
5B7
330
2D5
100
AcDbEntity
  8
1
370
    -2
100
AcDbBlockReference
  2
_Oblique
 10
21.34751781222894
 20
-0.000000000000006
 30
0.0
 41
2.0
 42
2.0
 43
2.0
 50
90.0
  0
MTEXT
  5
5B8
330
2D5
100
AcDbEntity
  8
1
100
AcDbMText
 10
18.56051235520302
 20
-4.000000000000002
 30
0.0
 40
3.5
 41
0.0
 71
     5
 72
     1
  1
\A1;8
  7
Beschlag
 11
0.0000000000000001
 21
1.0
 31
0.0
 73
     1
 44
1.0
  0
POINT
  5
5B9
330
2D5
100
AcDbEntity
  8
Defpoints
 62
     0
100
AcDbPoint
 10
0.0
 20
-8.0
 30
0.0
  0
POINT
  5
5BA
330
2D5
100
AcDbEntity
  8
Defpoints
 62
     0
100
AcDbPoint
 10
0.0
 20
0.0
 30
0.0
  0
POINT
  5
5BB
330
2D5
100
AcDbEntity
  8
Defpoints
 62
     0
100
AcDbPoint
 10
21.34751781222894
 20
-0.000000000000006
 30
0.0
  0
ENDBLK
  5
2E0
330
2D5
100
AcDbEntity
  8
0
100
AcDbBlockEnd
  0
BLOCK
  5
2EB
330
2E1
100
AcDbEntity
  8
0
100
AcDbBlockBegin
  2
*D4
 70
     1
 10
0.0
 20
0.0
 30
0.0
  3
*D4
  1

  0
LINE
  5
5AA
330
2E1
100
AcDbEntity
  8
1
370
    -2
100
AcDbLine
 10
-0.0000000000000001
 20
-10.0
 30
0.0
 11
-0.0000000000000006
 21
-16.99447361090989
 31
0.0
  0
LINE
  5
5AB
330
2E1
100
AcDbEntity
  8
1
370
    -2
100
AcDbLine
 10
12.99999999999999
 20
-2.0
 30
0.0
 11
12.99999999999999
 21
-16.99447361090989
 31
0.0
  0
LINE
  5
5AC
330
2E1
100
AcDbEntity
  8
1
370
    -2
100
AcDbLine
 10
-1.0
 20
-15.99447361090989
 30
0.0
 11
13.99999999999999
 21
-15.99447361090989
 31
0.0
  0
INSERT
  5
5AD
330
2E1
100
AcDbEntity
  8
1
370
    -2
100
AcDbBlockReference
  2
_Oblique
 10
-0.0000000000000005
 20
-15.99447361090989
 30
0.0
 41
2.0
 42
2.0
 43
2.0
 50
180.0
  0
INSERT
  5
5AE
330
2E1
100
AcDbEntity
  8
1
370
    -2
100
AcDbBlockReference
  2
_Oblique
 10
12.99999999999999
 20
-15.99447361090989
 30
0.0
 41
2.0
 42
2.0
 43
2.0
  0
MTEXT
  5
5AF
330
2E1
100
AcDbEntity
  8
1
100
AcDbMText
 10
6.499999999999997
 20
-13.20627442946378
 30
0.0
 40
3.5
 41
0.0
 71
     5
 72
     1
  1
\A1;13
  7
Beschlag
 73
     1
 44
1.0
  0
POINT
  5
5B0
330
2E1
100
AcDbEntity
  8
Defpoints
 62
     0
100
AcDbPoint
 10
0.0
 20
-8.0
 30
0.0
  0
POINT
  5
5B1
330
2E1
100
AcDbEntity
  8
Defpoints
 62
     0
100
AcDbPoint
 10
12.99999999999999
 20
0.0
 30
0.0
  0
POINT
  5
5B2
330
2E1
100
AcDbEntity
  8
Defpoints
 62
     0
100
AcDbPoint
 10
12.99999999999999
 20
-15.99447361090989
 30
0.0
  0
ENDBLK
  5
2EC
330
2E1
100
AcDbEntity
  8
0
100
AcDbBlockEnd
  0
BLOCK
  5
493
330
489
100
AcDbEntity
  8
0
100
AcDbBlockBegin
  2
*D5
 70
     1
 10
0.0
 20
0.0
 30
0.0
  3
*D5
  1

  0
LINE
  5
5A1
330
489
100
AcDbEntity
  8
1
370
    -2
100
AcDbLine
 10
-0.0000000000000001
 20
-10.0
 30
0.0
 11
-0.0000000000000006
 21
-16.99447361090989
 31
0.0
  0
LINE
  5
5A2
330
489
100
AcDbEntity
  8
1
370
    -2
100
AcDbLine
 10
-14.0
 20
-6.999999999999996
 30
0.0
 11
-14.0
 21
-16.99447361090989
 31
0.0
  0
LINE
  5
5A3
330
489
100
AcDbEntity
  8
1
370
    -2
100
AcDbLine
 10
0.9999999999999996
 20
-15.99447361090989
 30
0.0
 11
-15.0
 21
-15.99447361090989
 31
0.0
  0
INSERT
  5
5A4
330
489
100
AcDbEntity
  8
1
370
    -2
100
AcDbBlockReference
  2
_Oblique
 10
-0.0000000000000005
 20
-15.99447361090989
 30
0.0
 41
2.0
 42
2.0
 43
2.0
  0
INSERT
  5
5A5
330
489
100
AcDbEntity
  8
1
370
    -2
100
AcDbBlockReference
  2
_Oblique
 10
-14.0
 20
-15.99447361090989
 30
0.0
 41
2.0
 42
2.0
 43
2.0
 50
180.0
  0
MTEXT
  5
5A6
330
489
100
AcDbEntity
  8
1
100
AcDbMText
 10
-7.000000000000001
 20
-13.23731126438874
 30
0.0
 40
3.5
 41
0.0
 71
     5
 72
     1
  1
\A1;14
  7
Beschlag
 73
     1
 44
1.0
  0
POINT
  5
5A7
330
489
100
AcDbEntity
  8
Defpoints
 62
     0
100
AcDbPoint
 10
0.0
 20
-8.0
 30
0.0
  0
POINT
  5
5A8
330
489
100
AcDbEntity
  8
Defpoints
 62
     0
100
AcDbPoint
 10
-14.0
 20
-4.999999999999996
 30
0.0
  0
POINT
  5
5A9
330
489
100
AcDbEntity
  8
Defpoints
 62
     0
100
AcDbPoint
 10
-14.0
 20
-15.99447361090989
 30
0.0
  0
ENDBLK
  5
494
330
489
100
AcDbEntity
  8
0
100
AcDbBlockEnd
  0
BLOCK
  5
587
330
57D
100
AcDbEntity
  8
0
100
AcDbBlockBegin
  2
*D6
 70
     1
 10
0.0
 20
0.0
 30
0.0
  3
*D6
  1

  0
LINE
  5
598
330
57D
100
AcDbEntity
  8
1
370
    -2
100
AcDbLine
 10
-16.0
 20
0.0000000000000023
 30
0.0
 11
-20.99999999999999
 21
0.0000000000000038
 31
0.0
  0
LINE
  5
599
330
57D
100
AcDbEntity
  8
1
370
    -2
100
AcDbLine
 10
-6.5
 20
-8.999999999999998
 30
0.0
 11
-21.0
 21
-8.999999999999992
 31
0.0
  0
LINE
  5
59A
330
57D
100
AcDbEntity
  8
1
370
    -2
100
AcDbLine
 10
-19.99999999999999
 20
1.000000000000003
 30
0.0
 11
-20.0
 21
-9.999999999999994
 31
0.0
  0
INSERT
  5
59B
330
57D
100
AcDbEntity
  8
1
370
    -2
100
AcDbBlockReference
  2
_Oblique
 10
-19.99999999999999
 20
0.0000000000000035
 30
0.0
 41
2.0
 42
2.0
 43
2.0
 50
90.0
  0
INSERT
  5
59C
330
57D
100
AcDbEntity
  8
1
370
    -2
100
AcDbBlockReference
  2
_Oblique
 10
-20.0
 20
-8.999999999999994
 30
0.0
 41
2.0
 42
2.0
 43
2.0
 50
270.0
  0
MTEXT
  5
59D
330
57D
100
AcDbEntity
  8
1
100
AcDbMText
 10
-22.78700545702591
 20
-4.499999999999998
 30
0.0
 40
3.5
 41
0.0
 71
     5
 72
     1
  1
\A1;9
  7
Beschlag
 11
0.0000000000000001
 21
1.0
 31
0.0
 73
     1
 44
1.0
  0
POINT
  5
59E
330
57D
100
AcDbEntity
  8
Defpoints
 62
     0
100
AcDbPoint
 10
-14.0
 20
0.0000000000000018
 30
0.0
  0
POINT
  5
59F
330
57D
100
AcDbEntity
  8
Defpoints
 62
     0
100
AcDbPoint
 10
-4.5
 20
-8.999999999999998
 30
0.0
  0
POINT
  5
5A0
330
57D
100
AcDbEntity
  8
Defpoints
 62
     0
100
AcDbPoint
 10
-20.0
 20
-8.999999999999994
 30
0.0
  0
ENDBLK
  5
588
330
57D
100
AcDbEntity
  8
0
100
AcDbBlockEnd
  0
ENDSEC
  0
SECTION
  2
ENTITIES
  0
INSERT
  5
25B
330
1A
100
AcDbEntity
  8
5
100
AcDbBlockReference
  2
NullPunkt
 10
0.0
 20
0.0
 30
0.0
  0
DIMENSION
  5
2B8
330
1A
100
AcDbEntity
  8
1
100
AcDbDimension
  2
*D2
 10
21.34751781222894
 20
1.999999999999993
 30
0.0
 11
18.56051235520302
 21
6.433573628000516
 31
0.0
 70
   160
  1
0-4
 71
     5
 42
2.0
  3
OPO-SSTRICH
100
AcDbAlignedDimension
 13
0.0
 23
0.0
 33
0.0
 14
0.0
 24
2.0
 34
0.0
 50
90.0
100
AcDbRotatedDimension
  0
DIMENSION
  5
2B9
330
1A
100
AcDbEntity
  8
1
100
AcDbDimension
  2
*D3
 10
21.34751781222894
 20
-0.000000000000006
 30
0.0
 11
18.56051235520302
 21
-4.000000000000002
 31
0.0
 70
    32
 71
     5
 42
8.0
  3
OPO-SSTRICH
100
AcDbAlignedDimension
 13
0.0
 23
-8.0
 33
0.0
 14
0.0
 24
0.0
 34
0.0
 50
90.0
100
AcDbRotatedDimension
  0
LINE
  5
2BB
330
1A
100
AcDbEntity
  8
5
100
AcDbLine
 10
15.72457918295777
 20
2.0
 30
0.0
 11
-12.73916763334705
 21
2.0
 31
0.0
  0
TEXT
  5
2BC
330
1A
100
AcDbEntity
  8
1
100
AcDbText
 10
-11.04106709105832
 20
-21.02876703530861
 30
0.0
 40
2.49999995
  1
Hebgo 138/639
100
AcDbText
  0
DIMENSION
  5
2BD
330
1A
100
AcDbEntity
  8
1
100
AcDbDimension
  2
*D4
 10
12.99999999999999
 20
-15.99447361090989
 30
0.0
 11
6.499999999999997
 21
-13.20627442946378
 31
0.0
 70
    32
 71
     5
 42
12.99999999999999
  3
OPO-SSTRICH
100
AcDbAlignedDimension
 13
0.0
 23
-8.0
 33
0.0
 14
12.99999999999999
 24
0.0
 34
0.0
100
AcDbRotatedDimension
  0
LWPOLYLINE
  5
2C1
102
{ACAD_REACTORS
330
58B
102
}
330
1A
100
AcDbEntity
  8
6
100
AcDbPolyline
 90
       42
 70
     0
 43
0.0
 10
-4.37467707442537
 20
-0.0016507263048596
 10
-0.5
 20
0.0
 42
-0.4142135623730951
 10
0.0
 20
-0.5
 10
0.0
 20
-1.091709623134192
 42
-0.2679491924311145
 10
-0.25
 20
-1.524722325026687
 10
-0.6000000000001365
 20
-1.72679491924282
 42
-0.5773502691896374
 10
-0.9000000000000909
 20
-1.553589838486004
 10
-0.9000000000000909
 20
-1.0
 10
-3.800000000000181
 20
-1.0
 10
-3.800000000000181
 20
-7.0
 10
-0.9000000000000909
 20
-7.0
 10
-0.9000000000000909
 20
-6.44641016151354
 42
-0.5773502691896325
 10
-0.6000000000001365
 20
-6.273205080756724
 10
-0.25
 20
-6.475277674973312
 42
-0.2679491924311209
 10
0.0
 20
-6.908290376865352
 10
0.0
 20
-7.5
 42
-0.4142135623731029
 10
-0.5
 20
-8.0
 10
-4.700000000000045
 20
-8.0
 10
-13.65350138996138
 20
-5.111773745173745
 42
-0.325504961092258
 10
-14.0
 20
-4.63591943629347
 10
-14.0
 20
0.0000000000000018
 10
-13.88546677848069
 20
-0.2519426005111711
 10
-13.8012953412995
 20
-0.101631580031377
 42
-0.5866121572054249
 10
-13.45218443120078
 20
-0.1064625766553004
 10
-13.30419454329788
 20
-0.3799999999998782
 10
-13.14382493841984
 20
-0.0987533511956791
 42
-0.6730833256522791
 10
-12.77648401594459
 20
-0.1476358916029278
 10
-12.43818442352589
 20
-1.452695774905802
 42
-0.3371805774911276
 10
-12.53178557848995
 20
-1.676086439216302
 10
-12.9999999999998
 20
-1.946410161513536
 10
-12.99999999999997
 20
-3.907758308880384
 42
0.325504961092281
 10
-12.65350138996135
 20
-4.383612617760702
 10
-5.700000000000045
 20
-6.626677582264363
 42
0.5088589320344279
 10
-4.392997220077285
 20
-5.674968964503813
 10
-4.392997220077285
 20
-2.296863379900953
 10
-5.468214421510054
 20
-1.676086439216302
 42
-0.3371805774911302
 10
-5.561815576474117
 20
-1.452695774905802
 10
-5.22351598405541
 20
-0.1476358916029277
 42
-0.6730833256522791
 10
-4.856175061580159
 20
-0.0987533511956788
 10
-4.695805456702117
 20
-0.3799999999998782
 10
-4.547815568799222
 20
-0.1064625766553
 42
-0.278873948012019
 10
-4.369312800904801
 20
-0.0016484409666916
  0
LWPOLYLINE
  5
2C4
102
{ACAD_REACTORS
330
58D
102
}
330
1A
100
AcDbEntity
  8
6
100
AcDbPolyline
 90
        6
 70
     1
 43
0.0
 10
-0.2294848246319816
 20
-2.880743797119293
 42
-0.7980627662484402
 10
-0.2294848246319816
 20
-5.099790895617161
 10
-1.406811970268563
 20
-5.099790895617161
 42
-0.123381154168678
 10
-1.679251325877658
 20
-4.798078331091119
 10
-1.679251325877658
 20
-3.20192166890888
 42
-0.3477133527992079
 10
-1.260862301542829
 20
-2.880743797119293
  0
DIMENSION
  5
488
330
1A
100
AcDbEntity
  8
1
100
AcDbDimension
  2
*D5
 10
-14.0
 20
-15.99447361090989
 30
0.0
 11
-7.000000000000001
 21
-13.23731126438874
 31
0.0
 70
    32
 71
     5
 42
14.0
  3
OPO-SSTRICH
100
AcDbAlignedDimension
 13
0.0
 23
-8.0
 33
0.0
 14
-14.0
 24
-4.999999999999996
 34
0.0
100
AcDbRotatedDimension
  0
LINE
  5
495
330
1A
100
AcDbEntity
  8
5
100
AcDbLine
 10
0.0
 20
0.0
 30
0.0
 11
-19.99999999999999
 21
0.0000000000000024
 31
0.0
  0
LWPOLYLINE
  5
4BE
102
{ACAD_REACTORS
330
58D
102
}
330
1A
100
AcDbEntity
  8
6
100
AcDbPolyline
 90
       40
 70
     1
 43
0.0
 10
-0.25
 20
-8.000000000000001
 10
-4.5
 20
-7.999999999999998
 42
0.4142135623730951
 10
-5.0
 20
-8.499999999999998
 10
-5.0
 20
-8.499999999999998
 42
0.4142135623730951
 10
-4.5
 20
-8.999999999999998
 10
-0.6677032375944237
 20
-9.000000000000126
 42
0.3316228548299742
 10
1.24881025384302
 20
-7.571818185386355
 42
0.0012256307341284
 10
2.437146827382775
 20
-3.553043456089653
 42
-0.1139007989961079
 10
3.07665312086533
 20
-2.634697059480913
 42
-0.1147048860721024
 10
12.29248372756858
 20
0.6312057032534988
 42
0.567597564357571
 10
12.86899563916624
 20
1.841072934307702
 42
0.5732239392224412
 10
12.20139466670473
 20
1.743718274542515
 42
0.0123064952081731
 10
9.145086027298702
 20
1.475684877753792
 42
0.6403218397857666
 10
8.156245136037796
 20
1.376773507566213
 42
0.0303436150639647
 10
6.132838430935407
 20
0.9179366260023016
 42
0.6990510695531773
 10
5.335109754881159
 20
0.5329612327327596
 42
0.0262957807415477
 10
3.966031933290651
 20
-0.1192612684601499
 42
0.5504786543771965
 10
3.125517152958309
 20
-0.6509099263528242
 42
0.063411461954503
 10
1.778221520715078
 20
-1.42983709598252
 42
-0.3880376676734742
 10
1.407406145848881
 20
-1.330925725794941
 42
-0.0228849521986174
 10
0.9500672442079576
 20
-0.5396345917574763
 42
0.2079658278280592
 10
0.3998603315906166
 20
-0.2022951412902785
 10
0.0
 20
-0.2022951412902785
 10
0.0
 20
-1.588828516576768
 42
-0.4035906814701772
 10
-0.3851644192488948
 20
-1.943072487819563
 10
-0.8813932408920663
 20
-1.943072487819563
 42
-0.3252563886443291
 10
-0.9884230109632881
 20
-1.865211172496628
 10
-1.183022504234486
 20
-1.23258812568315
 42
0.4417554821953464
 10
-1.436001878001661
 20
-1.213122818419606
 10
-2.671708904134447
 20
-1.894409176526096
 42
0.23938051492767
 10
-2.895498305138744
 20
-2.400507596723173
 10
-2.895498305138744
 20
-5.27774146949514
 42
0.2404866071905377
 10
-2.661978913213488
 20
-5.735176664667278
 10
-1.504111749418825
 20
-6.659779579240648
 42
0.3439993275354082
 10
-1.231672393809731
 20
-6.562452956653942
 10
-0.9981529368546944
 20
-6.114750458247954
 42
-0.2442750189721727
 10
-0.9008532227339856
 20
-6.046621839690942
 10
-0.4435442997448718
 20
-6.046621839690942
 42
-0.2369480727369922
 10
0.0
 20
-6.538796048060021
 10
0.0
 20
-7.750000000000001
 42
-0.4142135623730951
  0
LWPOLYLINE
  5
4EF
330
1A
100
AcDbEntity
  8
6
100
AcDbPolyline
 90
        9
 70
     1
 43
0.0
 10
-5.627382269255011
 20
-3.261613044933592
 10
-5.199999999999821
 20
-2.041184713909725
 10
-6.20639303703729
 20
-1.432509064255892
 10
-6.20639303703729
 20
0.000000000000004
 10
-11.79360696296271
 20
0.000000000000004
 10
-11.79360696296271
 20
-1.432509064255892
 10
-12.80000000000018
 20
-2.041184713909725
 10
-12.37261773074499
 20
-3.261613044933592
 10
-9.000000000000003
 20
-3.261613044933592
  0
LWPOLYLINE
  5
4F0
330
1A
100
AcDbEntity
  8
6
100
AcDbPolyline
 90
        6
 70
     0
 43
0.0
 10
-6.876166442186221
 20
-2.306250321635498
 10
-6.200000000000049
 20
-3.011613044933592
 10
-6.200000000000049
 20
-3.211613044933638
 10
-12.0
 20
-3.211613044933638
 10
-12.0
 20
-3.011613044933592
 10
-11.22506811701442
 20
-2.306250321635498
 42
0.142709741532141
  0
LINE
  5
4F1
330
1A
100
AcDbEntity
  8
6
100
AcDbLine
 10
-10.83722820143868
 20
-1.953228559257805
 30
0.0
 11
-10.428
 21
-1.580738634717473
 31
0.0
  0
LWPOLYLINE
  5
4F2
330
1A
100
AcDbEntity
  8
6
100
AcDbPolyline
 90
        2
 70
     0
 43
0.0
 10
-10.09873720389862
 20
-1.066181442512057
 42
0.0698020145797582
 10
-9.825775050047756
 20
-0.0000000000001097
 42
-3.223428038561326
  0
LINE
  5
4F3
330
1A
100
AcDbEntity
  8
6
100
AcDbLine
 10
-7.571816296422074
 20
-1.580562909436703
 30
0.0
 11
-7.21457597418561
 21
-1.953228559257805
 31
0.0
  0
LWPOLYLINE
  5
4F4
330
1A
100
AcDbEntity
  8
6
100
AcDbPolyline
 90
        2
 70
     0
 43
0.0
 10
-8.178654341814368
 20
-0.0000000000001097
 42
0.0716230936514669
 10
-7.908367884415785
 20
-1.066181442512057
  0
DIMENSION
  5
57C
330
1A
100
AcDbEntity
  8
1
100
AcDbDimension
  2
*D6
 10
-20.0
 20
-8.999999999999994
 30
0.0
 11
-22.78700545702591
 21
-4.499999999999998
 31
0.0
 70
    32
 71
     5
 42
8.999999999999998
  3
OPO-SSTRICH
100
AcDbAlignedDimension
 13
-14.0
 23
0.0000000000000018
 33
0.0
 14
-4.5
 24
-8.999999999999998
 34
0.0
 50
90.0
100
AcDbRotatedDimension
  0
LINE
  5
589
330
1A
100
AcDbEntity
  8
6
  6
STRICHPUNKT
100
AcDbLine
 10
-9.000000000000003
 20
4.0
 30
0.0
 11
-9.000000000000003
 21
-4.051029368096529
 31
0.0
  0
HATCH
  5
58B
330
1A
100
AcDbEntity
  8
2
100
AcDbHatch
 10
0.0
 20
0.0
 30
0.0
210
0.0
220
0.0
230
1.0
  2
_USER
 70
     0
 71
     1
 91
        1
 92
       33
 93
       41
 72
     1
 10
-4.37467707442537
 20
-0.0016507263048596
 11
-0.5
 21
0.0
 72
     2
 10
-0.5
 20
-0.5
 40
0.5
 50
270.0
 51
360.0
 73
     0
 72
     1
 10
0.0
 20
-0.5
 11
0.0
 21
-1.091709623134192
 72
     2
 10
-0.5000000000002512
 20
-1.091709623134322
 40
0.5000000000002512
 50
359.9999999999851
 51
419.9999999999834
 73
     0
 72
     1
 10
-0.25
 20
-1.524722325026687
 11
-0.6000000000001365
 21
-1.72679491924282
 72
     2
 10
-0.7000000000001366
 20
-1.553589838485985
 40
0.1999999999999544
 50
59.99999999999245
 51
179.9999999999944
 73
     0
 72
     1
 10
-0.9000000000000909
 20
-1.553589838486004
 11
-0.9000000000000909
 21
-1.0
 72
     1
 10
-0.9000000000000909
 20
-1.0
 11
-3.800000000000181
 21
-1.0
 72
     1
 10
-3.800000000000181
 20
-1.0
 11
-3.800000000000181
 21
-7.0
 72
     1
 10
-3.800000000000181
 20
-7.0
 11
-0.9000000000000909
 21
-7.0
 72
     1
 10
-0.9000000000000909
 20
-7.0
 11
-0.9000000000000909
 21
-6.44641016151354
 72
     2
 10
-0.7000000000001357
 20
-6.446410161513561
 40
0.1999999999999553
 50
180.0000000000061
 51
300.0000000000071
 73
     0
 72
     1
 10
-0.6000000000001365
 20
-6.273205080756724
 11
-0.25
 21
-6.475277674973312
 72
     2
 10
-0.4999999999998471
 20
-6.908290376865443
 40
0.4999999999998469
 50
299.9999999999898
 51
359.9999999999895
 73
     0
 72
     1
 10
0.0
 20
-6.908290376865352
 11
0.0
 21
-7.5
 72
     2
 10
-0.4999999999999934
 20
-7.500000000000007
 40
0.4999999999999934
 50
359.9999999999992
 51
450.0000000000007
 73
     0
 72
     1
 10
-0.5
 20
-8.0
 11
-4.700000000000045
 21
-8.0
 72
     1
 10
-4.700000000000045
 20
-8.0
 11
-13.65350138996138
 21
-5.111773745173745
 72
     2
 10
-13.5
 20
-4.635919436293471
 40
0.4999999999999993
 50
107.8786965958415
 51
180.0000000000001
 73
     0
 72
     1
 10
-14.0
 20
-4.63591943629347
 11
-14.0
 21
0.0000000000000018
 72
     1
 10
-14.0
 20
0.0000000000000018
 11
-13.88546677848069
 21
-0.2519426005111711
 72
     1
 10
-13.88546677848069
 20
-0.2519426005111711
 11
-13.8012953412995
 21
-0.101631580031377
 72
     2
 10
-13.62809026054256
 20
-0.2016315800313999
 40
0.2000000000000507
 50
209.9999999999992
 51
331.5856167396903
 73
     0
 72
     1
 10
-13.45218443120078
 20
-0.1064625766553004
 11
-13.30419454329788
 21
-0.3799999999998782
 72
     1
 10
-13.30419454329788
 20
-0.3799999999998782
 11
-13.14382493841984
 21
-0.0987533511956791
 72
     2
 10
-12.97008517090858
 20
-0.1978214751566975
 40
0.2000000000000569
 50
209.6922136994701
 51
345.4675716373669
 73
     0
 72
     1
 10
-12.77648401594459
 20
-0.1476358916029278
 11
-12.43818442352589
 21
-1.452695774905802
 72
     2
 10
-12.63178557848982
 20
-1.502881358459386
 40
0.199999999999963
 50
345.4675716374146
 51
420.0000000000345
 73
     0
 72
     1
 10
-12.53178557848995
 20
-1.676086439216302
 11
-12.9999999999998
 21
-1.946410161513536
 72
     1
 10
-12.9999999999998
 20
-1.946410161513536
 11
-12.99999999999997
 21
-3.907758308880384
 72
     2
 10
-12.49999999999997
 20
-3.907758308880426
 40
0.5
 50
179.9999999999952
 51
252.1213034041587
 73
     1
 72
     1
 10
-12.65350138996135
 20
-4.383612617760702
 11
-5.700000000000045
 21
-6.626677582264363
 72
     2
 10
-5.392997220077285
 20
-5.674968964503813
 40
0.9999999999999998
 50
252.1213034041585
 51
360.0
 73
     1
 72
     1
 10
-4.392997220077285
 20
-5.674968964503813
 11
-4.392997220077285
 21
-2.296863379900953
 72
     1
 10
-4.392997220077285
 20
-2.296863379900953
 11
-5.468214421510054
 21
-1.676086439216302
 72
     2
 10
-5.368214421510179
 20
-1.502881358459386
 40
0.1999999999999614
 50
119.9999999999651
 51
194.5324283625856
 73
     0
 72
     1
 10
-5.561815576474117
 20
-1.452695774905802
 11
-5.22351598405541
 21
-0.1476358916029277
 72
     2
 10
-5.029914829091421
 20
-0.1978214751566974
 40
0.2000000000000575
 50
194.5324283626331
 51
330.3077863005299
 73
     0
 72
     1
 10
-4.856175061580159
 20
-0.0987533511956788
 11
-4.695805456702117
 21
-0.3799999999998782
 72
     1
 10
-4.695805456702117
 20
-0.3799999999998782
 11
-4.547815568799222
 21
-0.1064625766553
 72
     2
 10
-4.371909739457439
 20
-0.2016315800313994
 40
0.2000000000000513
 50
208.4143832603096
 51
270.7439890009731
 73
     0
 97
        1
330
2C1
 75
     0
 76
     0
 52
45.0
 41
1.0
 77
     0
 78
     1
 53
45.0
 43
-5.0
 44
0.0
 45
-0.7071067811865475
 46
0.7071067811865476
 79
     0
 98
        1
 10
-5.0
 20
0.0
  0
HATCH
  5
58D
330
1A
100
AcDbEntity
  8
2
100
AcDbHatch
 10
0.0
 20
0.0
 30
0.0
210
0.0
220
0.0
230
1.0
  2
SOLID
 70
     1
 71
     1
 91
        2
 92
        1
 93
       39
 72
     1
 10
-0.25
 20
-8.000000000000001
 11
-4.5
 21
-7.999999999999998
 72
     2
 10
-4.5
 20
-8.499999999999998
 40
0.5
 50
90.0
 51
180.0
 73
     1
 72
     2
 10
-4.5
 20
-8.499999999999998
 40
0.5
 50
180.0
 51
270.0
 73
     1
 72
     1
 10
-4.5
 20
-8.999999999999998
 11
-0.6677032375944237
 21
-9.000000000000126
 72
     2
 10
-0.6677032375943871
 20
-7.000000000000126
 40
2.0
 50
269.9999999999989
 51
343.3868029178305
 73
     1
 72
     2
 10
-817.8918283033805
 20
236.8300686828952
 40
854.8237643167814
 50
343.3868029178334
 51
343.6676966504117
 73
     1
 72
     2
 10
4.746421419082804
 20
-4.479307702488073
 40
2.48811466657535
 50
201.8560247293313
 51
227.8481492273534
 73
     0
 72
     2
 10
14.70896969801459
 20
-20.82342959090384
 40
21.59029365364593
 50
237.3996940756663
 51
263.5737251132825
 73
     0
 72
     2
 10
12.21952956184121
 20
1.408258979768561
 40
0.7804704381587878
 50
275.3635304101923
 51
393.6800848160793
 73
     1
 72
     2
 10
12.56370290870711
 20
1.596906189519505
 40
0.3909233307589338
 50
38.65208991293918
 51
157.9415587654972
 73
     1
 72
     2
 10
16.11737368156575
 20
-60.46820343067473
 40
62.33504707546881
 50
93.60177658604818
 51
96.42207515799531
 73
     1
 72
     2
 10
8.673449638083841
 20
1.19845146993908
 40
0.5470824855907842
 50
30.44751235455724
 51
160.9768040687486
 73
     1
 72
     2
 10
10.92140236381647
 20
-15.50807375669814
 40
17.10976801806126
 50
99.3005203248806
 51
106.2526314778859
 73
     1
 72
     2
 10
5.80437257783429
 20
0.5795723586618063
 40
0.4715720454674079
 50
45.85043505511186
 51
185.6724918185797
 73
     1
 72
     2
 10
10.84711161763415
 20
-12.80028566272394
 40
14.42766915722003
 50
112.4603392634714
 51
118.4854998060109
 73
     1
 72
     2
 10
3.71405758669698
 20
-0.6511342054527269
 40
0.5885404764724488
 50
64.65078569373125
 51
179.9781659092583
 73
     1
 72
     2
 10
5.510445298687677
 20
-6.33073465782662
 40
6.160218440977032
 50
112.7772756338957
 51
127.2906801545906
 73
     1
 72
     2
 10
1.646943865326788
 20
-1.177449755143296
 40
0.2844875966015763
 50
62.51909314526828
 51
147.351608790004
 73
     0
 72
     2
 10
9.818439231438498
 20
4.05816902641207
 40
9.989385357225355
 50
147.3516087900028
 51
152.5955381671324
 73
     0
 72
     2
 10
0.286979864110458
 20
-1.003773856274013
 40
0.8093887388088109
 50
34.99075007133114
 51
81.983177401166
 73
     1
 72
     1
 10
0.3998603315906166
 20
-0.2022951412902785
 11
0.0
 21
-0.2022951412902785
 72
     1
 10
0.0
 20
-0.2022951412902785
 11
0.0
 21
-1.588828516576768
 72
     2
 10
-0.3762725178890965
 20
-1.566226649012497
 40
0.3769507290561902
 50
3.437501857140918
 51
91.35167713076421
 73
     0
 72
     1
 10
-0.3851644192488948
 20
-1.943072487819563
 11
-0.8813932408920663
 21
-1.943072487819563
 72
     2
 10
-0.8813932408920468
 20
-1.830579165348293
 40
0.1124933224712699
 50
90.00000000000998
 51
162.0697887818146
 73
     0
 72
     1
 10
-0.9884230109632881
 20
-1.865211172496628
 11
-1.183022504234486
 21
-1.23258812568315
 72
     2
 10
-1.318378347816681
 20
-1.338083797963089
 40
0.1716116000206389
 50
37.93267393522481
 51
133.2675037875642
 73
     1
 72
     1
 10
-1.436001878001661
 20
-1.213122818419606
 11
-2.671708904134447
 21
-1.894409176526096
 72
     2
 10
-2.285340988194572
 20
-2.367782908548598
 40
0.6110342516067609
 50
129.2213433404583
 51
183.0700144876475
 73
     1
 72
     1
 10
-2.895498305138744
 20
-2.400507596723173
 11
-2.895498305138744
 21
-5.27774146949514
 72
     2
 10
-2.330709526758475
 20
-5.277741469495333
 40
0.5647887783802692
 50
179.9999999999804
 51
234.088369802274
 73
     1
 72
     1
 10
-2.661978913213488
 20
-5.735176664667278
 11
-1.504111749418825
 21
-6.659779579240648
 72
     2
 10
-1.430253693815502
 20
-6.43655190194247
 40
0.2351289184456968
 50
251.6924671568712
 51
327.6251975840624
 73
     1
 72
     1
 10
-1.231672393809731
 20
-6.562452956653942
 11
-0.9981529368546944
 21
-6.114750458247954
 72
     2
 10
-0.8839382865258274
 20
-6.17432426723059
 40
0.1288177979412974
 50
207.5463273572323
 51
262.4547590490747
 73
     0
 72
     1
 10
-0.9008532227339856
 20
-6.046621839690942
 11
-0.4435442997448718
 21
-6.046621839690942
 72
     2
 10
-0.7119020997673467
 20
-6.734410970746228
 40
0.7382884244187283
 50
291.3144626946621
 51
344.6355832091532
 73
     0
 72
     1
 10
0.0
 20
-6.538796048060021
 11
0.0
 21
-7.750000000000001
 72
     2
 10
-0.25
 20
-7.750000000000001
 40
0.25
 50
360.0
 51
450.0
 73
     0
 97
        1
330
4BE
 92
       16
 93
        6
 72
     2
 10
-0.4818856264317343
 20
-3.990267346368227
 40
1.137870234731144
 50
282.815871607713
 51
437.1841283922869
 73
     0
 72
     1
 10
-0.2294848246319816
 20
-5.099790895617161
 11
-1.406811970268563
 21
-5.099790895617161
 72
     2
 10
-0.9409955762911174
 20
-4.4053101882084
 40
0.8362346356502609
 50
123.8513610138731
 51
151.986049664109
 73
     0
 72
     1
 10
-1.679251325877658
 20
-4.798078331091119
 11
-1.679251325877658
 21
-3.20192166890888
 72
     2
 10
-1.267054832912782
 20
-3.30577747888229
 40
0.4250787904351096
 50
194.1417292400936
 51
270.8347122251061
 73
     0
 72
     1
 10
-1.260862301542829
 20
-2.880743797119293
 11
-0.2294848246319816
 21
-2.880743797119293
 97
        1
330
2C4
 75
     0
 76
     1
 98
        1
 10
-5.0
 20
0.0
  0
VIEWPORT
  5
22
330
17
100
AcDbEntity
 67
     1
  8
0
100
AcDbViewport
 10
210.0
 20
170.2366863905325
 30
0.0
 40
420.0
 41
340.4733727810651
 68
     1
 69
     1
 12
210.0
 22
170.2366863905325
 13
0.0
 23
0.0
 14
5.0
 24
5.0
 15
10.0
 25
10.0
 16
0.0
 26
0.0
 36
1.0
 17
0.0
 27
0.0
 37
0.0
 42
50.0
 43
0.0
 44
0.0
 45
340.4733727810651
 50
0.0
 51
0.0
 72
   100
 90
    32800
  1

281
     0
 71
     1
 74
     0
110
0.0
120
0.0
130
0.0
111
1.0
121
0.0
131
0.0
112
0.0
122
1.0
132
0.0
 79
     0
146
0.0
  0
ENDSEC
  0
SECTION
  2
OBJECTS
  0
DICTIONARY
  5
C
330
0
100
AcDbDictionary
281
     1
  3
ACAD_GROUP
350
D
  3
ACAD_LAYOUT
350
F4
  3
ACAD_MLINESTYLE
350
E
  3
ACAD_PLOTSETTINGS
350
F5
  3
ACAD_PLOTSTYLENAME
350
F2
  3
AcDbVariableDictionary
350
136
  3
AEC_PROPERTY_SET_DEFS
350
4E3
  3
DWGPROPS
350
433
  0
DICTIONARY
  5
1F6
330
1A
100
AcDbDictionary
280
     1
281
     1
  3
ACAD_LAYOUTSELFREF
360
463
  3
ACAD_SORTENTS
360
58E
  0
DICTIONARY
  5
1F4
330
17
100
AcDbDictionary
280
     1
281
     1
  3
ACAD_LAYOUTSELFREF
360
462
  0
DICTIONARY
  5
D
102
{ACAD_REACTORS
330
C
102
}
330
C
100
AcDbDictionary
281
     1
  0
DICTIONARY
  5
F4
102
{ACAD_REACTORS
330
C
102
}
330
C
100
AcDbDictionary
281
     1
  3
Layout1
350
F7
  3
Model
350
F6
  0
DICTIONARY
  5
E
102
{ACAD_REACTORS
330
C
102
}
330
C
100
AcDbDictionary
281
     1
  3
STANDARD
350
13
  0
DICTIONARY
  5
F5
102
{ACAD_REACTORS
330
C
102
}
330
C
100
AcDbDictionary
281
     1
  3
e Plot 1zu1
350
25C
  3
e Plot angepasst
350
25D
  3
Laser A4
350
25E
  0
ACDBDICTIONARYWDFLT
  5
F2
102
{ACAD_REACTORS
330
C
102
}
330
C
100
AcDbDictionary
281
     1
  3
Normal
350
F3
100
AcDbDictionaryWithDefault
340
F3
  0
DICTIONARY
  5
136
102
{ACAD_REACTORS
330
C
102
}
330
C
100
AcDbDictionary
281
     1
  3
DIMASSOC
350
472
  3
SORTENTS
350
137
  0
DICTIONARY
  5
4E3
102
{ACAD_REACTORS
330
C
102
}
330
C
100
AcDbDictionary
281
     1
  0
XRECORD
  5
433
102
{ACAD_REACTORS
330
C
102
}
330
C
100
AcDbXrecord
280
     1
  1
DWGPROPS COOKIE
  2
Datenaufbau HEBGO
  3
Format 14/2000 mit DWF-Format
  4
robert koch cad-support, ch-2540 grenchen
  6
Anpassung für DWF Format und ^M^JZeichnungsvorschau, ^M^Jrobert koch cad-support, ch-2540 grenchen
  7

  8
robert koch
  9

300
=
301
=
302
=
303
=
304
=
305
=
306
=
307
=
308
=
309
=
 40
0.0080053472222222
 41
2451739.90530743
 42
2452087.651340659
  1

 90
        0
  0
XRECORD
  5
463
102
{ACAD_REACTORS
330
1F6
102
}
330
1F6
100
AcDbXrecord
280
     1
340
1A
  0
SORTENTSTABLE
  5
58E
102
{ACAD_REACTORS
330
1F6
102
}
330
1F6
100
AcDbSortentsTable
330
1A
331
25B
  5
2B9
331
2C1
  5
488
331
589
  5
58D
331
2BC
  5
2C1
331
495
  5
4EF
331
4F3
  5
57C
331
2C4
  5
495
331
488
  5
4BE
331
57C
  5
58B
331
4F1
  5
4F3
331
2BD
  5
2C4
331
4F4
  5
589
331
4BE
  5
4F0
331
2B8
  5
2BB
331
4EF
  5
4F1
331
58D
  5
2B8
331
2BB
  5
2BD
331
4F2
  5
4F4
331
58B
  5
25B
331
4F0
  5
4F2
331
2B9
  5
2BC
  0
XRECORD
  5
462
102
{ACAD_REACTORS
330
1F4
102
}
330
1F4
100
AcDbXrecord
280
     1
340
17
  0
LAYOUT
  5
F7
102
{ACAD_REACTORS
330
F4
102
}
330
F4
100
AcDbPlotSettings
  1

  2
D:\AC2000\ACAD2000\plotters\DesignJet 650C test A3.pc3
  4

  6

 40
0.0
 41
0.0
 42
0.0
 43
0.0
 44
0.0
 45
0.0
 46
0.0
 47
0.0
 48
0.0
 49
0.0
140
0.0
141
0.0
142
1.0
143
1.0
 70
   688
 72
     0
 73
     0
 74
     5
  7
Hebgo Laser.ctb
 75
    16
147
1.0
148
0.0
149
0.0
100
AcDbLayout
  1
Layout1
 70
     1
 71
     1
 10
0.0
 20
0.0
 11
420.0
 21
297.0
 12
0.0
 22
0.0
 32
0.0
 14
1.000000000000000E+20
 24
1.000000000000000E+20
 34
1.000000000000000E+20
 15
-1.000000000000000E+20
 25
-1.000000000000000E+20
 35
-1.000000000000000E+20
146
0.0
 13
0.0
 23
0.0
 33
0.0
 16
1.0
 26
0.0
 36
0.0
 17
0.0
 27
1.0
 37
0.0
 76
     0
330
17
331
22
  0
LAYOUT
  5
F6
102
{ACAD_REACTORS
330
F4
102
}
330
F4
100
AcDbPlotSettings
  1

  2
2 Xerox N24.pc3
  4
A4
  6

 40
7.143749713897705
 41
6.170062541961669
 42
7.736404418945312
 43
7.14373779296875
 44
209.9733276367187
 45
296.9683227539062
 46
49.69
 47
110.04
 48
0.0
 49
0.0
140
0.0
141
0.0
142
1.0
143
0.5
 70
 28340
 72
     1
 73
     0
 74
     1
  7
Hebgo Laser.ctb
 75
    27
147
2.0
148
20.50781165075932
149
21.78954993350146
100
AcDbLayout
  1
Model
 70
     1
 71
     0
 10
0.0
 20
0.0
 11
12.0
 21
9.0
 12
0.0
 22
0.0
 32
0.0
 14
0.0
 24
0.0
 34
0.0
 15
0.0
 25
0.0
 35
0.0
146
0.0
 13
0.0
 23
0.0
 33
0.0
 16
1.0
 26
0.0
 36
0.0
 17
0.0
 27
1.0
 37
0.0
 76
     0
330
1A
  0
MLINESTYLE
  5
13
102
{ACAD_REACTORS
330
E
102
}
330
E
100
AcDbMlineStyle
  2
STANDARD
 70
     0
  3

 62
     0
 51
90.0
 52
90.0
 71
     2
 49
0.5
 62
   256
  6
BYLAYER
 49
-0.5
 62
   256
  6
BYLAYER
  0
PLOTSETTINGS
  5
25C
102
{ACAD_REACTORS
330
F5
102
}
330
F5
100
AcDbPlotSettings
  1
e Plot 1zu1
  2
DWF ePlot.pc3
  4
UserDefinedMetric (210.00 x 297.00MM)
  6

 40
13.0
 41
13.0
 42
13.0
 43
13.0
 44
210.0
 45
297.0
 46
58.27
 47
107.6999999999999
 48
0.0
 49
0.0
140
0.0
141
0.0
142
1.0
143
1.0
 70
  1716
 72
     1
 73
     0
 74
     1
  7
OPO_DWF.ctb
 75
    16
147
1.0
148
17.16613684218157
149
24.55902015156925
  0
PLOTSETTINGS
  5
25D
102
{ACAD_REACTORS
330
F5
102
}
330
F5
100
AcDbPlotSettings
  1
e Plot angepasst
  2
DWF ePlot.pc3
  4
UserDefinedMetric (210.00 x 297.00MM)
  6

 40
13.0
 41
13.0
 42
13.0
 43
13.0
 44
210.0
 45
297.0
 46
0.0
 47
59.67
 48
0.0
 49
0.0
140
0.0
141
0.0
142
1.0
143
0.3665841129351039
 70
  1716
 72
     1
 73
     0
 74
     1
  7
OPO_DWF.ctb
 75
     0
147
2.727886901571834
148
17.16613684218157
149
24.55902015156925
  0
PLOTSETTINGS
  5
25E
102
{ACAD_REACTORS
330
F5
102
}
330
F5
100
AcDbPlotSettings
  1
Laser A4
  2
4 Xerox XL.pc3
  4
A4
  6

 40
5.111750125885009
 41
5.11176061630249
 42
5.111740112304687
 43
5.11175537109375
 44
209.9733276367187
 45
296.9259948730469
 46
0.0
 47
43.47999999999999
 48
0.0
 49
0.0
140
0.0
141
0.0
142
1.0
143
0.020166824766453
 70
  1716
 72
     1
 73
     0
 74
     1
  7
OPO.ctb
 75
     0
147
49.58638811913882
148
2.014159285479877
149
2.014159285479877
  0
ACDBPLACEHOLDER
  5
F3
102
{ACAD_REACTORS
330
F2
102
}
330
F2
  0
DICTIONARYVAR
  5
472
102
{ACAD_REACTORS
330
136
102
}
330
136
100
DictionaryVariables
280
     0
  1
1
  0
DICTIONARYVAR
  5
137
102
{ACAD_REACTORS
330
136
102
}
330
136
100
DictionaryVariables
280
     0
  1
127
  0
ENDSEC
  0
EOF
