  0
SECTION
  2
HEADER
  9
$ACADVER
  1
AC1009
  9
$INSBASE
 10
0.0
 20
0.0
 30
0.0
  9
$EXTMIN
 10
-11.05499181553602
 20
-21.83532630074216
 30
-0.0000000000112498
  9
$EXTMAX
 10
30.097961984688929
 20
4.0054326574381767
 30
0.0000000000002956
  9
$LIMMIN
 10
-150.0
 20
-150.0
  9
$LIMMAX
 10
150.0
 20
150.0
  9
$ORTHOMODE
 70
     0
  9
$REGENMODE
 70
     1
  9
$FILLMODE
 70
     1
  9
$QTEXTMODE
 70
     0
  9
$MIRRTEXT
 70
     0
  9
$DRAGMODE
 70
     2
  9
$LTSCALE
 40
3.0
  9
$OSMODE
 70
   111
  9
$ATTMODE
 70
     1
  9
$TEXTSIZE
 40
3.5
  9
$TRACEWID
 40
1.0
  9
$TEXTSTYLE
  7
BESCHLAG
  9
$CLAYER
  8
0
  9
$CELTYPE
  6
BYLAYER
  9
$CECOLOR
 62
   256
  9
$DIMSCALE
 40
1.0
  9
$DIMASZ
 40
2.0
  9
$DIMEXO
 40
2.0
  9
$DIMDLI
 40
0.0
  9
$DIMRND
 40
0.0
  9
$DIMDLE
 40
1.0
  9
$DIMEXE
 40
1.0
  9
$DIMTP
 40
0.0
  9
$DIMTM
 40
0.0
  9
$DIMTXT
 40
3.5
  9
$DIMCEN
 40
0.0
  9
$DIMTSZ
 40
0.0
  9
$DIMTOL
 70
     0
  9
$DIMLIM
 70
     0
  9
$DIMTIH
 70
     0
  9
$DIMTOH
 70
     0
  9
$DIMSE1
 70
     0
  9
$DIMSE2
 70
     0
  9
$DIMTAD
 70
     1
  9
$DIMZIN
 70
     8
  9
$DIMBLK
  1

  9
$DIMASO
 70
     1
  9
$DIMSHO
 70
     1
  9
$DIMPOST
  1

  9
$DIMAPOST
  1

  9
$DIMALT
 70
     0
  9
$DIMALTD
 70
     2
  9
$DIMALTF
 40
0.039370078740157
  9
$DIMLFAC
 40
1.0
  9
$DIMTOFL
 70
     1
  9
$DIMTVP
 40
0.0
  9
$DIMTIX
 70
     1
  9
$DIMSOXD
 70
     0
  9
$DIMSAH
 70
     1
  9
$DIMBLK1
  1
OBLIQUE
  9
$DIMBLK2
  1
OBLIQUE
  9
$DIMSTYLE
  2
OPO-SSTRICH
  9
$DIMCLRD
 70
   256
  9
$DIMCLRE
 70
   256
  9
$DIMCLRT
 70
   256
  9
$DIMTFAC
 40
0.7114285714285716
  9
$DIMGAP
 40
1.0
  9
$LUNITS
 70
     2
  9
$LUPREC
 70
     1
  9
$SKETCHINC
 40
1.0
  9
$FILLETRAD
 40
0.0
  9
$AUNITS
 70
     0
  9
$AUPREC
 70
     1
  9
$MENU
  1
D:\ACL_CGWG\CGTAB13
  9
$ELEVATION
 40
0.0
  9
$PELEVATION
 40
0.0
  9
$THICKNESS
 40
0.0
  9
$LIMCHECK
 70
     0
  9
$BLIPMODE
 70
     0
  9
$CHAMFERA
 40
1.0
  9
$CHAMFERB
 40
1.0
  9
$SKPOLY
 70
     0
  9
$TDCREATE
 40
2451739.9053074298
  9
$TDUPDATE
 40
2452087.6452555209
  9
$TDINDWG
 40
0.0019204398
  9
$TDUSRTIMER
 40
0.0019202546
  9
$USRTIMER
 70
     1
  9
$ANGBASE
 50
0.0
  9
$ANGDIR
 70
     0
  9
$PDMODE
 70
    35
  9
$PDSIZE
 40
5.0
  9
$PLINEWID
 40
0.0
  9
$COORDS
 70
     1
  9
$SPLFRAME
 70
     0
  9
$SPLINETYPE
 70
     6
  9
$SPLINESEGS
 70
     8
  9
$ATTDIA
 70
     1
  9
$ATTREQ
 70
     1
  9
$HANDLING
 70
-16383
  9
$HANDSEED
  5
433
  9
$SURFTAB1
 70
    12
  9
$SURFTAB2
 70
    12
  9
$SURFTYPE
 70
     6
  9
$SURFU
 70
    12
  9
$SURFV
 70
    12
  9
$UCSNAME
  2

  9
$UCSORG
 10
0.0
 20
0.0
 30
0.0
  9
$UCSXDIR
 10
1.0
 20
0.0
 30
0.0
  9
$UCSYDIR
 10
0.0
 20
1.0
 30
0.0
  9
$PUCSNAME
  2

  9
$PUCSORG
 10
0.0
 20
0.0
 30
0.0
  9
$PUCSXDIR
 10
1.0
 20
0.0
 30
0.0
  9
$PUCSYDIR
 10
0.0
 20
1.0
 30
0.0
  9
$USERI1
 70
     0
  9
$USERI2
 70
     0
  9
$USERI3
 70
     0
  9
$USERI4
 70
     0
  9
$USERI5
 70
     0
  9
$USERR1
 40
0.0
  9
$USERR2
 40
0.0
  9
$USERR3
 40
0.0
  9
$USERR4
 40
0.0
  9
$USERR5
 40
0.0
  9
$WORLDVIEW
 70
     1
  9
$SHADEDGE
 70
     3
  9
$SHADEDIF
 70
    70
  9
$TILEMODE
 70
     1
  9
$MAXACTVP
 70
    48
  9
$PLIMCHECK
 70
     0
  9
$PEXTMIN
 10
1.0000000000000000E+020
 20
1.0000000000000000E+020
 30
1.0000000000000000E+020
  9
$PEXTMAX
 10
-1.0000000000000000E+020
 20
-1.0000000000000000E+020
 30
-1.0000000000000000E+020
  9
$PLIMMIN
 10
0.0
 20
0.0
  9
$PLIMMAX
 10
420.0
 20
297.0
  9
$UNITMODE
 70
     0
  9
$VISRETAIN
 70
     1
  9
$PLINEGEN
 70
     0
  9
$PSLTSCALE
 70
     1
  0
ENDSEC
  0
SECTION
  2
TABLES
  0
TABLE
  2
VPORT
 70
     2
  0
VPORT
  2
*ACTIVE
 70
     0
 10
0.0
 20
0.0
 11
1.0
 21
1.0
 12
9.5214850845764545
 22
-8.9149468216519931
 13
0.0
 23
0.0
 14
0.5
 24
0.5
 15
10.0
 25
10.0
 16
0.0
 26
0.0
 36
1.0
 17
0.0
 27
0.0
 37
0.0
 40
26.050562143226461
 41
1.6070460704607039
 42
50.0
 43
0.0
 44
0.0
 50
0.0
 51
0.0
 71
     0
 72
   800
 73
     1
 74
     1
 75
     0
 76
     0
 77
     0
 78
     0
  0
ENDTAB
  0
TABLE
  2
LTYPE
 70
     2
  0
LTYPE
  2
CONTINUOUS
 70
     0
  3
_______________________________________________
 72
    65
 73
     2
 40
1.0
 49
1.0
 49
0.0
  0
LTYPE
  2
STRICHPUNKT
 70
     0
  3
__ . __ . __ . __ . __ . __ . __ . __ . __ . __
 72
    65
 73
     4
 40
1.0
 49
0.5
 49
-0.25
 49
0.0
 49
-0.25
  0
ENDTAB
  0
TABLE
  2
LAYER
 70
     7
  0
LAYER
  2
0
 70
     0
 62
    30
  6
CONTINUOUS
  0
LAYER
  2
1
 70
     0
 62
     2
  6
CONTINUOUS
  0
LAYER
  2
2
 70
     0
 62
     9
  6
CONTINUOUS
  0
LAYER
  2
4
 70
     1
 62
     4
  6
CONTINUOUS
  0
LAYER
  2
5
 70
     0
 62
     1
  6
CONTINUOUS
  0
LAYER
  2
6
 70
     0
 62
     3
  6
CONTINUOUS
  0
LAYER
  2
DEFPOINTS
 70
     0
 62
     7
  6
CONTINUOUS
  0
ENDTAB
  0
TABLE
  2
STYLE
 70
     2
  0
STYLE
  2
STANDARD
 70
     0
 40
0.0
 41
1.0
 50
0.0
 71
     0
 42
2.5
  3
txt
  4

  0
STYLE
  2
BESCHLAG
 70
     0
 40
0.0
 41
1.0
 50
0.0
 71
     0
 42
3.5
  3
txt
  4

  0
ENDTAB
  0
TABLE
  2
VIEW
 70
     0
  0
ENDTAB
  0
TABLE
  2
UCS
 70
     0
  0
ENDTAB
  0
TABLE
  2
APPID
 70
     1
  0
APPID
  2
ACAD
 70
     0
  0
ENDTAB
  0
TABLE
  2
DIMSTYLE
 70
     1
  0
DIMSTYLE
  2
OPO-SSTRICH
 70
     0
  3

  4

  5

  6
OBLIQUE
  7
OBLIQUE
 40
1.0
 41
2.0
 42
2.0
 43
0.0
 44
1.0
 45
0.0
 46
1.0
 47
0.0
 48
0.0
140
3.5
141
0.0
142
0.0
143
0.039370078740157
144
1.0
145
0.0
146
0.7114285714285716
147
1.0
 71
     0
 72
     0
 73
     0
 74
     0
 75
     0
 76
     0
 77
     1
 78
     8
170
     0
171
     2
172
     1
173
     1
174
     1
175
     0
176
   256
177
   256
178
   256
  0
ENDTAB
  0
ENDSEC
  0
SECTION
  2
BLOCKS
  0
BLOCK
  8
0
  2
$MODEL_SPACE
 70
     0
 10
0.0
 20
0.0
 30
0.0
  3
$MODEL_SPACE
  1

  0
ENDBLK
  5
1C
  8
0
  0
BLOCK
 67
     1
  8
0
  2
$PAPER_SPACE
 70
     0
 10
0.0
 20
0.0
 30
0.0
  3
$PAPER_SPACE
  1

  0
ENDBLK
  5
19
 67
     1
  8
0
  0
BLOCK
  8
0
  2
_OBLIQUE
 70
     0
 10
0.0
 20
0.0
 30
0.0
  3
_OBLIQUE
  1

  0
LINE
  5
204
  8
0
 62
     0
 10
-0.5
 20
-0.5
 30
0.0
 11
0.5
 21
0.5
 31
0.0
  0
ENDBLK
  5
206
  8
0
  0
BLOCK
  8
0
  2
NULLPUNKT
 70
     0
 10
0.0
 20
0.0
 30
0.0
  3
NULLPUNKT
  1

  0
SOLID
  5
254
  8
5
 10
0.0
 20
0.0
 30
0.0
 11
2.0
 21
0.0
 31
0.0
 12
0.0
 22
-2.0
 32
0.0
 13
0.0
 23
-2.0
 33
0.0
  0
SOLID
  5
255
  8
5
 10
0.0
 20
0.0
 30
0.0
 11
-2.0
 21
0.0
 31
0.0
 12
0.0
 22
2.0
 32
0.0
 13
0.0
 23
2.0
 33
0.0
  0
POLYLINE
  5
256
  8
5
 66
     1
 10
0.0
 20
0.0
 30
0.0
  0
VERTEX
  5
3D2
  8
5
 10
0.0
 20
2.0
 30
0.0
  0
VERTEX
  5
3D3
  8
5
 10
0.0
 20
-2.0
 30
0.0
  0
SEQEND
  5
3D4
  8
5
  0
POLYLINE
  5
257
  8
5
 66
     1
 10
0.0
 20
0.0
 30
0.0
  0
VERTEX
  5
3D5
  8
5
 10
-2.0
 20
0.0
 30
0.0
  0
VERTEX
  5
3D6
  8
5
 10
2.0
 20
0.0
 30
0.0
  0
SEQEND
  5
3D7
  8
5
  0
CIRCLE
  5
258
  8
5
 10
0.0
 20
0.0
 30
0.0
 40
2.0
  0
ENDBLK
  5
25A
  8
0
  0
BLOCK
  8
0
  2
*X2
 70
     1
 10
0.0
 20
0.0
 30
0.0
  3
*X2
  1

  0
LINE
  5
294
  8
0
 62
     0
 10
1467.6976092801201
 20
-202.52247201093499
 30
0.0
 11
1468.5976092801191
 21
-201.6224720109351
 31
0.0
  0
LINE
  5
295
  8
0
 62
     0
 10
1471.4976092801189
 20
-198.72247201093489
 30
0.0
 11
1472.3971407787681
 21
-197.82294051228641
 31
0.0
  0
LINE
  5
296
  8
0
 62
     0
 10
1467.6976092801201
 20
-201.10825844856191
 30
0.0
 11
1468.5976092801191
 21
-200.20825844856199
 31
0.0
  0
LINE
  5
297
  8
0
 62
     0
 10
1470.4612873965971
 20
-198.34458033208381
 30
0.0
 11
1471.4612873965971
 21
-197.34458033208381
 31
0.0
  0
LINE
  5
298
  8
0
 62
     0
 10
1467.6723415571721
 20
-199.7193126091363
 30
0.0
 11
1468.5976092801191
 21
-198.794044886189
 31
0.0
  0
LINE
  5
299
  8
0
 62
     0
 10
1469.047073834224
 20
-198.34458033208381
 30
0.0
 11
1470.0470738342251
 21
-197.34458033208381
 31
0.0
  0
LINE
  5
29A
  8
0
 62
     0
 10
1467.5652347759849
 20
-198.41220582794969
 30
0.0
 11
1468.6328602718511
 21
-197.34458033208381
 31
0.0
  0
LINE
  5
29B
  8
0
 62
     0
 10
1467.643661900732
 20
-203.9906329526959
 30
0.0
 11
1468.5976092801191
 21
-203.0366855733082
 31
0.0
  0
LINE
  5
29C
  8
0
 62
     0
 10
1467.4507686819179
 20
-205.59773973388241
 30
0.0
 11
1468.5976092801191
 21
-204.45089913568131
 31
0.0
  0
LINE
  5
29D
  8
0
 62
     0
 10
1468.61814164609
 20
-205.84458033208381
 30
0.0
 11
1469.61814164609
 21
-204.84458033208381
 31
0.0
  0
LINE
  5
29E
  8
0
 62
     0
 10
1470.0323552084631
 20
-205.84458033208381
 30
0.0
 11
1471.0323552084631
 21
-204.84458033208381
 31
0.0
  0
LINE
  5
29F
  8
0
 62
     0
 10
1471.4976092801189
 20
-204.37932626042729
 30
0.0
 11
1471.7717108956199
 21
-204.10522464492649
 31
0.0
  0
LINE
  5
2A0
  8
0
 62
     0
 10
1471.4465687708359
 20
-205.84458033208381
 30
0.0
 11
1472.3976092801199
 21
-204.89353982280039
 31
0.0
  0
ENDBLK
  5
2A2
  8
0
  0
BLOCK
  8
0
  2
*D3
 70
     1
 10
0.0
 20
0.0
 30
0.0
  3
*D3
  1

  0
LINE
  5
3C2
  8
1
 10
7.0
 20
-0.0000000000000006
 30
0.0
 11
27.34751781222894
 21
-0.0000000000000063
 31
0.0
  0
LINE
  5
3C3
  8
1
 10
7.0
 20
1.9999999999999989
 30
0.0
 11
27.34751781222894
 21
1.9999999999999929
 31
0.0
  0
LINE
  5
3C4
  8
1
 10
26.34751781222894
 20
-0.000000000000006
 30
0.0
 11
26.34751781222894
 21
-2.0000000000000049
 31
0.0
  0
LINE
  5
3C5
  8
1
 10
26.34751781222894
 20
1.9999999999999929
 30
0.0
 11
26.34751781222894
 21
3.9999999999999929
 31
0.0
  0
TEXT
  5
3C6
  8
0
 10
23.58319311918665
 20
-0.3023533424283779
 30
0.0
 40
3.5
  1
2
 50
90.0
  7
BESCHLAG
  0
LINE
  5
3C7
  8
1
 10
26.34751781222894
 20
-0.000000000000006
 30
0.0
 11
26.34751781222894
 21
1.9999999999999929
 31
0.0
  0
INSERT
  5
3C8
  8
1
  2
_OBLIQUE
 10
26.34751781222894
 20
-0.000000000000006
 30
0.0
 41
2.0
 42
2.0
 43
2.0
 50
90.0
  0
INSERT
  5
3C9
  8
1
  2
_OBLIQUE
 10
26.34751781222894
 20
1.9999999999999929
 30
0.0
 41
2.0
 42
2.0
 43
2.0
 50
270.0
  0
POINT
  5
3CA
  8
DEFPOINTS
 62
     0
 10
5.0
 20
0.0
 30
0.0
  0
POINT
  5
3CB
  8
DEFPOINTS
 62
     0
 10
5.0
 20
1.9999999999999989
 30
0.0
  0
POINT
  5
3CC
  8
DEFPOINTS
 62
     0
 10
26.34751781222894
 20
1.9999999999999929
 30
0.0
  0
ENDBLK
  5
2D4
  8
0
  0
BLOCK
  8
0
  2
*D4
 70
     1
 10
0.0
 20
0.0
 30
0.0
  3
*D4
  1

  0
LINE
  5
2F8
  8
1
 10
7.0
 20
-8.5
 30
0.0
 11
27.34751781222894
 21
-8.5000000000000053
 31
0.0
  0
LINE
  5
2F9
  8
1
 10
7.0
 20
-0.0000000000000006
 30
0.0
 11
27.34751781222894
 21
-0.0000000000000063
 31
0.0
  0
LINE
  5
2FA
  8
1
 10
26.347517812228929
 20
-9.5000000000000053
 30
0.0
 11
26.34751781222894
 21
0.9999999999999939
 31
0.0
  0
INSERT
  5
2FB
  8
1
  2
_OBLIQUE
 10
26.347517812228929
 20
-8.5000000000000053
 30
0.0
 41
2.0
 42
2.0
 43
2.0
 50
270.0
  0
INSERT
  5
2FC
  8
1
  2
_OBLIQUE
 10
26.34751781222894
 20
-0.000000000000006
 30
0.0
 41
2.0
 42
2.0
 43
2.0
 50
90.0
  0
TEXT
  5
2FD
  8
0
 10
25.280669244698249
 20
-7.6497271487039571
 30
0.0
 40
3.5
  1
8.5
 50
90.0
  7
BESCHLAG
  0
POINT
  5
2FE
  8
DEFPOINTS
 62
     0
 10
5.0
 20
-8.5
 30
0.0
  0
POINT
  5
2FF
  8
DEFPOINTS
 62
     0
 10
5.0
 20
0.0
 30
0.0
  0
POINT
  5
300
  8
DEFPOINTS
 62
     0
 10
26.34751781222894
 20
-0.000000000000006
 30
0.0
  0
ENDBLK
  5
2E0
  8
0
  0
BLOCK
  8
0
  2
*D5
 70
     1
 10
0.0
 20
0.0
 30
0.0
  3
*D5
  1

  0
LINE
  5
301
  8
1
 10
-0.0000000000000001
 20
-10.5
 30
0.0
 11
-0.0000000000000008
 21
-21.828234843473862
 31
0.0
  0
LINE
  5
302
  8
1
 10
17.0
 20
-2.0
 30
0.0
 11
17.0
 21
-21.828234843473862
 31
0.0
  0
LINE
  5
303
  8
1
 10
-1.0
 20
-20.828234843473862
 30
0.0
 11
18.0
 21
-20.828234843473862
 31
0.0
  0
INSERT
  5
304
  8
1
  2
_OBLIQUE
 10
-0.0000000000000008
 20
-20.828234843473862
 30
0.0
 41
2.0
 42
2.0
 43
2.0
 50
180.0
  0
INSERT
  5
305
  8
1
  2
_OBLIQUE
 10
17.0
 20
-20.828234843473862
 30
0.0
 41
2.0
 42
2.0
 43
2.0
  0
TEXT
  5
306
  8
0
 10
5.6255115961800808
 20
-19.821072496952709
 30
0.0
 40
3.5
  1
17
  7
BESCHLAG
  0
POINT
  5
307
  8
DEFPOINTS
 62
     0
 10
0.0
 20
-8.5
 30
0.0
  0
POINT
  5
308
  8
DEFPOINTS
 62
     0
 10
17.0
 20
0.0
 30
0.0
  0
POINT
  5
309
  8
DEFPOINTS
 62
     0
 10
17.0
 20
-20.828234843473862
 30
0.0
  0
ENDBLK
  5
2EC
  8
0
  0
ENDSEC
  0
SECTION
  2
ENTITIES
  0
INSERT
  5
25B
  8
5
  2
NULLPUNKT
 10
0.0
 20
0.0
 30
0.0
  0
DIMENSION
  5
2B8
  8
1
  2
*D3
 10
26.34751781222894
 20
1.9999999999999929
 30
0.0
 11
21.83319311918665
 21
0.9999999999999989
 31
0.0
 70
   128
 13
5.0
 23
0.0
 33
0.0
 14
5.0
 24
2.0
 34
0.0
 50
90.0
  0
DIMENSION
  5
2B9
  8
1
  2
*D4
 10
26.34751781222894
 20
-0.000000000000006
 30
0.0
 11
23.56051235520302
 21
-4.2500000000000009
 31
0.0
 70
     0
 13
5.0
 23
-8.5
 33
0.0
 14
5.0
 24
0.0
 34
0.0
 50
90.0
  0
LINE
  5
2BB
  8
5
 10
20.724579182957761
 20
2.0
 30
0.0
 11
-7.7391676333470514
 21
2.0
 31
0.0
  0
TEXT
  5
2BC
  8
1
 10
-11.052631639437489
 20
-14.71341472139353
 30
0.0
 40
2.4999999499999999
  1
Hebgo 139/639
  0
DIMENSION
  5
2BD
  8
1
  2
*D5
 10
17.0
 20
-20.828234843473862
 30
0.0
 11
8.5
 21
-18.071072496952709
 31
0.0
 70
     0
 13
0.0
 23
-8.5
 33
0.0
 14
17.0
 24
0.0
 34
0.0
  0
POLYLINE
  5
2BE
  8
6
 66
     1
 10
0.0
 20
0.0
 30
0.0
 70
     1
  0
VERTEX
  5
3D8
  8
6
 10
5.3998603315906157
 20
-0.2022951412902785
 30
0.0
  0
VERTEX
  5
3D9
  8
6
 10
5.0
 20
-0.2022951412902785
 30
0.0
  0
VERTEX
  5
3DA
  8
6
 10
5.0
 20
-1.5888285165767679
 30
0.0
 42
-0.4035906814701772
  0
VERTEX
  5
3DB
  8
6
 10
4.6148355807511052
 20
-1.9430724878195631
 30
0.0
  0
VERTEX
  5
3DC
  8
6
 10
4.1186067591079327
 20
-1.9430724878195631
 30
0.0
 42
-0.3252563886443291
  0
VERTEX
  5
3DD
  8
6
 10
4.011576989036711
 20
-1.865211172496628
 30
0.0
  0
VERTEX
  5
3DE
  8
6
 10
3.8169774957655132
 20
-1.2325881256831499
 30
0.0
 42
0.4417554821953464
  0
VERTEX
  5
3DF
  8
6
 10
3.5639981219983379
 20
-1.2131228184196059
 30
0.0
  0
VERTEX
  5
3E0
  8
6
 10
2.3282910958655521
 20
-1.894409176526096
 30
0.0
 42
0.23938051492767
  0
VERTEX
  5
3E1
  8
6
 10
2.1045016948612552
 20
-2.4005075967231728
 30
0.0
  0
VERTEX
  5
3E2
  8
6
 10
2.1045016948612552
 20
-5.7777414694951403
 30
0.0
 42
0.2404866071905377
  0
VERTEX
  5
3E3
  8
6
 10
2.3380210867865112
 20
-6.2351766646672777
 30
0.0
  0
VERTEX
  5
3E4
  8
6
 10
3.4958882505811739
 20
-7.1597795792406478
 30
0.0
 42
0.3439993275354082
  0
VERTEX
  5
3E5
  8
6
 10
3.768327606190268
 20
-7.0624529566539422
 30
0.0
  0
VERTEX
  5
3E6
  8
6
 10
4.0018470631453047
 20
-6.6147504582479542
 30
0.0
 42
-0.2442750189721727
  0
VERTEX
  5
3E7
  8
6
 10
4.0991467772660144
 20
-6.5466218396909417
 30
0.0
  0
VERTEX
  5
3E8
  8
6
 10
4.5564557002551282
 20
-6.5466218396909417
 30
0.0
 42
-0.2369480727369922
  0
VERTEX
  5
3E9
  8
6
 10
5.0
 20
-7.0387960480600213
 30
0.0
  0
VERTEX
  5
3EA
  8
6
 10
5.0
 20
-8.1427785018731811
 30
0.0
 42
-0.3362842101333717
  0
VERTEX
  5
3EB
  8
6
 10
4.9261947699849307
 20
-8.2401051244598875
 30
0.0
  0
VERTEX
  5
3EC
  8
6
 10
0.2844133935170703
 20
-9.7635924487206012
 30
0.0
 42
0.9800851328894825
  0
VERTEX
  5
3ED
  8
6
 10
0.5866253872279686
 20
-10.71145854363226
 30
0.0
  0
VERTEX
  5
3EE
  8
6
 10
4.7614596716005053
 20
-9.5602556915976038
 30
0.0
 42
0.2353593122321381
  0
VERTEX
  5
3EF
  8
6
 10
6.0840619337795943
 20
-8.1233131083413355
 30
0.0
 42
0.001393963035233
  0
VERTEX
  5
3F0
  8
6
 10
7.437146827382775
 20
-3.5530434560896529
 30
0.0
 42
-0.1139007989961079
  0
VERTEX
  5
3F1
  8
6
 10
8.0766531208653305
 20
-2.6346970594809132
 30
0.0
 42
-0.1238471969248543
  0
VERTEX
  5
3F2
  8
6
 10
16.522869596366942
 20
0.6312057032534995
 30
0.0
 42
0.567597564357571
  0
VERTEX
  5
3F3
  8
6
 10
17.099381507964601
 20
1.841072934307703
 30
0.0
 42
0.5732239392224412
  0
VERTEX
  5
3F4
  8
6
 10
16.431780535503091
 20
1.7437182745425159
 30
0.0
 42
0.0163992512114561
  0
VERTEX
  5
3F5
  8
6
 10
14.145086027298699
 20
1.4756848777537921
 30
0.0
 42
0.6403218397857666
  0
VERTEX
  5
3F6
  8
6
 10
13.156245136037789
 20
1.3767735075662131
 30
0.0
 42
0.0303436150639647
  0
VERTEX
  5
3F7
  8
6
 10
11.132838430935401
 20
0.9179366260023016
 30
0.0
 42
0.6990510695531773
  0
VERTEX
  5
3F8
  8
6
 10
10.335109754881151
 20
0.5329612327327596
 30
0.0
 42
0.0262957807415477
  0
VERTEX
  5
3F9
  8
6
 10
8.9660319332906511
 20
-0.1192612684601499
 30
0.0
 42
0.5504786543771965
  0
VERTEX
  5
3FA
  8
6
 10
8.1255171529583095
 20
-0.6509099263528242
 30
0.0
 42
0.063411461954503
  0
VERTEX
  5
3FB
  8
6
 10
6.7782215207150784
 20
-1.42983709598252
 30
0.0
 42
-0.3880376676734742
  0
VERTEX
  5
3FC
  8
6
 10
6.4074061458488814
 20
-1.330925725794941
 30
0.0
 42
-0.0228849521986174
  0
VERTEX
  5
3FD
  8
6
 10
5.9500672442079567
 20
-0.5396345917574763
 30
0.0
 42
0.2079658278280592
  0
SEQEND
  5
3FE
  8
6
  0
INSERT
  5
2BF
  8
2
  2
*X2
 10
-1467.397609280119
 20
197.34458033208381
 30
0.0
1001
ACAD
1000
HATCH
1002
{
1070
    16
1000
_U,I
1040
1.0
1040
0.7853981633974483
1070
     0
1002
}
  0
LINE
  5
2C0
  8
6
  6
STRICHPUNKT
 10
1.993865025020795
 20
-4.25
 30
0.0
 11
-8.8382750155030863
 21
-4.25
 31
0.0
  0
POLYLINE
  5
2C1
  8
6
 66
     1
 10
0.0
 20
0.0
 30
0.0
 70
     1
  0
VERTEX
  5
3FF
  8
6
 10
4.0999999999999091
 20
-7.5
 30
0.0
  0
VERTEX
  5
400
  8
6
 10
4.0999999999999091
 20
-6.9464101615135396
 30
0.0
 42
-0.5773502691896325
  0
VERTEX
  5
401
  8
6
 10
4.3999999999998627
 20
-6.7732050807567239
 30
0.0
  0
VERTEX
  5
402
  8
6
 10
4.75
 20
-6.9752776749733121
 30
0.0
 42
-0.2679491924311209
  0
VERTEX
  5
403
  8
6
 10
5.0
 20
-7.4082903768653523
 30
0.0
  0
VERTEX
  5
404
  8
6
 10
5.0
 20
-8.0
 30
0.0
 42
-0.4142135623731029
  0
VERTEX
  5
405
  8
6
 10
4.5
 20
-8.5
 30
0.0
  0
VERTEX
  5
406
  8
6
 10
0.2999999999999545
 20
-8.5
 30
0.0
  0
VERTEX
  5
407
  8
6
 10
0.0
 20
-8.1999999999998181
 30
0.0
  0
VERTEX
  5
408
  8
6
 10
0.2999999999999545
 20
-7.9000000000000901
 30
0.0
  0
VERTEX
  5
409
  8
6
 10
0.0
 20
-7.5999999999999091
 30
0.0
  0
VERTEX
  5
40A
  8
6
 10
0.2999999999999545
 20
-7.2999999999997272
 30
0.0
  0
VERTEX
  5
40B
  8
6
 10
0.0
 20
-7.0
 30
0.0
  0
VERTEX
  5
40C
  8
6
 10
0.2999999999999545
 20
-6.6999999999998181
 30
0.0
  0
VERTEX
  5
40D
  8
6
 10
0.0
 20
-6.4000000000000901
 30
0.0
  0
VERTEX
  5
40E
  8
6
 10
0.2999999999999545
 20
-6.0999999999999091
 30
0.0
  0
VERTEX
  5
40F
  8
6
 10
0.2999999999999545
 20
-2.4000000000000901
 30
0.0
  0
VERTEX
  5
410
  8
6
 10
0.0
 20
-2.0999999999999091
 30
0.0
  0
VERTEX
  5
411
  8
6
 10
0.2999999999999545
 20
-1.7999999999997269
 30
0.0
  0
VERTEX
  5
412
  8
6
 10
0.0
 20
-1.5
 30
0.0
  0
VERTEX
  5
413
  8
6
 10
0.2999999999999545
 20
-1.1999999999998181
 30
0.0
  0
VERTEX
  5
414
  8
6
 10
0.0
 20
-0.900000000000091
 30
0.0
  0
VERTEX
  5
415
  8
6
 10
0.2999999999999545
 20
-0.5999999999999091
 30
0.0
  0
VERTEX
  5
416
  8
6
 10
0.0
 20
-0.2999999999997271
 30
0.0
  0
VERTEX
  5
417
  8
6
 10
0.2999999999999545
 20
0.0
 30
0.0
  0
VERTEX
  5
418
  8
6
 10
4.5
 20
0.0
 30
0.0
 42
-0.4142135623730951
  0
VERTEX
  5
419
  8
6
 10
5.0
 20
-0.5
 30
0.0
  0
VERTEX
  5
41A
  8
6
 10
5.0
 20
-1.0917096231341921
 30
0.0
 42
-0.2679491924311145
  0
VERTEX
  5
41B
  8
6
 10
4.75
 20
-1.524722325026687
 30
0.0
  0
VERTEX
  5
41C
  8
6
 10
4.3999999999998627
 20
-1.72679491924282
 30
0.0
 42
-0.5773502691896374
  0
VERTEX
  5
41D
  8
6
 10
4.0999999999999091
 20
-1.5535898384860041
 30
0.0
  0
VERTEX
  5
41E
  8
6
 10
4.0999999999999091
 20
-1.0
 30
0.0
  0
VERTEX
  5
41F
  8
6
 10
1.1999999999998181
 20
-1.0
 30
0.0
  0
VERTEX
  5
420
  8
6
 10
1.1999999999998181
 20
-7.5
 30
0.0
  0
SEQEND
  5
421
  8
6
  0
POLYLINE
  5
2C2
  8
4
 66
     1
 10
0.0
 20
0.0
 30
0.0
 70
     1
  0
VERTEX
  5
422
  8
4
 10
0.0
 20
-8.5
 30
0.0
  0
VERTEX
  5
423
  8
4
 10
5.0
 20
-8.5
 30
0.0
  0
VERTEX
  5
424
  8
4
 10
5.0
 20
0.0
 30
0.0
  0
VERTEX
  5
425
  8
4
 10
0.0
 20
0.0
 30
0.0
  0
SEQEND
  5
426
  8
4
  0
POLYLINE
  5
2C3
  8
5
 66
     1
 10
0.0
 20
0.0
 30
0.0
  0
VERTEX
  5
427
  8
5
 10
-7.7518492343624521
 20
0.0
 30
0.0
  0
VERTEX
  5
428
  8
5
 10
0.0
 20
0.0
 30
0.0
  0
VERTEX
  5
429
  8
5
 10
0.0
 20
-10.0
 30
0.0
  0
VERTEX
  5
42A
  8
5
 10
-1.1858781571634149
 20
-10.0
 30
0.0
  0
SEQEND
  5
42B
  8
5
  0
POLYLINE
  5
2C4
  8
6
 66
     1
 10
0.0
 20
0.0
 30
0.0
 70
     1
  0
VERTEX
  5
42C
  8
6
 10
4.7705151753680184
 20
-3.1012592620936621
 30
0.0
 42
-0.7980627662484402
  0
VERTEX
  5
42D
  8
6
 10
4.7705151753680184
 20
-5.3203063605915304
 30
0.0
  0
VERTEX
  5
42E
  8
6
 10
3.593188029731436
 20
-5.3203063605915304
 30
0.0
 42
-0.123381154168678
  0
VERTEX
  5
42F
  8
6
 10
3.3207486741223411
 20
-5.0185937960654883
 30
0.0
  0
VERTEX
  5
430
  8
6
 10
3.3207486741223411
 20
-3.4224371338832489
 30
0.0
 42
-0.3477133527992079
  0
VERTEX
  5
431
  8
6
 10
3.7391376984571698
 20
-3.1012592620936621
 30
0.0
  0
SEQEND
  5
432
  8
6
  0
POINT
  5
2C5
  8
5
 10
5.0
 20
-4.25
 30
0.0
  0
TEXT
  5
2C6
  8
1
 10
29.63332545221305
 20
-2.0015917230557529
 30
0.0
 40
1.5
  1
(0-4)
 50
90.0
  0
VIEWPORT
  5
22
 67
     1
  8
0
 10
210.0
 20
170.2366863905325
 30
0.0
 40
420.0
 41
340.47337278106511
 68
     1
 69
     1
1001
ACAD
1000
MVIEW
1002
{
1070
    16
1010
0.0
1020
0.0
1030
0.0
1010
0.0
1020
0.0
1030
1.0
1040
0.0
1040
340.47337278106511
1040
210.0
1040
170.2366863905325
1040
50.0
1040
0.0
1040
0.0
1070
     0
1070
   100
1070
     1
1070
     1
1070
     0
1070
     0
1070
     0
1070
     0
1040
0.0
1040
0.0
1040
0.0
1040
5.0
1040
5.0
1040
10.0
1040
10.0
1070
     0
1002
{
1002
}
1002
}
  0
ENDSEC
  0
EOF
