  0
SECTION
  2
HEADER
  9
$ACADVER
  1
AC1009
  9
$INSBASE
 10
0.0
 20
0.0
 30
0.0
  9
$EXTMIN
 10
-14.00756750256698
 20
-18.974303348192731
 30
-0.000000000000013
  9
$EXTMAX
 10
11.924744190094991
 20
13.114929738355499
 30
0.0000000000000023
  9
$LIMMIN
 10
-150.0
 20
-150.0
  9
$LIMMAX
 10
150.0
 20
150.0
  9
$ORTHOMODE
 70
     0
  9
$REGENMODE
 70
     1
  9
$FILLMODE
 70
     1
  9
$QTEXTMODE
 70
     0
  9
$MIRRTEXT
 70
     0
  9
$DRAGMODE
 70
     2
  9
$LTSCALE
 40
1.0
  9
$OSMODE
 70
   111
  9
$ATTMODE
 70
     1
  9
$TEXTSIZE
 40
3.5
  9
$TRACEWID
 40
1.0
  9
$TEXTSTYLE
  7
BESCHLAG
  9
$CLAYER
  8
0
  9
$CELTYPE
  6
BYLAYER
  9
$CECOLOR
 62
   256
  9
$DIMSCALE
 40
1.0
  9
$DIMASZ
 40
2.0
  9
$DIMEXO
 40
2.0
  9
$DIMDLI
 40
0.0
  9
$DIMRND
 40
0.0
  9
$DIMDLE
 40
1.0
  9
$DIMEXE
 40
1.0
  9
$DIMTP
 40
0.0
  9
$DIMTM
 40
0.0
  9
$DIMTXT
 40
3.5
  9
$DIMCEN
 40
0.0
  9
$DIMTSZ
 40
0.0
  9
$DIMTOL
 70
     0
  9
$DIMLIM
 70
     0
  9
$DIMTIH
 70
     0
  9
$DIMTOH
 70
     0
  9
$DIMSE1
 70
     0
  9
$DIMSE2
 70
     0
  9
$DIMTAD
 70
     1
  9
$DIMZIN
 70
     8
  9
$DIMBLK
  1

  9
$DIMASO
 70
     1
  9
$DIMSHO
 70
     1
  9
$DIMPOST
  1

  9
$DIMAPOST
  1

  9
$DIMALT
 70
     0
  9
$DIMALTD
 70
     2
  9
$DIMALTF
 40
0.039370078740157
  9
$DIMLFAC
 40
1.0
  9
$DIMTOFL
 70
     1
  9
$DIMTVP
 40
0.0
  9
$DIMTIX
 70
     1
  9
$DIMSOXD
 70
     0
  9
$DIMSAH
 70
     1
  9
$DIMBLK1
  1
OBLIQUE
  9
$DIMBLK2
  1
OBLIQUE
  9
$DIMSTYLE
  2
OPO-SSTRICH
  9
$DIMCLRD
 70
   256
  9
$DIMCLRE
 70
   256
  9
$DIMCLRT
 70
   256
  9
$DIMTFAC
 40
0.7114285714285716
  9
$DIMGAP
 40
1.0
  9
$LUNITS
 70
     2
  9
$LUPREC
 70
     1
  9
$SKETCHINC
 40
1.0
  9
$FILLETRAD
 40
0.0
  9
$AUNITS
 70
     0
  9
$AUPREC
 70
     1
  9
$MENU
  1
D:\ACL_CGWG\CGTAB13
  9
$ELEVATION
 40
0.0
  9
$PELEVATION
 40
0.0
  9
$THICKNESS
 40
0.0
  9
$LIMCHECK
 70
     0
  9
$BLIPMODE
 70
     0
  9
$CHAMFERA
 40
1.0
  9
$CHAMFERB
 40
1.0
  9
$SKPOLY
 70
     0
  9
$TDCREATE
 40
2451739.8416693751
  9
$TDUPDATE
 40
2452086.718850289
  9
$TDINDWG
 40
0.0010354977
  9
$TDUSRTIMER
 40
0.0010354977
  9
$USRTIMER
 70
     1
  9
$ANGBASE
 50
0.0
  9
$ANGDIR
 70
     0
  9
$PDMODE
 70
    35
  9
$PDSIZE
 40
5.0
  9
$PLINEWID
 40
0.0
  9
$COORDS
 70
     1
  9
$SPLFRAME
 70
     0
  9
$SPLINETYPE
 70
     6
  9
$SPLINESEGS
 70
     8
  9
$ATTDIA
 70
     1
  9
$ATTREQ
 70
     1
  9
$HANDLING
 70
-16383
  9
$HANDSEED
  5
4A8
  9
$SURFTAB1
 70
    12
  9
$SURFTAB2
 70
    12
  9
$SURFTYPE
 70
     6
  9
$SURFU
 70
    12
  9
$SURFV
 70
    12
  9
$UCSNAME
  2

  9
$UCSORG
 10
0.0
 20
0.0
 30
0.0
  9
$UCSXDIR
 10
1.0
 20
0.0
 30
0.0
  9
$UCSYDIR
 10
0.0
 20
1.0
 30
0.0
  9
$PUCSNAME
  2

  9
$PUCSORG
 10
0.0
 20
0.0
 30
0.0
  9
$PUCSXDIR
 10
1.0
 20
0.0
 30
0.0
  9
$PUCSYDIR
 10
0.0
 20
1.0
 30
0.0
  9
$USERI1
 70
     0
  9
$USERI2
 70
     0
  9
$USERI3
 70
     0
  9
$USERI4
 70
     0
  9
$USERI5
 70
     0
  9
$USERR1
 40
0.0
  9
$USERR2
 40
0.0
  9
$USERR3
 40
0.0
  9
$USERR4
 40
0.0
  9
$USERR5
 40
0.0
  9
$WORLDVIEW
 70
     1
  9
$SHADEDGE
 70
     3
  9
$SHADEDIF
 70
    70
  9
$TILEMODE
 70
     1
  9
$MAXACTVP
 70
    48
  9
$PLIMCHECK
 70
     0
  9
$PEXTMIN
 10
1.0000000000000000E+020
 20
1.0000000000000000E+020
 30
1.0000000000000000E+020
  9
$PEXTMAX
 10
-1.0000000000000000E+020
 20
-1.0000000000000000E+020
 30
-1.0000000000000000E+020
  9
$PLIMMIN
 10
0.0
 20
0.0
  9
$PLIMMAX
 10
420.0
 20
297.0
  9
$UNITMODE
 70
     0
  9
$VISRETAIN
 70
     1
  9
$PLINEGEN
 70
     0
  9
$PSLTSCALE
 70
     1
  0
ENDSEC
  0
SECTION
  2
TABLES
  0
TABLE
  2
VPORT
 70
     3
  0
VPORT
  2
*ACTIVE
 70
     0
 10
0.0
 20
0.0
 11
1.0
 21
1.0
 12
-1.041411656235995
 22
-2.9296868049186169
 13
0.0
 23
0.0
 14
0.5
 24
0.5
 15
10.0
 25
10.0
 16
0.0
 26
0.0
 36
1.0
 17
0.0
 27
0.0
 37
0.0
 40
32.349768131905861
 41
1.6070460704607039
 42
50.0
 43
0.0
 44
0.0
 50
0.0
 51
0.0
 71
     0
 72
   800
 73
     1
 74
     1
 75
     0
 76
     0
 77
     0
 78
     0
  0
ENDTAB
  0
TABLE
  2
LTYPE
 70
     1
  0
LTYPE
  2
CONTINUOUS
 70
     0
  3
_______________________________________________
 72
    65
 73
     2
 40
1.0
 49
1.0
 49
0.0
  0
ENDTAB
  0
TABLE
  2
LAYER
 70
     5
  0
LAYER
  2
0
 70
     0
 62
    30
  6
CONTINUOUS
  0
LAYER
  2
1
 70
     0
 62
     2
  6
CONTINUOUS
  0
LAYER
  2
5
 70
     0
 62
     1
  6
CONTINUOUS
  0
LAYER
  2
6
 70
     0
 62
     3
  6
CONTINUOUS
  0
LAYER
  2
DEFPOINTS
 70
     0
 62
     7
  6
CONTINUOUS
  0
ENDTAB
  0
TABLE
  2
STYLE
 70
     2
  0
STYLE
  2
STANDARD
 70
     0
 40
0.0
 41
1.0
 50
0.0
 71
     0
 42
2.5
  3
txt
  4

  0
STYLE
  2
BESCHLAG
 70
     0
 40
0.0
 41
1.0
 50
0.0
 71
     0
 42
3.5
  3
txt
  4

  0
ENDTAB
  0
TABLE
  2
VIEW
 70
     0
  0
ENDTAB
  0
TABLE
  2
UCS
 70
     0
  0
ENDTAB
  0
TABLE
  2
APPID
 70
     1
  0
APPID
  2
ACAD
 70
     0
  0
ENDTAB
  0
TABLE
  2
DIMSTYLE
 70
     1
  0
DIMSTYLE
  2
OPO-SSTRICH
 70
     0
  3

  4

  5

  6
OBLIQUE
  7
OBLIQUE
 40
1.0
 41
2.0
 42
2.0
 43
0.0
 44
1.0
 45
0.0
 46
1.0
 47
0.0
 48
0.0
140
3.5
141
0.0
142
0.0
143
0.039370078740157
144
1.0
145
0.0
146
0.7114285714285716
147
1.0
 71
     0
 72
     0
 73
     0
 74
     0
 75
     0
 76
     0
 77
     1
 78
     8
170
     0
171
     2
172
     1
173
     1
174
     1
175
     0
176
   256
177
   256
178
   256
  0
ENDTAB
  0
ENDSEC
  0
SECTION
  2
BLOCKS
  0
BLOCK
  8
0
  2
$MODEL_SPACE
 70
     0
 10
0.0
 20
0.0
 30
0.0
  3
$MODEL_SPACE
  1

  0
ENDBLK
  5
1C
  8
0
  0
BLOCK
 67
     1
  8
0
  2
$PAPER_SPACE
 70
     0
 10
0.0
 20
0.0
 30
0.0
  3
$PAPER_SPACE
  1

  0
ENDBLK
  5
19
 67
     1
  8
0
  0
BLOCK
  8
0
  2
_OBLIQUE
 70
     0
 10
0.0
 20
0.0
 30
0.0
  3
_OBLIQUE
  1

  0
LINE
  5
204
  8
0
 62
     0
 10
-0.5
 20
-0.5
 30
0.0
 11
0.5
 21
0.5
 31
0.0
  0
ENDBLK
  5
206
  8
0
  0
BLOCK
  8
0
  2
NULLPUNKT
 70
     0
 10
0.0
 20
0.0
 30
0.0
  3
NULLPUNKT
  1

  0
SOLID
  5
254
  8
5
 10
0.0
 20
0.0
 30
0.0
 11
2.0
 21
0.0
 31
0.0
 12
0.0
 22
-2.0
 32
0.0
 13
0.0
 23
-2.0
 33
0.0
  0
SOLID
  5
255
  8
5
 10
0.0
 20
0.0
 30
0.0
 11
-2.0
 21
0.0
 31
0.0
 12
0.0
 22
2.0
 32
0.0
 13
0.0
 23
2.0
 33
0.0
  0
POLYLINE
  5
256
  8
5
 66
     1
 10
0.0
 20
0.0
 30
0.0
  0
VERTEX
  5
467
  8
5
 10
0.0
 20
2.0
 30
0.0
  0
VERTEX
  5
468
  8
5
 10
0.0
 20
-2.0
 30
0.0
  0
SEQEND
  5
469
  8
5
  0
POLYLINE
  5
257
  8
5
 66
     1
 10
0.0
 20
0.0
 30
0.0
  0
VERTEX
  5
46A
  8
5
 10
-2.0
 20
0.0
 30
0.0
  0
VERTEX
  5
46B
  8
5
 10
2.0
 20
0.0
 30
0.0
  0
SEQEND
  5
46C
  8
5
  0
CIRCLE
  5
258
  8
5
 10
0.0
 20
0.0
 30
0.0
 40
2.0
  0
ENDBLK
  5
25A
  8
0
  0
BLOCK
  8
0
  2
*D2
 70
     1
 10
0.0
 20
0.0
 30
0.0
  3
*D2
  1

  0
LINE
  5
302
  8
1
 10
-13.0
 20
-2.0
 30
0.0
 11
-13.0
 21
-18.971218945215242
 31
0.0
  0
LINE
  5
303
  8
1
 10
-8.0
 20
-9.0
 30
0.0
 11
-8.0
 21
-18.971218945215242
 31
0.0
  0
LINE
  5
304
  8
1
 10
-14.0
 20
-17.971218945215242
 30
0.0
 11
-7.0
 21
-17.971218945215242
 31
0.0
  0
INSERT
  5
305
  8
1
  2
_OBLIQUE
 10
-13.0
 20
-17.971218945215242
 30
0.0
 41
2.0
 42
2.0
 43
2.0
 50
180.0
  0
INSERT
  5
306
  8
1
  2
_OBLIQUE
 10
-8.0
 20
-17.971218945215242
 30
0.0
 41
2.0
 42
2.0
 43
2.0
  0
TEXT
  5
307
  8
0
 10
-11.86323328785811
 20
-16.911532724205689
 30
0.0
 40
3.5
  1
5
  7
BESCHLAG
  0
POINT
  5
308
  8
DEFPOINTS
 62
     0
 10
-13.0
 20
0.0
 30
0.0
  0
POINT
  5
309
  8
DEFPOINTS
 62
     0
 10
-8.0
 20
-7.0
 30
0.0
  0
POINT
  5
30A
  8
DEFPOINTS
 62
     0
 10
-8.0
 20
-17.971218945215242
 30
0.0
  0
ENDBLK
  5
2CF
  8
0
  0
BLOCK
  8
0
  2
*D3
 70
     1
 10
0.0
 20
0.0
 30
0.0
  3
*D3
  1

  0
LINE
  5
30B
  8
1
 10
-8.0
 20
-9.0
 30
0.0
 11
-8.0
 21
-18.971218945215242
 31
0.0
  0
LINE
  5
30C
  8
1
 10
-5.0
 20
-9.0
 30
0.0
 11
-5.0
 21
-18.971218945215242
 31
0.0
  0
LINE
  5
30D
  8
1
 10
-8.0
 20
-17.971218945215242
 30
0.0
 11
-10.0
 21
-17.971218945215242
 31
0.0
  0
LINE
  5
30E
  8
1
 10
-5.0
 20
-17.971218945215242
 30
0.0
 11
-3.0
 21
-17.971218945215242
 31
0.0
  0
LINE
  5
30F
  8
1
 10
-8.0
 20
-17.971218945215242
 30
0.0
 11
-5.0
 21
-17.971218945215242
 31
0.0
  0
INSERT
  5
310
  8
1
  2
_OBLIQUE
 10
-8.0
 20
-17.971218945215242
 30
0.0
 41
2.0
 42
2.0
 43
2.0
  0
INSERT
  5
311
  8
1
  2
_OBLIQUE
 10
-5.0
 20
-17.971218945215242
 30
0.0
 41
2.0
 42
2.0
 43
2.0
 50
180.0
  0
TEXT
  5
312
  8
0
 10
-7.8512960436562071
 20
-16.901982928844159
 30
0.0
 40
3.5
  1
3
  7
BESCHLAG
  0
POINT
  5
313
  8
DEFPOINTS
 62
     0
 10
-8.0
 20
-7.0
 30
0.0
  0
POINT
  5
314
  8
DEFPOINTS
 62
     0
 10
-5.0
 20
-7.0
 30
0.0
  0
POINT
  5
315
  8
DEFPOINTS
 62
     0
 10
-5.0
 20
-17.971218945215242
 30
0.0
  0
ENDBLK
  5
2DD
  8
0
  0
BLOCK
  8
0
  2
*D4
 70
     1
 10
0.0
 20
0.0
 30
0.0
  3
*D4
  1

  0
LINE
  5
316
  8
1
 10
-5.0
 20
-9.0
 30
0.0
 11
-5.0
 21
-18.971218945215242
 31
0.0
  0
LINE
  5
317
  8
1
 10
-0.0000000000000001
 20
-9.0
 30
0.0
 11
-0.0000000000000007
 21
-18.971218945215242
 31
0.0
  0
LINE
  5
318
  8
1
 10
-6.0
 20
-17.971218945215242
 30
0.0
 11
0.9999999999999992
 21
-17.971218945215242
 31
0.0
  0
INSERT
  5
319
  8
1
  2
_OBLIQUE
 10
-5.0
 20
-17.971218945215242
 30
0.0
 41
2.0
 42
2.0
 43
2.0
 50
180.0
  0
INSERT
  5
31A
  8
1
  2
_OBLIQUE
 10
-0.0000000000000007
 20
-17.971218945215242
 30
0.0
 41
2.0
 42
2.0
 43
2.0
  0
TEXT
  5
31B
  8
0
 10
-3.8632332878581179
 20
-16.911532724205689
 30
0.0
 40
3.5
  1
5
  7
BESCHLAG
  0
POINT
  5
31C
  8
DEFPOINTS
 62
     0
 10
-5.0
 20
-7.0
 30
0.0
  0
POINT
  5
31D
  8
DEFPOINTS
 62
     0
 10
0.0
 20
-7.0
 30
0.0
  0
POINT
  5
31E
  8
DEFPOINTS
 62
     0
 10
-0.0000000000000007
 20
-17.971218945215242
 30
0.0
  0
ENDBLK
  5
2E9
  8
0
  0
BLOCK
  8
0
  2
*D5
 70
     1
 10
0.0
 20
0.0
 30
0.0
  3
*D5
  1

  0
LINE
  5
31F
  8
1
 10
-3.0
 20
-7.0
 30
0.0
 11
11.91496246566021
 21
-7.0000000000000044
 31
0.0
  0
LINE
  5
320
  8
1
 10
-3.0
 20
-0.0000000000000006
 30
0.0
 11
11.91496246566021
 21
-0.0000000000000048
 31
0.0
  0
LINE
  5
321
  8
1
 10
10.914962465660199
 20
-8.0000000000000036
 30
0.0
 11
10.914962465660199
 21
0.9999999999999953
 31
0.0
  0
INSERT
  5
322
  8
1
  2
_OBLIQUE
 10
10.914962465660199
 20
-7.0000000000000044
 30
0.0
 41
2.0
 42
2.0
 43
2.0
 50
270.0
  0
INSERT
  5
323
  8
1
  2
_OBLIQUE
 10
10.914962465660199
 20
-0.0000000000000045
 30
0.0
 41
2.0
 42
2.0
 43
2.0
 50
90.0
  0
TEXT
  5
324
  8
0
 10
9.91496246566021
 20
-4.86442701227831
 30
0.0
 40
3.5
  1
7
 50
90.0
  7
BESCHLAG
  0
POINT
  5
325
  8
DEFPOINTS
 62
     0
 10
-5.0
 20
-7.0
 30
0.0
  0
POINT
  5
326
  8
DEFPOINTS
 62
     0
 10
-5.0
 20
0.0
 30
0.0
  0
POINT
  5
327
  8
DEFPOINTS
 62
     0
 10
10.914962465660199
 20
-0.0000000000000045
 30
0.0
  0
ENDBLK
  5
2F5
  8
0
  0
BLOCK
  8
0
  2
*D6
 70
     1
 10
0.0
 20
0.0
 30
0.0
  3
*D6
  1

  0
LINE
  5
328
  8
1
 10
-3.0
 20
-0.0000000000000006
 30
0.0
 11
11.91496246566021
 21
-0.0000000000000048
 31
0.0
  0
LINE
  5
329
  8
1
 10
-7.0
 20
7.0
 30
0.0
 11
11.91496246566021
 21
6.9999999999999938
 31
0.0
  0
LINE
  5
32A
  8
1
 10
10.914962465660199
 20
-1.000000000000004
 30
0.0
 11
10.914962465660199
 21
7.9999999999999938
 31
0.0
  0
INSERT
  5
32B
  8
1
  2
_OBLIQUE
 10
10.914962465660199
 20
-0.0000000000000045
 30
0.0
 41
2.0
 42
2.0
 43
2.0
 50
270.0
  0
INSERT
  5
32C
  8
1
  2
_OBLIQUE
 10
10.914962465660199
 20
6.9999999999999938
 30
0.0
 41
2.0
 42
2.0
 43
2.0
 50
90.0
  0
TEXT
  5
32D
  8
0
 10
9.9149624656602082
 20
2.1355729877216878
 30
0.0
 40
3.5
  1
7
 50
90.0
  7
BESCHLAG
  0
POINT
  5
32E
  8
DEFPOINTS
 62
     0
 10
-5.0
 20
0.0
 30
0.0
  0
POINT
  5
32F
  8
DEFPOINTS
 62
     0
 10
-9.0
 20
7.0
 30
0.0
  0
POINT
  5
330
  8
DEFPOINTS
 62
     0
 10
10.914962465660199
 20
6.9999999999999938
 30
0.0
  0
ENDBLK
  5
301
  8
0
  0
ENDSEC
  0
SECTION
  2
ENTITIES
  0
INSERT
  5
25B
  8
5
  2
NULLPUNKT
 10
0.0
 20
0.0
 30
0.0
  0
DIMENSION
  5
2BB
  8
1
  2
*D2
 10
-8.0
 20
-17.971218945215242
 30
0.0
 11
-10.5
 21
-15.19137583471046
 31
0.0
 70
     0
 13
-13.0
 23
0.0
 33
0.0
 14
-8.0
 24
-7.0
 34
0.0
  0
DIMENSION
  5
2BC
  8
1
  2
*D3
 10
-5.0
 20
-17.971218945215242
 30
0.0
 11
-6.5
 21
-15.183019763769121
 31
0.0
 70
     0
 13
-8.0
 23
-7.0
 33
0.0
 14
-5.0
 24
-7.0
 34
0.0
  0
TEXT
  5
2BD
  8
1
 10
-6.1821301623231193
 20
9.9479365086532425
 30
0.0
 40
2.5
  1
Hebgo 641
 41
0.9
  7
BESCHLAG
  0
POLYLINE
  5
2BE
  8
6
 66
     1
 10
0.0
 20
0.0
 30
0.0
  0
VERTEX
  5
46D
  8
6
 10
-7.7611825147173468
 20
0.0
 30
0.0
  0
VERTEX
  5
46E
  8
6
 10
-11.9257363222232
 20
0.0
 30
0.0
 42
-0.4343581075932377
  0
VERTEX
  5
46F
  8
6
 10
-12.06897148553343
 20
0.1533657618779216
 30
0.0
 42
0.1788698782461969
  0
VERTEX
  5
470
  8
6
 10
-13.0
 20
2.6592892046605812
 30
0.0
  0
VERTEX
  5
471
  8
6
 10
-13.0
 20
3.3394684582854088
 30
0.0
 42
-0.4163153181136456
  0
VERTEX
  5
472
  8
6
 10
-12.561342377057819
 20
3.3663176104153081
 30
0.0
  0
VERTEX
  5
473
  8
6
 10
-11.63031386259126
 20
2.7845853661592619
 30
0.0
 42
0.1123816784957742
  0
VERTEX
  5
474
  8
6
 10
-11.21851273278525
 20
2.6413897935524342
 30
0.0
  0
VERTEX
  5
475
  8
6
 10
-1.140625869852556
 20
2.6413897935524342
 30
0.0
 42
1.7115843620975519
  0
VERTEX
  5
476
  8
6
 10
-1.6663077940761459
 20
3.8038862229386718
 30
0.0
  0
VERTEX
  5
477
  8
6
 10
-1.8415351335183909
 20
3.8038862229386718
 30
0.0
 42
0.1427670244027005
  0
VERTEX
  5
478
  8
6
 10
-5.2209194698311867
 20
5.4805992454364514
 30
0.0
 42
0.0891048856513718
  0
VERTEX
  5
479
  8
6
 10
-11.19882662237432
 20
6.0877417826366118
 30
0.0
 42
-0.9661980693476916
  0
VERTEX
  5
47A
  8
6
 10
-11.421736814028
 20
6.863880615330344
 30
0.0
 42
-0.0625284436078193
  0
VERTEX
  5
47B
  8
6
 10
-3.7302704240964881
 20
6.746981818769882
 30
0.0
 42
-0.1282226527089106
  0
VERTEX
  5
47C
  8
6
 10
0.349324930021794
 20
5.0454547885931333
 30
0.0
 42
-0.150716432760829
  0
VERTEX
  5
47D
  8
6
 10
0.9989420126389632
 20
3.51278161507912
 30
0.0
  0
VERTEX
  5
47E
  8
6
 10
0.9729572916930919
 20
0.1554277909488064
 30
0.0
 42
-0.3873461568958758
  0
VERTEX
  5
47F
  8
6
 10
0.0
 20
-0.6473401514181206
 30
0.0
  0
VERTEX
  5
480
  8
6
 10
0.0
 20
0.0
 30
0.0
  0
VERTEX
  5
481
  8
6
 10
-5.2339689509558411
 20
0.0
 30
0.0
  0
VERTEX
  5
482
  8
6
 10
-5.7864233341438194
 20
-1.5825304529664661
 30
0.0
  0
VERTEX
  5
483
  8
6
 10
-5.2231364474891961
 20
-1.1818408001479379
 30
0.0
  0
VERTEX
  5
484
  8
6
 10
-5.1148120715452023
 20
-1.1818408001479379
 30
0.0
  0
VERTEX
  5
485
  8
6
 10
-5.1148120715452023
 20
-2.00487896567688
 30
0.0
  0
VERTEX
  5
486
  8
6
 10
-5.7214286897569764
 20
-2.957870574297885
 30
0.0
  0
VERTEX
  5
487
  8
6
 10
-5.7214286897569764
 20
-3.9325210428105488
 30
0.0
  0
VERTEX
  5
488
  8
6
 10
-5.5806069916188781
 20
-3.9325210428105488
 30
0.0
  0
VERTEX
  5
489
  8
6
 10
-5.298963595343138
 20
-3.6292964368431049
 30
0.0
  0
VERTEX
  5
48A
  8
6
 10
-5.1148120715452023
 20
-3.6292964368431049
 30
0.0
  0
VERTEX
  5
48B
  8
6
 10
-5.1148120715452023
 20
-4.6039469053557687
 30
0.0
 42
-0.1890929489344524
  0
VERTEX
  5
48C
  8
6
 10
-5.9647625728257481
 20
-5.6002563046956757
 30
0.0
 42
0.0171834243462126
  0
VERTEX
  5
48D
  8
6
 10
-6.4975757328365944
 20
-5.737383046757258
 30
0.0
 42
0.0171834243462127
  0
VERTEX
  5
48E
  8
6
 10
-7.0303888928478946
 20
-5.6002563046956757
 30
0.0
 42
-0.1890929489344524
  0
VERTEX
  5
48F
  8
6
 10
-7.8803393941284412
 20
-4.6039469053557687
 30
0.0
  0
VERTEX
  5
490
  8
6
 10
-7.8803393941284412
 20
-3.6292964368431049
 30
0.0
  0
VERTEX
  5
491
  8
6
 10
-7.696187870330049
 20
-3.6292964368431049
 30
0.0
  0
VERTEX
  5
492
  8
6
 10
-7.4145444740543089
 20
-3.9325210428105488
 30
0.0
  0
VERTEX
  5
493
  8
6
 10
-7.2737227759166672
 20
-3.9325210428105488
 30
0.0
  0
VERTEX
  5
494
  8
6
 10
-7.2737227759166672
 20
-2.957870574297885
 30
0.0
  0
VERTEX
  5
495
  8
6
 10
-7.8803393941284412
 20
-2.00487896567688
 30
0.0
  0
VERTEX
  5
496
  8
6
 10
-7.8803393941284412
 20
-1.1818408001479379
 30
0.0
  0
VERTEX
  5
497
  8
6
 10
-7.7720150181839918
 20
-1.1818408001479379
 30
0.0
  0
VERTEX
  5
498
  8
6
 10
-7.2087281315293694
 20
-1.5825304529664661
 30
0.0
  0
VERTEX
  5
499
  8
6
 10
-7.7611825147173468
 20
0.0
 30
0.0
  0
SEQEND
  5
49A
  8
6
  0
DIMENSION
  5
2BF
  8
1
  2
*D4
 10
-0.0000000000000007
 20
-17.971218945215242
 30
0.0
 11
-2.5
 21
-15.19137583471046
 31
0.0
 70
     0
 13
-5.0
 23
-7.0
 33
0.0
 14
0.0
 24
-7.0
 34
0.0
  0
DIMENSION
  5
2C0
  8
1
  2
*D5
 10
10.914962465660199
 20
-0.0000000000000045
 30
0.0
 11
8.16496246566021
 21
-3.5000000000000022
 31
0.0
 70
     0
 13
-5.0
 23
-7.0
 33
0.0
 14
-5.0
 24
0.0
 34
0.0
 50
90.0
  0
POLYLINE
  5
2C1
  8
5
 66
     1
 10
0.0
 20
0.0
 30
0.0
  0
VERTEX
  5
49B
  8
5
 10
-13.0
 20
10.0
 30
0.0
  0
VERTEX
  5
49C
  8
5
 10
-13.0
 20
0.0
 30
0.0
  0
VERTEX
  5
49D
  8
5
 10
-8.0
 20
0.0
 30
0.0
  0
VERTEX
  5
49E
  8
5
 10
-8.0
 20
-7.0
 30
0.0
  0
VERTEX
  5
49F
  8
5
 10
-5.0
 20
-7.0
 30
0.0
  0
VERTEX
  5
4A0
  8
5
 10
-5.0
 20
0.0
 30
0.0
  0
VERTEX
  5
4A1
  8
5
 10
0.0
 20
0.0
 30
0.0
  0
VERTEX
  5
4A2
  8
5
 10
0.0
 20
-10.0
 30
0.0
  0
SEQEND
  5
4A3
  8
5
  0
POLYLINE
  5
2C2
  8
5
 66
     1
 10
0.0
 20
0.0
 30
0.0
  0
VERTEX
  5
4A4
  8
5
 10
-9.0
 20
10.0
 30
0.0
  0
VERTEX
  5
4A5
  8
5
 10
-9.0
 20
7.0
 30
0.0
  0
VERTEX
  5
4A6
  8
5
 10
11.0
 20
7.0
 30
0.0
  0
SEQEND
  5
4A7
  8
5
  0
DIMENSION
  5
2C3
  8
1
  2
*D6
 10
10.914962465660199
 20
6.9999999999999938
 30
0.0
 11
8.1649624656602082
 21
3.4999999999999969
 31
0.0
 70
     0
 13
-5.0
 23
0.0
 33
0.0
 14
-9.0
 24
7.0
 34
0.0
 50
90.0
  0
VIEWPORT
  5
22
 67
     1
  8
0
 10
210.0
 20
170.2366863905325
 30
0.0
 40
420.0
 41
340.47337278106511
 68
     1
 69
     1
1001
ACAD
1000
MVIEW
1002
{
1070
    16
1010
0.0
1020
0.0
1030
0.0
1010
0.0
1020
0.0
1030
1.0
1040
0.0
1040
340.47337278106511
1040
210.0
1040
170.2366863905325
1040
50.0
1040
0.0
1040
0.0
1070
     0
1070
   100
1070
     1
1070
     1
1070
     0
1070
     0
1070
     0
1070
     0
1040
0.0
1040
0.0
1040
0.0
1040
5.0
1040
5.0
1040
10.0
1040
10.0
1070
     0
1002
{
1002
}
1002
}
  0
ENDSEC
  0
EOF
