  0
SECTION
  2
HEADER
  9
$ACADVER
  1
AC1009
  9
$INSBASE
 10
0.0
 20
0.0
 30
0.0
  9
$EXTMIN
 10
-17.005919556838759
 20
-30.349730607529288
 30
-0.0000000000000058
  9
$EXTMAX
 10
13.27514702369831
 20
17.005920953822731
 30
0.0000000000000104
  9
$LIMMIN
 10
-150.0
 20
-150.0
  9
$LIMMAX
 10
150.0
 20
150.0
  9
$ORTHOMODE
 70
     0
  9
$REGENMODE
 70
     1
  9
$FILLMODE
 70
     1
  9
$QTEXTMODE
 70
     0
  9
$MIRRTEXT
 70
     0
  9
$DRAGMODE
 70
     2
  9
$LTSCALE
 40
1.0
  9
$OSMODE
 70
   111
  9
$ATTMODE
 70
     1
  9
$TEXTSIZE
 40
3.5
  9
$TRACEWID
 40
1.0
  9
$TEXTSTYLE
  7
BESCHLAG
  9
$CLAYER
  8
0
  9
$CELTYPE
  6
BYLAYER
  9
$CECOLOR
 62
   256
  9
$DIMSCALE
 40
1.0
  9
$DIMASZ
 40
2.0
  9
$DIMEXO
 40
2.0
  9
$DIMDLI
 40
0.0
  9
$DIMRND
 40
0.0
  9
$DIMDLE
 40
1.0
  9
$DIMEXE
 40
1.0
  9
$DIMTP
 40
0.0
  9
$DIMTM
 40
0.0
  9
$DIMTXT
 40
3.5
  9
$DIMCEN
 40
0.0
  9
$DIMTSZ
 40
0.0
  9
$DIMTOL
 70
     0
  9
$DIMLIM
 70
     0
  9
$DIMTIH
 70
     0
  9
$DIMTOH
 70
     0
  9
$DIMSE1
 70
     0
  9
$DIMSE2
 70
     0
  9
$DIMTAD
 70
     1
  9
$DIMZIN
 70
     8
  9
$DIMBLK
  1

  9
$DIMASO
 70
     1
  9
$DIMSHO
 70
     1
  9
$DIMPOST
  1

  9
$DIMAPOST
  1

  9
$DIMALT
 70
     0
  9
$DIMALTD
 70
     2
  9
$DIMALTF
 40
0.039370078740157
  9
$DIMLFAC
 40
1.0
  9
$DIMTOFL
 70
     1
  9
$DIMTVP
 40
0.0
  9
$DIMTIX
 70
     1
  9
$DIMSOXD
 70
     0
  9
$DIMSAH
 70
     1
  9
$DIMBLK1
  1
OBLIQUE
  9
$DIMBLK2
  1
OBLIQUE
  9
$DIMSTYLE
  2
OPO-SSTRICH
  9
$DIMCLRD
 70
   256
  9
$DIMCLRE
 70
   256
  9
$DIMCLRT
 70
   256
  9
$DIMTFAC
 40
0.7114285714285716
  9
$DIMGAP
 40
1.0
  9
$LUNITS
 70
     2
  9
$LUPREC
 70
     1
  9
$SKETCHINC
 40
1.0
  9
$FILLETRAD
 40
0.0
  9
$AUNITS
 70
     0
  9
$AUPREC
 70
     1
  9
$MENU
  1
D:\ACL_CGWG\CGTAB13
  9
$ELEVATION
 40
0.0
  9
$PELEVATION
 40
0.0
  9
$THICKNESS
 40
0.0
  9
$LIMCHECK
 70
     0
  9
$BLIPMODE
 70
     0
  9
$CHAMFERA
 40
1.0
  9
$CHAMFERB
 40
1.0
  9
$SKPOLY
 70
     0
  9
$TDCREATE
 40
2451739.8430012958
  9
$TDUPDATE
 40
2452086.719457882
  9
$TDINDWG
 40
0.0008842245
  9
$TDUSRTIMER
 40
0.0008840394
  9
$USRTIMER
 70
     1
  9
$ANGBASE
 50
0.0
  9
$ANGDIR
 70
     0
  9
$PDMODE
 70
    35
  9
$PDSIZE
 40
5.0
  9
$PLINEWID
 40
0.0
  9
$COORDS
 70
     1
  9
$SPLFRAME
 70
     0
  9
$SPLINETYPE
 70
     6
  9
$SPLINESEGS
 70
     8
  9
$ATTDIA
 70
     1
  9
$ATTREQ
 70
     1
  9
$HANDLING
 70
-16383
  9
$HANDSEED
  5
420
  9
$SURFTAB1
 70
    12
  9
$SURFTAB2
 70
    12
  9
$SURFTYPE
 70
     6
  9
$SURFU
 70
    12
  9
$SURFV
 70
    12
  9
$UCSNAME
  2

  9
$UCSORG
 10
0.0
 20
0.0
 30
0.0
  9
$UCSXDIR
 10
1.0
 20
0.0
 30
0.0
  9
$UCSYDIR
 10
0.0
 20
1.0
 30
0.0
  9
$PUCSNAME
  2

  9
$PUCSORG
 10
0.0
 20
0.0
 30
0.0
  9
$PUCSXDIR
 10
1.0
 20
0.0
 30
0.0
  9
$PUCSYDIR
 10
0.0
 20
1.0
 30
0.0
  9
$USERI1
 70
     0
  9
$USERI2
 70
     0
  9
$USERI3
 70
     0
  9
$USERI4
 70
     0
  9
$USERI5
 70
     0
  9
$USERR1
 40
0.0
  9
$USERR2
 40
0.0
  9
$USERR3
 40
0.0
  9
$USERR4
 40
0.0
  9
$USERR5
 40
0.0
  9
$WORLDVIEW
 70
     1
  9
$SHADEDGE
 70
     3
  9
$SHADEDIF
 70
    70
  9
$TILEMODE
 70
     1
  9
$MAXACTVP
 70
    48
  9
$PLIMCHECK
 70
     0
  9
$PEXTMIN
 10
1.0000000000000000E+020
 20
1.0000000000000000E+020
 30
1.0000000000000000E+020
  9
$PEXTMAX
 10
-1.0000000000000000E+020
 20
-1.0000000000000000E+020
 30
-1.0000000000000000E+020
  9
$PLIMMIN
 10
0.0
 20
0.0
  9
$PLIMMAX
 10
420.0
 20
297.0
  9
$UNITMODE
 70
     0
  9
$VISRETAIN
 70
     1
  9
$PLINEGEN
 70
     0
  9
$PSLTSCALE
 70
     1
  0
ENDSEC
  0
SECTION
  2
TABLES
  0
TABLE
  2
VPORT
 70
     2
  0
VPORT
  2
*ACTIVE
 70
     0
 10
0.0
 20
0.0
 11
1.0
 21
1.0
 12
-1.8653862665702261
 22
-6.6719048268532779
 13
0.0
 23
0.0
 14
0.5
 24
0.5
 15
10.0
 25
10.0
 16
0.0
 26
0.0
 36
1.0
 17
0.0
 27
0.0
 37
0.0
 40
47.740135877141078
 41
1.6070460704607039
 42
50.0
 43
0.0
 44
0.0
 50
0.0
 51
0.0
 71
     0
 72
   800
 73
     1
 74
     1
 75
     0
 76
     0
 77
     0
 78
     0
  0
ENDTAB
  0
TABLE
  2
LTYPE
 70
     1
  0
LTYPE
  2
CONTINUOUS
 70
     0
  3
_______________________________________________
 72
    65
 73
     2
 40
1.0
 49
1.0
 49
0.0
  0
ENDTAB
  0
TABLE
  2
LAYER
 70
     5
  0
LAYER
  2
0
 70
     0
 62
    30
  6
CONTINUOUS
  0
LAYER
  2
1
 70
     0
 62
     2
  6
CONTINUOUS
  0
LAYER
  2
5
 70
     0
 62
     1
  6
CONTINUOUS
  0
LAYER
  2
6
 70
     0
 62
     3
  6
CONTINUOUS
  0
LAYER
  2
DEFPOINTS
 70
     0
 62
     7
  6
CONTINUOUS
  0
ENDTAB
  0
TABLE
  2
STYLE
 70
     2
  0
STYLE
  2
STANDARD
 70
     0
 40
0.0
 41
1.0
 50
0.0
 71
     0
 42
2.5
  3
txt
  4

  0
STYLE
  2
BESCHLAG
 70
     0
 40
0.0
 41
1.0
 50
0.0
 71
     0
 42
3.5
  3
txt
  4

  0
ENDTAB
  0
TABLE
  2
VIEW
 70
     0
  0
ENDTAB
  0
TABLE
  2
UCS
 70
     0
  0
ENDTAB
  0
TABLE
  2
APPID
 70
     1
  0
APPID
  2
ACAD
 70
     0
  0
ENDTAB
  0
TABLE
  2
DIMSTYLE
 70
     1
  0
DIMSTYLE
  2
OPO-SSTRICH
 70
     0
  3

  4

  5

  6
OBLIQUE
  7
OBLIQUE
 40
1.0
 41
2.0
 42
2.0
 43
0.0
 44
1.0
 45
0.0
 46
1.0
 47
0.0
 48
0.0
140
3.5
141
0.0
142
0.0
143
0.039370078740157
144
1.0
145
0.0
146
0.7114285714285716
147
1.0
 71
     0
 72
     0
 73
     0
 74
     0
 75
     0
 76
     0
 77
     1
 78
     8
170
     0
171
     2
172
     1
173
     1
174
     1
175
     0
176
   256
177
   256
178
   256
  0
ENDTAB
  0
ENDSEC
  0
SECTION
  2
BLOCKS
  0
BLOCK
  8
0
  2
$MODEL_SPACE
 70
     0
 10
0.0
 20
0.0
 30
0.0
  3
$MODEL_SPACE
  1

  0
ENDBLK
  5
1C
  8
0
  0
BLOCK
 67
     1
  8
0
  2
$PAPER_SPACE
 70
     0
 10
0.0
 20
0.0
 30
0.0
  3
$PAPER_SPACE
  1

  0
ENDBLK
  5
19
 67
     1
  8
0
  0
BLOCK
  8
0
  2
_OBLIQUE
 70
     0
 10
0.0
 20
0.0
 30
0.0
  3
_OBLIQUE
  1

  0
LINE
  5
204
  8
0
 62
     0
 10
-0.5
 20
-0.5
 30
0.0
 11
0.5
 21
0.5
 31
0.0
  0
ENDBLK
  5
206
  8
0
  0
BLOCK
  8
0
  2
NULLPUNKT
 70
     0
 10
0.0
 20
0.0
 30
0.0
  3
NULLPUNKT
  1

  0
SOLID
  5
254
  8
5
 10
0.0
 20
0.0
 30
0.0
 11
2.0
 21
0.0
 31
0.0
 12
0.0
 22
-2.0
 32
0.0
 13
0.0
 23
-2.0
 33
0.0
  0
SOLID
  5
255
  8
5
 10
0.0
 20
0.0
 30
0.0
 11
-2.0
 21
0.0
 31
0.0
 12
0.0
 22
2.0
 32
0.0
 13
0.0
 23
2.0
 33
0.0
  0
POLYLINE
  5
256
  8
5
 66
     1
 10
0.0
 20
0.0
 30
0.0
  0
VERTEX
  5
3EA
  8
5
 10
0.0
 20
2.0
 30
0.0
  0
VERTEX
  5
3EB
  8
5
 10
0.0
 20
-2.0
 30
0.0
  0
SEQEND
  5
3EC
  8
5
  0
POLYLINE
  5
257
  8
5
 66
     1
 10
0.0
 20
0.0
 30
0.0
  0
VERTEX
  5
3ED
  8
5
 10
-2.0
 20
0.0
 30
0.0
  0
VERTEX
  5
3EE
  8
5
 10
2.0
 20
0.0
 30
0.0
  0
SEQEND
  5
3EF
  8
5
  0
CIRCLE
  5
258
  8
5
 10
0.0
 20
0.0
 30
0.0
 40
2.0
  0
ENDBLK
  5
25A
  8
0
  0
BLOCK
  8
0
  2
*D2
 70
     1
 10
0.0
 20
0.0
 30
0.0
  3
*D2
  1

  0
LINE
  5
2FE
  8
1
 10
-15.0
 20
-10.0
 30
0.0
 11
-15.0
 21
-19.59689732178299
 31
0.0
  0
LINE
  5
2FF
  8
1
 10
-11.0
 20
-10.0
 30
0.0
 11
-11.0
 21
-19.59689732178299
 31
0.0
  0
LINE
  5
300
  8
1
 10
-15.0
 20
-18.596897321782979
 30
0.0
 11
-17.0
 21
-18.596897321782979
 31
0.0
  0
LINE
  5
301
  8
1
 10
-11.0
 20
-18.596897321782979
 30
0.0
 11
-9.0
 21
-18.596897321782979
 31
0.0
  0
LINE
  5
302
  8
1
 10
-15.0
 20
-18.596897321782979
 30
0.0
 11
-11.0
 21
-18.596897321782979
 31
0.0
  0
INSERT
  5
303
  8
1
  2
_OBLIQUE
 10
-15.0
 20
-18.596897321782979
 30
0.0
 41
2.0
 42
2.0
 43
2.0
  0
INSERT
  5
304
  8
1
  2
_OBLIQUE
 10
-11.0
 20
-18.596897321782979
 30
0.0
 41
2.0
 42
2.0
 43
2.0
 50
180.0
  0
TEXT
  5
305
  8
0
 10
-14.272510231923601
 20
-17.59689732178299
 30
0.0
 40
3.5
  1
4
  7
BESCHLAG
  0
POINT
  5
306
  8
DEFPOINTS
 62
     0
 10
-15.0
 20
-8.0
 30
0.0
  0
POINT
  5
307
  8
DEFPOINTS
 62
     0
 10
-11.0
 20
-8.0
 30
0.0
  0
POINT
  5
308
  8
DEFPOINTS
 62
     0
 10
-11.0
 20
-18.596897321782979
 30
0.0
  0
ENDBLK
  5
2CD
  8
0
  0
BLOCK
  8
0
  2
*D3
 70
     1
 10
0.0
 20
0.0
 30
0.0
  3
*D3
  1

  0
LINE
  5
309
  8
1
 10
-11.0
 20
-10.0
 30
0.0
 11
-11.0
 21
-19.59689732178299
 31
0.0
  0
LINE
  5
30A
  8
1
 10
-0.0000000000000001
 20
-2.0
 30
0.0
 11
-0.0000000000000012
 21
-19.59689732178299
 31
0.0
  0
LINE
  5
30B
  8
1
 10
-12.0
 20
-18.596897321782979
 30
0.0
 11
0.9999999999999989
 21
-18.596897321782979
 31
0.0
  0
INSERT
  5
30C
  8
1
  2
_OBLIQUE
 10
-11.0
 20
-18.596897321782979
 30
0.0
 41
2.0
 42
2.0
 43
2.0
 50
180.0
  0
INSERT
  5
30D
  8
1
  2
_OBLIQUE
 10
-0.0000000000000011
 20
-18.596897321782979
 30
0.0
 41
2.0
 42
2.0
 43
2.0
  0
TEXT
  5
30E
  8
0
 10
-8.0366643929058679
 20
-17.589734975261841
 30
0.0
 40
3.5
  1
11
  7
BESCHLAG
  0
POINT
  5
30F
  8
DEFPOINTS
 62
     0
 10
-11.0
 20
-8.0
 30
0.0
  0
POINT
  5
310
  8
DEFPOINTS
 62
     0
 10
0.0
 20
0.0
 30
0.0
  0
POINT
  5
311
  8
DEFPOINTS
 62
     0
 10
-0.0000000000000011
 20
-18.596897321782979
 30
0.0
  0
ENDBLK
  5
2D9
  8
0
  0
BLOCK
  8
0
  2
*D4
 70
     1
 10
0.0
 20
0.0
 30
0.0
  3
*D4
  1

  0
LINE
  5
312
  8
1
 10
-9.0
 20
-8.0
 30
0.0
 11
10.934403076522811
 21
-8.0000000000000053
 31
0.0
  0
LINE
  5
313
  8
1
 10
-9.0
 20
-0.0000000000000006
 30
0.0
 11
10.934403076522811
 21
-0.0000000000000062
 31
0.0
  0
LINE
  5
314
  8
1
 10
9.9344030765228108
 20
-9.0000000000000053
 30
0.0
 11
9.9344030765228126
 21
0.9999999999999939
 31
0.0
  0
INSERT
  5
315
  8
1
  2
_OBLIQUE
 10
9.9344030765228108
 20
-8.0000000000000053
 30
0.0
 41
2.0
 42
2.0
 43
2.0
 50
270.0
  0
INSERT
  5
316
  8
1
  2
_OBLIQUE
 10
9.9344030765228126
 20
-0.0000000000000059
 30
0.0
 41
2.0
 42
2.0
 43
2.0
 50
90.0
  0
TEXT
  5
317
  8
0
 10
8.8675545089921162
 20
-5.3512960436562098
 30
0.0
 40
3.5
  1
8
 50
90.0
  7
BESCHLAG
  0
POINT
  5
318
  8
DEFPOINTS
 62
     0
 10
-11.0
 20
-7.9999999999999991
 30
0.0
  0
POINT
  5
319
  8
DEFPOINTS
 62
     0
 10
-11.0
 20
0.0
 30
0.0
  0
POINT
  5
31A
  8
DEFPOINTS
 62
     0
 10
9.9344030765228126
 20
-0.0000000000000059
 30
0.0
  0
ENDBLK
  5
2E5
  8
0
  0
BLOCK
  8
0
  2
*D5
 70
     1
 10
0.0
 20
0.0
 30
0.0
  3
*D5
  1

  0
LINE
  5
31B
  8
1
 10
-9.0
 20
-0.0000000000000006
 30
0.0
 11
10.934403076522811
 21
-0.0000000000000062
 31
0.0
  0
LINE
  5
31C
  8
1
 10
-9.0
 20
5.9999999999999991
 30
0.0
 11
10.934403076522811
 21
5.999999999999992
 31
0.0
  0
LINE
  5
31D
  8
1
 10
9.9344030765228108
 20
-1.0000000000000051
 30
0.0
 11
9.9344030765228126
 21
6.9999999999999938
 31
0.0
  0
INSERT
  5
31E
  8
1
  2
_OBLIQUE
 10
9.9344030765228108
 20
-0.0000000000000059
 30
0.0
 41
2.0
 42
2.0
 43
2.0
 50
270.0
  0
INSERT
  5
31F
  8
1
  2
_OBLIQUE
 10
9.9344030765228126
 20
5.9999999999999938
 30
0.0
 41
2.0
 42
2.0
 43
2.0
 50
90.0
  0
TEXT
  5
320
  8
0
 10
8.8675545089921144
 20
1.6606412005456981
 30
0.0
 40
3.5
  1
6
 50
90.0
  7
BESCHLAG
  0
POINT
  5
321
  8
DEFPOINTS
 62
     0
 10
-11.0
 20
0.0
 30
0.0
  0
POINT
  5
322
  8
DEFPOINTS
 62
     0
 10
-11.0
 20
6.0
 30
0.0
  0
POINT
  5
323
  8
DEFPOINTS
 62
     0
 10
9.9344030765228126
 20
5.9999999999999938
 30
0.0
  0
ENDBLK
  5
2F1
  8
0
  0
BLOCK
  8
0
  2
*D6
 70
     1
 10
0.0
 20
0.0
 30
0.0
  3
*D6
  1

  0
LINE
  5
324
  8
1
 10
-15.0
 20
-10.0
 30
0.0
 11
-15.0
 21
-30.340152055290329
 31
0.0
  0
LINE
  5
325
  8
1
 10
-0.0000000000000001
 20
-2.0
 30
0.0
 11
-0.0000000000000019
 21
-30.340152055290329
 31
0.0
  0
LINE
  5
326
  8
1
 10
-16.0
 20
-29.340152055290329
 30
0.0
 11
0.9999999999999982
 21
-29.340152055290329
 31
0.0
  0
INSERT
  5
327
  8
1
  2
_OBLIQUE
 10
-15.0
 20
-29.340152055290329
 30
0.0
 41
2.0
 42
2.0
 43
2.0
 50
180.0
  0
INSERT
  5
328
  8
1
  2
_OBLIQUE
 10
-0.0000000000000018
 20
-29.340152055290329
 30
0.0
 41
2.0
 42
2.0
 43
2.0
  0
TEXT
  5
329
  8
0
 10
-10.387619372442019
 20
-28.273303487759641
 30
0.0
 40
3.5
  1
15
  7
BESCHLAG
  0
POINT
  5
32A
  8
DEFPOINTS
 62
     0
 10
-15.0
 20
-8.0
 30
0.0
  0
POINT
  5
32B
  8
DEFPOINTS
 62
     0
 10
0.0
 20
0.0
 30
0.0
  0
POINT
  5
32C
  8
DEFPOINTS
 62
     0
 10
-0.0000000000000018
 20
-29.340152055290329
 30
0.0
  0
ENDBLK
  5
2FD
  8
0
  0
ENDSEC
  0
SECTION
  2
ENTITIES
  0
INSERT
  5
25B
  8
5
  2
NULLPUNKT
 10
0.0
 20
0.0
 30
0.0
  0
POLYLINE
  5
2B7
  8
6
 66
     1
 10
0.0
 20
0.0
 30
0.0
 70
     1
  0
VERTEX
  5
3F0
  8
6
 10
-11.0
 20
0.0
 30
0.0
  0
VERTEX
  5
3F1
  8
6
 10
-11.0
 20
-5.3177775935997706
 30
0.0
 42
-0.2057883710538204
  0
VERTEX
  5
3F2
  8
6
 10
-11.586780993452519
 20
-6.8501742138706732
 30
0.0
 42
-0.3549142717655278
  0
VERTEX
  5
3F3
  8
6
 10
-12.8355543039238
 20
-6.9149075454904496
 30
0.0
 42
-0.1297593261325319
  0
VERTEX
  5
3F4
  8
6
 10
-14.89834281417961
 20
-4.8064502766238766
 30
0.0
 42
-0.9351078027123772
  0
VERTEX
  5
3F5
  8
6
 10
-14.30633176569472
 20
-4.3070788053258857
 30
0.0
 42
0.0191884285460261
  0
VERTEX
  5
3F6
  8
6
 10
-13.372064330819279
 20
-5.444536001991195
 30
0.0
 42
0.5601684513071198
  0
VERTEX
  5
3F7
  8
6
 10
-13.01130762554566
 20
-5.3243169785342843
 30
0.0
 42
0.0746422886383072
  0
VERTEX
  5
3F8
  8
6
 10
-13.113059541753501
 20
-3.826202564640198
 30
0.0
 42
0.1471616994481645
  0
VERTEX
  5
3F9
  8
6
 10
-13.84382314421282
 20
-3.3453263729071518
 30
0.0
 42
-0.1875175819089431
  0
VERTEX
  5
3FA
  8
6
 10
-14.889092687208169
 20
-1.9026976998029561
 30
0.0
 42
-0.9920182636924723
  0
VERTEX
  5
3FB
  8
6
 10
-14.31558195760635
 20
-1.4588119692947421
 30
0.0
 42
0.1131030402240264
  0
VERTEX
  5
3FC
  8
6
 10
-13.372064330819279
 20
-2.448307272108309
 30
0.0
 42
0.5007469553256814
  0
VERTEX
  5
3FD
  8
6
 10
-13.011307625545889
 20
-2.3188405599162252
 30
0.0
  0
VERTEX
  5
3FE
  8
6
 10
-13.011307625545889
 20
-1.616105701653225
 30
0.0
  0
VERTEX
  5
3FF
  8
6
 10
-13.08923368102341
 20
-1.4270451262749471
 30
0.0
  0
VERTEX
  5
400
  8
6
 10
-13.373782041044249
 20
-0.7382268101781621
 30
0.0
 42
0.1108564047810902
  0
VERTEX
  5
401
  8
6
 10
-13.85152325103399
 20
0.0382558653009255
 30
0.0
 42
-0.1057808302764094
  0
VERTEX
  5
402
  8
6
 10
-14.339075787600439
 20
1.7022000765917931
 30
0.0
 42
0.0263212325627546
  0
VERTEX
  5
403
  8
6
 10
-15.0
 20
6.4379874931310042
 30
0.0
  0
VERTEX
  5
404
  8
6
 10
-15.0
 20
7.7508143597154913
 30
0.0
 42
-1.00891275093581
  0
VERTEX
  5
405
  8
6
 10
-14.038990443066719
 20
7.8384973373899811
 30
0.0
 42
-0.0368455170314443
  0
VERTEX
  5
406
  8
6
 10
-13.21673512613142
 20
4.2434932194178137
 30
0.0
 42
0.3447452123375494
  0
VERTEX
  5
407
  8
6
 10
-12.148729042083231
 20
2.9950469890641211
 30
0.0
 42
0.0225368453985839
  0
VERTEX
  5
408
  8
6
 10
-8.9246356871376502
 20
3.1199773046348578
 30
0.0
 42
-0.0788940710119835
  0
VERTEX
  5
409
  8
6
 10
-2.8711417572922069
 20
1.6171320100156661
 30
0.0
 42
0.5531953199133618
  0
VERTEX
  5
40A
  8
6
 10
-0.9341864102507315
 20
2.928900891643365
 30
0.0
 42
0.3406158711548123
  0
VERTEX
  5
40B
  8
6
 10
-2.558729599425078
 20
4.7653773259220307
 30
0.0
 42
0.0464949223989297
  0
VERTEX
  5
40C
  8
6
 10
-3.845867607328727
 20
5.0527171534010904
 30
0.0
  0
VERTEX
  5
40D
  8
6
 10
-9.3318248995497015
 20
5.0527171534010904
 30
0.0
 42
0.1420523750318728
  0
VERTEX
  5
40E
  8
6
 10
-10.61575775827532
 20
4.4309036137648263
 30
0.0
 42
-0.3627856233788124
  0
VERTEX
  5
40F
  8
6
 10
-10.9313751446557
 20
4.4030792253755626
 30
0.0
  0
VERTEX
  5
410
  8
6
 10
-11.968583473867049
 20
5.3900291429905556
 30
0.0
 42
-0.5200628854945981
  0
VERTEX
  5
411
  8
6
 10
-11.6803614654018
 20
5.9991035055559223
 30
0.0
  0
VERTEX
  5
412
  8
6
 10
-2.4962471202506999
 20
5.9991035055559223
 30
0.0
 42
-0.8845616996679478
  0
VERTEX
  5
413
  8
6
 10
-1.9011912621895131
 20
0.0
 30
0.0
  0
SEQEND
  5
414
  8
6
  0
DIMENSION
  5
2B8
  8
1
  2
*D2
 10
-11.0
 20
-18.596897321782979
 30
0.0
 11
-13.0
 21
-15.84689732178299
 31
0.0
 70
     0
 13
-15.0
 23
-8.0
 33
0.0
 14
-11.0
 24
-8.0
 34
0.0
  0
TEXT
  5
2B9
  8
1
 10
-7.50622567961409
 20
12.09785522969525
 30
0.0
 40
2.5
  1
Hebgo 643
 41
0.9
  7
BESCHLAG
  0
DIMENSION
  5
2BA
  8
1
  2
*D3
 10
-0.0000000000000011
 20
-18.596897321782979
 30
0.0
 11
-5.5
 21
-15.839734975261839
 31
0.0
 70
     0
 13
-11.0
 23
-8.0
 33
0.0
 14
0.0
 24
0.0
 34
0.0
  0
DIMENSION
  5
2BB
  8
1
  2
*D4
 10
9.9344030765228126
 20
-0.0000000000000059
 30
0.0
 11
7.1473976194968909
 21
-4.0000000000000027
 31
0.0
 70
     0
 13
-11.0
 23
-8.0
 33
0.0
 14
-11.0
 24
0.0
 34
0.0
 50
90.0
  0
DIMENSION
  5
2BC
  8
1
  2
*D5
 10
9.9344030765228126
 20
5.9999999999999938
 30
0.0
 11
7.14739761949689
 21
2.999999999999996
 31
0.0
 70
     0
 13
-11.0
 23
0.0
 33
0.0
 14
-11.0
 24
6.0
 34
0.0
 50
90.0
  0
DIMENSION
  5
2BD
  8
1
  2
*D6
 10
-0.0000000000000018
 20
-29.340152055290329
 30
0.0
 11
-7.5000000000000009
 21
-26.553146598264409
 31
0.0
 70
     0
 13
-15.0
 23
-8.0
 33
0.0
 14
0.0
 24
0.0
 34
0.0
  0
POLYLINE
  5
2BE
  8
5
 66
     1
 10
0.0
 20
0.0
 30
0.0
  0
VERTEX
  5
415
  8
5
 10
-15.0
 20
17.0
 30
0.0
  0
VERTEX
  5
416
  8
5
 10
-15.0
 20
-8.0
 30
0.0
  0
VERTEX
  5
417
  8
5
 10
-11.0
 20
-8.0
 30
0.0
  0
VERTEX
  5
418
  8
5
 10
-11.0
 20
0.0
 30
0.0
  0
VERTEX
  5
419
  8
5
 10
0.0
 20
0.0
 30
0.0
  0
VERTEX
  5
41A
  8
5
 10
0.0
 20
-15.0
 30
0.0
  0
SEQEND
  5
41B
  8
5
  0
POLYLINE
  5
2BF
  8
5
 66
     1
 10
0.0
 20
0.0
 30
0.0
  0
VERTEX
  5
41C
  8
5
 10
-11.0
 20
17.0
 30
0.0
  0
VERTEX
  5
41D
  8
5
 10
-11.0
 20
6.0
 30
0.0
  0
VERTEX
  5
41E
  8
5
 10
13.26943303871894
 20
6.0
 30
0.0
  0
SEQEND
  5
41F
  8
5
  0
VIEWPORT
  5
22
 67
     1
  8
0
 10
210.0
 20
170.2366863905325
 30
0.0
 40
420.0
 41
340.47337278106511
 68
     1
 69
     1
1001
ACAD
1000
MVIEW
1002
{
1070
    16
1010
0.0
1020
0.0
1030
0.0
1010
0.0
1020
0.0
1030
1.0
1040
0.0
1040
340.47337278106511
1040
210.0
1040
170.2366863905325
1040
50.0
1040
0.0
1040
0.0
1070
     0
1070
   100
1070
     1
1070
     1
1070
     0
1070
     0
1070
     0
1070
     0
1040
0.0
1040
0.0
1040
0.0
1040
5.0
1040
5.0
1040
10.0
1040
10.0
1070
     0
1002
{
1002
}
1002
}
  0
ENDSEC
  0
EOF
