  0
SECTION
  2
HEADER
  9
$ACADVER
  1
AC1009
  9
$INSBASE
 10
0.0
 20
0.0
 30
0.0
  9
$EXTMIN
 10
-39.688109524650599
 20
-16.387938599088098
 30
-0.0000000000000058
  9
$EXTMAX
 10
19.454956601205019
 20
15.014648978848291
 30
0.0000000000000104
  9
$LIMMIN
 10
-150.0
 20
-150.0
  9
$LIMMAX
 10
150.0
 20
150.0
  9
$ORTHOMODE
 70
     0
  9
$REGENMODE
 70
     1
  9
$FILLMODE
 70
     1
  9
$QTEXTMODE
 70
     0
  9
$MIRRTEXT
 70
     0
  9
$DRAGMODE
 70
     2
  9
$LTSCALE
 40
1.0
  9
$OSMODE
 70
   111
  9
$ATTMODE
 70
     1
  9
$TEXTSIZE
 40
3.5
  9
$TRACEWID
 40
1.0
  9
$TEXTSTYLE
  7
BESCHLAG
  9
$CLAYER
  8
0
  9
$CELTYPE
  6
BYLAYER
  9
$CECOLOR
 62
   256
  9
$DIMSCALE
 40
1.0
  9
$DIMASZ
 40
2.0
  9
$DIMEXO
 40
2.0
  9
$DIMDLI
 40
0.0
  9
$DIMRND
 40
0.0
  9
$DIMDLE
 40
1.0
  9
$DIMEXE
 40
1.0
  9
$DIMTP
 40
0.0
  9
$DIMTM
 40
0.0
  9
$DIMTXT
 40
3.5
  9
$DIMCEN
 40
0.0
  9
$DIMTSZ
 40
0.0
  9
$DIMTOL
 70
     0
  9
$DIMLIM
 70
     0
  9
$DIMTIH
 70
     0
  9
$DIMTOH
 70
     0
  9
$DIMSE1
 70
     0
  9
$DIMSE2
 70
     0
  9
$DIMTAD
 70
     1
  9
$DIMZIN
 70
     8
  9
$DIMBLK
  1

  9
$DIMASO
 70
     1
  9
$DIMSHO
 70
     1
  9
$DIMPOST
  1

  9
$DIMAPOST
  1

  9
$DIMALT
 70
     0
  9
$DIMALTD
 70
     2
  9
$DIMALTF
 40
0.039370078740157
  9
$DIMLFAC
 40
1.0
  9
$DIMTOFL
 70
     1
  9
$DIMTVP
 40
0.0
  9
$DIMTIX
 70
     1
  9
$DIMSOXD
 70
     0
  9
$DIMSAH
 70
     1
  9
$DIMBLK1
  1
OBLIQUE
  9
$DIMBLK2
  1
OBLIQUE
  9
$DIMSTYLE
  2
OPO-SSTRICH
  9
$DIMCLRD
 70
   256
  9
$DIMCLRE
 70
   256
  9
$DIMCLRT
 70
   256
  9
$DIMTFAC
 40
0.7114285714285716
  9
$DIMGAP
 40
1.0
  9
$LUNITS
 70
     2
  9
$LUPREC
 70
     1
  9
$SKETCHINC
 40
1.0
  9
$FILLETRAD
 40
0.0
  9
$AUNITS
 70
     0
  9
$AUPREC
 70
     1
  9
$MENU
  1
D:\ACL_CGWG\CGTAB13
  9
$ELEVATION
 40
0.0
  9
$PELEVATION
 40
0.0
  9
$THICKNESS
 40
0.0
  9
$LIMCHECK
 70
     0
  9
$BLIPMODE
 70
     0
  9
$CHAMFERA
 40
1.0
  9
$CHAMFERB
 40
1.0
  9
$SKPOLY
 70
     0
  9
$TDCREATE
 40
2451739.8482573722
  9
$TDUPDATE
 40
2452086.7205462502
  9
$TDINDWG
 40
0.0010364352
  9
$TDUSRTIMER
 40
0.0010364352
  9
$USRTIMER
 70
     1
  9
$ANGBASE
 50
0.0
  9
$ANGDIR
 70
     0
  9
$PDMODE
 70
    35
  9
$PDSIZE
 40
5.0
  9
$PLINEWID
 40
0.0
  9
$COORDS
 70
     1
  9
$SPLFRAME
 70
     0
  9
$SPLINETYPE
 70
     6
  9
$SPLINESEGS
 70
     8
  9
$ATTDIA
 70
     1
  9
$ATTREQ
 70
     1
  9
$HANDLING
 70
-16383
  9
$HANDSEED
  5
432
  9
$SURFTAB1
 70
    12
  9
$SURFTAB2
 70
    12
  9
$SURFTYPE
 70
     6
  9
$SURFU
 70
    12
  9
$SURFV
 70
    12
  9
$UCSNAME
  2

  9
$UCSORG
 10
0.0
 20
0.0
 30
0.0
  9
$UCSXDIR
 10
1.0
 20
0.0
 30
0.0
  9
$UCSYDIR
 10
0.0
 20
1.0
 30
0.0
  9
$PUCSNAME
  2

  9
$PUCSORG
 10
0.0
 20
0.0
 30
0.0
  9
$PUCSXDIR
 10
1.0
 20
0.0
 30
0.0
  9
$PUCSYDIR
 10
0.0
 20
1.0
 30
0.0
  9
$USERI1
 70
     0
  9
$USERI2
 70
     0
  9
$USERI3
 70
     0
  9
$USERI4
 70
     0
  9
$USERI5
 70
     0
  9
$USERR1
 40
0.0
  9
$USERR2
 40
0.0
  9
$USERR3
 40
0.0
  9
$USERR4
 40
0.0
  9
$USERR5
 40
0.0
  9
$WORLDVIEW
 70
     1
  9
$SHADEDGE
 70
     3
  9
$SHADEDIF
 70
    70
  9
$TILEMODE
 70
     1
  9
$MAXACTVP
 70
    48
  9
$PLIMCHECK
 70
     0
  9
$PEXTMIN
 10
1.0000000000000000E+020
 20
1.0000000000000000E+020
 30
1.0000000000000000E+020
  9
$PEXTMAX
 10
-1.0000000000000000E+020
 20
-1.0000000000000000E+020
 30
-1.0000000000000000E+020
  9
$PLIMMIN
 10
0.0
 20
0.0
  9
$PLIMMAX
 10
420.0
 20
297.0
  9
$UNITMODE
 70
     0
  9
$VISRETAIN
 70
     1
  9
$PLINEGEN
 70
     0
  9
$PSLTSCALE
 70
     1
  0
ENDSEC
  0
SECTION
  2
TABLES
  0
TABLE
  2
VPORT
 70
     3
  0
VPORT
  2
*ACTIVE
 70
     0
 10
0.0
 20
0.0
 11
1.0
 21
1.0
 12
-10.116576461722779
 22
-0.6866448101199012
 13
0.0
 23
0.0
 14
0.5
 24
0.5
 15
10.0
 25
10.0
 16
0.0
 26
0.0
 36
1.0
 17
0.0
 27
0.0
 37
0.0
 40
36.988278311925541
 41
1.6070460704607039
 42
50.0
 43
0.0
 44
0.0
 50
0.0
 51
0.0
 71
     0
 72
   800
 73
     1
 74
     1
 75
     0
 76
     0
 77
     0
 78
     0
  0
ENDTAB
  0
TABLE
  2
LTYPE
 70
     1
  0
LTYPE
  2
CONTINUOUS
 70
     0
  3
_______________________________________________
 72
    65
 73
     2
 40
1.0
 49
1.0
 49
0.0
  0
ENDTAB
  0
TABLE
  2
LAYER
 70
     5
  0
LAYER
  2
0
 70
     0
 62
    30
  6
CONTINUOUS
  0
LAYER
  2
1
 70
     0
 62
     2
  6
CONTINUOUS
  0
LAYER
  2
5
 70
     0
 62
     1
  6
CONTINUOUS
  0
LAYER
  2
6
 70
     0
 62
     3
  6
CONTINUOUS
  0
LAYER
  2
DEFPOINTS
 70
     0
 62
     7
  6
CONTINUOUS
  0
ENDTAB
  0
TABLE
  2
STYLE
 70
     2
  0
STYLE
  2
STANDARD
 70
     0
 40
0.0
 41
1.0
 50
0.0
 71
     0
 42
2.5
  3
txt
  4

  0
STYLE
  2
BESCHLAG
 70
     0
 40
0.0
 41
1.0
 50
0.0
 71
     0
 42
3.5
  3
txt
  4

  0
ENDTAB
  0
TABLE
  2
VIEW
 70
     0
  0
ENDTAB
  0
TABLE
  2
UCS
 70
     0
  0
ENDTAB
  0
TABLE
  2
APPID
 70
     1
  0
APPID
  2
ACAD
 70
     0
  0
ENDTAB
  0
TABLE
  2
DIMSTYLE
 70
     1
  0
DIMSTYLE
  2
OPO-SSTRICH
 70
     0
  3

  4

  5

  6
OBLIQUE
  7
OBLIQUE
 40
1.0
 41
2.0
 42
2.0
 43
0.0
 44
1.0
 45
0.0
 46
1.0
 47
0.0
 48
0.0
140
3.5
141
0.0
142
0.0
143
0.039370078740157
144
1.0
145
0.0
146
0.7114285714285716
147
1.0
 71
     0
 72
     0
 73
     0
 74
     0
 75
     0
 76
     0
 77
     1
 78
     8
170
     0
171
     2
172
     1
173
     1
174
     1
175
     0
176
   256
177
   256
178
   256
  0
ENDTAB
  0
ENDSEC
  0
SECTION
  2
BLOCKS
  0
BLOCK
  8
0
  2
$MODEL_SPACE
 70
     0
 10
0.0
 20
0.0
 30
0.0
  3
$MODEL_SPACE
  1

  0
ENDBLK
  5
1C
  8
0
  0
BLOCK
 67
     1
  8
0
  2
$PAPER_SPACE
 70
     0
 10
0.0
 20
0.0
 30
0.0
  3
$PAPER_SPACE
  1

  0
ENDBLK
  5
19
 67
     1
  8
0
  0
BLOCK
  8
0
  2
_OBLIQUE
 70
     0
 10
0.0
 20
0.0
 30
0.0
  3
_OBLIQUE
  1

  0
LINE
  5
204
  8
0
 62
     0
 10
-0.5
 20
-0.5
 30
0.0
 11
0.5
 21
0.5
 31
0.0
  0
ENDBLK
  5
206
  8
0
  0
BLOCK
  8
0
  2
NULLPUNKT
 70
     0
 10
0.0
 20
0.0
 30
0.0
  3
NULLPUNKT
  1

  0
SOLID
  5
254
  8
5
 10
0.0
 20
0.0
 30
0.0
 11
2.0
 21
0.0
 31
0.0
 12
0.0
 22
-2.0
 32
0.0
 13
0.0
 23
-2.0
 33
0.0
  0
SOLID
  5
255
  8
5
 10
0.0
 20
0.0
 30
0.0
 11
-2.0
 21
0.0
 31
0.0
 12
0.0
 22
2.0
 32
0.0
 13
0.0
 23
2.0
 33
0.0
  0
POLYLINE
  5
256
  8
5
 66
     1
 10
0.0
 20
0.0
 30
0.0
  0
VERTEX
  5
3FE
  8
5
 10
0.0
 20
2.0
 30
0.0
  0
VERTEX
  5
3FF
  8
5
 10
0.0
 20
-2.0
 30
0.0
  0
SEQEND
  5
400
  8
5
  0
POLYLINE
  5
257
  8
5
 66
     1
 10
0.0
 20
0.0
 30
0.0
  0
VERTEX
  5
401
  8
5
 10
-2.0
 20
0.0
 30
0.0
  0
VERTEX
  5
402
  8
5
 10
2.0
 20
0.0
 30
0.0
  0
SEQEND
  5
403
  8
5
  0
CIRCLE
  5
258
  8
5
 10
0.0
 20
0.0
 30
0.0
 40
2.0
  0
ENDBLK
  5
25A
  8
0
  0
BLOCK
  8
0
  2
*D2
 70
     1
 10
0.0
 20
0.0
 30
0.0
  3
*D2
  1

  0
LINE
  5
2E2
  8
1
 10
-23.0
 20
-2.0
 30
0.0
 11
-23.0
 21
-16.37860960799469
 31
0.0
  0
LINE
  5
2E3
  8
1
 10
-15.0
 20
-2.0
 30
0.0
 11
-15.0
 21
-16.37860960799469
 31
0.0
  0
LINE
  5
2E4
  8
1
 10
-24.0
 20
-15.37860960799469
 30
0.0
 11
-14.0
 21
-15.37860960799469
 31
0.0
  0
INSERT
  5
2E5
  8
1
  2
_OBLIQUE
 10
-23.0
 20
-15.37860960799469
 30
0.0
 41
2.0
 42
2.0
 43
2.0
 50
180.0
  0
INSERT
  5
2E6
  8
1
  2
_OBLIQUE
 10
-15.0
 20
-15.37860960799469
 30
0.0
 41
2.0
 42
2.0
 43
2.0
  0
TEXT
  5
2E7
  8
0
 10
-20.351296043656209
 20
-14.31176104046399
 30
0.0
 40
3.5
  1
8
  7
BESCHLAG
  0
POINT
  5
2E8
  8
DEFPOINTS
 62
     0
 10
-23.0
 20
0.0
 30
0.0
  0
POINT
  5
2E9
  8
DEFPOINTS
 62
     0
 10
-15.0
 20
0.0
 30
0.0
  0
POINT
  5
2EA
  8
DEFPOINTS
 62
     0
 10
-15.0
 20
-15.37860960799469
 30
0.0
  0
ENDBLK
  5
2BD
  8
0
  0
BLOCK
  8
0
  2
*D3
 70
     1
 10
0.0
 20
0.0
 30
0.0
  3
*D3
  1

  0
LINE
  5
2EB
  8
1
 10
-25.0
 20
0.0000000000000006
 30
0.0
 11
-35.17990822966658
 21
0.0000000000000035
 31
0.0
  0
LINE
  5
2EC
  8
1
 10
-25.0
 20
5.0
 30
0.0
 11
-35.17990822966658
 21
5.0000000000000027
 31
0.0
  0
LINE
  5
2ED
  8
1
 10
-34.17990822966658
 20
-0.9999999999999968
 30
0.0
 11
-34.17990822966658
 21
6.0000000000000027
 31
0.0
  0
INSERT
  5
2EE
  8
1
  2
_OBLIQUE
 10
-34.17990822966658
 20
0.0000000000000032
 30
0.0
 41
2.0
 42
2.0
 43
2.0
 50
270.0
  0
INSERT
  5
2EF
  8
1
  2
_OBLIQUE
 10
-34.17990822966658
 20
5.0000000000000027
 30
0.0
 41
2.0
 42
2.0
 43
2.0
 50
90.0
  0
TEXT
  5
2F0
  8
0
 10
-35.23959445067613
 20
1.1367667121418801
 30
0.0
 40
3.5
  1
5
 50
90.0
  7
BESCHLAG
  0
POINT
  5
2F1
  8
DEFPOINTS
 62
     0
 10
-23.0
 20
0.0
 30
0.0
  0
POINT
  5
2F2
  8
DEFPOINTS
 62
     0
 10
-23.0
 20
5.0
 30
0.0
  0
POINT
  5
2F3
  8
DEFPOINTS
 62
     0
 10
-34.17990822966658
 20
5.0000000000000027
 30
0.0
  0
ENDBLK
  5
2C9
  8
0
  0
BLOCK
  8
0
  2
*D4
 70
     1
 10
0.0
 20
0.0
 30
0.0
  3
*D4
  1

  0
LINE
  5
2F4
  8
1
 10
-15.0
 20
-2.0
 30
0.0
 11
-15.0
 21
-16.37860960799469
 31
0.0
  0
LINE
  5
2F5
  8
1
 10
-0.0000000000000001
 20
-2.0
 30
0.0
 11
-0.000000000000001
 21
-16.37860960799469
 31
0.0
  0
LINE
  5
2F6
  8
1
 10
-16.0
 20
-15.37860960799469
 30
0.0
 11
0.9999999999999991
 21
-15.37860960799469
 31
0.0
  0
INSERT
  5
2F7
  8
1
  2
_OBLIQUE
 10
-15.0
 20
-15.37860960799469
 30
0.0
 41
2.0
 42
2.0
 43
2.0
 50
180.0
  0
INSERT
  5
2F8
  8
1
  2
_OBLIQUE
 10
-0.0000000000000009
 20
-15.37860960799469
 30
0.0
 41
2.0
 42
2.0
 43
2.0
  0
TEXT
  5
2F9
  8
0
 10
-10.387619372442019
 20
-14.31176104046399
 30
0.0
 40
3.5
  1
15
  7
BESCHLAG
  0
POINT
  5
2FA
  8
DEFPOINTS
 62
     0
 10
-15.0
 20
0.0
 30
0.0
  0
POINT
  5
2FB
  8
DEFPOINTS
 62
     0
 10
0.0
 20
0.0
 30
0.0
  0
POINT
  5
2FC
  8
DEFPOINTS
 62
     0
 10
-0.0000000000000009
 20
-15.37860960799469
 30
0.0
  0
ENDBLK
  5
2D5
  8
0
  0
BLOCK
  8
0
  2
*D5
 70
     1
 10
0.0
 20
0.0
 30
0.0
  3
*D5
  1

  0
LINE
  5
2FD
  8
1
 10
-9.0
 20
5.9999999999999991
 30
0.0
 11
19.432338548737331
 21
5.9999999999999911
 31
0.0
  0
LINE
  5
2FE
  8
1
 10
-21.0
 20
-0.0000000000000006
 30
0.0
 11
19.432338548737331
 21
-0.000000000000012
 31
0.0
  0
LINE
  5
2FF
  8
1
 10
18.432338548737331
 20
6.9999999999999911
 30
0.0
 11
18.432338548737331
 21
-1.0000000000000111
 31
0.0
  0
INSERT
  5
300
  8
1
  2
_OBLIQUE
 10
18.432338548737331
 20
5.9999999999999911
 30
0.0
 41
2.0
 42
2.0
 43
2.0
 50
90.0
  0
INSERT
  5
301
  8
1
  2
_OBLIQUE
 10
18.432338548737331
 20
-0.0000000000000117
 30
0.0
 41
2.0
 42
2.0
 43
2.0
 50
270.0
  0
TEXT
  5
302
  8
0
 10
17.36548998120664
 20
1.660641200545695
 30
0.0
 40
3.5
  1
6
 50
90.0
  7
BESCHLAG
  0
POINT
  5
303
  8
DEFPOINTS
 62
     0
 10
-11.0
 20
6.0
 30
0.0
  0
POINT
  5
304
  8
DEFPOINTS
 62
     0
 10
-23.0
 20
0.0
 30
0.0
  0
POINT
  5
305
  8
DEFPOINTS
 62
     0
 10
18.432338548737331
 20
-0.0000000000000117
 30
0.0
  0
ENDBLK
  5
2E1
  8
0
  0
ENDSEC
  0
SECTION
  2
ENTITIES
  0
INSERT
  5
25B
  8
5
  2
NULLPUNKT
 10
0.0
 20
0.0
 30
0.0
  0
TEXT
  5
2AA
  8
1
 10
-7.5538647470214073
 20
10.215803448502809
 30
0.0
 40
2.5
  1
Hebgo 653
  7
BESCHLAG
  0
DIMENSION
  5
2AB
  8
1
  2
*D2
 10
-15.0
 20
-15.37860960799469
 30
0.0
 11
-19.0
 21
-12.59160415096877
 31
0.0
 70
     0
 13
-23.0
 23
0.0
 33
0.0
 14
-15.0
 24
0.0
 34
0.0
  0
DIMENSION
  5
2AC
  8
1
  2
*D3
 10
-34.17990822966658
 20
5.0000000000000027
 30
0.0
 11
-36.959751340171351
 21
2.4999999999999969
 31
0.0
 70
     0
 13
-23.0
 23
0.0
 33
0.0
 14
-23.0
 24
5.0
 34
0.0
 50
90.0
  0
POLYLINE
  5
2AD
  8
5
 66
     1
 10
0.0
 20
0.0
 30
0.0
  0
VERTEX
  5
404
  8
5
 10
-15.0
 20
15.0
 30
0.0
  0
VERTEX
  5
405
  8
5
 10
-15.0
 20
5.0
 30
0.0
  0
VERTEX
  5
406
  8
5
 10
-23.0
 20
5.0
 30
0.0
  0
VERTEX
  5
407
  8
5
 10
-23.0
 20
0.0
 30
0.0
  0
VERTEX
  5
408
  8
5
 10
0.0
 20
0.0
 30
0.0
  0
VERTEX
  5
409
  8
5
 10
0.0
 20
-10.0
 30
0.0
  0
SEQEND
  5
40A
  8
5
  0
POLYLINE
  5
2AE
  8
5
 66
     1
 10
0.0
 20
0.0
 30
0.0
  0
VERTEX
  5
40B
  8
5
 10
-11.0
 20
15.0
 30
0.0
  0
VERTEX
  5
40C
  8
5
 10
-11.0
 20
6.0
 30
0.0
  0
VERTEX
  5
40D
  8
5
 10
3.9999999999995448
 20
6.0000000000001128
 30
0.0
  0
SEQEND
  5
40E
  8
5
  0
POLYLINE
  5
2AF
  8
6
 66
     1
 10
0.0
 20
0.0
 30
0.0
 70
     1
  0
VERTEX
  5
40F
  8
6
 10
-20.69237567345499
 20
0.0
 30
0.0
 42
-0.552328081536863
  0
VERTEX
  5
410
  8
6
 10
-21.627203905929939
 20
2.8292753792043182
 30
0.0
 42
-0.1372152532299829
  0
VERTEX
  5
411
  8
6
 10
-19.431300757265479
 20
4.874534062013594
 30
0.0
 42
-0.802976562746816
  0
VERTEX
  5
412
  8
6
 10
-18.902072328235128
 20
4.2348971599448069
 30
0.0
 42
-0.0863029371302684
  0
VERTEX
  5
413
  8
6
 10
-19.486593308778531
 20
3.792679087253759
 30
0.0
 42
0.1517932068642148
  0
VERTEX
  5
414
  8
6
 10
-20.426566274360528
 20
2.8687590832472551
 30
0.0
 42
0.5747103743098956
  0
VERTEX
  5
415
  8
6
 10
-20.213295062830181
 20
2.5213019930084779
 30
0.0
  0
VERTEX
  5
416
  8
6
 10
-18.586115110734681
 20
2.6476500469018438
 30
0.0
 42
0.3330864926811419
  0
VERTEX
  5
417
  8
6
 10
-18.16368623892458
 20
3.0946132253531
 30
0.0
 42
-0.2118873687798519
  0
VERTEX
  5
418
  8
6
 10
-16.432424078874639
 20
4.855411192277983
 30
0.0
 42
-0.994029561521097
  0
VERTEX
  5
419
  8
6
 10
-16.018962193056719
 20
4.2743809412784231
 30
0.0
 42
0.0219910519159601
  0
VERTEX
  5
41A
  8
6
 10
-16.540291730099849
 20
3.919027141147239
 30
0.0
 42
0.1928493266218016
  0
VERTEX
  5
41B
  8
6
 10
-17.217996812082671
 20
2.9245362003831579
 30
0.0
 42
0.4399084895454024
  0
VERTEX
  5
41C
  8
6
 10
-16.84045106109215
 20
2.4818182889654281
 30
0.0
 42
0.1123602751921548
  0
VERTEX
  5
41D
  8
6
 10
-15.33175510400906
 20
2.7818948106876169
 30
0.0
 42
0.2788824987322165
  0
VERTEX
  5
41E
  8
6
 10
-14.794627680457319
 20
3.5557765538328558
 30
0.0
  0
VERTEX
  5
41F
  8
6
 10
-14.794627680457319
 20
4.5823542501835837
 30
0.0
 42
0.1304323338159623
  0
VERTEX
  5
420
  8
6
 10
-15.0
 20
5.3562359933288226
 30
0.0
  0
VERTEX
  5
421
  8
6
 10
-15.0
 20
7.2119727112338969
 30
0.0
 42
-0.2071503940801051
  0
VERTEX
  5
422
  8
6
 10
-14.16271314292271
 20
6.864515620995121
 30
0.0
 42
-0.1789771640774212
  0
VERTEX
  5
423
  8
6
 10
-13.443910383391531
 20
5.1983009452848128
 30
0.0
 42
0.1153210050554819
  0
VERTEX
  5
424
  8
6
 10
-12.946277624844241
 20
3.2872870262614242
 30
0.0
 42
0.249173483482827
  0
VERTEX
  5
425
  8
6
 10
-11.295400894252451
 20
2.4581280819976419
 30
0.0
 42
-0.0419327935872513
  0
VERTEX
  5
426
  8
6
 10
-3.042006589384072
 20
1.7137868307908091
 30
0.0
 42
0.1644605928474647
  0
VERTEX
  5
427
  8
6
 10
-1.851680263715479
 20
1.957805824846786
 30
0.0
 42
0.3099633812580862
  0
VERTEX
  5
428
  8
6
 10
-2.0805251204569681
 20
3.0776320026377562
 30
0.0
 42
0.1782526486381951
  0
VERTEX
  5
429
  8
6
 10
-5.8917727512211959
 20
4.7074411523059316
 30
0.0
  0
VERTEX
  5
42A
  8
6
 10
-10.41132368619582
 20
4.7074411523059316
 30
0.0
 42
-0.7153656212554838
  0
VERTEX
  5
42B
  8
6
 10
-12.036580925535869
 20
5.1971095096929503
 30
0.0
 42
-0.4052901196972523
  0
VERTEX
  5
42C
  8
6
 10
-11.11263336883894
 20
5.9204831948767369
 30
0.0
  0
VERTEX
  5
42D
  8
6
 10
-4.4171517305358057
 20
5.7868891411945924
 30
0.0
 42
-0.2131378428593716
  0
VERTEX
  5
42E
  8
6
 10
-0.6231447385830508
 20
3.583360046148413
 30
0.0
 42
-0.335757262699855
  0
VERTEX
  5
42F
  8
6
 10
-0.6931760030352053
 20
1.1462166717079749
 30
0.0
 42
-0.1390547902483828
  0
VERTEX
  5
430
  8
6
 10
-2.5273372341744098
 20
0.0
 30
0.0
  0
SEQEND
  5
431
  8
6
  0
DIMENSION
  5
2B0
  8
1
  2
*D4
 10
-0.0000000000000009
 20
-15.37860960799469
 30
0.0
 11
-7.5000000000000009
 21
-12.59160415096877
 31
0.0
 70
     0
 13
-15.0
 23
0.0
 33
0.0
 14
0.0
 24
0.0
 34
0.0
  0
DIMENSION
  5
2B1
  8
1
  2
*D5
 10
18.432338548737331
 20
-0.0000000000000117
 30
0.0
 11
15.645333091711411
 21
2.999999999999992
 31
0.0
 70
     0
 13
-11.0
 23
6.0
 33
0.0
 14
-23.0
 24
0.0
 34
0.0
 50
90.0
  0
VIEWPORT
  5
22
 67
     1
  8
0
 10
210.0
 20
170.2366863905325
 30
0.0
 40
420.0
 41
340.47337278106511
 68
     1
 69
     1
1001
ACAD
1000
MVIEW
1002
{
1070
    16
1010
0.0
1020
0.0
1030
0.0
1010
0.0
1020
0.0
1030
1.0
1040
0.0
1040
340.47337278106511
1040
210.0
1040
170.2366863905325
1040
50.0
1040
0.0
1040
0.0
1070
     0
1070
   100
1070
     1
1070
     1
1070
     0
1070
     0
1070
     0
1070
     0
1040
0.0
1040
0.0
1040
0.0
1040
5.0
1040
5.0
1040
10.0
1040
10.0
1070
     0
1002
{
1002
}
1002
}
  0
ENDSEC
  0
EOF
