  0
SECTION
  2
HEADER
  9
$ACADVER
  1
AC1009
  9
$INSBASE
 10
0.0
 20
0.0
 30
0.0
  9
$EXTMIN
 10
-22.81951819641915
 20
-8.6059561681537389
 30
-0.0000000000112498
  9
$EXTMAX
 10
12.77160698404964
 20
51.177979099073013
 30
0.0000000000002956
  9
$LIMMIN
 10
-150.0
 20
-150.0
  9
$LIMMAX
 10
150.0
 20
150.0
  9
$ORTHOMODE
 70
     0
  9
$REGENMODE
 70
     1
  9
$FILLMODE
 70
     1
  9
$QTEXTMODE
 70
     0
  9
$MIRRTEXT
 70
     0
  9
$DRAGMODE
 70
     2
  9
$LTSCALE
 40
3.0
  9
$OSMODE
 70
   111
  9
$ATTMODE
 70
     1
  9
$TEXTSIZE
 40
3.5
  9
$TRACEWID
 40
1.0
  9
$TEXTSTYLE
  7
BESCHLAG
  9
$CLAYER
  8
0
  9
$CELTYPE
  6
BYLAYER
  9
$CECOLOR
 62
   256
  9
$DIMSCALE
 40
1.0
  9
$DIMASZ
 40
2.0
  9
$DIMEXO
 40
2.0
  9
$DIMDLI
 40
0.0
  9
$DIMRND
 40
0.0
  9
$DIMDLE
 40
1.0
  9
$DIMEXE
 40
1.0
  9
$DIMTP
 40
0.0
  9
$DIMTM
 40
0.0
  9
$DIMTXT
 40
3.5
  9
$DIMCEN
 40
0.0
  9
$DIMTSZ
 40
0.0
  9
$DIMTOL
 70
     0
  9
$DIMLIM
 70
     0
  9
$DIMTIH
 70
     0
  9
$DIMTOH
 70
     0
  9
$DIMSE1
 70
     0
  9
$DIMSE2
 70
     0
  9
$DIMTAD
 70
     1
  9
$DIMZIN
 70
     8
  9
$DIMBLK
  1

  9
$DIMASO
 70
     1
  9
$DIMSHO
 70
     1
  9
$DIMPOST
  1

  9
$DIMAPOST
  1

  9
$DIMALT
 70
     0
  9
$DIMALTD
 70
     2
  9
$DIMALTF
 40
0.039370078740157
  9
$DIMLFAC
 40
1.0
  9
$DIMTOFL
 70
     1
  9
$DIMTVP
 40
0.0
  9
$DIMTIX
 70
     1
  9
$DIMSOXD
 70
     0
  9
$DIMSAH
 70
     1
  9
$DIMBLK1
  1
OBLIQUE
  9
$DIMBLK2
  1
OBLIQUE
  9
$DIMSTYLE
  2
OPO-SSTRICH
  9
$DIMCLRD
 70
   256
  9
$DIMCLRE
 70
   256
  9
$DIMCLRT
 70
   256
  9
$DIMTFAC
 40
0.7114285714285716
  9
$DIMGAP
 40
1.0
  9
$LUNITS
 70
     2
  9
$LUPREC
 70
     1
  9
$SKETCHINC
 40
1.0
  9
$FILLETRAD
 40
0.0
  9
$AUNITS
 70
     0
  9
$AUPREC
 70
     1
  9
$MENU
  1
D:\ACL_CGWG\CGTAB13
  9
$ELEVATION
 40
0.0
  9
$PELEVATION
 40
0.0
  9
$THICKNESS
 40
0.0
  9
$LIMCHECK
 70
     0
  9
$BLIPMODE
 70
     0
  9
$CHAMFERA
 40
1.0
  9
$CHAMFERB
 40
1.0
  9
$SKPOLY
 70
     0
  9
$TDCREATE
 40
2451739.8650479158
  9
$TDUPDATE
 40
2452087.6038266202
  9
$TDINDWG
 40
0.0017468287
  9
$TDUSRTIMER
 40
0.0017466551
  9
$USRTIMER
 70
     1
  9
$ANGBASE
 50
0.0
  9
$ANGDIR
 70
     0
  9
$PDMODE
 70
    35
  9
$PDSIZE
 40
5.0
  9
$PLINEWID
 40
0.0
  9
$COORDS
 70
     1
  9
$SPLFRAME
 70
     0
  9
$SPLINETYPE
 70
     6
  9
$SPLINESEGS
 70
     8
  9
$ATTDIA
 70
     1
  9
$ATTREQ
 70
     1
  9
$HANDLING
 70
-16383
  9
$HANDSEED
  5
58B
  9
$SURFTAB1
 70
    12
  9
$SURFTAB2
 70
    12
  9
$SURFTYPE
 70
     6
  9
$SURFU
 70
    12
  9
$SURFV
 70
    12
  9
$UCSNAME
  2

  9
$UCSORG
 10
0.0
 20
0.0
 30
0.0
  9
$UCSXDIR
 10
1.0
 20
0.0
 30
0.0
  9
$UCSYDIR
 10
0.0
 20
1.0
 30
0.0
  9
$PUCSNAME
  2

  9
$PUCSORG
 10
0.0
 20
0.0
 30
0.0
  9
$PUCSXDIR
 10
1.0
 20
0.0
 30
0.0
  9
$PUCSYDIR
 10
0.0
 20
1.0
 30
0.0
  9
$USERI1
 70
     0
  9
$USERI2
 70
     0
  9
$USERI3
 70
     0
  9
$USERI4
 70
     0
  9
$USERI5
 70
     0
  9
$USERR1
 40
0.0
  9
$USERR2
 40
0.0
  9
$USERR3
 40
0.0
  9
$USERR4
 40
0.0
  9
$USERR5
 40
0.0
  9
$WORLDVIEW
 70
     1
  9
$SHADEDGE
 70
     3
  9
$SHADEDIF
 70
    70
  9
$TILEMODE
 70
     1
  9
$MAXACTVP
 70
    48
  9
$PLIMCHECK
 70
     0
  9
$PEXTMIN
 10
1.0000000000000000E+020
 20
1.0000000000000000E+020
 30
1.0000000000000000E+020
  9
$PEXTMAX
 10
-1.0000000000000000E+020
 20
-1.0000000000000000E+020
 30
-1.0000000000000000E+020
  9
$PLIMMIN
 10
0.0
 20
0.0
  9
$PLIMMAX
 10
420.0
 20
297.0
  9
$UNITMODE
 70
     0
  9
$VISRETAIN
 70
     1
  9
$PLINEGEN
 70
     0
  9
$PSLTSCALE
 70
     1
  0
ENDSEC
  0
SECTION
  2
TABLES
  0
TABLE
  2
VPORT
 70
     3
  0
VPORT
  2
*ACTIVE
 70
     0
 10
0.0
 20
0.0
 11
1.0
 21
1.0
 12
-5.0239556061847628
 22
21.28601146545963
 13
0.0
 23
0.0
 14
0.5
 24
0.5
 15
10.0
 25
10.0
 16
0.0
 26
0.0
 36
1.0
 17
0.0
 27
0.0
 37
0.0
 40
60.26932581066837
 41
1.6070460704607039
 42
50.0
 43
0.0
 44
0.0
 50
0.0
 51
0.0
 71
     0
 72
   800
 73
     1
 74
     1
 75
     0
 76
     0
 77
     0
 78
     0
  0
ENDTAB
  0
TABLE
  2
LTYPE
 70
     2
  0
LTYPE
  2
CONTINUOUS
 70
     0
  3
_______________________________________________
 72
    65
 73
     2
 40
1.0
 49
1.0
 49
0.0
  0
LTYPE
  2
STRICHPUNKT
 70
     0
  3
__ . __ . __ . __ . __ . __ . __ . __ . __ . __
 72
    65
 73
     4
 40
1.0
 49
0.5
 49
-0.25
 49
0.0
 49
-0.25
  0
ENDTAB
  0
TABLE
  2
LAYER
 70
     7
  0
LAYER
  2
0
 70
     0
 62
    30
  6
CONTINUOUS
  0
LAYER
  2
1
 70
     0
 62
     2
  6
CONTINUOUS
  0
LAYER
  2
2
 70
     0
 62
     9
  6
CONTINUOUS
  0
LAYER
  2
4
 70
     1
 62
     4
  6
CONTINUOUS
  0
LAYER
  2
5
 70
     0
 62
     1
  6
CONTINUOUS
  0
LAYER
  2
6
 70
     0
 62
     3
  6
CONTINUOUS
  0
LAYER
  2
DEFPOINTS
 70
     0
 62
     7
  6
CONTINUOUS
  0
ENDTAB
  0
TABLE
  2
STYLE
 70
     2
  0
STYLE
  2
STANDARD
 70
     0
 40
0.0
 41
1.0
 50
0.0
 71
     0
 42
2.5
  3
txt
  4

  0
STYLE
  2
BESCHLAG
 70
     0
 40
0.0
 41
1.0
 50
0.0
 71
     0
 42
3.5
  3
txt
  4

  0
ENDTAB
  0
TABLE
  2
VIEW
 70
     0
  0
ENDTAB
  0
TABLE
  2
UCS
 70
     0
  0
ENDTAB
  0
TABLE
  2
APPID
 70
     1
  0
APPID
  2
ACAD
 70
     0
  0
ENDTAB
  0
TABLE
  2
DIMSTYLE
 70
     1
  0
DIMSTYLE
  2
OPO-SSTRICH
 70
     0
  3

  4

  5

  6
OBLIQUE
  7
OBLIQUE
 40
1.0
 41
2.0
 42
2.0
 43
0.0
 44
1.0
 45
0.0
 46
1.0
 47
0.0
 48
0.0
140
3.5
141
0.0
142
0.0
143
0.039370078740157
144
1.0
145
0.0
146
0.7114285714285716
147
1.0
 71
     0
 72
     0
 73
     0
 74
     0
 75
     0
 76
     0
 77
     1
 78
     8
170
     0
171
     2
172
     1
173
     1
174
     1
175
     0
176
   256
177
   256
178
   256
  0
ENDTAB
  0
ENDSEC
  0
SECTION
  2
BLOCKS
  0
BLOCK
  8
0
  2
$MODEL_SPACE
 70
     0
 10
0.0
 20
0.0
 30
0.0
  3
$MODEL_SPACE
  1

  0
ENDBLK
  5
1C
  8
0
  0
BLOCK
 67
     1
  8
0
  2
$PAPER_SPACE
 70
     0
 10
0.0
 20
0.0
 30
0.0
  3
$PAPER_SPACE
  1

  0
ENDBLK
  5
19
 67
     1
  8
0
  0
BLOCK
  8
0
  2
_OBLIQUE
 70
     0
 10
0.0
 20
0.0
 30
0.0
  3
_OBLIQUE
  1

  0
LINE
  5
204
  8
0
 62
     0
 10
-0.5
 20
-0.5
 30
0.0
 11
0.5
 21
0.5
 31
0.0
  0
ENDBLK
  5
206
  8
0
  0
BLOCK
  8
0
  2
NULLPUNKT
 70
     0
 10
0.0
 20
0.0
 30
0.0
  3
NULLPUNKT
  1

  0
SOLID
  5
254
  8
5
 10
0.0
 20
0.0
 30
0.0
 11
2.0
 21
0.0
 31
0.0
 12
0.0
 22
-2.0
 32
0.0
 13
0.0
 23
-2.0
 33
0.0
  0
SOLID
  5
255
  8
5
 10
0.0
 20
0.0
 30
0.0
 11
-2.0
 21
0.0
 31
0.0
 12
0.0
 22
2.0
 32
0.0
 13
0.0
 23
2.0
 33
0.0
  0
POLYLINE
  5
256
  8
5
 66
     1
 10
0.0
 20
0.0
 30
0.0
  0
VERTEX
  5
45C
  8
5
 10
0.0
 20
2.0
 30
0.0
  0
VERTEX
  5
45D
  8
5
 10
0.0
 20
-2.0
 30
0.0
  0
SEQEND
  5
45E
  8
5
  0
POLYLINE
  5
257
  8
5
 66
     1
 10
0.0
 20
0.0
 30
0.0
  0
VERTEX
  5
45F
  8
5
 10
-2.0
 20
0.0
 30
0.0
  0
VERTEX
  5
460
  8
5
 10
2.0
 20
0.0
 30
0.0
  0
SEQEND
  5
461
  8
5
  0
CIRCLE
  5
258
  8
5
 10
0.0
 20
0.0
 30
0.0
 40
2.0
  0
ENDBLK
  5
25A
  8
0
  0
BLOCK
  8
0
  2
*X2
 70
     1
 10
0.0
 20
0.0
 30
0.0
  3
*X2
  1

  0
LINE
  5
292
  8
0
 62
     0
 10
681.63104662418311
 20
172.51416416986879
 30
0.0
 11
683.33104662418373
 21
174.21416416986949
 31
0.0
  0
LINE
  5
293
  8
0
 62
     0
 10
676.12451387004307
 20
168.70468769057661
 30
0.0
 11
676.54926709384586
 21
169.1294409143795
 31
0.0
  0
LINE
  5
294
  8
0
 62
     0
 10
679.93399034933532
 20
172.51416416986879
 30
0.0
 11
681.63399034933593
 21
174.21416416986949
 31
0.0
  0
LINE
  5
295
  8
0
 62
     0
 10
674.23693407448752
 20
168.51416416986879
 30
0.0
 11
675.73693407448764
 21
170.01416416986879
 31
0.0
  0
LINE
  5
296
  8
0
 62
     0
 10
678.23693407448764
 20
172.51416416986879
 30
0.0
 11
679.93693407448825
 21
174.21416416986949
 31
0.0
  0
LINE
  5
297
  8
0
 62
     0
 10
673.23979061455373
 20
169.21407698478271
 30
0.0
 11
674.73979061455373
 21
170.71407698478271
 31
0.0
  0
LINE
  5
298
  8
0
 62
     0
 10
676.53987779963995
 20
172.51416416986879
 30
0.0
 11
678.23987779964045
 21
174.21416416986949
 31
0.0
  0
LINE
  5
299
  8
0
 62
     0
 10
673.23979061455373
 20
170.91113325963039
 30
0.0
 11
676.54282152479277
 21
174.21416416986949
 31
0.0
  0
LINE
  5
29A
  8
0
 62
     0
 10
673.23979061455373
 20
172.6081895344781
 30
0.0
 11
674.84576524994509
 21
174.21416416986949
 31
0.0
  0
LINE
  5
29B
  8
0
 62
     0
 10
683.3281028990308
 20
172.51416416986879
 30
0.0
 11
685.0281028990313
 21
174.21416416986949
 31
0.0
  0
LINE
  5
29C
  8
0
 62
     0
 10
685.02515917387848
 20
172.51416416986879
 30
0.0
 11
686.72515917387898
 21
174.21416416986949
 31
0.0
  0
LINE
  5
29D
  8
0
 62
     0
 10
686.67215110414861
 20
172.4640998252913
 30
0.0
 11
688.2225240355998
 21
174.01447275674241
 31
0.0
  0
LINE
  5
29E
  8
0
 62
     0
 10
684.97155182067456
 20
169.06644426696971
 30
0.0
 11
685.91927172357384
 21
170.01416416986879
 31
0.0
  0
LINE
  5
29F
  8
0
 62
     0
 10
686.73979061455373
 20
170.8346830608487
 30
0.0
 11
688.23979061455373
 21
172.3346830608487
 31
0.0
  0
LINE
  5
2A0
  8
0
 62
     0
 10
686.11632799842153
 20
168.51416416986879
 30
0.0
 11
688.23979061455373
 21
170.63762678600099
 31
0.0
  0
ENDBLK
  5
2A2
  8
0
  0
BLOCK
  8
0
  2
*X3
 70
     1
 10
0.0
 20
0.0
 30
0.0
  3
*X3
  1

  0
LINE
  5
2A4
  8
0
 62
     0
 10
680.81044054811639
 20
159.81416416986809
 30
0.0
 11
682.510440548117
 21
161.51416416986879
 31
0.0
  0
LINE
  5
2A5
  8
0
 62
     0
 10
675.11338427326837
 20
155.81416416986801
 30
0.0
 11
676.61176584038549
 21
157.31254573698499
 31
0.0
  0
LINE
  5
2A6
  8
0
 62
     0
 10
679.11338427326848
 20
159.81416416986809
 30
0.0
 11
680.81338427326932
 21
161.51416416986879
 31
0.0
  0
LINE
  5
2A7
  8
0
 62
     0
 10
673.41756660071349
 20
155.8154027721607
 30
0.0
 11
674.91756660077544
 21
157.3154027722226
 31
0.0
  0
LINE
  5
2A8
  8
0
 62
     0
 10
677.4163279984208
 20
159.81416416986809
 30
0.0
 11
679.11632799842164
 21
161.51416416986879
 31
0.0
  0
LINE
  5
2A9
  8
0
 62
     0
 10
673.23979061455373
 20
157.3346830608487
 30
0.0
 11
674.73979061455373
 21
158.8346830608487
 31
0.0
  0
LINE
  5
2AA
  8
0
 62
     0
 10
675.71927172357312
 20
159.81416416986809
 30
0.0
 11
677.41927172357384
 21
161.51416416986879
 31
0.0
  0
LINE
  5
2AB
  8
0
 62
     0
 10
673.23979061455373
 20
159.03173933569639
 30
0.0
 11
675.72221544872605
 21
161.51416416986879
 31
0.0
  0
LINE
  5
2AC
  8
0
 62
     0
 10
682.50749682296407
 20
159.81416416986809
 30
0.0
 11
684.20749682296457
 21
161.51416416986879
 31
0.0
  0
LINE
  5
2AD
  8
0
 62
     0
 10
684.20455309781175
 20
159.81416416986809
 30
0.0
 11
685.90455309781225
 21
161.51416416986879
 31
0.0
  0
LINE
  5
2AE
  8
0
 62
     0
 10
685.90160937265944
 20
159.81416416986809
 30
0.0
 11
687.60160937266005
 21
161.51416416986879
 31
0.0
  0
LINE
  5
2AF
  8
0
 62
     0
 10
684.74753405884417
 20
156.9630325812052
 30
0.0
 11
685.09866564750723
 21
157.31416416986809
 31
0.0
  0
LINE
  5
2B0
  8
0
 62
     0
 10
686.73979061455373
 20
158.9552891369147
 30
0.0
 11
688.23979061455373
 21
160.4552891369147
 31
0.0
  0
LINE
  5
2B1
  8
0
 62
     0
 10
685.4389725811991
 20
155.9574148287123
 30
0.0
 11
688.23979061455373
 21
158.75823286206699
 31
0.0
  0
LINE
  5
2B2
  8
0
 62
     0
 10
687.01899165205339
 20
155.840377624719
 30
0.0
 11
688.21357715970271
 21
157.0349631323684
 31
0.0
  0
ENDBLK
  5
2B4
  8
0
  0
BLOCK
  8
0
  2
*D4
 70
     1
 10
0.0
 20
0.0
 30
0.0
  3
*D4
  1

  0
LINE
  5
349
  8
1
 10
2.0
 20
-0.0000000000000006
 30
0.0
 11
12.759555786807139
 21
-0.0000000000000036
 31
0.0
  0
LINE
  5
34A
  8
1
 10
-6.0000000000001119
 20
-5.0
 30
0.0
 11
12.759555786807139
 21
-5.0000000000000053
 31
0.0
  0
LINE
  5
34B
  8
1
 10
11.759555786807139
 20
0.9999999999999966
 30
0.0
 11
11.759555786807139
 21
-6.0000000000000053
 31
0.0
  0
INSERT
  5
34C
  8
1
  2
_OBLIQUE
 10
11.759555786807139
 20
-0.0000000000000033
 30
0.0
 41
2.0
 42
2.0
 43
2.0
 50
90.0
  0
INSERT
  5
34D
  8
1
  2
_OBLIQUE
 10
11.759555786807139
 20
-5.0000000000000053
 30
0.0
 41
2.0
 42
2.0
 43
2.0
 50
270.0
  0
TEXT
  5
34E
  8
0
 10
10.69986956579759
 20
-3.8632332878581201
 30
0.0
 40
3.5
  1
5
 50
90.0
  7
BESCHLAG
  0
POINT
  5
34F
  8
DEFPOINTS
 62
     0
 10
0.0
 20
0.0
 30
0.0
  0
POINT
  5
350
  8
DEFPOINTS
 62
     0
 10
-8.0000000000001137
 20
-5.0
 30
0.0
  0
POINT
  5
351
  8
DEFPOINTS
 62
     0
 10
11.759555786807139
 20
-5.0000000000000053
 30
0.0
  0
ENDBLK
  5
330
  8
0
  0
BLOCK
  8
0
  2
*D5
 70
     1
 10
0.0
 20
0.0
 30
0.0
  3
*D5
  1

  0
LINE
  5
352
  8
1
 10
-16.0
 20
30.0
 30
0.0
 11
-16.0
 21
41.369432044669558
 31
0.0
  0
LINE
  5
353
  8
1
 10
0.0000000000000001
 20
30.0
 30
0.0
 11
0.0000000000000008
 21
41.369432044669558
 31
0.0
  0
LINE
  5
354
  8
1
 10
-17.0
 20
40.369432044669573
 30
0.0
 11
1.0
 21
40.369432044669573
 31
0.0
  0
INSERT
  5
355
  8
1
  2
_OBLIQUE
 10
-16.0
 20
40.369432044669573
 30
0.0
 41
2.0
 42
2.0
 43
2.0
 50
180.0
  0
INSERT
  5
356
  8
1
  2
_OBLIQUE
 10
0.0000000000000008
 20
40.369432044669573
 30
0.0
 41
2.0
 42
2.0
 43
2.0
  0
TEXT
  5
357
  8
0
 10
-10.87329467939972
 20
41.436280612200257
 30
0.0
 40
3.5
  1
16
  7
BESCHLAG
  0
POINT
  5
358
  8
DEFPOINTS
 62
     0
 10
-16.0
 20
28.0
 30
0.0
  0
POINT
  5
359
  8
DEFPOINTS
 62
     0
 10
0.0
 20
28.0
 30
0.0
  0
POINT
  5
35A
  8
DEFPOINTS
 62
     0
 10
0.0000000000000008
 20
40.369432044669573
 30
0.0
  0
ENDBLK
  5
33C
  8
0
  0
BLOCK
  8
0
  2
*D6
 70
     1
 10
0.0
 20
0.0
 30
0.0
  3
*D6
  1

  0
LINE
  5
35B
  8
1
 10
2.0
 20
28.0
 30
0.0
 11
12.759555786807139
 21
27.999999999999989
 31
0.0
  0
LINE
  5
35C
  8
1
 10
2.0
 20
-0.0000000000000006
 30
0.0
 11
12.759555786807139
 21
-0.0000000000000036
 31
0.0
  0
LINE
  5
35D
  8
1
 10
11.759555786807139
 20
29.0
 30
0.0
 11
11.759555786807139
 21
-1.0000000000000031
 31
0.0
  0
INSERT
  5
35E
  8
1
  2
_OBLIQUE
 10
11.759555786807139
 20
27.999999999999989
 30
0.0
 41
2.0
 42
2.0
 43
2.0
 50
90.0
  0
INSERT
  5
35F
  8
1
  2
_OBLIQUE
 10
11.759555786807139
 20
-0.0000000000000033
 30
0.0
 41
2.0
 42
2.0
 43
2.0
 50
270.0
  0
TEXT
  5
360
  8
0
 10
10.692707219276439
 20
11.316507503410641
 30
0.0
 40
3.5
  1
28
 50
90.0
  7
BESCHLAG
  0
POINT
  5
361
  8
DEFPOINTS
 62
     0
 10
0.0
 20
28.0
 30
0.0
  0
POINT
  5
362
  8
DEFPOINTS
 62
     0
 10
0.0
 20
0.0
 30
0.0
  0
POINT
  5
363
  8
DEFPOINTS
 62
     0
 10
11.759555786807139
 20
-0.0000000000000033
 30
0.0
  0
ENDBLK
  5
348
  8
0
  0
ENDSEC
  0
SECTION
  2
ENTITIES
  0
INSERT
  5
25B
  8
5
  2
NULLPUNKT
 10
0.0
 20
0.0
 30
0.0
  0
INSERT
  5
2F0
  8
2
  2
*X3
 10
-688.73979061455373
 20
-146.21416416986949
 30
0.0
1001
ACAD
1000
HATCH
1002
{
1070
    16
1000
_U,I
1040
1.1999999999999991
1040
0.7853981633974483
1070
     0
1002
}
  0
INSERT
  5
2F1
  8
2
  2
*X2
 10
-688.73979061455373
 20
-146.21416416986949
 30
0.0
1001
ACAD
1000
HATCH
1002
{
1070
    16
1000
_U,I
1040
1.1999999999999991
1040
0.7853981633974483
1070
     0
1002
}
  0
TEXT
  5
2F2
  8
1
 10
6.7161845959338962
 20
-4.507527054610363
 30
0.0
 40
1.5
  1
1-11
 50
90.0
  0
DIMENSION
  5
2F3
  8
1
  2
*D4
 10
11.759555786807139
 20
-5.0000000000000053
 30
0.0
 11
8.979712676302368
 21
-2.5000000000000022
 31
0.0
 70
     0
 13
0.0
 23
0.0
 33
0.0
 14
-8.0000000000001137
 24
-5.0
 34
0.0
 50
90.0
  0
LINE
  5
2F4
  8
6
  6
CONTINUOUS
 10
-7.3606650752844871
 20
37.605749654399801
 30
0.0
 11
-8.7257258368917974
 21
36.875837185119849
 31
0.0
  0
LINE
  5
2F5
  8
6
  6
CONTINUOUS
 10
-6.9987016538871121
 20
34.547538923206837
 30
0.0
 11
-9.1366000074849598
 21
33.40438199551658
 31
0.0
  0
LINE
  5
2F6
  8
6
  6
CONTINUOUS
 10
-7.1193561276813853
 20
35.566942500261462
 30
0.0
 11
-8.9996419506205712
 21
34.561533725374709
 31
0.0
  0
LINE
  5
2F7
  8
6
  6
CONTINUOUS
 10
-7.2400106014829362
 20
36.586346077345183
 30
0.0
 11
-8.8626838937561843
 21
35.71868545523273
 31
0.0
  0
LINE
  5
2F8
  8
6
  6
CONTINUOUS
 10
-7.7226284966891381
 20
40.663960385563648
 30
0.0
 11
-8.3148516662986331
 21
40.347292374693893
 31
0.0
  0
LINE
  5
2F9
  8
6
  6
CONTINUOUS
 10
-7.6019740228875872
 20
39.64455680850903
 30
0.0
 11
-8.4518097231630236
 21
39.190140644835878
 31
0.0
  0
LINE
  5
2FA
  8
6
  6
CONTINUOUS
 10
-7.4813195490860362
 20
38.625153231454419
 30
0.0
 11
-8.5887677800274105
 21
38.032988914977857
 31
0.0
  0
TEXT
  5
2FB
  8
1
 10
-22.804783999466501
 20
48.0
 30
0.0
 40
2.5
  1
Hebgo 125/654
  0
POINT
  5
2FC
  8
5
 10
-8.0
 20
15.299999999999271
 30
0.0
  0
LINE
  5
2FD
  8
6
  6
CONTINUOUS
 10
-6.7573927062840102
 20
31.42481296505661
 30
0.0
 11
-9.2426072937159951
 21
30.095942362900811
 31
0.0
  0
POLYLINE
  5
2FE
  8
6
  6
CONTINUOUS
 66
     1
 10
0.0
 20
0.0
 30
0.0
  0
VERTEX
  5
462
  8
6
  6
CONTINUOUS
 10
-9.2426072937087262
 20
29.012023558859941
 30
0.0
  0
VERTEX
  5
463
  8
6
  6
CONTINUOUS
 10
-6.7573927062840191
 20
30.340894160986629
 30
0.0
  0
VERTEX
  5
464
  8
6
  6
CONTINUOUS
 10
-6.7573927062840191
 20
26.299999999999269
 30
0.0
  0
VERTEX
  5
465
  8
6
  6
CONTINUOUS
 10
-5.5147854125607507
 20
26.299999999999269
 30
0.0
 42
-0.8047594803717778
  0
VERTEX
  5
466
  8
6
  6
CONTINUOUS
 10
-10.48521458743927
 20
26.299999999999269
 30
0.0
  0
VERTEX
  5
467
  8
6
  6
CONTINUOUS
 10
-9.2426072937087262
 20
26.299999999999269
 30
0.0
  0
VERTEX
  5
468
  8
6
  6
CONTINUOUS
 10
-9.2426072937087262
 20
28.260917639350509
 30
0.0
  0
SEQEND
  5
469
  8
6
  6
CONTINUOUS
  0
LINE
  5
2FF
  8
6
  6
CONTINUOUS
 10
-6.7573927062840102
 20
32.508731769097487
 30
0.0
 11
-9.2426072937159951
 21
31.179861166970792
 31
0.0
  0
POLYLINE
  5
300
  8
6
 66
     1
 10
0.0
 20
0.0
 30
0.0
 70
     1
  0
VERTEX
  5
46A
  8
6
 10
-8.8424191715125744
 20
12.780731864651671
 30
0.0
  0
VERTEX
  5
46B
  8
6
 10
-7.0544274794870034
 20
13.421258949211269
 30
0.0
  0
VERTEX
  5
46C
  8
6
 10
-7.0544274794870034
 20
12.53187448669075
 30
0.0
  0
VERTEX
  5
46D
  8
6
 10
-8.8424191715125744
 20
11.827187720631279
 30
0.0
  0
SEQEND
  5
46E
  8
6
  0
POLYLINE
  5
301
  8
6
 66
     1
 10
0.0
 20
0.0
 30
0.0
  0
VERTEX
  5
46F
  8
6
 10
-9.1776675299838644
 20
13.073563683626389
 30
0.0
  0
VERTEX
  5
470
  8
6
 10
-8.8424191715125744
 20
13.52903202845004
 30
0.0
  0
VERTEX
  5
471
  8
6
 10
-7.0544274794870034
 20
14.23371879450951
 30
0.0
  0
VERTEX
  5
472
  8
6
 10
-6.4698917320338287
 20
14.15637514117906
 30
0.0
  0
VERTEX
  5
473
  8
6
 10
-9.1862636681801177
 20
13.05637622238214
 30
0.0
  0
VERTEX
  5
474
  8
6
 10
-8.8424191715125744
 20
12.780731864651671
 30
0.0
  0
VERTEX
  5
475
  8
6
 10
-7.0544274794870034
 20
13.421258949211269
 30
0.0
  0
VERTEX
  5
476
  8
6
 10
-6.4784878702300821
 20
14.15637514117906
 30
0.0
  0
SEQEND
  5
477
  8
6
  0
POLYLINE
  5
302
  8
6
 66
     1
 10
0.0
 20
0.0
 30
0.0
 70
     1
  0
VERTEX
  5
478
  8
6
 10
-8.8424191715125744
 20
14.48257617247031
 30
0.0
  0
VERTEX
  5
479
  8
6
 10
-7.0544274794870034
 20
15.12310325703003
 30
0.0
  0
VERTEX
  5
47A
  8
6
 10
-7.0544274794870034
 20
14.23371879450951
 30
0.0
  0
VERTEX
  5
47B
  8
6
 10
-8.8424191715125744
 20
13.52903202845004
 30
0.0
  0
SEQEND
  5
47C
  8
6
  0
POLYLINE
  5
303
  8
6
 66
     1
 10
0.0
 20
0.0
 30
0.0
  0
VERTEX
  5
47D
  8
6
 10
-9.1776675299840917
 20
14.775407991445149
 30
0.0
  0
VERTEX
  5
47E
  8
6
 10
-8.8424191715125744
 20
15.2308763362688
 30
0.0
  0
VERTEX
  5
47F
  8
6
 10
-7.0544274794870034
 20
15.93556310232827
 30
0.0
  0
VERTEX
  5
480
  8
6
 10
-6.4698917320340561
 20
15.858219448997829
 30
0.0
  0
VERTEX
  5
481
  8
6
 10
-9.1862636681803451
 20
14.7582205302009
 30
0.0
  0
VERTEX
  5
482
  8
6
 10
-8.8424191715125744
 20
14.48257617247031
 30
0.0
  0
VERTEX
  5
483
  8
6
 10
-7.0544274794870034
 20
15.12310325703003
 30
0.0
  0
VERTEX
  5
484
  8
6
 10
-6.4784878702303104
 20
15.858219448997829
 30
0.0
  0
SEQEND
  5
485
  8
6
  0
POLYLINE
  5
304
  8
6
 66
     1
 10
0.0
 20
0.0
 30
0.0
 70
     1
  0
VERTEX
  5
486
  8
6
 10
-8.8424191715125744
 20
16.184420480289191
 30
0.0
  0
VERTEX
  5
487
  8
6
 10
-7.0544274794870034
 20
16.824947564848799
 30
0.0
  0
VERTEX
  5
488
  8
6
 10
-7.0544274794870034
 20
15.93556310232827
 30
0.0
  0
VERTEX
  5
489
  8
6
 10
-8.8424191715125744
 20
15.2308763362688
 30
0.0
  0
SEQEND
  5
48A
  8
6
  0
POLYLINE
  5
305
  8
6
 66
     1
 10
0.0
 20
0.0
 30
0.0
  0
VERTEX
  5
48B
  8
6
 10
-9.1776675299840917
 20
16.47725229926391
 30
0.0
  0
VERTEX
  5
48C
  8
6
 10
-8.8424191715125744
 20
16.93272064408756
 30
0.0
  0
VERTEX
  5
48D
  8
6
 10
-7.0544274794870034
 20
17.637407410147031
 30
0.0
  0
VERTEX
  5
48E
  8
6
 10
-6.4698917320340561
 20
17.560063756816589
 30
0.0
  0
VERTEX
  5
48F
  8
6
 10
-9.1862636681803451
 20
16.460064838019662
 30
0.0
  0
VERTEX
  5
490
  8
6
 10
-8.8424191715125744
 20
16.184420480289191
 30
0.0
  0
VERTEX
  5
491
  8
6
 10
-7.0544274794870034
 20
16.824947564848799
 30
0.0
  0
VERTEX
  5
492
  8
6
 10
-6.4784878702303104
 20
17.560063756816589
 30
0.0
  0
SEQEND
  5
493
  8
6
  0
POLYLINE
  5
306
  8
6
 66
     1
 10
0.0
 20
0.0
 30
0.0
 70
     1
  0
VERTEX
  5
494
  8
6
 10
-8.8424191715125744
 20
17.886264788107951
 30
0.0
  0
VERTEX
  5
495
  8
6
 10
-7.0544274794870034
 20
18.526791872667669
 30
0.0
  0
VERTEX
  5
496
  8
6
 10
-7.0544274794870034
 20
17.637407410147031
 30
0.0
  0
VERTEX
  5
497
  8
6
 10
-8.8424191715125744
 20
16.93272064408756
 30
0.0
  0
SEQEND
  5
498
  8
6
  0
POLYLINE
  5
307
  8
6
 66
     1
 10
0.0
 20
0.0
 30
0.0
  0
VERTEX
  5
499
  8
6
 10
-9.1776675299840917
 20
18.17909660708278
 30
0.0
  0
VERTEX
  5
49A
  8
6
 10
-8.8424191715125744
 20
18.634564951906441
 30
0.0
  0
VERTEX
  5
49B
  8
6
 10
-7.0544274794870034
 20
19.339251717965901
 30
0.0
  0
VERTEX
  5
49C
  8
6
 10
-6.4698917320340561
 20
19.26190806463546
 30
0.0
  0
VERTEX
  5
49D
  8
6
 10
-9.1862636681803451
 20
18.161909145838528
 30
0.0
  0
VERTEX
  5
49E
  8
6
 10
-8.8424191715125744
 20
17.886264788107951
 30
0.0
  0
VERTEX
  5
49F
  8
6
 10
-7.0544274794870034
 20
18.526791872667669
 30
0.0
  0
VERTEX
  5
4A0
  8
6
 10
-6.4784878702303104
 20
19.26190806463546
 30
0.0
  0
SEQEND
  5
4A1
  8
6
  0
POLYLINE
  5
308
  8
6
 66
     1
 10
0.0
 20
0.0
 30
0.0
 70
     1
  0
VERTEX
  5
4A2
  8
6
 10
-8.8424191715125744
 20
19.799999999999269
 30
0.0
  0
VERTEX
  5
4A3
  8
6
 10
-7.0544274794870034
 20
19.799999999999269
 30
0.0
  0
VERTEX
  5
4A4
  8
6
 10
-7.0544274794870034
 20
19.339251717965901
 30
0.0
  0
VERTEX
  5
4A5
  8
6
 10
-8.8424191715125744
 20
18.634564951906441
 30
0.0
  0
SEQEND
  5
4A6
  8
6
  0
POLYLINE
  5
309
  8
4
 66
     1
 10
0.0
 20
0.0
 30
0.0
 70
     1
  0
VERTEX
  5
4A7
  8
4
 10
-15.5
 20
28.0
 30
0.0
  0
VERTEX
  5
4A8
  8
4
 10
-15.5
 20
22.299999999999269
 30
0.0
  0
VERTEX
  5
4A9
  8
4
 10
-0.5
 20
22.299999999999269
 30
0.0
  0
VERTEX
  5
4AA
  8
4
 10
-0.5
 20
28.0
 30
0.0
  0
SEQEND
  5
4AB
  8
4
  0
POLYLINE
  5
30A
  8
6
 66
     1
 10
0.0
 20
0.0
 30
0.0
 70
     1
  0
VERTEX
  5
4AC
  8
6
 10
-12.0
 20
23.649999999999629
 30
0.0
  0
VERTEX
  5
4AD
  8
6
 10
-12.0
 20
23.589999999999229
 30
0.0
 42
-0.4142135623730951
  0
VERTEX
  5
4AE
  8
6
 10
-13.28999999999996
 20
22.299999999999269
 30
0.0
  0
VERTEX
  5
4AF
  8
6
 10
-15.299999999999271
 20
22.299999999999269
 30
0.0
 42
-0.4142135623730951
  0
VERTEX
  5
4B0
  8
6
 10
-15.5
 20
22.5
 30
0.0
  0
VERTEX
  5
4B1
  8
6
 10
-15.5
 20
26.5
 30
0.0
 42
-0.4142135623730951
  0
VERTEX
  5
4B2
  8
6
 10
-14.0
 20
28.0
 30
0.0
  0
VERTEX
  5
4B3
  8
6
 10
-0.7999999999999546
 20
28.0
 30
0.0
 42
-0.4142135623730951
  0
VERTEX
  5
4B4
  8
6
 10
-0.5
 20
27.700000000000038
 30
0.0
  0
VERTEX
  5
4B5
  8
6
 10
-0.5
 20
23.799999999999269
 30
0.0
 42
-0.4142135623730951
  0
VERTEX
  5
4B6
  8
6
 10
-2.0
 20
22.299999999999269
 30
0.0
  0
VERTEX
  5
4B7
  8
6
 10
-2.7100000000000359
 20
22.299999999999269
 30
0.0
 42
-0.4142135623730951
  0
VERTEX
  5
4B8
  8
6
 10
-4.0
 20
23.589999999999229
 30
0.0
  0
VERTEX
  5
4B9
  8
6
 10
-4.0
 20
23.649999999999629
 30
0.0
 42
-0.4142135623731992
  0
VERTEX
  5
4BA
  8
6
 10
-3.8499999999994539
 20
23.799999999999269
 30
0.0
  0
VERTEX
  5
4BB
  8
6
 10
-2.1999999999998181
 20
23.799999999999269
 30
0.0
 42
0.4142135623730953
  0
VERTEX
  5
4BC
  8
6
 10
-2.0
 20
24.0
 30
0.0
  0
VERTEX
  5
4BD
  8
6
 10
-2.0
 20
26.099999999999451
 30
0.0
 42
0.4142135623730951
  0
VERTEX
  5
4BE
  8
6
 10
-2.1999999999998181
 20
26.299999999999269
 30
0.0
  0
VERTEX
  5
4BF
  8
6
 10
-13.799999999999271
 20
26.299999999999269
 30
0.0
 42
0.4142135623730951
  0
VERTEX
  5
4C0
  8
6
 10
-14.0
 20
26.099999999999451
 30
0.0
  0
VERTEX
  5
4C1
  8
6
 10
-14.0
 20
24.0
 30
0.0
 42
0.4142135623730951
  0
VERTEX
  5
4C2
  8
6
 10
-13.799999999999271
 20
23.799999999999269
 30
0.0
  0
VERTEX
  5
4C3
  8
6
 10
-12.149999999999631
 20
23.799999999999269
 30
0.0
 42
-0.414213562373069
  0
SEQEND
  5
4C4
  8
6
  0
POLYLINE
  5
30B
  8
6
 66
     1
 10
0.0
 20
0.0
 30
0.0
 70
     1
  0
VERTEX
  5
4C5
  8
6
 10
-4.0
 20
19.799999999999269
 30
0.0
  0
VERTEX
  5
4C6
  8
6
 10
-12.0
 20
19.799999999999269
 30
0.0
  0
VERTEX
  5
4C7
  8
6
 10
-12.0
 20
23.799999999999269
 30
0.0
  0
VERTEX
  5
4C8
  8
6
 10
-13.5999999999999
 20
23.799999999999269
 30
0.0
  0
VERTEX
  5
4C9
  8
6
 10
-13.5999999999999
 20
25.799999999999269
 30
0.0
  0
VERTEX
  5
4CA
  8
6
 10
-12.0
 20
25.799999999999269
 30
0.0
 42
0.5000000000000046
  0
VERTEX
  5
4CB
  8
6
 10
-4.0
 20
25.799999999999159
 30
0.0
  0
VERTEX
  5
4CC
  8
6
 10
-2.4000000000000901
 20
25.799999999999269
 30
0.0
  0
VERTEX
  5
4CD
  8
6
 10
-2.4000000000000901
 20
23.799999999999269
 30
0.0
  0
VERTEX
  5
4CE
  8
6
 10
-4.0
 20
23.799999999999269
 30
0.0
  0
SEQEND
  5
4CF
  8
6
  0
LINE
  5
30C
  8
6
  6
STRICHPUNKT
 10
-8.0000000000000053
 20
26.052973247130009
 30
0.0
 11
-8.0
 21
38.052973247130012
 31
0.0
  0
LINE
  5
30D
  8
6
  6
CONTINUOUS
 10
-6.8780471800855612
 20
33.528135346152112
 30
0.0
 11
-9.2426072937159933
 21
32.263779971040769
 31
0.0
  0
DIMENSION
  5
30E
  8
1
  2
*D5
 10
0.0000000000000008
 20
40.369432044669573
 30
0.0
 11
-8.0
 21
43.156437501695478
 31
0.0
 70
     0
 13
-16.0
 23
28.0
 33
0.0
 14
0.0
 24
28.0
 34
0.0
  0
POLYLINE
  5
30F
  8
6
 66
     1
 10
0.0
 20
0.0
 30
0.0
  0
VERTEX
  5
4D0
  8
6
 10
-8.2063066980003896
 20
1.2812494589582
 30
0.0
  0
VERTEX
  5
4D1
  8
6
 10
-8.0
 20
0.7999999999992724
 30
0.0
  0
VERTEX
  5
4D2
  8
6
 10
-7.6303670887436956
 20
1.4960930354366151
 30
0.0
  0
SEQEND
  5
4D3
  8
6
  0
POLYLINE
  5
310
  8
6
 66
     1
 10
0.0
 20
0.0
 30
0.0
  0
VERTEX
  5
4D4
  8
6
 10
-7.1575808284871982
 20
3.1718725277673911
 30
0.0
  0
VERTEX
  5
4D5
  8
6
 10
-7.3896759410763471
 20
2.1578110706543612
 30
0.0
  0
SEQEND
  5
4D6
  8
6
  0
POLYLINE
  5
311
  8
6
 66
     1
 10
0.0
 20
0.0
 30
0.0
  0
VERTEX
  5
4D7
  8
6
 10
-8.6533046467864096
 20
2.5960918765024412
 30
0.0
  0
VERTEX
  5
4D8
  8
6
 10
-8.4298056723932842
 20
1.7796864568924771
 30
0.0
  0
SEQEND
  5
4D9
  8
6
  0
POLYLINE
  5
312
  8
6
 66
     1
 10
0.0
 20
0.0
 30
0.0
  0
VERTEX
  5
4DA
  8
6
 10
-8.6876890964531412
 20
1.4187493043748409
 30
0.0
  0
VERTEX
  5
4DB
  8
6
 10
-8.4469979487857927
 20
1.788280187514601
 30
0.0
  0
VERTEX
  5
4DC
  8
6
 10
-7.3896759410763471
 20
2.1664048012764852
 30
0.0
  0
VERTEX
  5
4DD
  8
6
 10
-7.071619652761
 20
1.9687487637734189
 30
0.0
  0
VERTEX
  5
4DE
  8
6
 10
-8.4384018105897667
 20
1.384374381886345
 30
0.0
  0
VERTEX
  5
4DF
  8
6
 10
-8.6876890964531412
 20
1.384374381886345
 30
0.0
  0
SEQEND
  5
4E0
  8
6
  0
POLYLINE
  5
313
  8
6
 66
     1
 10
0.0
 20
0.0
 30
0.0
  0
VERTEX
  5
4E1
  8
6
 10
-8.4212095341972582
 20
1.392968112508469
 30
0.0
  0
VERTEX
  5
4E2
  8
6
 10
-8.1977105598041362
 20
1.2726557283358479
 30
0.0
  0
VERTEX
  5
4E3
  8
6
 10
-7.4154642525468262
 20
1.5648429581451631
 30
0.0
  0
VERTEX
  5
4E4
  8
6
 10
-7.0974080673499884
 20
1.94296757190682
 30
0.0
  0
SEQEND
  5
4E5
  8
6
  0
POLYLINE
  5
314
  8
6
 66
     1
 10
0.0
 20
0.0
 30
0.0
  0
VERTEX
  5
4E6
  8
6
 10
-9.1776675299838644
 20
2.8624978367138278
 30
0.0
  0
VERTEX
  5
4E7
  8
6
 10
-8.8424191715125744
 20
3.3179661815374848
 30
0.0
  0
VERTEX
  5
4E8
  8
6
 10
-7.0544274794870034
 20
4.0226529475969519
 30
0.0
  0
VERTEX
  5
4E9
  8
6
 10
-6.4698917320338287
 20
3.945309294266508
 30
0.0
  0
VERTEX
  5
4EA
  8
6
 10
-9.1862636681801177
 20
2.8453103754695799
 30
0.0
  0
VERTEX
  5
4EB
  8
6
 10
-8.8166307569240416
 20
2.5789044152581928
 30
0.0
  0
VERTEX
  5
4EC
  8
6
 10
-7.0114468916240176
 20
3.2234349892314631
 30
0.0
  0
VERTEX
  5
4ED
  8
6
 10
-6.4784878702300821
 20
3.945309294266508
 30
0.0
  0
SEQEND
  5
4EE
  8
6
  0
POLYLINE
  5
315
  8
6
 66
     1
 10
0.0
 20
0.0
 30
0.0
  0
VERTEX
  5
4EF
  8
6
 10
-9.1776675299838644
 20
4.5643421445324739
 30
0.0
  0
VERTEX
  5
4F0
  8
6
 10
-8.8424191715125744
 20
5.0198104893561322
 30
0.0
  0
VERTEX
  5
4F1
  8
6
 10
-7.0544274794870034
 20
5.7244972554155993
 30
0.0
  0
VERTEX
  5
4F2
  8
6
 10
-6.4698917320338287
 20
5.6471536020851536
 30
0.0
  0
VERTEX
  5
4F3
  8
6
 10
-9.1862636681801177
 20
4.5471546832882259
 30
0.0
  0
VERTEX
  5
4F4
  8
6
 10
-8.8424191715125744
 20
4.271510325557756
 30
0.0
  0
VERTEX
  5
4F5
  8
6
 10
-7.0544274794870034
 20
4.9120374101173629
 30
0.0
  0
VERTEX
  5
4F6
  8
6
 10
-6.4784878702300821
 20
5.6471536020851536
 30
0.0
  0
SEQEND
  5
4F7
  8
6
  0
POLYLINE
  5
316
  8
6
 66
     1
 10
0.0
 20
0.0
 30
0.0
 70
     1
  0
VERTEX
  5
4F8
  8
6
 10
-8.8424191715125744
 20
4.271510325557756
 30
0.0
  0
VERTEX
  5
4F9
  8
6
 10
-7.0544274794870034
 20
4.9120374101173629
 30
0.0
  0
VERTEX
  5
4FA
  8
6
 10
-7.0544274794870034
 20
4.0226529475969519
 30
0.0
  0
VERTEX
  5
4FB
  8
6
 10
-8.8424191715125744
 20
3.3179661815374848
 30
0.0
  0
SEQEND
  5
4FC
  8
6
  0
POLYLINE
  5
317
  8
6
 66
     1
 10
0.0
 20
0.0
 30
0.0
 70
     1
  0
VERTEX
  5
4FD
  8
6
 10
-8.8424191715125744
 20
5.9733546333765162
 30
0.0
  0
VERTEX
  5
4FE
  8
6
 10
-7.0544274794870034
 20
6.6138817179362368
 30
0.0
  0
VERTEX
  5
4FF
  8
6
 10
-7.0544274794870034
 20
5.7244972554155993
 30
0.0
  0
VERTEX
  5
500
  8
6
 10
-8.8424191715125744
 20
5.0198104893561322
 30
0.0
  0
SEQEND
  5
501
  8
6
  0
POLYLINE
  5
318
  8
6
 66
     1
 10
0.0
 20
0.0
 30
0.0
  0
VERTEX
  5
502
  8
6
 10
-9.1776675299838644
 20
6.2661864523513477
 30
0.0
  0
VERTEX
  5
503
  8
6
 10
-8.8424191715125744
 20
6.721654797175006
 30
0.0
  0
VERTEX
  5
504
  8
6
 10
-7.0544274794870034
 20
7.4263415632344731
 30
0.0
  0
VERTEX
  5
505
  8
6
 10
-6.4698917320338287
 20
7.3489979099040283
 30
0.0
  0
VERTEX
  5
506
  8
6
 10
-9.1862636681801177
 20
6.2489989911070998
 30
0.0
  0
VERTEX
  5
507
  8
6
 10
-8.8424191715125744
 20
5.9733546333765162
 30
0.0
  0
VERTEX
  5
508
  8
6
 10
-7.0544274794870034
 20
6.6138817179362368
 30
0.0
  0
VERTEX
  5
509
  8
6
 10
-6.4784878702300821
 20
7.3489979099040283
 30
0.0
  0
SEQEND
  5
50A
  8
6
  0
POLYLINE
  5
319
  8
6
 66
     1
 10
0.0
 20
0.0
 30
0.0
 70
     1
  0
VERTEX
  5
50B
  8
6
 10
-8.8424191715125744
 20
7.6751989411952763
 30
0.0
  0
VERTEX
  5
50C
  8
6
 10
-7.0544274794870034
 20
8.3157260257549979
 30
0.0
  0
VERTEX
  5
50D
  8
6
 10
-7.0544274794870034
 20
7.4263415632344731
 30
0.0
  0
VERTEX
  5
50E
  8
6
 10
-8.8424191715125744
 20
6.721654797175006
 30
0.0
  0
SEQEND
  5
50F
  8
6
  0
POLYLINE
  5
31A
  8
6
 66
     1
 10
0.0
 20
0.0
 30
0.0
  0
VERTEX
  5
510
  8
6
 10
-9.1776675299838644
 20
7.9680307601701079
 30
0.0
  0
VERTEX
  5
511
  8
6
 10
-8.8424191715125744
 20
8.4234991049937662
 30
0.0
  0
VERTEX
  5
512
  8
6
 10
-7.0544274794870034
 20
9.1281858710532333
 30
0.0
  0
VERTEX
  5
513
  8
6
 10
-6.4698917320338287
 20
9.0508422177227885
 30
0.0
  0
VERTEX
  5
514
  8
6
 10
-9.1862636681801177
 20
7.9508432989258599
 30
0.0
  0
VERTEX
  5
515
  8
6
 10
-8.8424191715125744
 20
7.6751989411952763
 30
0.0
  0
VERTEX
  5
516
  8
6
 10
-7.0544274794870034
 20
8.3157260257549979
 30
0.0
  0
VERTEX
  5
517
  8
6
 10
-6.4784878702300821
 20
9.0508422177227885
 30
0.0
  0
SEQEND
  5
518
  8
6
  0
POLYLINE
  5
31B
  8
6
 66
     1
 10
0.0
 20
0.0
 30
0.0
 70
     1
  0
VERTEX
  5
519
  8
6
 10
-8.8424191715125744
 20
9.3770432490140365
 30
0.0
  0
VERTEX
  5
51A
  8
6
 10
-7.0544274794870034
 20
10.017570333573749
 30
0.0
  0
VERTEX
  5
51B
  8
6
 10
-7.0544274794870034
 20
9.1281858710532333
 30
0.0
  0
VERTEX
  5
51C
  8
6
 10
-8.8424191715125744
 20
8.4234991049937662
 30
0.0
  0
SEQEND
  5
51D
  8
6
  0
POLYLINE
  5
31C
  8
6
 66
     1
 10
0.0
 20
0.0
 30
0.0
  0
VERTEX
  5
51E
  8
6
 10
-9.1776675299838644
 20
9.6698750679888672
 30
0.0
  0
VERTEX
  5
51F
  8
6
 10
-8.8424191715125744
 20
10.125343412812519
 30
0.0
  0
VERTEX
  5
520
  8
6
 10
-7.0544274794870034
 20
10.83003017887199
 30
0.0
  0
VERTEX
  5
521
  8
6
 10
-6.4698917320338287
 20
10.75268652554154
 30
0.0
  0
VERTEX
  5
522
  8
6
 10
-9.1862636681801177
 20
9.652687606744621
 30
0.0
  0
VERTEX
  5
523
  8
6
 10
-8.8424191715125744
 20
9.3770432490140365
 30
0.0
  0
VERTEX
  5
524
  8
6
 10
-7.0544274794870034
 20
10.017570333573749
 30
0.0
  0
VERTEX
  5
525
  8
6
 10
-6.4784878702300821
 20
10.75268652554154
 30
0.0
  0
SEQEND
  5
526
  8
6
  0
ARC
  5
31D
  8
5
 10
-8.0
 20
-34.0
 30
0.0
 40
29.0
 50
61.134272584993063
 51
118.8657274150069
  0
POLYLINE
  5
31E
  8
5
 66
     1
 10
0.0
 20
0.0
 30
0.0
  0
VERTEX
  5
527
  8
5
 10
-22.0
 20
0.0
 30
0.0
  0
VERTEX
  5
528
  8
5
 10
-16.0
 20
0.0
 30
0.0
  0
VERTEX
  5
529
  8
5
 10
-16.0
 20
28.0
 30
0.0
  0
VERTEX
  5
52A
  8
5
 10
0.0
 20
28.0
 30
0.0
  0
VERTEX
  5
52B
  8
5
 10
0.0
 20
0.0
 30
0.0
  0
VERTEX
  5
52C
  8
5
 10
6.0
 20
0.0
 30
0.0
  0
SEQEND
  5
52D
  8
5
  0
POLYLINE
  5
31F
  8
6
 66
     1
 10
0.0
 20
0.0
 30
0.0
 70
     1
  0
VERTEX
  5
52E
  8
6
 10
-12.0
 20
10.9499999999989
 30
0.0
  0
VERTEX
  5
52F
  8
6
 10
-12.0
 20
10.8899999999985
 30
0.0
 42
-0.4142135623730951
  0
VERTEX
  5
530
  8
6
 10
-13.28999999999996
 20
9.5999999999985448
 30
0.0
  0
VERTEX
  5
531
  8
6
 10
-15.299999999999271
 20
9.5999999999985448
 30
0.0
 42
-0.4142135623730951
  0
VERTEX
  5
532
  8
6
 10
-15.5
 20
9.7999999999992724
 30
0.0
  0
VERTEX
  5
533
  8
6
 10
-15.5
 20
13.799999999999271
 30
0.0
 42
-0.4142135623730951
  0
VERTEX
  5
534
  8
6
 10
-14.0
 20
15.299999999999271
 30
0.0
  0
VERTEX
  5
535
  8
6
 10
-0.7999999999999546
 20
15.299999999999271
 30
0.0
 42
-0.4142135623730951
  0
VERTEX
  5
536
  8
6
 10
-0.5
 20
14.999999999999311
 30
0.0
  0
VERTEX
  5
537
  8
6
 10
-0.5
 20
11.099999999998539
 30
0.0
 42
-0.4142135623730951
  0
VERTEX
  5
538
  8
6
 10
-2.0
 20
9.5999999999985448
 30
0.0
  0
VERTEX
  5
539
  8
6
 10
-2.7100000000000359
 20
9.5999999999985448
 30
0.0
 42
-0.4142135623730951
  0
VERTEX
  5
53A
  8
6
 10
-4.0
 20
10.8899999999985
 30
0.0
  0
VERTEX
  5
53B
  8
6
 10
-4.0
 20
10.9499999999989
 30
0.0
 42
-0.4142135623731992
  0
VERTEX
  5
53C
  8
6
 10
-3.8499999999994539
 20
11.099999999998539
 30
0.0
  0
VERTEX
  5
53D
  8
6
 10
-2.1999999999998181
 20
11.099999999998539
 30
0.0
 42
0.4142135623730953
  0
VERTEX
  5
53E
  8
6
 10
-2.0
 20
11.299999999999271
 30
0.0
  0
VERTEX
  5
53F
  8
6
 10
-2.0
 20
13.39999999999872
 30
0.0
 42
0.4142135623730951
  0
VERTEX
  5
540
  8
6
 10
-2.1999999999998181
 20
13.599999999998539
 30
0.0
  0
VERTEX
  5
541
  8
6
 10
-13.799999999999271
 20
13.599999999998539
 30
0.0
 42
0.4142135623730951
  0
VERTEX
  5
542
  8
6
 10
-14.0
 20
13.39999999999872
 30
0.0
  0
VERTEX
  5
543
  8
6
 10
-14.0
 20
11.299999999999271
 30
0.0
 42
0.4142135623730951
  0
VERTEX
  5
544
  8
6
 10
-13.799999999999271
 20
11.099999999998539
 30
0.0
  0
VERTEX
  5
545
  8
6
 10
-12.149999999999631
 20
11.099999999998539
 30
0.0
 42
-0.414213562373069
  0
SEQEND
  5
546
  8
6
  0
POLYLINE
  5
320
  8
4
 66
     1
 10
0.0
 20
0.0
 30
0.0
 70
     1
  0
VERTEX
  5
547
  8
4
 10
-15.5
 20
15.299999999999271
 30
0.0
  0
VERTEX
  5
548
  8
4
 10
-15.5
 20
9.5999999999985448
 30
0.0
  0
VERTEX
  5
549
  8
4
 10
-0.5
 20
9.5999999999985448
 30
0.0
  0
VERTEX
  5
54A
  8
4
 10
-0.5
 20
15.299999999999271
 30
0.0
  0
SEQEND
  5
54B
  8
4
  0
POLYLINE
  5
321
  8
6
 66
     1
 10
0.0
 20
0.0
 30
0.0
 70
     1
  0
VERTEX
  5
54C
  8
6
 10
-8.0
 20
10.52317724049839
 30
0.0
 42
0.4145441920707483
  0
VERTEX
  5
54D
  8
6
 10
-5.5113213412714677
 20
12.63026288940477
 30
0.0
 42
-0.3036549868376828
  0
VERTEX
  5
54E
  8
6
 10
-4.9824964310605528
 20
13.04645683513626
 30
0.0
  0
VERTEX
  5
54F
  8
6
 10
-3.227248062776197
 20
13.04645683513626
 30
0.0
 42
-0.3400475423093762
  0
VERTEX
  5
550
  8
6
 10
-2.788436048043649
 20
12.7090022845432
 30
0.0
  0
VERTEX
  5
551
  8
6
 10
-2.203353258615607
 20
11.69663847730112
 30
0.0
  0
VERTEX
  5
552
  8
6
 10
-2.203353258615607
 20
11.0667232384626
 30
0.0
  0
VERTEX
  5
553
  8
6
 10
-3.9218865000000269
 20
11.0667232384626
 30
0.0
  0
VERTEX
  5
554
  8
6
 10
-3.9218865000000269
 20
9.5999999999985448
 30
0.0
  0
VERTEX
  5
555
  8
6
 10
-0.6843882511507218
 20
9.5999999999985448
 30
0.0
 42
-0.5488272504379836
  0
VERTEX
  5
556
  8
6
 10
-0.665814397306349
 20
8.6409403776940508
 30
0.0
  0
VERTEX
  5
557
  8
6
 10
-1.055690852069801
 20
8.4683228102389876
 30
0.0
 42
0.8378105442469287
  0
VERTEX
  5
558
  8
6
 10
-0.9206717150884742
 20
8.1758621219937595
 30
0.0
 42
0.1392557273381725
  0
VERTEX
  5
559
  8
6
 10
-0.0892332898163204
 20
4.4577643620903009
 30
0.0
 42
-1.0318482538492739
  0
VERTEX
  5
55A
  8
6
 10
-0.7830878225925062
 20
3.9590317523218341
 30
0.0
 42
-0.1130253310289322
  0
VERTEX
  5
55B
  8
6
 10
-1.851923903798933
 20
7.685726973945747
 30
0.0
 42
0.6852977167229306
  0
VERTEX
  5
55C
  8
6
 10
-2.3047201881668111
 20
7.8412207420269624
 30
0.0
  0
VERTEX
  5
55D
  8
6
 10
-3.1516014898111271
 20
7.3043222581118243
 30
0.0
 42
0.2223455109184909
  0
VERTEX
  5
55E
  8
6
 10
-3.6291890359118488
 20
5.8684070118581531
 30
0.0
 42
0.0907534369748742
  0
VERTEX
  5
55F
  8
6
 10
-2.1645122471991272
 20
-1.6232201964101021
 30
0.0
 42
0.1494309911100096
  0
VERTEX
  5
560
  8
6
 10
0.7043733417231124
 20
-4.9641217642576967
 30
0.0
 42
-0.7907411042554955
  0
VERTEX
  5
561
  8
6
 10
0.0564207350107608
 20
-6.2006487327439572
 30
0.0
 42
-0.1705380592081373
  0
VERTEX
  5
562
  8
6
 10
-4.242309660031423
 20
-0.7548725205892879
 30
0.0
 42
-0.0465766051470778
  0
VERTEX
  5
563
  8
6
 10
-5.4515195993662919
 20
4.7276365129175701
 30
0.0
 42
0.4451598493354726
  0
VERTEX
  5
564
  8
6
 10
-8.0
 20
7.3180003879126607
 30
0.0
 42
0.4451598493354726
  0
VERTEX
  5
565
  8
6
 10
-10.5484804006337
 20
4.7276365129175701
 30
0.0
 42
0.2780569148445144
  0
VERTEX
  5
566
  8
6
 10
-7.4045180217201496
 20
-2.9554821459514642
 30
0.0
 42
0.1195671528191784
  0
VERTEX
  5
567
  8
6
 10
-4.9906019329291658
 20
-3.9086144517145831
 30
0.0
 42
-0.9442271874897166
  0
VERTEX
  5
568
  8
6
 10
-5.5788672589223998
 20
-5.0645409064334208
 30
0.0
 42
-0.2188915411982625
  0
VERTEX
  5
569
  8
6
 10
-10.87325467727168
 20
-1.102333799943608
 30
0.0
 42
-0.1570124641162651
  0
VERTEX
  5
56A
  8
6
 10
-12.37081096408815
 20
5.8684070118581531
 30
0.0
 42
0.2223455109184909
  0
VERTEX
  5
56B
  8
6
 10
-12.84839851018887
 20
7.3043222581118243
 30
0.0
  0
VERTEX
  5
56C
  8
6
 10
-13.69527981183318
 20
7.8412207420269624
 30
0.0
 42
0.6852977167229306
  0
VERTEX
  5
56D
  8
6
 10
-14.148076096201059
 20
7.685726973945747
 30
0.0
 42
-0.1130253310289322
  0
VERTEX
  5
56E
  8
6
 10
-15.21691217740749
 20
3.9590317523218341
 30
0.0
 42
-1.0318482538492739
  0
VERTEX
  5
56F
  8
6
 10
-15.91076671018368
 20
4.4577643620903009
 30
0.0
 42
0.1392557273381725
  0
VERTEX
  5
570
  8
6
 10
-15.07932828491152
 20
8.1758621219937595
 30
0.0
 42
0.8378105442469287
  0
VERTEX
  5
571
  8
6
 10
-14.944309147930189
 20
8.4683228102389876
 30
0.0
  0
VERTEX
  5
572
  8
6
 10
-15.334185602693649
 20
8.6409403776940508
 30
0.0
 42
-0.5488272504379836
  0
VERTEX
  5
573
  8
6
 10
-15.315611748849269
 20
9.5999999999985448
 30
0.0
  0
VERTEX
  5
574
  8
6
 10
-12.07811349999997
 20
9.5999999999985448
 30
0.0
  0
VERTEX
  5
575
  8
6
 10
-12.07811349999997
 20
11.0667232384626
 30
0.0
  0
VERTEX
  5
576
  8
6
 10
-13.796646741384389
 20
11.0667232384626
 30
0.0
  0
VERTEX
  5
577
  8
6
 10
-13.796646741384389
 20
11.69663847730112
 30
0.0
  0
VERTEX
  5
578
  8
6
 10
-13.21156395195635
 20
12.7090022845432
 30
0.0
 42
-0.3400475423093762
  0
VERTEX
  5
579
  8
6
 10
-12.7727519372238
 20
13.04645683513626
 30
0.0
  0
VERTEX
  5
57A
  8
6
 10
-11.017503568939439
 20
13.04645683513626
 30
0.0
 42
-0.3036549868376828
  0
VERTEX
  5
57B
  8
6
 10
-10.48867865872853
 20
12.63026288940477
 30
0.0
 42
0.4145441920707483
  0
SEQEND
  5
57C
  8
6
  0
POLYLINE
  5
322
  8
6
 66
     1
 10
0.0
 20
0.0
 30
0.0
  0
VERTEX
  5
57D
  8
6
 10
-9.1776675299838644
 20
11.37171937580762
 30
0.0
  0
VERTEX
  5
57E
  8
6
 10
-8.8424191715125744
 20
11.827187720631279
 30
0.0
  0
VERTEX
  5
57F
  8
6
 10
-7.0544274794870034
 20
12.53187448669075
 30
0.0
  0
VERTEX
  5
580
  8
6
 10
-6.4698917320338287
 20
12.4545308333603
 30
0.0
  0
VERTEX
  5
581
  8
6
 10
-9.1862636681801177
 20
11.354531914563379
 30
0.0
  0
VERTEX
  5
582
  8
6
 10
-8.8424191715125744
 20
11.07888755683279
 30
0.0
  0
VERTEX
  5
583
  8
6
 10
-7.0544274794870034
 20
11.719414641392509
 30
0.0
  0
VERTEX
  5
584
  8
6
 10
-6.4784878702300821
 20
12.4545308333603
 30
0.0
  0
SEQEND
  5
585
  8
6
  0
POLYLINE
  5
323
  8
6
 66
     1
 10
0.0
 20
0.0
 30
0.0
 70
     1
  0
VERTEX
  5
586
  8
6
 10
-8.8424191715125744
 20
11.07888755683279
 30
0.0
  0
VERTEX
  5
587
  8
6
 10
-7.0544274794870034
 20
11.719414641392509
 30
0.0
  0
VERTEX
  5
588
  8
6
 10
-7.0544274794870034
 20
10.83003017887199
 30
0.0
  0
VERTEX
  5
589
  8
6
 10
-8.8424191715125744
 20
10.125343412812519
 30
0.0
  0
SEQEND
  5
58A
  8
6
  0
DIMENSION
  5
324
  8
1
  2
*D6
 10
11.759555786807139
 20
-0.0000000000000033
 30
0.0
 11
8.972550329781221
 21
14.0
 31
0.0
 70
     0
 13
0.0
 23
28.0
 33
0.0
 14
0.0
 24
0.0
 34
0.0
 50
90.0
  0
VIEWPORT
  5
22
 67
     1
  8
0
 10
210.0
 20
170.2366863905325
 30
0.0
 40
420.0
 41
340.47337278106511
 68
     1
 69
     1
1001
ACAD
1000
MVIEW
1002
{
1070
    16
1010
0.0
1020
0.0
1030
0.0
1010
0.0
1020
0.0
1030
1.0
1040
0.0
1040
340.47337278106511
1040
210.0
1040
170.2366863905325
1040
50.0
1040
0.0
1040
0.0
1070
     0
1070
   100
1070
     1
1070
     1
1070
     0
1070
     0
1070
     0
1070
     0
1040
0.0
1040
0.0
1040
0.0
1040
5.0
1040
5.0
1040
10.0
1040
10.0
1070
     0
1002
{
1002
}
1002
}
  0
ENDSEC
  0
EOF
