  0
SECTION
  2
HEADER
  9
$ACADVER
  1
AC1009
  9
$INSBASE
 10
0.0
 20
0.0
 30
0.0
  9
$EXTMIN
 10
-9.9563590017570505
 20
-14.00756750256698
 30
-0.0000000000000058
  9
$EXTMAX
 10
15.563965385737781
 20
28.152466376955321
 30
0.0000000000000104
  9
$LIMMIN
 10
-150.0
 20
-150.0
  9
$LIMMAX
 10
150.0
 20
150.0
  9
$ORTHOMODE
 70
     0
  9
$REGENMODE
 70
     1
  9
$FILLMODE
 70
     1
  9
$QTEXTMODE
 70
     0
  9
$MIRRTEXT
 70
     0
  9
$DRAGMODE
 70
     2
  9
$LTSCALE
 40
1.0
  9
$OSMODE
 70
   111
  9
$ATTMODE
 70
     1
  9
$TEXTSIZE
 40
3.5
  9
$TRACEWID
 40
1.0
  9
$TEXTSTYLE
  7
BESCHLAG
  9
$CLAYER
  8
0
  9
$CELTYPE
  6
BYLAYER
  9
$CECOLOR
 62
   256
  9
$DIMSCALE
 40
1.0
  9
$DIMASZ
 40
2.0
  9
$DIMEXO
 40
2.0
  9
$DIMDLI
 40
0.0
  9
$DIMRND
 40
0.0
  9
$DIMDLE
 40
1.0
  9
$DIMEXE
 40
1.0
  9
$DIMTP
 40
0.0
  9
$DIMTM
 40
0.0
  9
$DIMTXT
 40
3.5
  9
$DIMCEN
 40
0.0
  9
$DIMTSZ
 40
0.0
  9
$DIMTOL
 70
     0
  9
$DIMLIM
 70
     0
  9
$DIMTIH
 70
     0
  9
$DIMTOH
 70
     0
  9
$DIMSE1
 70
     0
  9
$DIMSE2
 70
     0
  9
$DIMTAD
 70
     1
  9
$DIMZIN
 70
     8
  9
$DIMBLK
  1

  9
$DIMASO
 70
     1
  9
$DIMSHO
 70
     1
  9
$DIMPOST
  1

  9
$DIMAPOST
  1

  9
$DIMALT
 70
     0
  9
$DIMALTD
 70
     2
  9
$DIMALTF
 40
0.039370078740157
  9
$DIMLFAC
 40
1.0
  9
$DIMTOFL
 70
     1
  9
$DIMTVP
 40
0.0
  9
$DIMTIX
 70
     1
  9
$DIMSOXD
 70
     0
  9
$DIMSAH
 70
     1
  9
$DIMBLK1
  1
OBLIQUE
  9
$DIMBLK2
  1
OBLIQUE
  9
$DIMSTYLE
  2
OPO-SSTRICH
  9
$DIMCLRD
 70
   256
  9
$DIMCLRE
 70
   256
  9
$DIMCLRT
 70
   256
  9
$DIMTFAC
 40
0.7114285714285716
  9
$DIMGAP
 40
1.0
  9
$LUNITS
 70
     2
  9
$LUPREC
 70
     1
  9
$SKETCHINC
 40
1.0
  9
$FILLETRAD
 40
0.0
  9
$AUNITS
 70
     0
  9
$AUPREC
 70
     1
  9
$MENU
  1
D:\ACL_CGWG\CGTAB13
  9
$ELEVATION
 40
0.0
  9
$PELEVATION
 40
0.0
  9
$THICKNESS
 40
0.0
  9
$LIMCHECK
 70
     0
  9
$BLIPMODE
 70
     0
  9
$CHAMFERA
 40
1.0
  9
$CHAMFERB
 40
1.0
  9
$SKPOLY
 70
     0
  9
$TDCREATE
 40
2451739.8535302659
  9
$TDUPDATE
 40
2452086.7416193751
  9
$TDINDWG
 40
0.0010264815
  9
$TDUSRTIMER
 40
0.0010264815
  9
$USRTIMER
 70
     1
  9
$ANGBASE
 50
0.0
  9
$ANGDIR
 70
     0
  9
$PDMODE
 70
    35
  9
$PDSIZE
 40
5.0
  9
$PLINEWID
 40
0.0
  9
$COORDS
 70
     1
  9
$SPLFRAME
 70
     0
  9
$SPLINETYPE
 70
     6
  9
$SPLINESEGS
 70
     8
  9
$ATTDIA
 70
     1
  9
$ATTREQ
 70
     1
  9
$HANDLING
 70
-16383
  9
$HANDSEED
  5
42A
  9
$SURFTAB1
 70
    12
  9
$SURFTAB2
 70
    12
  9
$SURFTYPE
 70
     6
  9
$SURFU
 70
    12
  9
$SURFV
 70
    12
  9
$UCSNAME
  2

  9
$UCSORG
 10
0.0
 20
0.0
 30
0.0
  9
$UCSXDIR
 10
1.0
 20
0.0
 30
0.0
  9
$UCSYDIR
 10
0.0
 20
1.0
 30
0.0
  9
$PUCSNAME
  2

  9
$PUCSORG
 10
0.0
 20
0.0
 30
0.0
  9
$PUCSXDIR
 10
1.0
 20
0.0
 30
0.0
  9
$PUCSYDIR
 10
0.0
 20
1.0
 30
0.0
  9
$USERI1
 70
     0
  9
$USERI2
 70
     0
  9
$USERI3
 70
     0
  9
$USERI4
 70
     0
  9
$USERI5
 70
     0
  9
$USERR1
 40
0.0
  9
$USERR2
 40
0.0
  9
$USERR3
 40
0.0
  9
$USERR4
 40
0.0
  9
$USERR5
 40
0.0
  9
$WORLDVIEW
 70
     1
  9
$SHADEDGE
 70
     3
  9
$SHADEDIF
 70
    70
  9
$TILEMODE
 70
     1
  9
$MAXACTVP
 70
    48
  9
$PLIMCHECK
 70
     0
  9
$PEXTMIN
 10
1.0000000000000000E+020
 20
1.0000000000000000E+020
 30
1.0000000000000000E+020
  9
$PEXTMAX
 10
-1.0000000000000000E+020
 20
-1.0000000000000000E+020
 30
-1.0000000000000000E+020
  9
$PLIMMIN
 10
0.0
 20
0.0
  9
$PLIMMAX
 10
420.0
 20
297.0
  9
$UNITMODE
 70
     0
  9
$VISRETAIN
 70
     1
  9
$PLINEGEN
 70
     0
  9
$PSLTSCALE
 70
     1
  0
ENDSEC
  0
SECTION
  2
TABLES
  0
TABLE
  2
VPORT
 70
     2
  0
VPORT
  2
*ACTIVE
 70
     0
 10
0.0
 20
0.0
 11
1.0
 21
1.0
 12
2.8038031919903679
 22
7.0724494371941651
 13
0.0
 23
0.0
 14
0.5
 24
0.5
 15
10.0
 25
10.0
 16
0.0
 26
0.0
 36
1.0
 17
0.0
 27
0.0
 37
0.0
 40
42.502334560546842
 41
1.6070460704607039
 42
50.0
 43
0.0
 44
0.0
 50
0.0
 51
0.0
 71
     0
 72
   800
 73
     1
 74
     1
 75
     0
 76
     0
 77
     0
 78
     0
  0
ENDTAB
  0
TABLE
  2
LTYPE
 70
     1
  0
LTYPE
  2
CONTINUOUS
 70
     0
  3
_______________________________________________
 72
    65
 73
     2
 40
1.0
 49
1.0
 49
0.0
  0
ENDTAB
  0
TABLE
  2
LAYER
 70
     7
  0
LAYER
  2
0
 70
     0
 62
    30
  6
CONTINUOUS
  0
LAYER
  2
1
 70
     0
 62
     2
  6
CONTINUOUS
  0
LAYER
  2
2
 70
     0
 62
     9
  6
CONTINUOUS
  0
LAYER
  2
4
 70
     1
 62
     4
  6
CONTINUOUS
  0
LAYER
  2
5
 70
     0
 62
     1
  6
CONTINUOUS
  0
LAYER
  2
6
 70
     0
 62
     3
  6
CONTINUOUS
  0
LAYER
  2
DEFPOINTS
 70
     0
 62
     7
  6
CONTINUOUS
  0
ENDTAB
  0
TABLE
  2
STYLE
 70
     2
  0
STYLE
  2
STANDARD
 70
     0
 40
0.0
 41
1.0
 50
0.0
 71
     0
 42
2.5
  3
txt
  4

  0
STYLE
  2
BESCHLAG
 70
     0
 40
0.0
 41
1.0
 50
0.0
 71
     0
 42
3.5
  3
txt
  4

  0
ENDTAB
  0
TABLE
  2
VIEW
 70
     0
  0
ENDTAB
  0
TABLE
  2
UCS
 70
     0
  0
ENDTAB
  0
TABLE
  2
APPID
 70
     1
  0
APPID
  2
ACAD
 70
     0
  0
ENDTAB
  0
TABLE
  2
DIMSTYLE
 70
     1
  0
DIMSTYLE
  2
OPO-SSTRICH
 70
     0
  3

  4

  5

  6
OBLIQUE
  7
OBLIQUE
 40
1.0
 41
2.0
 42
2.0
 43
0.0
 44
1.0
 45
0.0
 46
1.0
 47
0.0
 48
0.0
140
3.5
141
0.0
142
0.0
143
0.039370078740157
144
1.0
145
0.0
146
0.7114285714285716
147
1.0
 71
     0
 72
     0
 73
     0
 74
     0
 75
     0
 76
     0
 77
     1
 78
     8
170
     0
171
     2
172
     1
173
     1
174
     1
175
     0
176
   256
177
   256
178
   256
  0
ENDTAB
  0
ENDSEC
  0
SECTION
  2
BLOCKS
  0
BLOCK
  8
0
  2
$MODEL_SPACE
 70
     0
 10
0.0
 20
0.0
 30
0.0
  3
$MODEL_SPACE
  1

  0
ENDBLK
  5
1C
  8
0
  0
BLOCK
 67
     1
  8
0
  2
$PAPER_SPACE
 70
     0
 10
0.0
 20
0.0
 30
0.0
  3
$PAPER_SPACE
  1

  0
ENDBLK
  5
19
 67
     1
  8
0
  0
BLOCK
  8
0
  2
_OBLIQUE
 70
     0
 10
0.0
 20
0.0
 30
0.0
  3
_OBLIQUE
  1

  0
LINE
  5
204
  8
0
 62
     0
 10
-0.5
 20
-0.5
 30
0.0
 11
0.5
 21
0.5
 31
0.0
  0
ENDBLK
  5
206
  8
0
  0
BLOCK
  8
0
  2
NULLPUNKT
 70
     0
 10
0.0
 20
0.0
 30
0.0
  3
NULLPUNKT
  1

  0
SOLID
  5
254
  8
5
 10
0.0
 20
0.0
 30
0.0
 11
2.0
 21
0.0
 31
0.0
 12
0.0
 22
-2.0
 32
0.0
 13
0.0
 23
-2.0
 33
0.0
  0
SOLID
  5
255
  8
5
 10
0.0
 20
0.0
 30
0.0
 11
-2.0
 21
0.0
 31
0.0
 12
0.0
 22
2.0
 32
0.0
 13
0.0
 23
2.0
 33
0.0
  0
POLYLINE
  5
256
  8
5
 66
     1
 10
0.0
 20
0.0
 30
0.0
  0
VERTEX
  5
3BA
  8
5
 10
0.0
 20
2.0
 30
0.0
  0
VERTEX
  5
3BB
  8
5
 10
0.0
 20
-2.0
 30
0.0
  0
SEQEND
  5
3BC
  8
5
  0
POLYLINE
  5
257
  8
5
 66
     1
 10
0.0
 20
0.0
 30
0.0
  0
VERTEX
  5
3BD
  8
5
 10
-2.0
 20
0.0
 30
0.0
  0
VERTEX
  5
3BE
  8
5
 10
2.0
 20
0.0
 30
0.0
  0
SEQEND
  5
3BF
  8
5
  0
CIRCLE
  5
258
  8
5
 10
0.0
 20
0.0
 30
0.0
 40
2.0
  0
ENDBLK
  5
25A
  8
0
  0
BLOCK
  8
0
  2
*X2
 70
     1
 10
0.0
 20
0.0
 30
0.0
  3
*X2
  1

  0
LINE
  5
286
  8
0
 62
     0
 10
249.3537333758878
 20
-531.29215305406046
 30
0.0
 11
250.1537333758879
 21
-530.49215305406028
 31
0.0
  0
LINE
  5
287
  8
0
 62
     0
 10
253.2299217159792
 20
-527.41596471396895
 30
0.0
 11
254.13991901124419
 21
-526.50596741870413
 31
0.0
  0
LINE
  5
288
  8
0
 62
     0
 10
249.3537333758878
 20
-529.87793949168736
 30
0.0
 11
250.1537333758879
 21
-529.07793949168729
 31
0.0
  0
LINE
  5
289
  8
0
 62
     0
 10
251.81570815360621
 20
-527.41596471396895
 30
0.0
 11
252.81570815360621
 21
-526.41596471396895
 31
0.0
  0
LINE
  5
28A
  8
0
 62
     0
 10
249.3537333758878
 20
-528.46372592931425
 30
0.0
 11
250.15936864683229
 21
-527.6580906583697
 31
0.0
  0
LINE
  5
28B
  8
0
 62
     0
 10
250.39585932028871
 20
-527.42159998491343
 30
0.0
 11
251.4014945912331
 21
-526.41596471396895
 31
0.0
  0
LINE
  5
28C
  8
0
 62
     0
 10
249.3537333758878
 20
-527.04951236694114
 30
0.0
 11
249.98728102886
 21
-526.41596471396895
 31
0.0
  0
LINE
  5
28D
  8
0
 62
     0
 10
249.3537333758878
 20
-532.70636661643357
 30
0.0
 11
250.1537333758879
 21
-531.90636661643339
 31
0.0
  0
LINE
  5
28E
  8
0
 62
     0
 10
253.55373337588799
 20
-528.50636661643341
 30
0.0
 11
254.3537333758878
 21
-527.70636661643368
 31
0.0
  0
LINE
  5
28F
  8
0
 62
     0
 10
250.12623252610001
 20
-533.34808102859461
 30
0.0
 11
250.5358496905132
 21
-532.93846386418124
 31
0.0
  0
LINE
  5
290
  8
0
 62
     0
 10
253.55373337588799
 20
-529.9205801788064
 30
0.0
 11
254.3537333758878
 21
-529.12058017880668
 31
0.0
  0
LINE
  5
291
  8
0
 62
     0
 10
253.55373337588799
 20
-531.33479374117951
 30
0.0
 11
254.3537333758878
 21
-530.5347937411799
 31
0.0
  0
LINE
  5
292
  8
0
 62
     0
 10
253.24006788183709
 20
-533.06267279760368
 30
0.0
 11
254.40733415402849
 21
-531.89540652541223
 31
0.0
  0
ENDBLK
  5
294
  8
0
  0
BLOCK
  8
0
  2
*D3
 70
     1
 10
0.0
 20
0.0
 30
0.0
  3
*D3
  1

  0
LINE
  5
2DC
  8
1
 10
2.0
 20
7.0
 30
0.0
 11
13.0
 21
6.9999999999999956
 31
0.0
  0
LINE
  5
2DD
  8
1
 10
2.0
 20
-0.0000000000000006
 30
0.0
 11
13.0
 21
-0.0000000000000037
 31
0.0
  0
LINE
  5
2DE
  8
1
 10
12.0
 20
7.9999999999999956
 30
0.0
 11
12.0
 21
-1.0000000000000031
 31
0.0
  0
INSERT
  5
2DF
  8
1
  2
_OBLIQUE
 10
12.0
 20
6.9999999999999956
 30
0.0
 41
2.0
 42
2.0
 43
2.0
 50
90.0
  0
INSERT
  5
2E0
  8
1
  2
_OBLIQUE
 10
12.0
 20
-0.0000000000000034
 30
0.0
 41
2.0
 42
2.0
 43
2.0
 50
270.0
  0
TEXT
  5
2E1
  8
0
 10
11.0
 20
2.13557298772169
 30
0.0
 40
3.5
  1
7
 50
90.0
  7
BESCHLAG
  0
POINT
  5
2E2
  8
DEFPOINTS
 62
     0
 10
0.0
 20
7.0
 30
0.0
  0
POINT
  5
2E3
  8
DEFPOINTS
 62
     0
 10
0.0
 20
0.0
 30
0.0
  0
POINT
  5
2E4
  8
DEFPOINTS
 62
     0
 10
12.0
 20
-0.0000000000000034
 30
0.0
  0
ENDBLK
  5
2C3
  8
0
  0
BLOCK
  8
0
  2
*D4
 70
     1
 10
0.0
 20
0.0
 30
0.0
  3
*D4
  1

  0
LINE
  5
2E5
  8
1
 10
2.0
 20
-0.0000000000000006
 30
0.0
 11
13.0
 21
-0.0000000000000037
 31
0.0
  0
LINE
  5
2E6
  8
1
 10
-0.5000000000000002
 20
-13.0
 30
0.0
 11
13.0
 21
-13.0
 31
0.0
  0
LINE
  5
2E7
  8
1
 10
12.0
 20
0.9999999999999966
 30
0.0
 11
12.0
 21
-14.0
 31
0.0
  0
INSERT
  5
2E8
  8
1
  2
_OBLIQUE
 10
12.0
 20
-0.0000000000000034
 30
0.0
 41
2.0
 42
2.0
 43
2.0
 50
90.0
  0
INSERT
  5
2E9
  8
1
  2
_OBLIQUE
 10
12.0
 20
-13.0
 30
0.0
 41
2.0
 42
2.0
 43
2.0
 50
270.0
  0
TEXT
  5
2EA
  8
0
 10
10.930763983628919
 20
-9.3744884038199192
 30
0.0
 40
3.5
  1
13
 50
90.0
  7
BESCHLAG
  0
POINT
  5
2EB
  8
DEFPOINTS
 62
     0
 10
0.0
 20
0.0
 30
0.0
  0
POINT
  5
2EC
  8
DEFPOINTS
 62
     0
 10
-2.5
 20
-13.0
 30
0.0
  0
POINT
  5
2ED
  8
DEFPOINTS
 62
     0
 10
12.0
 20
-13.0
 30
0.0
  0
ENDBLK
  5
2CF
  8
0
  0
BLOCK
  8
0
  2
*D5
 70
     1
 10
0.0
 20
0.0
 30
0.0
  3
*D5
  1

  0
LINE
  5
2EE
  8
1
 10
-5.0
 20
9.0
 30
0.0
 11
-4.9999999999999991
 21
20.0
 31
0.0
  0
LINE
  5
2EF
  8
1
 10
0.0000000000000001
 20
9.0
 30
0.0
 11
0.0000000000000008
 21
20.0
 31
0.0
  0
LINE
  5
2F0
  8
1
 10
-5.9999999999999991
 20
19.0
 30
0.0
 11
1.0
 21
19.0
 31
0.0
  0
INSERT
  5
2F1
  8
1
  2
_OBLIQUE
 10
-4.9999999999999991
 20
19.0
 30
0.0
 41
2.0
 42
2.0
 43
2.0
 50
180.0
  0
INSERT
  5
2F2
  8
1
  2
_OBLIQUE
 10
0.0000000000000007
 20
19.0
 30
0.0
 41
2.0
 42
2.0
 43
2.0
  0
TEXT
  5
2F3
  8
0
 10
-3.8632332878581161
 20
20.059686221009539
 30
0.0
 40
3.5
  1
5
  7
BESCHLAG
  0
POINT
  5
2F4
  8
DEFPOINTS
 62
     0
 10
-5.0
 20
7.0
 30
0.0
  0
POINT
  5
2F5
  8
DEFPOINTS
 62
     0
 10
0.0
 20
7.0
 30
0.0
  0
POINT
  5
2F6
  8
DEFPOINTS
 62
     0
 10
0.0000000000000007
 20
19.0
 30
0.0
  0
ENDBLK
  5
2DB
  8
0
  0
ENDSEC
  0
SECTION
  2
ENTITIES
  0
INSERT
  5
25B
  8
5
  2
NULLPUNKT
 10
0.0
 20
0.0
 30
0.0
  0
INSERT
  5
2AF
  8
2
  2
*X2
 10
-254.35373337588771
 20
533.41596471396895
 30
0.0
1001
ACAD
1000
HATCH
1002
{
1070
    16
1000
_U,I
1040
1.0
1040
0.7853981633974483
1070
     0
1002
}
  0
POLYLINE
  5
2B0
  8
5
 66
     1
 10
0.0
 20
0.0
 30
0.0
  0
VERTEX
  5
3C0
  8
5
 10
-6.0
 20
0.0
 30
0.0
  0
VERTEX
  5
3C1
  8
5
 10
-5.0
 20
0.0
 30
0.0
  0
VERTEX
  5
3C2
  8
5
 10
-5.0
 20
7.0
 30
0.0
  0
VERTEX
  5
3C3
  8
5
 10
0.0
 20
7.0
 30
0.0
  0
VERTEX
  5
3C4
  8
5
 10
0.0
 20
0.0
 30
0.0
  0
VERTEX
  5
3C5
  8
5
 10
0.9999999999997726
 20
0.0
 30
0.0
  0
SEQEND
  5
3C6
  8
5
  0
POLYLINE
  5
2B1
  8
4
 66
     1
 10
0.0
 20
0.0
 30
0.0
 70
     1
  0
VERTEX
  5
3C7
  8
4
 10
-5.0
 20
0.0
 30
0.0
  0
VERTEX
  5
3C8
  8
4
 10
-5.0
 20
7.0
 30
0.0
  0
VERTEX
  5
3C9
  8
4
 10
0.0
 20
7.0
 30
0.0
  0
VERTEX
  5
3CA
  8
4
 10
0.0
 20
0.0
 30
0.0
  0
SEQEND
  5
3CB
  8
4
  0
POLYLINE
  5
2B2
  8
6
 66
     1
 10
0.0
 20
0.0
 30
0.0
 70
     1
  0
VERTEX
  5
3CC
  8
6
 10
-4.1999999999998181
 20
1.0
 30
0.0
  0
VERTEX
  5
3CD
  8
6
 10
-4.1999999999998181
 20
5.7000000000000446
 30
0.0
 42
-0.4142135623730951
  0
VERTEX
  5
3CE
  8
6
 10
-3.8999999999996362
 20
6.0
 30
0.0
  0
VERTEX
  5
3CF
  8
6
 10
-2.5
 20
6.0
 30
0.0
  0
VERTEX
  5
3D0
  8
6
 10
-1.0999999999999091
 20
6.0
 30
0.0
 42
-0.4142135623730951
  0
VERTEX
  5
3D1
  8
6
 10
-0.7999999999997272
 20
5.7000000000000446
 30
0.0
  0
VERTEX
  5
3D2
  8
6
 10
-0.7999999999997272
 20
1.0
 30
0.0
  0
VERTEX
  5
3D3
  8
6
 10
-1.0999999999999091
 20
1.0
 30
0.0
 42
0.4142135623730951
  0
VERTEX
  5
3D4
  8
6
 10
-1.25
 20
0.8500000000000227
 30
0.0
  0
VERTEX
  5
3D5
  8
6
 10
-1.25
 20
0.8000000000000682
 30
0.0
 42
0.4142135623730951
  0
VERTEX
  5
3D6
  8
6
 10
-0.4499999999998181
 20
0.0
 30
0.0
  0
VERTEX
  5
3D7
  8
6
 10
-0.1499999999996362
 20
0.0
 30
0.0
 42
0.4142135623730951
  0
VERTEX
  5
3D8
  8
6
 10
0.0
 20
0.1499999999999773
 30
0.0
  0
VERTEX
  5
3D9
  8
6
 10
0.0
 20
1.1866025403784299
 30
0.0
  0
VERTEX
  5
3DA
  8
6
 10
0.0799038105678847
 20
1.325000000000045
 30
0.0
 42
0.2679491924310219
  0
VERTEX
  5
3DB
  8
6
 10
0.0799038105678847
 20
1.4750000000000221
 30
0.0
  0
VERTEX
  5
3DC
  8
6
 10
0.0
 20
1.6133974596216369
 30
0.0
  0
VERTEX
  5
3DD
  8
6
 10
0.0
 20
1.6866025403784299
 30
0.0
  0
VERTEX
  5
3DE
  8
6
 10
0.0799038105678847
 20
1.825000000000045
 30
0.0
 42
0.2679491924310219
  0
VERTEX
  5
3DF
  8
6
 10
0.0799038105678847
 20
1.9750000000000221
 30
0.0
  0
VERTEX
  5
3E0
  8
6
 10
0.0
 20
2.1133974596216372
 30
0.0
  0
VERTEX
  5
3E1
  8
6
 10
0.0
 20
2.1866025403784302
 30
0.0
  0
VERTEX
  5
3E2
  8
6
 10
0.0799038105678847
 20
2.325000000000045
 30
0.0
 42
0.2679491924310219
  0
VERTEX
  5
3E3
  8
6
 10
0.0799038105678847
 20
2.4750000000000218
 30
0.0
  0
VERTEX
  5
3E4
  8
6
 10
0.0
 20
2.6133974596216372
 30
0.0
  0
VERTEX
  5
3E5
  8
6
 10
0.0
 20
6.5
 30
0.0
 42
0.4142135623730951
  0
VERTEX
  5
3E6
  8
6
 10
-0.5
 20
7.0
 30
0.0
  0
VERTEX
  5
3E7
  8
6
 10
-2.5
 20
7.0
 30
0.0
  0
VERTEX
  5
3E8
  8
6
 10
-4.5
 20
7.0
 30
0.0
 42
0.4142135623730951
  0
VERTEX
  5
3E9
  8
6
 10
-5.0
 20
6.5
 30
0.0
  0
VERTEX
  5
3EA
  8
6
 10
-5.0
 20
2.6133974596216372
 30
0.0
  0
VERTEX
  5
3EB
  8
6
 10
-5.079903810567429
 20
2.4750000000000218
 30
0.0
 42
0.2679491924310219
  0
VERTEX
  5
3EC
  8
6
 10
-5.079903810567429
 20
2.325000000000045
 30
0.0
  0
VERTEX
  5
3ED
  8
6
 10
-5.0
 20
2.1866025403784302
 30
0.0
  0
VERTEX
  5
3EE
  8
6
 10
-5.0
 20
2.1133974596216372
 30
0.0
  0
VERTEX
  5
3EF
  8
6
 10
-5.079903810567429
 20
1.9750000000000221
 30
0.0
 42
0.2679491924310219
  0
VERTEX
  5
3F0
  8
6
 10
-5.079903810567429
 20
1.825000000000045
 30
0.0
  0
VERTEX
  5
3F1
  8
6
 10
-5.0
 20
1.6866025403784299
 30
0.0
  0
VERTEX
  5
3F2
  8
6
 10
-5.0
 20
1.6133974596216369
 30
0.0
  0
VERTEX
  5
3F3
  8
6
 10
-5.079903810567429
 20
1.4750000000000221
 30
0.0
 42
0.2679491924310219
  0
VERTEX
  5
3F4
  8
6
 10
-5.079903810567429
 20
1.325000000000045
 30
0.0
  0
VERTEX
  5
3F5
  8
6
 10
-5.0
 20
1.1866025403784299
 30
0.0
  0
VERTEX
  5
3F6
  8
6
 10
-5.0
 20
0.1499999999999773
 30
0.0
 42
0.4142135623730951
  0
VERTEX
  5
3F7
  8
6
 10
-4.8499999999999091
 20
0.0
 30
0.0
  0
VERTEX
  5
3F8
  8
6
 10
-4.5499999999997272
 20
0.0
 30
0.0
 42
0.4142135623730951
  0
VERTEX
  5
3F9
  8
6
 10
-3.75
 20
0.8000000000000682
 30
0.0
  0
VERTEX
  5
3FA
  8
6
 10
-3.75
 20
0.8500000000000227
 30
0.0
 42
0.4142135623730951
  0
VERTEX
  5
3FB
  8
6
 10
-3.8999999999996362
 20
1.0
 30
0.0
  0
SEQEND
  5
3FC
  8
6
  0
DIMENSION
  5
2B3
  8
1
  2
*D3
 10
12.0
 20
-0.0000000000000034
 30
0.0
 11
9.25
 21
3.4999999999999978
 31
0.0
 70
     0
 13
0.0
 23
7.0
 33
0.0
 14
0.0
 24
0.0
 34
0.0
 50
90.0
  0
LINE
  5
2B4
  8
5
 10
-9.9407677303911441
 20
-13.0
 30
0.0
 11
0.0
 21
-13.0
 31
0.0
  0
POLYLINE
  5
2B5
  8
6
 66
     1
 10
0.0
 20
0.0
 30
0.0
 70
     1
  0
VERTEX
  5
3FD
  8
6
 10
-2.5
 20
5.3752037831586668
 30
0.0
 42
0.2073828153970596
  0
VERTEX
  5
3FE
  8
6
 10
-3.135953472226447
 20
5.0668945798906861
 30
0.0
  0
VERTEX
  5
3FF
  8
6
 10
-3.955584828743667
 20
3.9920905907806619
 30
0.0
  0
VERTEX
  5
400
  8
6
 10
-3.955584828743667
 20
3.2631394108304899
 30
0.0
  0
VERTEX
  5
401
  8
6
 10
-3.7373713357492302
 20
3.2631394108304899
 30
0.0
  0
VERTEX
  5
402
  8
6
 10
-3.412712130829731
 20
3.6462377816206981
 30
0.0
 42
-0.6764201413968999
  0
VERTEX
  5
403
  8
6
 10
-3.3009443497603561
 20
3.6089920386982608
 30
0.0
  0
VERTEX
  5
404
  8
6
 10
-3.3009443497603561
 20
3.018381982412051
 30
0.0
  0
VERTEX
  5
405
  8
6
 10
-3.955584828743667
 20
2.193656164441335
 30
0.0
  0
VERTEX
  5
406
  8
6
 10
-3.955584828743667
 20
1.2944388606256321
 30
0.0
  0
VERTEX
  5
407
  8
6
 10
-3.801238570502846
 20
1.2944388606256321
 30
0.0
  0
VERTEX
  5
408
  8
6
 10
-3.5244799118991059
 20
1.831840945826684
 30
0.0
 42
-0.5723913899065157
  0
VERTEX
  5
409
  8
6
 10
-3.4286790597693648
 20
1.837161688547553
 30
0.0
  0
VERTEX
  5
40A
  8
6
 10
-3.2317545648584201
 20
1.608366850875995
 30
0.0
  0
VERTEX
  5
40B
  8
6
 10
-3.2317545648584201
 20
0.8408118686581929
 30
0.0
 42
-0.2577988718047752
  0
VERTEX
  5
40C
  8
6
 10
-3.7093882045114688
 20
0.1037126952211338
 30
0.0
 42
-0.2462846780726563
  0
VERTEX
  5
40D
  8
6
 10
-5.0391796555313704
 20
0.0
 30
0.0
 42
0.62659610262694
  0
VERTEX
  5
40E
  8
6
 10
-5.1359836415763311
 20
-0.4529177771551077
 30
0.0
 42
-0.10275819236416
  0
VERTEX
  5
40F
  8
6
 10
-4.8029778141408306
 20
-0.9019646047523792
 30
0.0
 42
0.1232972087155195
  0
VERTEX
  5
410
  8
6
 10
-3.4978686041690699
 20
-1.5841202975447
 30
0.0
 42
-0.8478405637352606
  0
VERTEX
  5
411
  8
6
 10
-3.4340011289136778
 20
-2.4673751919056031
 30
0.0
 42
-0.1580284498983582
  0
VERTEX
  5
412
  8
6
 10
-7.5632971507134243
 20
-10.81806520095801
 30
0.0
 42
3.6810156484747871
  0
VERTEX
  5
413
  8
6
 10
-6.9498777555149891
 20
-11.6653620703953
 30
0.0
 42
0.1839046279675178
  0
VERTEX
  5
414
  8
6
 10
-1.73608622687243
 20
-2.4076814948728038
 30
0.0
 42
-0.776864196328741
  0
VERTEX
  5
415
  8
6
 10
-1.73608622687243
 20
-1.5997803117267031
 30
0.0
 42
0.0112631829542201
  0
VERTEX
  5
416
  8
6
 10
-1.502131395830929
 20
-1.5841202975447
 30
0.0
 42
0.1232972087155195
  0
VERTEX
  5
417
  8
6
 10
-0.1970221858591685
 20
-0.9019646047523792
 30
0.0
 42
-0.10275819236416
  0
VERTEX
  5
418
  8
6
 10
0.1359836415763311
 20
-0.4529177771551077
 30
0.0
 42
0.6265961026269356
  0
VERTEX
  5
419
  8
6
 10
0.0391796555313704
 20
0.0
 30
0.0
 42
-0.2462846780726563
  0
VERTEX
  5
41A
  8
6
 10
-1.2906117954885299
 20
0.1037126952211338
 30
0.0
 42
-0.2577988718047752
  0
VERTEX
  5
41B
  8
6
 10
-1.768245435141125
 20
0.8408118686581929
 30
0.0
  0
VERTEX
  5
41C
  8
6
 10
-1.768245435141125
 20
1.608366850875995
 30
0.0
  0
VERTEX
  5
41D
  8
6
 10
-1.5713209402306341
 20
1.837161688547553
 30
0.0
 42
-0.5723913899065157
  0
VERTEX
  5
41E
  8
6
 10
-1.475520088100438
 20
1.831840945826684
 30
0.0
  0
VERTEX
  5
41F
  8
6
 10
-1.1987614294971529
 20
1.2944388606256321
 30
0.0
  0
VERTEX
  5
420
  8
6
 10
-1.0444151712558769
 20
1.2944388606256321
 30
0.0
  0
VERTEX
  5
421
  8
6
 10
-1.0444151712558769
 20
2.193656164441335
 30
0.0
  0
VERTEX
  5
422
  8
6
 10
-1.699055650239643
 20
3.018381982412051
 30
0.0
  0
VERTEX
  5
423
  8
6
 10
-1.699055650239643
 20
3.6089920386982608
 30
0.0
 42
-0.6764201413968999
  0
VERTEX
  5
424
  8
6
 10
-1.5872878691698129
 20
3.6462377816206981
 30
0.0
  0
VERTEX
  5
425
  8
6
 10
-1.2626286642503139
 20
3.2631394108304899
 30
0.0
  0
VERTEX
  5
426
  8
6
 10
-1.0444151712558769
 20
3.2631394108304899
 30
0.0
  0
VERTEX
  5
427
  8
6
 10
-1.0444151712558769
 20
3.9920905907806619
 30
0.0
  0
VERTEX
  5
428
  8
6
 10
-1.8640465277735521
 20
5.0668945798906861
 30
0.0
 42
0.2073828153970596
  0
SEQEND
  5
429
  8
6
  0
DIMENSION
  5
2B6
  8
1
  2
*D4
 10
12.0
 20
-13.0
 30
0.0
 11
9.2118008185538915
 21
-6.5
 31
0.0
 70
     0
 13
0.0
 23
0.0
 33
0.0
 14
-2.5
 24
-13.0
 34
0.0
 50
90.0
  0
DIMENSION
  5
2B7
  8
1
  2
*D5
 10
0.0000000000000007
 20
19.0
 30
0.0
 11
-2.4999999999999991
 21
21.779843110504771
 31
0.0
 70
     0
 13
-5.0
 23
7.0
 33
0.0
 14
0.0
 24
7.0
 34
0.0
  0
TEXT
  5
2FC
  8
1
 10
-5.947408640726735
 20
24.971347474315049
 30
0.0
 40
2.5
  1
Hebgo 131/656
 41
0.9
  7
BESCHLAG
  0
VIEWPORT
  5
22
 67
     1
  8
0
 10
210.0
 20
170.2366863905325
 30
0.0
 40
420.0
 41
340.47337278106511
 68
     1
 69
     1
1001
ACAD
1000
MVIEW
1002
{
1070
    16
1010
0.0
1020
0.0
1030
0.0
1010
0.0
1020
0.0
1030
1.0
1040
0.0
1040
340.47337278106511
1040
210.0
1040
170.2366863905325
1040
50.0
1040
0.0
1040
0.0
1070
     0
1070
   100
1070
     1
1070
     1
1070
     0
1070
     0
1070
     0
1070
     0
1040
0.0
1040
0.0
1040
0.0
1040
5.0
1040
5.0
1040
10.0
1040
10.0
1070
     0
1002
{
1002
}
1002
}
  0
ENDSEC
  0
EOF
