  0
SECTION
  2
HEADER
  9
$ACADVER
  1
AC1009
  9
$INSBASE
 10
0.0
 20
0.0
 30
0.0
  9
$EXTMIN
 10
-27.832030409285831
 20
-13.64135656464066
 30
-0.0000000000000058
  9
$EXTMAX
 10
18.516541072768849
 20
23.345947816672261
 30
0.0000000000000104
  9
$LIMMIN
 10
-150.0
 20
-150.0
  9
$LIMMAX
 10
150.0
 20
150.0
  9
$ORTHOMODE
 70
     0
  9
$REGENMODE
 70
     1
  9
$FILLMODE
 70
     1
  9
$QTEXTMODE
 70
     0
  9
$MIRRTEXT
 70
     0
  9
$DRAGMODE
 70
     2
  9
$LTSCALE
 40
1.0
  9
$OSMODE
 70
   111
  9
$ATTMODE
 70
     1
  9
$TEXTSIZE
 40
3.5
  9
$TRACEWID
 40
1.0
  9
$TEXTSTYLE
  7
BESCHLAG
  9
$CLAYER
  8
0
  9
$CELTYPE
  6
BYLAYER
  9
$CECOLOR
 62
   256
  9
$DIMSCALE
 40
1.0
  9
$DIMASZ
 40
2.0
  9
$DIMEXO
 40
2.0
  9
$DIMDLI
 40
0.0
  9
$DIMRND
 40
0.0
  9
$DIMDLE
 40
1.0
  9
$DIMEXE
 40
1.0
  9
$DIMTP
 40
0.0
  9
$DIMTM
 40
0.0
  9
$DIMTXT
 40
3.5
  9
$DIMCEN
 40
0.0
  9
$DIMTSZ
 40
0.0
  9
$DIMTOL
 70
     0
  9
$DIMLIM
 70
     0
  9
$DIMTIH
 70
     0
  9
$DIMTOH
 70
     0
  9
$DIMSE1
 70
     0
  9
$DIMSE2
 70
     0
  9
$DIMTAD
 70
     1
  9
$DIMZIN
 70
     8
  9
$DIMBLK
  1

  9
$DIMASO
 70
     1
  9
$DIMSHO
 70
     1
  9
$DIMPOST
  1

  9
$DIMAPOST
  1

  9
$DIMALT
 70
     0
  9
$DIMALTD
 70
     2
  9
$DIMALTF
 40
0.039370078740157
  9
$DIMLFAC
 40
1.0
  9
$DIMTOFL
 70
     1
  9
$DIMTVP
 40
0.0
  9
$DIMTIX
 70
     1
  9
$DIMSOXD
 70
     0
  9
$DIMSAH
 70
     1
  9
$DIMBLK1
  1
OBLIQUE
  9
$DIMBLK2
  1
OBLIQUE
  9
$DIMSTYLE
  2
OPO-SSTRICH
  9
$DIMCLRD
 70
   256
  9
$DIMCLRE
 70
   256
  9
$DIMCLRT
 70
   256
  9
$DIMTFAC
 40
0.7114285714285716
  9
$DIMGAP
 40
1.0
  9
$LUNITS
 70
     2
  9
$LUPREC
 70
     1
  9
$SKETCHINC
 40
1.0
  9
$FILLETRAD
 40
0.0
  9
$AUNITS
 70
     0
  9
$AUPREC
 70
     1
  9
$MENU
  1
D:\ACL_CGWG\CGTAB13
  9
$ELEVATION
 40
0.0
  9
$PELEVATION
 40
0.0
  9
$THICKNESS
 40
0.0
  9
$LIMCHECK
 70
     0
  9
$BLIPMODE
 70
     0
  9
$CHAMFERA
 40
1.0
  9
$CHAMFERB
 40
1.0
  9
$SKPOLY
 70
     0
  9
$TDCREATE
 40
2451739.871185069
  9
$TDUPDATE
 40
2452087.6116410992
  9
$TDINDWG
 40
0.0008204977
  9
$TDUSRTIMER
 40
0.0008203241
  9
$USRTIMER
 70
     1
  9
$ANGBASE
 50
0.0
  9
$ANGDIR
 70
     0
  9
$PDMODE
 70
    35
  9
$PDSIZE
 40
5.0
  9
$PLINEWID
 40
0.0
  9
$COORDS
 70
     1
  9
$SPLFRAME
 70
     0
  9
$SPLINETYPE
 70
     6
  9
$SPLINESEGS
 70
     8
  9
$ATTDIA
 70
     1
  9
$ATTREQ
 70
     1
  9
$HANDLING
 70
-16383
  9
$HANDSEED
  5
3E1
  9
$SURFTAB1
 70
    12
  9
$SURFTAB2
 70
    12
  9
$SURFTYPE
 70
     6
  9
$SURFU
 70
    12
  9
$SURFV
 70
    12
  9
$UCSNAME
  2

  9
$UCSORG
 10
0.0
 20
0.0
 30
0.0
  9
$UCSXDIR
 10
1.0
 20
0.0
 30
0.0
  9
$UCSYDIR
 10
0.0
 20
1.0
 30
0.0
  9
$PUCSNAME
  2

  9
$PUCSORG
 10
0.0
 20
0.0
 30
0.0
  9
$PUCSXDIR
 10
1.0
 20
0.0
 30
0.0
  9
$PUCSYDIR
 10
0.0
 20
1.0
 30
0.0
  9
$USERI1
 70
     0
  9
$USERI2
 70
     0
  9
$USERI3
 70
     0
  9
$USERI4
 70
     0
  9
$USERI5
 70
     0
  9
$USERR1
 40
0.0
  9
$USERR2
 40
0.0
  9
$USERR3
 40
0.0
  9
$USERR4
 40
0.0
  9
$USERR5
 40
0.0
  9
$WORLDVIEW
 70
     1
  9
$SHADEDGE
 70
     3
  9
$SHADEDIF
 70
    70
  9
$TILEMODE
 70
     1
  9
$MAXACTVP
 70
    48
  9
$PLIMCHECK
 70
     0
  9
$PEXTMIN
 10
1.0000000000000000E+020
 20
1.0000000000000000E+020
 30
1.0000000000000000E+020
  9
$PEXTMAX
 10
-1.0000000000000000E+020
 20
-1.0000000000000000E+020
 30
-1.0000000000000000E+020
  9
$PLIMMIN
 10
0.0
 20
0.0
  9
$PLIMMAX
 10
420.0
 20
297.0
  9
$UNITMODE
 70
     0
  9
$VISRETAIN
 70
     1
  9
$PLINEGEN
 70
     0
  9
$PSLTSCALE
 70
     1
  0
ENDSEC
  0
SECTION
  2
TABLES
  0
TABLE
  2
VPORT
 70
     2
  0
VPORT
  2
*ACTIVE
 70
     0
 10
0.0
 20
0.0
 11
1.0
 21
1.0
 12
-4.657744668258486
 22
4.8522956260158043
 13
0.0
 23
0.0
 14
0.5
 24
0.5
 15
10.0
 25
10.0
 16
0.0
 26
0.0
 36
1.0
 17
0.0
 27
0.0
 37
0.0
 40
37.287607258563099
 41
1.6070460704607039
 42
50.0
 43
0.0
 44
0.0
 50
0.0
 51
0.0
 71
     0
 72
   800
 73
     1
 74
     1
 75
     0
 76
     0
 77
     0
 78
     0
  0
ENDTAB
  0
TABLE
  2
LTYPE
 70
     1
  0
LTYPE
  2
CONTINUOUS
 70
     0
  3
_______________________________________________
 72
    65
 73
     2
 40
1.0
 49
1.0
 49
0.0
  0
ENDTAB
  0
TABLE
  2
LAYER
 70
     5
  0
LAYER
  2
0
 70
     0
 62
    30
  6
CONTINUOUS
  0
LAYER
  2
1
 70
     0
 62
     2
  6
CONTINUOUS
  0
LAYER
  2
5
 70
     0
 62
     1
  6
CONTINUOUS
  0
LAYER
  2
6
 70
     0
 62
     3
  6
CONTINUOUS
  0
LAYER
  2
DEFPOINTS
 70
     0
 62
     7
  6
CONTINUOUS
  0
ENDTAB
  0
TABLE
  2
STYLE
 70
     2
  0
STYLE
  2
STANDARD
 70
     0
 40
0.0
 41
1.0
 50
0.0
 71
     0
 42
2.5
  3
txt
  4

  0
STYLE
  2
BESCHLAG
 70
     0
 40
0.0
 41
1.0
 50
0.0
 71
     0
 42
3.5
  3
txt
  4

  0
ENDTAB
  0
TABLE
  2
VIEW
 70
     0
  0
ENDTAB
  0
TABLE
  2
UCS
 70
     0
  0
ENDTAB
  0
TABLE
  2
APPID
 70
     1
  0
APPID
  2
ACAD
 70
     0
  0
ENDTAB
  0
TABLE
  2
DIMSTYLE
 70
     1
  0
DIMSTYLE
  2
OPO-SSTRICH
 70
     0
  3

  4

  5

  6
OBLIQUE
  7
OBLIQUE
 40
1.0
 41
2.0
 42
2.0
 43
0.0
 44
1.0
 45
0.0
 46
1.0
 47
0.0
 48
0.0
140
3.5
141
0.0
142
0.0
143
0.039370078740157
144
1.0
145
0.0
146
0.7114285714285716
147
1.0
 71
     0
 72
     0
 73
     0
 74
     0
 75
     0
 76
     0
 77
     1
 78
     8
170
     0
171
     2
172
     1
173
     1
174
     1
175
     0
176
   256
177
   256
178
   256
  0
ENDTAB
  0
ENDSEC
  0
SECTION
  2
BLOCKS
  0
BLOCK
  8
0
  2
$MODEL_SPACE
 70
     0
 10
0.0
 20
0.0
 30
0.0
  3
$MODEL_SPACE
  1

  0
ENDBLK
  5
1C
  8
0
  0
BLOCK
 67
     1
  8
0
  2
$PAPER_SPACE
 70
     0
 10
0.0
 20
0.0
 30
0.0
  3
$PAPER_SPACE
  1

  0
ENDBLK
  5
19
 67
     1
  8
0
  0
BLOCK
  8
0
  2
_OBLIQUE
 70
     0
 10
0.0
 20
0.0
 30
0.0
  3
_OBLIQUE
  1

  0
LINE
  5
204
  8
0
 62
     0
 10
-0.5
 20
-0.5
 30
0.0
 11
0.5
 21
0.5
 31
0.0
  0
ENDBLK
  5
206
  8
0
  0
BLOCK
  8
0
  2
NULLPUNKT
 70
     0
 10
0.0
 20
0.0
 30
0.0
  3
NULLPUNKT
  1

  0
SOLID
  5
254
  8
5
 10
0.0
 20
0.0
 30
0.0
 11
2.0
 21
0.0
 31
0.0
 12
0.0
 22
-2.0
 32
0.0
 13
0.0
 23
-2.0
 33
0.0
  0
SOLID
  5
255
  8
5
 10
0.0
 20
0.0
 30
0.0
 11
-2.0
 21
0.0
 31
0.0
 12
0.0
 22
2.0
 32
0.0
 13
0.0
 23
2.0
 33
0.0
  0
POLYLINE
  5
256
  8
5
 66
     1
 10
0.0
 20
0.0
 30
0.0
  0
VERTEX
  5
3A4
  8
5
 10
0.0
 20
2.0
 30
0.0
  0
VERTEX
  5
3A5
  8
5
 10
0.0
 20
-2.0
 30
0.0
  0
SEQEND
  5
3A6
  8
5
  0
POLYLINE
  5
257
  8
5
 66
     1
 10
0.0
 20
0.0
 30
0.0
  0
VERTEX
  5
3A7
  8
5
 10
-2.0
 20
0.0
 30
0.0
  0
VERTEX
  5
3A8
  8
5
 10
2.0
 20
0.0
 30
0.0
  0
SEQEND
  5
3A9
  8
5
  0
CIRCLE
  5
258
  8
5
 10
0.0
 20
0.0
 30
0.0
 40
2.0
  0
ENDBLK
  5
25A
  8
0
  0
BLOCK
  8
0
  2
*D2
 70
     1
 10
0.0
 20
0.0
 30
0.0
  3
*D2
  1

  0
LINE
  5
2CA
  8
1
 10
-3.0
 20
7.9999999999999432
 30
0.0
 11
-2.9999999999999991
 21
18.84387227182884
 31
0.0
  0
LINE
  5
2CB
  8
1
 10
0.0000000000000001
 20
7.9999999999999432
 30
0.0
 11
0.0000000000000008
 21
18.84387227182884
 31
0.0
  0
LINE
  5
2CC
  8
1
 10
-2.9999999999999991
 20
17.84387227182884
 30
0.0
 11
-4.9999999999999991
 21
17.84387227182884
 31
0.0
  0
LINE
  5
2CD
  8
1
 10
0.0000000000000007
 20
17.84387227182884
 30
0.0
 11
2.0
 21
17.84387227182884
 31
0.0
  0
LINE
  5
2CE
  8
1
 10
-2.9999999999999991
 20
17.84387227182884
 30
0.0
 11
0.0000000000000007
 21
17.84387227182884
 31
0.0
  0
INSERT
  5
2CF
  8
1
  2
_OBLIQUE
 10
-2.9999999999999991
 20
17.84387227182884
 30
0.0
 41
2.0
 42
2.0
 43
2.0
  0
INSERT
  5
2D0
  8
1
  2
_OBLIQUE
 10
0.0000000000000007
 20
17.84387227182884
 30
0.0
 41
2.0
 42
2.0
 43
2.0
 50
180.0
  0
TEXT
  5
2D1
  8
0
 10
-2.8512960436562058
 20
18.913108288199918
 30
0.0
 40
3.5
  1
3
  7
BESCHLAG
  0
POINT
  5
2D2
  8
DEFPOINTS
 62
     0
 10
-3.0
 20
5.9999999999999432
 30
0.0
  0
POINT
  5
2D3
  8
DEFPOINTS
 62
     0
 10
0.0
 20
5.9999999999999432
 30
0.0
  0
POINT
  5
2D4
  8
DEFPOINTS
 62
     0
 10
0.0000000000000007
 20
17.84387227182884
 30
0.0
  0
ENDBLK
  5
2B1
  8
0
  0
BLOCK
  8
0
  2
*D3
 70
     1
 10
0.0
 20
0.0
 30
0.0
  3
*D3
  1

  0
LINE
  5
2D5
  8
1
 10
2.0
 20
5.9999999999999432
 30
0.0
 11
12.32242028603468
 21
5.9999999999999387
 31
0.0
  0
LINE
  5
2D6
  8
1
 10
2.0
 20
-0.0000000000000006
 30
0.0
 11
12.32242028603468
 21
-0.0000000000000035
 31
0.0
  0
LINE
  5
2D7
  8
1
 10
11.32242028603468
 20
6.9999999999999387
 30
0.0
 11
11.32242028603468
 21
-1.0000000000000031
 31
0.0
  0
INSERT
  5
2D8
  8
1
  2
_OBLIQUE
 10
11.32242028603468
 20
5.9999999999999387
 30
0.0
 41
2.0
 42
2.0
 43
2.0
 50
90.0
  0
INSERT
  5
2D9
  8
1
  2
_OBLIQUE
 10
11.32242028603468
 20
-0.0000000000000032
 30
0.0
 41
2.0
 42
2.0
 43
2.0
 50
270.0
  0
TEXT
  5
2DA
  8
0
 10
10.25557171850399
 20
1.6606412005456721
 30
0.0
 40
3.5
  1
6
 50
90.0
  7
BESCHLAG
  0
POINT
  5
2DB
  8
DEFPOINTS
 62
     0
 10
0.0
 20
5.9999999999999432
 30
0.0
  0
POINT
  5
2DC
  8
DEFPOINTS
 62
     0
 10
0.0
 20
0.0
 30
0.0
  0
POINT
  5
2DD
  8
DEFPOINTS
 62
     0
 10
11.32242028603468
 20
-0.0000000000000032
 30
0.0
  0
ENDBLK
  5
2BD
  8
0
  0
BLOCK
  8
0
  2
*D4
 70
     1
 10
0.0
 20
0.0
 30
0.0
  3
*D4
  1

  0
LINE
  5
2DE
  8
1
 10
2.0
 20
-0.0000000000000006
 30
0.0
 11
12.32242028603468
 21
-0.0000000000000035
 31
0.0
  0
LINE
  5
2DF
  8
1
 10
0.4999999999995453
 20
-6.0
 30
0.0
 11
12.32242028603468
 21
-6.0000000000000027
 31
0.0
  0
LINE
  5
2E0
  8
1
 10
11.32242028603468
 20
0.9999999999999968
 30
0.0
 11
11.32242028603468
 21
-7.0000000000000027
 31
0.0
  0
INSERT
  5
2E1
  8
1
  2
_OBLIQUE
 10
11.32242028603468
 20
-0.0000000000000032
 30
0.0
 41
2.0
 42
2.0
 43
2.0
 50
90.0
  0
INSERT
  5
2E2
  8
1
  2
_OBLIQUE
 10
11.32242028603468
 20
-6.0000000000000027
 30
0.0
 41
2.0
 42
2.0
 43
2.0
 50
270.0
  0
TEXT
  5
2E3
  8
0
 10
10.25557171850399
 20
-4.339358799454299
 30
0.0
 40
3.5
  1
6
 50
90.0
  7
BESCHLAG
  0
POINT
  5
2E4
  8
DEFPOINTS
 62
     0
 10
0.0
 20
0.0
 30
0.0
  0
POINT
  5
2E5
  8
DEFPOINTS
 62
     0
 10
-1.5000000000004541
 20
-6.0
 30
0.0
  0
POINT
  5
2E6
  8
DEFPOINTS
 62
     0
 10
11.32242028603468
 20
-6.0000000000000027
 30
0.0
  0
ENDBLK
  5
2C9
  8
0
  0
ENDSEC
  0
SECTION
  2
ENTITIES
  0
INSERT
  5
25B
  8
5
  2
NULLPUNKT
 10
0.0
 20
0.0
 30
0.0
  0
TEXT
  5
29D
  8
1
 10
-27.827153760666761
 20
-4.4178070926893147
 30
0.0
 40
2.4999999499999999
  1
Hebgo 657
  0
POLYLINE
  5
29E
  8
5
 66
     1
 10
0.0
 20
0.0
 30
0.0
  0
VERTEX
  5
3AA
  8
5
 10
-9.0000000000002274
 20
0.0
 30
0.0
  0
VERTEX
  5
3AB
  8
5
 10
-3.0
 20
0.0
 30
0.0
  0
VERTEX
  5
3AC
  8
5
 10
-3.0
 20
5.9999999999999432
 30
0.0
  0
VERTEX
  5
3AD
  8
5
 10
0.0
 20
5.9999999999999432
 30
0.0
  0
VERTEX
  5
3AE
  8
5
 10
0.0
 20
0.0
 30
0.0
  0
VERTEX
  5
3AF
  8
5
 10
6.0
 20
0.0
 30
0.0
  0
SEQEND
  5
3B0
  8
5
  0
POLYLINE
  5
29F
  8
5
 66
     1
 10
0.0
 20
0.0
 30
0.0
 70
     1
  0
VERTEX
  5
3B1
  8
5
 10
-21.500000000000231
 20
-13.6393055736911
 30
0.0
  0
VERTEX
  5
3B2
  8
5
 10
18.5
 20
-13.6393055736911
 30
0.0
 42
0.385698158879318
  0
SEQEND
  5
3B3
  8
5
  0
POLYLINE
  5
2A0
  8
6
 66
     1
 10
0.0
 20
0.0
 30
0.0
 70
     1
  0
VERTEX
  5
3B4
  8
6
 10
-3.8247446402442611
 20
0.0
 30
0.0
 42
0.2855687983890529
  0
VERTEX
  5
3B5
  8
6
 10
-2.709388204511924
 20
0.1037126952210201
 30
0.0
 42
0.2577988718047752
  0
VERTEX
  5
3B6
  8
6
 10
-2.2317545648588739
 20
0.8408118686580792
 30
0.0
  0
VERTEX
  5
3B7
  8
6
 10
-2.2317545648588739
 20
1.608366850875881
 30
0.0
  0
VERTEX
  5
3B8
  8
6
 10
-2.4286790597693648
 20
1.8371616885474391
 30
0.0
 42
0.5723913899065157
  0
VERTEX
  5
3B9
  8
6
 10
-2.5244799118995611
 20
1.8318409458265701
 30
0.0
  0
VERTEX
  5
3BA
  8
6
 10
-2.8012385705033012
 20
1.2944388606255179
 30
0.0
  0
VERTEX
  5
3BB
  8
6
 10
-2.9555848287441222
 20
1.2944388606255179
 30
0.0
  0
VERTEX
  5
3BC
  8
6
 10
-2.9555848287441222
 20
2.1936561644412218
 30
0.0
  0
VERTEX
  5
3BD
  8
6
 10
-2.3009443497608109
 20
3.0183819824119378
 30
0.0
  0
VERTEX
  5
3BE
  8
6
 10
-2.3009443497608109
 20
3.6089920386981471
 30
0.0
 42
0.6764201413968999
  0
VERTEX
  5
3BF
  8
6
 10
-2.4127121308301862
 20
3.6462377816206981
 30
0.0
  0
VERTEX
  5
3C0
  8
6
 10
-2.7373713357496849
 20
3.2631394108303762
 30
0.0
  0
VERTEX
  5
3C1
  8
6
 10
-2.9555848287441222
 20
3.2631394108303762
 30
0.0
  0
VERTEX
  5
3C2
  8
6
 10
-2.9555848287441222
 20
3.9920905907805491
 30
0.0
  0
VERTEX
  5
3C3
  8
6
 10
-2.1359534722269009
 20
5.0668945798905147
 30
0.0
 42
-0.2073828153970596
  0
VERTEX
  5
3C4
  8
6
 10
-1.5000000000004541
 20
5.3752037831584971
 30
0.0
 42
-0.2073828153970596
  0
VERTEX
  5
3C5
  8
6
 10
-0.8640465277740076
 20
5.0668945798905147
 30
0.0
  0
VERTEX
  5
3C6
  8
6
 10
-0.0444151712563326
 20
3.9920905907805491
 30
0.0
  0
VERTEX
  5
3C7
  8
6
 10
-0.0444151712563326
 20
3.2631394108303762
 30
0.0
  0
VERTEX
  5
3C8
  8
6
 10
-0.2626286642507694
 20
3.2631394108303762
 30
0.0
  0
VERTEX
  5
3C9
  8
6
 10
-0.5872878691702681
 20
3.6462377816206981
 30
0.0
 42
0.6764201413968999
  0
VERTEX
  5
3CA
  8
6
 10
-0.699055650239643
 20
3.6089920386981471
 30
0.0
  0
VERTEX
  5
3CB
  8
6
 10
-0.699055650239643
 20
3.0183819824119378
 30
0.0
  0
VERTEX
  5
3CC
  8
6
 10
-0.0444151712563326
 20
2.1936561644412218
 30
0.0
  0
VERTEX
  5
3CD
  8
6
 10
-0.0444151712563326
 20
1.2944388606255179
 30
0.0
  0
VERTEX
  5
3CE
  8
6
 10
-0.1987614294976083
 20
1.2944388606255179
 30
0.0
  0
VERTEX
  5
3CF
  8
6
 10
-0.4755200881008932
 20
1.8318409458265701
 30
0.0
 42
0.5723913899065157
  0
VERTEX
  5
3D0
  8
6
 10
-0.5713209402310895
 20
1.8371616885474391
 30
0.0
  0
VERTEX
  5
3D1
  8
6
 10
-0.76824543514158
 20
1.608366850875881
 30
0.0
  0
VERTEX
  5
3D2
  8
6
 10
-0.76824543514158
 20
0.8408118686580792
 30
0.0
 42
0.2577988718047752
  0
VERTEX
  5
3D3
  8
6
 10
-0.2906117954885303
 20
0.1037126952210201
 30
0.0
 42
0.2855687983891429
  0
VERTEX
  5
3D4
  8
6
 10
0.8247446402433524
 20
0.0
 30
0.0
  0
VERTEX
  5
3D5
  8
6
 10
0.8247446402433524
 20
-0.249253016763987
 30
0.0
 42
-0.1763302173266947
  0
VERTEX
  5
3D6
  8
6
 10
-0.0659621149770828
 20
-0.9902848451465615
 30
0.0
  0
VERTEX
  5
3D7
  8
6
 10
-0.798190224258633
 20
-1.0775937378616609
 30
0.0
 42
0.7142757161901087
  0
VERTEX
  5
3D8
  8
6
 10
-0.9032264709630908
 20
-1.4568603976176739
 30
0.0
 42
-0.2646199055260972
  0
VERTEX
  5
3D9
  8
6
 10
-0.5380367225989176
 20
-1.843390164886614
 30
0.0
 42
0.2858304093502286
  0
VERTEX
  5
3DA
  8
6
 10
1.12758494309719
 20
-4.4969636643832009
 30
0.0
 42
-2.3910683767553249
  0
VERTEX
  5
3DB
  8
6
 10
0.5219043373895147
 20
-5.389099558615043
 30
0.0
 42
-0.1354041067351331
  0
VERTEX
  5
3DC
  8
6
 10
-2.377351004421143
 20
-1.7347810384540019
 30
0.0
 42
0.7082956273545247
  0
VERTEX
  5
3DD
  8
6
 10
-2.393877607864396
 20
-1.0243338581519761
 30
0.0
  0
VERTEX
  5
3DE
  8
6
 10
-3.0231085301516032
 20
-1.024166114262925
 30
0.0
 42
-0.1857078600295553
  0
VERTEX
  5
3DF
  8
6
 10
-3.8247446402442611
 20
-0.4720803191012238
 30
0.0
  0
SEQEND
  5
3E0
  8
6
  0
DIMENSION
  5
2A1
  8
1
  2
*D2
 10
0.0000000000000007
 20
17.84387227182884
 30
0.0
 11
-1.499999999999998
 21
20.63207145327495
 31
0.0
 70
     0
 13
-3.0
 23
5.9999999999999432
 33
0.0
 14
0.0
 24
5.9999999999999432
 34
0.0
  0
DIMENSION
  5
2A2
  8
1
  2
*D3
 10
11.32242028603468
 20
-0.0000000000000032
 30
0.0
 11
8.535414829008765
 21
2.9999999999999698
 31
0.0
 70
     0
 13
0.0
 23
5.9999999999999432
 33
0.0
 14
0.0
 24
0.0
 34
0.0
 50
90.0
  0
DIMENSION
  5
2A3
  8
1
  2
*D4
 10
11.32242028603468
 20
-6.0000000000000027
 30
0.0
 11
8.535414829008765
 21
-3.0000000000000009
 31
0.0
 70
     0
 13
0.0
 23
0.0
 33
0.0
 14
-1.5000000000004541
 24
-6.0
 34
0.0
 50
90.0
  0
VIEWPORT
  5
22
 67
     1
  8
0
 10
210.0
 20
170.2366863905325
 30
0.0
 40
420.0
 41
340.47337278106511
 68
     1
 69
     1
1001
ACAD
1000
MVIEW
1002
{
1070
    16
1010
0.0
1020
0.0
1030
0.0
1010
0.0
1020
0.0
1030
1.0
1040
0.0
1040
340.47337278106511
1040
210.0
1040
170.2366863905325
1040
50.0
1040
0.0
1040
0.0
1070
     0
1070
   100
1070
     1
1070
     1
1070
     0
1070
     0
1070
     0
1070
     0
1040
0.0
1040
0.0
1040
0.0
1040
5.0
1040
5.0
1040
10.0
1040
10.0
1070
     0
1002
{
1002
}
1002
}
  0
ENDSEC
  0
EOF
