  0
SECTION
  2
HEADER
  9
$ACADVER
  1
AC1009
  9
$INSBASE
 10
42.015678418179732
 20
0.8013266883911001
 30
0.0
  9
$EXTMIN
 10
31.765678418179728
 20
-8.2847320505602902
 30
0.0
  9
$EXTMAX
 10
61.850161147266803
 20
19.8013266883911
 30
0.0
  9
$LIMMIN
 10
-150.0
 20
-150.0
  9
$LIMMAX
 10
150.0
 20
150.0
  9
$ORTHOMODE
 70
     0
  9
$REGENMODE
 70
     1
  9
$FILLMODE
 70
     1
  9
$QTEXTMODE
 70
     0
  9
$MIRRTEXT
 70
     0
  9
$DRAGMODE
 70
     2
  9
$LTSCALE
 40
1.0
  9
$OSMODE
 70
   111
  9
$ATTMODE
 70
     1
  9
$TEXTSIZE
 40
3.5
  9
$TRACEWID
 40
1.0
  9
$TEXTSTYLE
  7
BESCHLAG
  9
$CLAYER
  8
0
  9
$CELTYPE
  6
BYLAYER
  9
$CECOLOR
 62
   256
  9
$DIMSCALE
 40
1.0
  9
$DIMASZ
 40
2.0
  9
$DIMEXO
 40
2.0
  9
$DIMDLI
 40
0.0
  9
$DIMRND
 40
0.0
  9
$DIMDLE
 40
1.0
  9
$DIMEXE
 40
1.0
  9
$DIMTP
 40
0.0
  9
$DIMTM
 40
0.0
  9
$DIMTXT
 40
3.5
  9
$DIMCEN
 40
0.0
  9
$DIMTSZ
 40
0.0
  9
$DIMTOL
 70
     0
  9
$DIMLIM
 70
     0
  9
$DIMTIH
 70
     0
  9
$DIMTOH
 70
     0
  9
$DIMSE1
 70
     0
  9
$DIMSE2
 70
     0
  9
$DIMTAD
 70
     1
  9
$DIMZIN
 70
     8
  9
$DIMBLK
  1

  9
$DIMASO
 70
     1
  9
$DIMSHO
 70
     1
  9
$DIMPOST
  1

  9
$DIMAPOST
  1

  9
$DIMALT
 70
     0
  9
$DIMALTD
 70
     2
  9
$DIMALTF
 40
0.039370078740157
  9
$DIMLFAC
 40
1.0
  9
$DIMTOFL
 70
     1
  9
$DIMTVP
 40
0.0
  9
$DIMTIX
 70
     1
  9
$DIMSOXD
 70
     0
  9
$DIMSAH
 70
     1
  9
$DIMBLK1
  1
OBLIQUE
  9
$DIMBLK2
  1
OBLIQUE
  9
$DIMSTYLE
  2
OPO-SSTRICH
  9
$DIMCLRD
 70
   256
  9
$DIMCLRE
 70
   256
  9
$DIMCLRT
 70
   256
  9
$DIMTFAC
 40
0.7114285714285716
  9
$DIMGAP
 40
1.0
  9
$LUNITS
 70
     2
  9
$LUPREC
 70
     1
  9
$SKETCHINC
 40
1.0
  9
$FILLETRAD
 40
0.0
  9
$AUNITS
 70
     0
  9
$AUPREC
 70
     1
  9
$MENU
  1
D:\ACL_CGWG\CGTAB13
  9
$ELEVATION
 40
0.0
  9
$PELEVATION
 40
0.0
  9
$THICKNESS
 40
0.0
  9
$LIMCHECK
 70
     0
  9
$BLIPMODE
 70
     0
  9
$CHAMFERA
 40
1.0
  9
$CHAMFERB
 40
1.0
  9
$SKPOLY
 70
     0
  9
$TDCREATE
 40
2451739.9057864919
  9
$TDUPDATE
 40
2452087.6482374771
  9
$TDINDWG
 40
0.0028742708
  9
$TDUSRTIMER
 40
0.0028742708
  9
$USRTIMER
 70
     1
  9
$ANGBASE
 50
0.0
  9
$ANGDIR
 70
     0
  9
$PDMODE
 70
    35
  9
$PDSIZE
 40
5.0
  9
$PLINEWID
 40
0.0
  9
$COORDS
 70
     1
  9
$SPLFRAME
 70
     0
  9
$SPLINETYPE
 70
     6
  9
$SPLINESEGS
 70
     8
  9
$ATTDIA
 70
     1
  9
$ATTREQ
 70
     1
  9
$HANDLING
 70
-16383
  9
$HANDSEED
  5
BE
  9
$SURFTAB1
 70
    12
  9
$SURFTAB2
 70
    12
  9
$SURFTYPE
 70
     6
  9
$SURFU
 70
    12
  9
$SURFV
 70
    12
  9
$UCSNAME
  2

  9
$UCSORG
 10
0.0
 20
0.0
 30
0.0
  9
$UCSXDIR
 10
1.0
 20
0.0
 30
0.0
  9
$UCSYDIR
 10
0.0
 20
1.0
 30
0.0
  9
$PUCSNAME
  2

  9
$PUCSORG
 10
0.0
 20
0.0
 30
0.0
  9
$PUCSXDIR
 10
1.0
 20
0.0
 30
0.0
  9
$PUCSYDIR
 10
0.0
 20
1.0
 30
0.0
  9
$USERI1
 70
     0
  9
$USERI2
 70
     0
  9
$USERI3
 70
     0
  9
$USERI4
 70
     0
  9
$USERI5
 70
     0
  9
$USERR1
 40
0.0
  9
$USERR2
 40
0.0
  9
$USERR3
 40
0.0
  9
$USERR4
 40
0.0
  9
$USERR5
 40
0.0
  9
$WORLDVIEW
 70
     1
  9
$SHADEDGE
 70
     3
  9
$SHADEDIF
 70
    70
  9
$TILEMODE
 70
     1
  9
$MAXACTVP
 70
    48
  9
$PLIMCHECK
 70
     0
  9
$PEXTMIN
 10
1.0000000000000000E+020
 20
1.0000000000000000E+020
 30
1.0000000000000000E+020
  9
$PEXTMAX
 10
-1.0000000000000000E+020
 20
-1.0000000000000000E+020
 30
-1.0000000000000000E+020
  9
$PLIMMIN
 10
0.0
 20
0.0
  9
$PLIMMAX
 10
420.0
 20
297.0
  9
$UNITMODE
 70
     0
  9
$VISRETAIN
 70
     1
  9
$PLINEGEN
 70
     0
  9
$PSLTSCALE
 70
     1
  0
ENDSEC
  0
SECTION
  2
TABLES
  0
TABLE
  2
VPORT
 70
     2
  0
VPORT
  2
*ACTIVE
 70
     0
 10
0.0
 20
0.0
 11
1.0
 21
1.0
 12
46.806336202200491
 22
5.7678229708316158
 13
0.0
 23
0.0
 14
0.5
 24
0.5
 15
10.0
 25
10.0
 16
0.0
 26
0.0
 36
1.0
 17
0.0
 27
0.0
 37
0.0
 40
28.334889589670642
 41
1.6070460704607039
 42
50.0
 43
0.0
 44
0.0
 50
0.0
 51
0.0
 71
     0
 72
   800
 73
     1
 74
     1
 75
     0
 76
     0
 77
     0
 78
     0
  0
ENDTAB
  0
TABLE
  2
LTYPE
 70
     1
  0
LTYPE
  2
CONTINUOUS
 70
     0
  3
_______________________________________________
 72
    65
 73
     2
 40
1.0
 49
1.0
 49
0.0
  0
ENDTAB
  0
TABLE
  2
LAYER
 70
     5
  0
LAYER
  2
0
 70
     0
 62
    30
  6
CONTINUOUS
  0
LAYER
  2
1
 70
     0
 62
     2
  6
CONTINUOUS
  0
LAYER
  2
5
 70
     0
 62
     1
  6
CONTINUOUS
  0
LAYER
  2
6
 70
     0
 62
     3
  6
CONTINUOUS
  0
LAYER
  2
DEFPOINTS
 70
     0
 62
     7
  6
CONTINUOUS
  0
ENDTAB
  0
TABLE
  2
STYLE
 70
     2
  0
STYLE
  2
STANDARD
 70
     0
 40
0.0
 41
1.0
 50
0.0
 71
     0
 42
2.5
  3
txt
  4

  0
STYLE
  2
BESCHLAG
 70
     0
 40
0.0
 41
1.0
 50
0.0
 71
     0
 42
3.5
  3
txt
  4

  0
ENDTAB
  0
TABLE
  2
VIEW
 70
     0
  0
ENDTAB
  0
TABLE
  2
UCS
 70
     0
  0
ENDTAB
  0
TABLE
  2
APPID
 70
     1
  0
APPID
  2
ACAD
 70
     0
  0
ENDTAB
  0
TABLE
  2
DIMSTYLE
 70
     1
  0
DIMSTYLE
  2
OPO-SSTRICH
 70
     0
  3

  4

  5

  6
OBLIQUE
  7
OBLIQUE
 40
1.0
 41
2.0
 42
2.0
 43
0.0
 44
1.0
 45
0.0
 46
1.0
 47
0.0
 48
0.0
140
3.5
141
0.0
142
0.0
143
0.039370078740157
144
1.0
145
0.0
146
0.7114285714285716
147
1.0
 71
     0
 72
     0
 73
     0
 74
     0
 75
     0
 76
     0
 77
     1
 78
     8
170
     0
171
     2
172
     1
173
     1
174
     1
175
     0
176
   256
177
   256
178
   256
  0
ENDTAB
  0
ENDSEC
  0
SECTION
  2
BLOCKS
  0
BLOCK
  8
0
  2
$MODEL_SPACE
 70
     0
 10
0.0
 20
0.0
 30
0.0
  3
$MODEL_SPACE
  1

  0
ENDBLK
  5
B
  8
0
  0
BLOCK
 67
     1
  8
0
  2
$PAPER_SPACE
 70
     0
 10
0.0
 20
0.0
 30
0.0
  3
$PAPER_SPACE
  1

  0
ENDBLK
  5
12
 67
     1
  8
0
  0
BLOCK
  8
0
  2
_OBLIQUE
 70
     0
 10
0.0
 20
0.0
 30
0.0
  3
_OBLIQUE
  1

  0
LINE
  5
28
  8
0
 62
     0
 10
-0.5
 20
-0.5
 30
0.0
 11
0.5
 21
0.5
 31
0.0
  0
ENDBLK
  5
2A
  8
0
  0
BLOCK
  8
0
  2
*D1
 70
     1
 10
0.0
 20
0.0
 30
0.0
  3
*D1
  1

  0
LINE
  5
35
  8
1
 10
44.015678418179732
 20
0.8013266883910996
 30
0.0
 11
59.207762127886781
 21
0.8013266883910953
 31
0.0
  0
LINE
  5
36
  8
1
 10
44.015678418179732
 20
4.8013266883911001
 30
0.0
 11
59.207762127886781
 21
4.8013266883910948
 31
0.0
  0
LINE
  5
37
  8
1
 10
58.207762127886781
 20
0.8013266883910954
 30
0.0
 11
58.207762127886781
 21
-1.1986733116089039
 31
0.0
  0
LINE
  5
38
  8
1
 10
58.207762127886781
 20
4.8013266883910948
 30
0.0
 11
58.207762127886781
 21
6.8013266883910948
 31
0.0
  0
LINE
  5
39
  8
1
 10
58.207762127886781
 20
0.8013266883910954
 30
0.0
 11
58.207762127886781
 21
4.8013266883910948
 31
0.0
  0
INSERT
  5
3A
  8
1
  2
_OBLIQUE
 10
58.207762127886781
 20
0.8013266883910954
 30
0.0
 41
2.0
 42
2.0
 43
2.0
 50
90.0
  0
INSERT
  5
3B
  8
1
  2
_OBLIQUE
 10
58.207762127886781
 20
4.8013266883910948
 30
0.0
 41
2.0
 42
2.0
 43
2.0
 50
270.0
  0
TEXT
  5
3C
  8
0
 10
57.207762127886781
 20
1.5288164564675031
 30
0.0
 40
3.5
  1
4
 50
90.0
  7
BESCHLAG
  0
POINT
  5
3D
  8
DEFPOINTS
 62
     0
 10
42.015678418179732
 20
0.8013266883911001
 30
0.0
  0
POINT
  5
3F
  8
DEFPOINTS
 62
     0
 10
42.015678418179732
 20
4.8013266883911001
 30
0.0
  0
POINT
  5
40
  8
DEFPOINTS
 62
     0
 10
58.207762127886781
 20
4.8013266883910948
 30
0.0
  0
ENDBLK
  5
42
  8
0
  0
ENDSEC
  0
SECTION
  2
ENTITIES
  0
TEXT
  5
2D
  8
1
 10
61.40609566295575
 20
-0.0226291247048778
 30
0.0
 40
1.5
  1
(3-5)
 50
90.0
  0
POLYLINE
  5
2F
  8
6
 66
     1
 10
0.0
 20
0.0
 30
0.0
 70
     1
  0
VERTEX
  5
86
  8
6
 10
42.015678418179732
 20
4.8013266883913266
 30
0.0
 42
-0.266153914150987
  0
VERTEX
  5
87
  8
6
 10
42.411847262327683
 20
4.4683640377302254
 30
0.0
  0
VERTEX
  5
88
  8
6
 10
43.54698785441996
 20
4.4683640377302254
 30
0.0
 42
-0.8431110190690914
  0
VERTEX
  5
89
  8
6
 10
44.372347844466042
 20
4.4409679076602506
 30
0.0
 42
-0.3387580823380076
  0
VERTEX
  5
8A
  8
6
 10
45.832516176150868
 20
3.0368511296182978
 30
0.0
 42
-0.2033693789354615
  0
VERTEX
  5
8B
  8
6
 10
45.225721239580253
 20
1.6348894538200509
 30
0.0
 42
0.7559110754945283
  0
VERTEX
  5
8C
  8
6
 10
44.866264027151601
 20
1.2963695496562191
 30
0.0
 42
-0.6423424227189699
  0
VERTEX
  5
8D
  8
6
 10
44.015718438645528
 20
0.2962757385032546
 30
0.0
 42
0.4090518603339825
  0
VERTEX
  5
8E
  8
6
 10
43.348404826245542
 20
-0.3614054332761043
 30
0.0
  0
VERTEX
  5
8F
  8
6
 10
42.752085995285597
 20
-3.7675268735845289
 30
0.0
  0
VERTEX
  5
90
  8
6
 10
43.019275197653087
 20
-3.3846612998786441
 30
0.0
  0
VERTEX
  5
91
  8
6
 10
43.286464637811143
 20
-3.3846612998786441
 30
0.0
  0
VERTEX
  5
92
  8
6
 10
43.286464637811143
 20
-4.1236810457048696
 30
0.0
  0
VERTEX
  5
93
  8
6
 10
42.858961723790799
 20
-4.6757199049422971
 30
0.0
 42
0.1843611255739321
  0
VERTEX
  5
94
  8
6
 10
42.769898418544237
 20
-4.9695471148663719
 30
0.0
  0
VERTEX
  5
95
  8
6
 10
42.618491156311158
 20
-6.5188175484915973
 30
0.0
  0
VERTEX
  5
96
  8
6
 10
42.948024791246553
 20
-6.1804711566765027
 30
0.0
  0
VERTEX
  5
97
  8
6
 10
43.366621255846887
 20
-6.1804711566765027
 30
0.0
  0
VERTEX
  5
98
  8
6
 10
43.366621255846887
 20
-6.7770293770531671
 30
0.0
 42
0.0684077743269264
  0
VERTEX
  5
99
  8
6
 10
42.94802455345598
 20
-7.5872798856039481
 30
0.0
 42
-0.1973402514324094
  0
VERTEX
  5
9A
  8
6
 10
42.015678418179732
 20
-8.1927373401815657
 30
0.0
 42
-0.1973402514324094
  0
VERTEX
  5
9B
  8
6
 10
41.083332282903712
 20
-7.5872798856039481
 30
0.0
 42
0.0684077743269264
  0
VERTEX
  5
9C
  8
6
 10
40.664735580512797
 20
-6.7770293770531671
 30
0.0
  0
VERTEX
  5
9D
  8
6
 10
40.664735580512797
 20
-6.1804711566765027
 30
0.0
  0
VERTEX
  5
9E
  8
6
 10
41.083332045113131
 20
-6.1804711566765027
 30
0.0
  0
VERTEX
  5
9F
  8
6
 10
41.412865680048291
 20
-6.5188175484915973
 30
0.0
  0
VERTEX
  5
A0
  8
6
 10
41.261458417815447
 20
-4.9695471148663719
 30
0.0
 42
0.1843611255739321
  0
VERTEX
  5
A1
  8
6
 10
41.172395112568893
 20
-4.6757199049422971
 30
0.0
  0
VERTEX
  5
A2
  8
6
 10
40.744892198548541
 20
-4.1236810457048696
 30
0.0
  0
VERTEX
  5
A3
  8
6
 10
40.744892198548541
 20
-3.3846612998786441
 30
0.0
  0
VERTEX
  5
A4
  8
6
 10
41.012081638706597
 20
-3.3846612998786441
 30
0.0
  0
VERTEX
  5
A5
  8
6
 10
41.279270841074087
 20
-3.7675268735845289
 30
0.0
  0
VERTEX
  5
A6
  8
6
 10
40.682952010113922
 20
-0.3614054332761043
 30
0.0
 42
0.4090518603339825
  0
VERTEX
  5
A7
  8
6
 10
40.015638397714149
 20
0.2962757385032546
 30
0.0
 42
-0.6423424227189699
  0
VERTEX
  5
A8
  8
6
 10
39.16509280920809
 20
1.2963695496562191
 30
0.0
 42
0.7559110754945283
  0
VERTEX
  5
A9
  8
6
 10
38.805635596779432
 20
1.6348894538200509
 30
0.0
 42
-0.2033693789354615
  0
VERTEX
  5
AA
  8
6
 10
38.198840660208809
 20
3.0368511296182978
 30
0.0
 42
-0.3387580823380076
  0
VERTEX
  5
AB
  8
6
 10
39.659008991893643
 20
4.4409679076602506
 30
0.0
 42
-0.8431110190690914
  0
VERTEX
  5
AC
  8
6
 10
40.484368981939717
 20
4.4683640377302254
 30
0.0
  0
VERTEX
  5
AD
  8
6
 10
41.619509574032008
 20
4.4683640377302254
 30
0.0
 42
-0.266153914150987
  0
SEQEND
  5
AE
  8
6
  0
POINT
  5
31
  8
5
 10
42.015678418179732
 20
0.8013266883911001
 30
0.0
  0
DIMENSION
  5
33
  8
1
  2
*D1
 10
58.207762127886781
 20
4.8013266883910948
 30
0.0
 11
55.457762127886781
 21
2.801326688391105
 31
0.0
 13
42.015678418179732
 23
0.8013266883911001
 33
0.0
 14
42.015678418179732
 24
4.8013266883911001
 34
0.0
 50
90.0
  0
POLYLINE
  5
43
  8
5
 66
     1
 10
0.0
 20
0.0
 30
0.0
  0
VERTEX
  5
AF
  8
5
 10
31.765678418179728
 20
19.8013266883911
 30
0.0
  0
VERTEX
  5
B0
  8
5
 10
31.765678418179728
 20
4.8013266883911001
 30
0.0
  0
VERTEX
  5
B1
  8
5
 10
54.569216178063471
 20
4.8013266883911001
 30
0.0
  0
SEQEND
  5
B2
  8
5
  0
TEXT
  5
44
  8
1
 10
33.971108763234717
 20
11.48388965574031
 30
0.0
 40
2.4999999499999999
  1
Hebgo 681
  0
POLYLINE
  5
45
  8
6
 66
     1
 10
0.0
 20
0.0
 30
0.0
 70
     1
  0
VERTEX
  5
B3
  8
6
 10
42.015678418179732
 20
3.8386961478988719
 30
0.0
  0
VERTEX
  5
B4
  8
6
 10
43.822939880644533
 20
3.8386961478988719
 30
0.0
 42
-0.165603526357484
  0
VERTEX
  5
B5
  8
6
 10
44.973979632291268
 20
3.2110295652748841
 30
0.0
 42
-1.0505086536645001
  0
VERTEX
  5
B6
  8
6
 10
44.980519588996678
 20
2.779508834532634
 30
0.0
 42
-0.2203279204325583
  0
VERTEX
  5
B7
  8
6
 10
43.855639901961922
 20
1.6484011902530249
 30
0.0
 42
-0.120775076167489
  0
VERTEX
  5
B8
  8
6
 10
42.015678418179732
 20
1.22218836572847
 30
0.0
 42
-0.120775076167489
  0
VERTEX
  5
B9
  8
6
 10
40.175716934397762
 20
1.6484011902530249
 30
0.0
 42
-0.2203279204325583
  0
VERTEX
  5
BA
  8
6
 10
39.050837247362999
 20
2.779508834532634
 30
0.0
 42
-1.0505086536645001
  0
VERTEX
  5
BB
  8
6
 10
39.057377204068409
 20
3.2110295652748841
 30
0.0
 42
-0.165603526357484
  0
VERTEX
  5
BC
  8
6
 10
40.208416955715158
 20
3.8386961478988719
 30
0.0
  0
SEQEND
  5
BD
  8
6
  0
ENDSEC
  0
EOF
