  0
SECTION
  2
HEADER
  9
$ACADVER
  1
AC1009
  9
$INSBASE
 10
0.0
 20
0.0
 30
0.0
  9
$EXTMIN
 10
-37.193297510027492
 20
-7.003783314725978
 30
-0.0000000000112498
  9
$EXTMAX
 10
18.402100154666861
 20
90.911865864079346
 30
0.0000000000002956
  9
$LIMMIN
 10
-150.0
 20
-150.0
  9
$LIMMAX
 10
150.0
 20
150.0
  9
$ORTHOMODE
 70
     0
  9
$REGENMODE
 70
     1
  9
$FILLMODE
 70
     1
  9
$QTEXTMODE
 70
     0
  9
$MIRRTEXT
 70
     0
  9
$DRAGMODE
 70
     2
  9
$LTSCALE
 40
3.0
  9
$OSMODE
 70
   111
  9
$ATTMODE
 70
     1
  9
$TEXTSIZE
 40
3.5
  9
$TRACEWID
 40
1.0
  9
$TEXTSTYLE
  7
BESCHLAG
  9
$CLAYER
  8
0
  9
$CELTYPE
  6
BYLAYER
  9
$CECOLOR
 62
   256
  9
$DIMSCALE
 40
1.0
  9
$DIMASZ
 40
2.0
  9
$DIMEXO
 40
2.0
  9
$DIMDLI
 40
0.0
  9
$DIMRND
 40
0.0
  9
$DIMDLE
 40
1.0
  9
$DIMEXE
 40
1.0
  9
$DIMTP
 40
0.0
  9
$DIMTM
 40
0.0
  9
$DIMTXT
 40
3.5
  9
$DIMCEN
 40
0.0
  9
$DIMTSZ
 40
0.0
  9
$DIMTOL
 70
     0
  9
$DIMLIM
 70
     0
  9
$DIMTIH
 70
     0
  9
$DIMTOH
 70
     0
  9
$DIMSE1
 70
     0
  9
$DIMSE2
 70
     0
  9
$DIMTAD
 70
     1
  9
$DIMZIN
 70
     8
  9
$DIMBLK
  1

  9
$DIMASO
 70
     1
  9
$DIMSHO
 70
     1
  9
$DIMPOST
  1

  9
$DIMAPOST
  1

  9
$DIMALT
 70
     0
  9
$DIMALTD
 70
     2
  9
$DIMALTF
 40
0.039370078740157
  9
$DIMLFAC
 40
1.0
  9
$DIMTOFL
 70
     1
  9
$DIMTVP
 40
0.0
  9
$DIMTIX
 70
     1
  9
$DIMSOXD
 70
     0
  9
$DIMSAH
 70
     1
  9
$DIMBLK1
  1
OBLIQUE
  9
$DIMBLK2
  1
OBLIQUE
  9
$DIMSTYLE
  2
OPO-SSTRICH
  9
$DIMCLRD
 70
   256
  9
$DIMCLRE
 70
   256
  9
$DIMCLRT
 70
   256
  9
$DIMTFAC
 40
0.7114285714285716
  9
$DIMGAP
 40
1.0
  9
$LUNITS
 70
     2
  9
$LUPREC
 70
     1
  9
$SKETCHINC
 40
1.0
  9
$FILLETRAD
 40
0.0
  9
$AUNITS
 70
     0
  9
$AUPREC
 70
     1
  9
$MENU
  1
D:\ACL_CGWG\CGTAB13
  9
$ELEVATION
 40
0.0
  9
$PELEVATION
 40
0.0
  9
$THICKNESS
 40
0.0
  9
$LIMCHECK
 70
     0
  9
$BLIPMODE
 70
     0
  9
$CHAMFERA
 40
1.0
  9
$CHAMFERB
 40
1.0
  9
$SKPOLY
 70
     0
  9
$TDCREATE
 40
2451739.8667785991
  9
$TDUPDATE
 40
2452087.6101527321
  9
$TDINDWG
 40
0.0008173032
  9
$TDUSRTIMER
 40
0.0008171296
  9
$USRTIMER
 70
     1
  9
$ANGBASE
 50
0.0
  9
$ANGDIR
 70
     0
  9
$PDMODE
 70
    35
  9
$PDSIZE
 40
5.0
  9
$PLINEWID
 40
0.0
  9
$COORDS
 70
     1
  9
$SPLFRAME
 70
     0
  9
$SPLINETYPE
 70
     6
  9
$SPLINESEGS
 70
     8
  9
$ATTDIA
 70
     1
  9
$ATTREQ
 70
     1
  9
$HANDLING
 70
-16383
  9
$HANDSEED
  5
4D5
  9
$SURFTAB1
 70
    12
  9
$SURFTAB2
 70
    12
  9
$SURFTYPE
 70
     6
  9
$SURFU
 70
    12
  9
$SURFV
 70
    12
  9
$UCSNAME
  2

  9
$UCSORG
 10
0.0
 20
0.0
 30
0.0
  9
$UCSXDIR
 10
1.0
 20
0.0
 30
0.0
  9
$UCSYDIR
 10
0.0
 20
1.0
 30
0.0
  9
$PUCSNAME
  2

  9
$PUCSORG
 10
0.0
 20
0.0
 30
0.0
  9
$PUCSXDIR
 10
1.0
 20
0.0
 30
0.0
  9
$PUCSYDIR
 10
0.0
 20
1.0
 30
0.0
  9
$USERI1
 70
     0
  9
$USERI2
 70
     0
  9
$USERI3
 70
     0
  9
$USERI4
 70
     0
  9
$USERI5
 70
     0
  9
$USERR1
 40
0.0
  9
$USERR2
 40
0.0
  9
$USERR3
 40
0.0
  9
$USERR4
 40
0.0
  9
$USERR5
 40
0.0
  9
$WORLDVIEW
 70
     1
  9
$SHADEDGE
 70
     3
  9
$SHADEDIF
 70
    70
  9
$TILEMODE
 70
     1
  9
$MAXACTVP
 70
    48
  9
$PLIMCHECK
 70
     0
  9
$PEXTMIN
 10
1.0000000000000000E+020
 20
1.0000000000000000E+020
 30
1.0000000000000000E+020
  9
$PEXTMAX
 10
-1.0000000000000000E+020
 20
-1.0000000000000000E+020
 30
-1.0000000000000000E+020
  9
$PLIMMIN
 10
0.0
 20
0.0
  9
$PLIMMAX
 10
420.0
 20
297.0
  9
$UNITMODE
 70
     0
  9
$VISRETAIN
 70
     1
  9
$PLINEGEN
 70
     0
  9
$PSLTSCALE
 70
     1
  0
ENDSEC
  0
SECTION
  2
TABLES
  0
TABLE
  2
VPORT
 70
     2
  0
VPORT
  2
*ACTIVE
 70
     0
 10
0.0
 20
0.0
 11
1.0
 21
1.0
 12
-9.3955986776803186
 22
41.954041274676683
 13
0.0
 23
0.0
 14
0.5
 24
0.5
 15
10.0
 25
10.0
 16
0.0
 26
0.0
 36
1.0
 17
0.0
 27
0.0
 37
0.0
 40
98.710634151840281
 41
1.6070460704607039
 42
50.0
 43
0.0
 44
0.0
 50
0.0
 51
0.0
 71
     0
 72
   800
 73
     1
 74
     1
 75
     0
 76
     0
 77
     0
 78
     0
  0
ENDTAB
  0
TABLE
  2
LTYPE
 70
     2
  0
LTYPE
  2
CONTINUOUS
 70
     0
  3
_______________________________________________
 72
    65
 73
     2
 40
1.0
 49
1.0
 49
0.0
  0
LTYPE
  2
STRICHPUNKT
 70
     0
  3
__ . __ . __ . __ . __ . __ . __ . __ . __ . __
 72
    65
 73
     4
 40
1.0
 49
0.5
 49
-0.25
 49
0.0
 49
-0.25
  0
ENDTAB
  0
TABLE
  2
LAYER
 70
     7
  0
LAYER
  2
0
 70
     0
 62
    30
  6
CONTINUOUS
  0
LAYER
  2
1
 70
     0
 62
     2
  6
CONTINUOUS
  0
LAYER
  2
2
 70
     0
 62
     9
  6
CONTINUOUS
  0
LAYER
  2
4
 70
     1
 62
     4
  6
CONTINUOUS
  0
LAYER
  2
5
 70
     0
 62
     1
  6
CONTINUOUS
  0
LAYER
  2
6
 70
     0
 62
     3
  6
CONTINUOUS
  0
LAYER
  2
DEFPOINTS
 70
     0
 62
     7
  6
CONTINUOUS
  0
ENDTAB
  0
TABLE
  2
STYLE
 70
     2
  0
STYLE
  2
STANDARD
 70
     0
 40
0.0
 41
1.0
 50
0.0
 71
     0
 42
2.5
  3
txt
  4

  0
STYLE
  2
BESCHLAG
 70
     0
 40
0.0
 41
1.0
 50
0.0
 71
     0
 42
3.5
  3
txt
  4

  0
ENDTAB
  0
TABLE
  2
VIEW
 70
     0
  0
ENDTAB
  0
TABLE
  2
UCS
 70
     0
  0
ENDTAB
  0
TABLE
  2
APPID
 70
     1
  0
APPID
  2
ACAD
 70
     0
  0
ENDTAB
  0
TABLE
  2
DIMSTYLE
 70
     1
  0
DIMSTYLE
  2
OPO-SSTRICH
 70
     0
  3

  4

  5

  6
OBLIQUE
  7
OBLIQUE
 40
1.0
 41
2.0
 42
2.0
 43
0.0
 44
1.0
 45
0.0
 46
1.0
 47
0.0
 48
0.0
140
3.5
141
0.0
142
0.0
143
0.039370078740157
144
1.0
145
0.0
146
0.7114285714285716
147
1.0
 71
     0
 72
     0
 73
     0
 74
     0
 75
     0
 76
     0
 77
     1
 78
     8
170
     0
171
     2
172
     1
173
     1
174
     1
175
     0
176
   256
177
   256
178
   256
  0
ENDTAB
  0
ENDSEC
  0
SECTION
  2
BLOCKS
  0
BLOCK
  8
0
  2
$MODEL_SPACE
 70
     0
 10
0.0
 20
0.0
 30
0.0
  3
$MODEL_SPACE
  1

  0
ENDBLK
  5
1C
  8
0
  0
BLOCK
 67
     1
  8
0
  2
$PAPER_SPACE
 70
     0
 10
0.0
 20
0.0
 30
0.0
  3
$PAPER_SPACE
  1

  0
ENDBLK
  5
19
 67
     1
  8
0
  0
BLOCK
  8
0
  2
_OBLIQUE
 70
     0
 10
0.0
 20
0.0
 30
0.0
  3
_OBLIQUE
  1

  0
LINE
  5
204
  8
0
 62
     0
 10
-0.5
 20
-0.5
 30
0.0
 11
0.5
 21
0.5
 31
0.0
  0
ENDBLK
  5
206
  8
0
  0
BLOCK
  8
0
  2
NULLPUNKT
 70
     0
 10
0.0
 20
0.0
 30
0.0
  3
NULLPUNKT
  1

  0
SOLID
  5
254
  8
5
 10
0.0
 20
0.0
 30
0.0
 11
2.0
 21
0.0
 31
0.0
 12
0.0
 22
-2.0
 32
0.0
 13
0.0
 23
-2.0
 33
0.0
  0
SOLID
  5
255
  8
5
 10
0.0
 20
0.0
 30
0.0
 11
-2.0
 21
0.0
 31
0.0
 12
0.0
 22
2.0
 32
0.0
 13
0.0
 23
2.0
 33
0.0
  0
POLYLINE
  5
256
  8
5
 66
     1
 10
0.0
 20
0.0
 30
0.0
  0
VERTEX
  5
3D9
  8
5
 10
0.0
 20
2.0
 30
0.0
  0
VERTEX
  5
3DA
  8
5
 10
0.0
 20
-2.0
 30
0.0
  0
SEQEND
  5
3DB
  8
5
  0
POLYLINE
  5
257
  8
5
 66
     1
 10
0.0
 20
0.0
 30
0.0
  0
VERTEX
  5
3DC
  8
5
 10
-2.0
 20
0.0
 30
0.0
  0
VERTEX
  5
3DD
  8
5
 10
2.0
 20
0.0
 30
0.0
  0
SEQEND
  5
3DE
  8
5
  0
CIRCLE
  5
258
  8
5
 10
0.0
 20
0.0
 30
0.0
 40
2.0
  0
ENDBLK
  5
25A
  8
0
  0
BLOCK
  8
0
  2
*X2
 70
     1
 10
0.0
 20
0.0
 30
0.0
  3
*X2
  1

  0
LINE
  5
26C
  8
0
 62
     0
 10
662.38707822434071
 20
32.779200255838859
 30
0.0
 11
663.88707822434048
 21
34.279200255838823
 31
0.0
  0
LINE
  5
26D
  8
0
 62
     0
 10
678.13534034324425
 20
48.527462374742441
 30
0.0
 11
679.63534034324425
 21
50.027462374742441
 31
0.0
  0
LINE
  5
26E
  8
0
 62
     0
 10
668.63534034324425
 20
39.027462374742413
 30
0.0
 11
670.13534034324425
 21
40.527462374742413
 31
0.0
  0
LINE
  5
26F
  8
0
 62
     0
 10
662.38707822434071
 20
34.476256530686562
 30
0.0
 11
663.88707822434048
 21
35.97625653068652
 31
0.0
  0
LINE
  5
270
  8
0
 62
     0
 10
676.43828406839646
 20
48.527462374742441
 30
0.0
 11
677.93828406839657
 21
50.027462374742441
 31
0.0
  0
LINE
  5
271
  8
0
 62
     0
 10
666.93828406839646
 20
39.027462374742413
 30
0.0
 11
668.43828406839646
 21
40.527462374742413
 31
0.0
  0
LINE
  5
272
  8
0
 62
     0
 10
662.38707822434071
 20
36.173312805534252
 30
0.0
 11
663.88707822434048
 21
37.673312805534223
 31
0.0
  0
LINE
  5
273
  8
0
 62
     0
 10
674.74122779354877
 20
48.527462374742441
 30
0.0
 11
676.24122779354889
 21
50.027462374742441
 31
0.0
  0
LINE
  5
274
  8
0
 62
     0
 10
665.24122779354866
 20
39.027462374742413
 30
0.0
 11
666.74122779354866
 21
40.527462374742413
 31
0.0
  0
LINE
  5
275
  8
0
 62
     0
 10
662.38707822434071
 20
37.870369080381948
 30
0.0
 11
665.08948023917333
 21
40.572771095214577
 31
0.0
  0
LINE
  5
276
  8
0
 62
     0
 10
673.04417151870098
 20
48.527462374742441
 30
0.0
 11
674.54417151870121
 21
50.027462374742441
 31
0.0
  0
LINE
  5
277
  8
0
 62
     0
 10
662.38707822434071
 20
39.567425355229659
 30
0.0
 11
664.38707822434048
 21
41.567425355229567
 31
0.0
  0
LINE
  5
278
  8
0
 62
     0
 10
671.3471152438533
 20
48.527462374742441
 30
0.0
 11
672.84711524385341
 21
50.027462374742441
 31
0.0
  0
LINE
  5
279
  8
0
 62
     0
 10
662.38707822434071
 20
41.264481630077427
 30
0.0
 11
664.38707822434048
 21
43.264481630077348
 31
0.0
  0
LINE
  5
27A
  8
0
 62
     0
 10
669.65005896900561
 20
48.527462374742441
 30
0.0
 11
671.15005896900573
 21
50.027462374742441
 31
0.0
  0
LINE
  5
27B
  8
0
 62
     0
 10
662.38707822434071
 20
42.96153790492513
 30
0.0
 11
663.97070599487472
 21
44.545165675459167
 31
0.0
  0
LINE
  5
27C
  8
0
 62
     0
 10
667.95300269415793
 20
48.527462374742441
 30
0.0
 11
669.45300269415793
 21
50.027462374742441
 31
0.0
  0
LINE
  5
27D
  8
0
 62
     0
 10
662.38707822434071
 20
44.658594179772827
 30
0.0
 11
664.38707822434048
 21
46.658594179772777
 31
0.0
  0
LINE
  5
27E
  8
0
 62
     0
 10
666.25594641931025
 20
48.527462374742441
 30
0.0
 11
667.75594641931025
 21
50.027462374742441
 31
0.0
  0
LINE
  5
27F
  8
0
 62
     0
 10
662.38707822434071
 20
46.35565045462053
 30
0.0
 11
666.05889014446257
 21
50.027462374742441
 31
0.0
  0
LINE
  5
280
  8
0
 62
     0
 10
662.38707822434071
 20
48.05270672946822
 30
0.0
 11
664.45838415196545
 21
50.124012657093161
 31
0.0
  0
LINE
  5
281
  8
0
 62
     0
 10
662.38707822434071
 20
49.749763004316009
 30
0.0
 11
663.88707822434048
 21
51.249763004315909
 31
0.0
  0
LINE
  5
282
  8
0
 62
     0
 10
672.71902628370242
 20
60.08171106367778
 30
0.0
 11
673.53707822434046
 21
60.899763004315872
 31
0.0
  0
LINE
  5
283
  8
0
 62
     0
 10
662.38707822434071
 20
51.446819279163698
 30
0.0
 11
663.88707822434048
 21
52.946819279163613
 31
0.0
  0
LINE
  5
284
  8
0
 62
     0
 10
681.19445374242616
 20
70.254194797249355
 30
0.0
 11
682.24958916421485
 21
71.309330219037875
 31
0.0
  0
LINE
  5
285
  8
0
 62
     0
 10
672.03707822434046
 20
61.096819279163498
 30
0.0
 11
675.53381618314575
 21
64.593557237968952
 31
0.0
  0
LINE
  5
286
  8
0
 62
     0
 10
662.38707822434071
 20
53.143875554011402
 30
0.0
 11
663.88707822434048
 21
54.643875554011309
 31
0.0
  0
LINE
  5
287
  8
0
 62
     0
 10
680.15674546483137
 20
70.913542794502263
 30
0.0
 11
681.16879407769943
 21
71.925591407370163
 31
0.0
  0
LINE
  5
288
  8
0
 62
     0
 10
671.52656751295785
 20
62.2833648426287
 30
0.0
 11
672.72234245831999
 21
63.479139787990832
 31
0.0
  0
LINE
  5
289
  8
0
 62
     0
 10
674.03540081109213
 20
64.792198140762892
 30
0.0
 11
675.21964978575818
 21
65.976447115428911
 31
0.0
  0
LINE
  5
28A
  8
0
 62
     0
 10
662.38707822434071
 20
54.840931828859098
 30
0.0
 11
663.88707822434048
 21
56.340931828859013
 31
0.0
  0
LINE
  5
28B
  8
0
 62
     0
 10
679.44429263797736
 20
71.898146242495883
 30
0.0
 11
680.65576374104796
 21
73.109617345566534
 31
0.0
  0
LINE
  5
28C
  8
0
 62
     0
 10
670.60282247796249
 20
63.056676082480919
 30
0.0
 11
671.68456735673408
 21
64.138420961252564
 31
0.0
  0
LINE
  5
28D
  8
0
 62
     0
 10
662.38707822434071
 20
56.537988103706802
 30
0.0
 11
663.88707822434048
 21
58.037988103706709
 31
0.0
  0
LINE
  5
28E
  8
0
 62
     0
 10
678.26409787086402
 20
72.415007750230217
 30
0.0
 11
682.22626562993401
 21
76.377175509300102
 31
0.0
  0
LINE
  5
28F
  8
0
 62
     0
 10
670.08192661360329
 20
64.232836492969383
 30
0.0
 11
672.78707822434035
 21
66.937988103706601
 31
0.0
  0
LINE
  5
290
  8
0
 62
     0
 10
662.38707822434071
 20
58.235044378554583
 30
0.0
 11
663.88707822434048
 21
59.735044378554477
 31
0.0
  0
LINE
  5
291
  8
0
 62
     0
 10
674.24881961292226
 20
70.096785767136353
 30
0.0
 11
678.3468958242762
 21
74.194861978490096
 31
0.0
  0
LINE
  5
292
  8
0
 62
     0
 10
671.28707822434046
 20
67.135044378554497
 30
0.0
 11
672.78707822434035
 21
68.635044378554383
 31
0.0
  0
LINE
  5
293
  8
0
 62
     0
 10
662.38707822434071
 20
59.93210065340228
 30
0.0
 11
663.88707822434048
 21
61.432100653402188
 31
0.0
  0
LINE
  5
294
  8
0
 62
     0
 10
670.23350807709619
 20
67.778530506157949
 30
0.0
 11
674.33161756633467
 21
71.87663999539636
 31
0.0
  0
LINE
  5
295
  8
0
 62
     0
 10
662.38707822434071
 20
61.629156928249976
 30
0.0
 11
663.88707822434048
 21
63.129156928249877
 31
0.0
  0
LINE
  5
296
  8
0
 62
     0
 10
666.21826309703988
 20
65.460341800949223
 30
0.0
 11
670.31633930839325
 21
69.55841801230261
 31
0.0
  0
LINE
  5
297
  8
0
 62
     0
 10
662.388114446092
 20
63.327249424849029
 30
0.0
 11
666.30106105045195
 21
67.240196029208875
 31
0.0
  0
LINE
  5
298
  8
0
 62
     0
 10
662.38707822434071
 20
31.082143980991081
 30
0.0
 11
663.88707822434048
 21
32.582143980991042
 31
0.0
  0
LINE
  5
299
  8
0
 62
     0
 10
679.25584743516595
 20
47.950913191816461
 30
0.0
 11
681.33239661809205
 21
50.027462374742441
 31
0.0
  0
LINE
  5
29A
  8
0
 62
     0
 10
670.33239661809205
 20
39.027462374742413
 30
0.0
 11
671.83239661809193
 21
40.527462374742413
 31
0.0
  0
LINE
  5
29B
  8
0
 62
     0
 10
662.38707822434071
 20
29.385087706143391
 30
0.0
 11
663.88707822434048
 21
30.885087706143349
 31
0.0
  0
LINE
  5
29C
  8
0
 62
     0
 10
680.35183579974557
 20
47.349845281548347
 30
0.0
 11
682.05172009250248
 21
49.049729574305381
 31
0.0
  0
LINE
  5
29D
  8
0
 62
     0
 10
672.02945289293973
 20
39.027462374742413
 30
0.0
 11
673.52945289293973
 21
40.527462374742413
 31
0.0
  0
LINE
  5
29E
  8
0
 62
     0
 10
662.38707822434071
 20
27.688031431295681
 30
0.0
 11
663.88707822434048
 21
29.188031431295649
 31
0.0
  0
LINE
  5
29F
  8
0
 62
     0
 10
673.72650916778741
 20
39.027462374742413
 30
0.0
 11
675.22650916778741
 21
40.527462374742413
 31
0.0
  0
LINE
  5
2A0
  8
0
 62
     0
 10
662.38707822434071
 20
25.990975156447991
 30
0.0
 11
663.88707822434048
 21
27.490975156447949
 31
0.0
  0
LINE
  5
2A1
  8
0
 62
     0
 10
675.42356544263498
 20
39.027462374742413
 30
0.0
 11
676.92356544263509
 21
40.527462374742413
 31
0.0
  0
LINE
  5
2A2
  8
0
 62
     0
 10
662.38707822434071
 20
24.293918881600291
 30
0.0
 11
663.88707822434048
 21
25.793918881600248
 31
0.0
  0
LINE
  5
2A3
  8
0
 62
     0
 10
679.33600107225095
 20
41.242841729510623
 30
0.0
 11
679.99985069602928
 21
41.906691353288998
 31
0.0
  0
LINE
  5
2A4
  8
0
 62
     0
 10
677.12062171748266
 20
39.027462374742413
 30
0.0
 11
678.62062171748278
 21
40.527462374742413
 31
0.0
  0
LINE
  5
2A5
  8
0
 62
     0
 10
662.38707822434071
 20
22.596862606752509
 30
0.0
 11
663.88707822434048
 21
24.09686260675247
 31
0.0
  0
LINE
  5
2A6
  8
0
 62
     0
 10
678.81767799233046
 20
39.027462374742413
 30
0.0
 11
681.07886402288898
 21
41.288648405300897
 31
0.0
  0
LINE
  5
2A7
  8
0
 62
     0
 10
662.38707822434071
 20
20.899806331904809
 30
0.0
 11
663.88707822434048
 21
22.39980633190477
 31
0.0
  0
LINE
  5
2A8
  8
0
 62
     0
 10
680.51473426717826
 20
39.027462374742413
 30
0.0
 11
682.15787734974867
 21
40.670605457312817
 31
0.0
  0
LINE
  5
2A9
  8
0
 62
     0
 10
662.38707822434071
 20
19.202750057057109
 30
0.0
 11
663.88707822434048
 21
20.70275005705707
 31
0.0
  0
LINE
  5
2AA
  8
0
 62
     0
 10
682.21179054202594
 20
39.027462374742413
 30
0.0
 11
682.38332569453814
 21
39.19899752725464
 31
0.0
  0
LINE
  5
2AB
  8
0
 62
     0
 10
662.38707822434071
 20
17.50569378220942
 30
0.0
 11
663.88707822434048
 21
19.005693782209381
 31
0.0
  0
LINE
  5
2AC
  8
0
 62
     0
 10
662.38707822434071
 20
15.808637507361709
 30
0.0
 11
663.99527469958161
 21
17.416833982602629
 31
0.0
  0
LINE
  5
2AD
  8
0
 62
     0
 10
662.38707822434071
 20
14.11158123251394
 30
0.0
 11
665.50295936656914
 21
17.227462374742451
 31
0.0
  0
LINE
  5
2AE
  8
0
 62
     0
 10
670.5913129094597
 20
22.315815917632989
 30
0.0
 11
672.7527450368076
 21
24.477248044980922
 31
0.0
  0
LINE
  5
2AF
  8
0
 62
     0
 10
666.3870782243406
 20
18.111581232513821
 30
0.0
 11
668.50295936656914
 21
20.227462374742451
 31
0.0
  0
LINE
  5
2B0
  8
0
 62
     0
 10
662.38707822434071
 20
12.41452495766624
 30
0.0
 11
663.88707822434048
 21
13.914524957666149
 31
0.0
  0
LINE
  5
2B1
  8
0
 62
     0
 10
672.94055750323821
 20
22.968004236563839
 30
0.0
 11
674.11058301587479
 21
24.138029749200381
 31
0.0
  0
LINE
  5
2B2
  8
0
 62
     0
 10
665.70001564141683
 20
15.72746237474246
 30
0.0
 11
667.88707822434048
 21
17.91452495766617
 31
0.0
  0
LINE
  5
2B3
  8
0
 62
     0
 10
668.70001564141683
 20
18.727462374742451
 30
0.0
 11
670.20001564141694
 21
20.227462374742451
 31
0.0
  0
LINE
  5
2B4
  8
0
 62
     0
 10
662.38707822434071
 20
10.71746868281854
 30
0.0
 11
663.88707822434048
 21
12.217468682818451
 31
0.0
  0
LINE
  5
2B5
  8
0
 62
     0
 10
673.92166950371211
 20
22.252059962190081
 30
0.0
 11
675.0125507728203
 21
23.342941231298148
 31
0.0
  0
LINE
  5
2B6
  8
0
 62
     0
 10
666.3870782243406
 20
14.717468682818451
 30
0.0
 11
667.88707822434048
 21
16.21746868281847
 31
0.0
  0
LINE
  5
2B7
  8
0
 62
     0
 10
670.39707191626462
 20
18.727462374742451
 30
0.0
 11
672.26248063689275
 21
20.592871095370711
 31
0.0
  0
LINE
  5
2B8
  8
0
 62
     0
 10
662.38707822434071
 20
9.0204124079708468
 30
0.0
 11
663.88707822434048
 21
10.520412407970751
 31
0.0
  0
LINE
  5
2B9
  8
0
 62
     0
 10
671.28707822434035
 20
17.92041240797063
 30
0.0
 11
675.5060520611587
 21
22.13938624478887
 31
0.0
  0
LINE
  5
2BA
  8
0
 62
     0
 10
666.3870782243406
 20
13.020412407970751
 30
0.0
 11
667.88707822434048
 21
14.520412407970779
 31
0.0
  0
LINE
  5
2BB
  8
0
 62
     0
 10
662.38707822434071
 20
7.3233561331231476
 30
0.0
 11
663.88707822434048
 21
8.8233561331230543
 31
0.0
  0
LINE
  5
2BC
  8
0
 62
     0
 10
673.79118446595987
 20
18.727462374742451
 30
0.0
 11
675.32456518965159
 21
20.26084309843402
 31
0.0
  0
LINE
  5
2BD
  8
0
 62
     0
 10
667.59805249904252
 20
12.534330407825021
 30
0.0
 11
668.38021019125802
 21
13.31648810004048
 31
0.0
  0
LINE
  5
2BE
  8
0
 62
     0
 10
671.28707822434035
 20
16.22335613312293
 30
0.0
 11
672.78707822434058
 21
17.723356133123112
 31
0.0
  0
LINE
  5
2BF
  8
0
 62
     0
 10
663.28824074080762
 20
6.5274623747424121
 30
0.0
 11
663.88707822434048
 21
7.1262998582752761
 31
0.0
  0
LINE
  5
2C0
  8
0
 62
     0
 10
680.88707822434048
 20
24.126299858275281
 30
0.0
 11
682.20162709018166
 21
25.440848724116449
 31
0.0
  0
LINE
  5
2C1
  8
0
 62
     0
 10
671.28707822434035
 20
14.52629985827515
 30
0.0
 11
672.78707822434058
 21
16.026299858275269
 31
0.0
  0
LINE
  5
2C2
  8
0
 62
     0
 10
675.48824074080778
 20
18.727462374742451
 30
0.0
 11
676.98824074080767
 21
20.227462374742458
 31
0.0
  0
LINE
  5
2C3
  8
0
 62
     0
 10
671.15755630698357
 20
12.699721666070641
 30
0.0
 11
672.78707822434035
 21
14.329243583427511
 31
0.0
  0
LINE
  5
2C4
  8
0
 62
     0
 10
680.88707822434048
 20
22.429243583427581
 30
0.0
 11
682.00832743329033
 21
23.55049279237738
 31
0.0
  0
LINE
  5
2C5
  8
0
 62
     0
 10
677.18529701565546
 20
18.727462374742451
 30
0.0
 11
678.68529701565535
 21
20.227462374742458
 31
0.0
  0
LINE
  5
2C6
  8
0
 62
     0
 10
672.68235329050299
 20
12.527462374742409
 30
0.0
 11
672.78707822434035
 21
12.63218730857974
 31
0.0
  0
LINE
  5
2C7
  8
0
 62
     0
 10
682.12616047069776
 20
21.97126955493712
 30
0.0
 11
682.38702368501754
 21
22.232132769256879
 31
0.0
  0
LINE
  5
2C8
  8
0
 62
     0
 10
678.88235329050315
 20
18.727462374742451
 30
0.0
 11
680.38235329050315
 21
20.227462374742458
 31
0.0
  0
LINE
  5
2C9
  8
0
 62
     0
 10
680.88707822434048
 20
20.732187308579888
 30
0.0
 11
681.88713540444655
 21
21.732244488685868
 31
0.0
  0
LINE
  5
2CA
  8
0
 62
     0
 10
680.57940956535083
 20
18.727462374742451
 30
0.0
 11
682.25979930643609
 21
20.407852115827708
 31
0.0
  0
ENDBLK
  5
2CC
  8
0
  0
BLOCK
  8
0
  2
*D3
 70
     1
 10
0.0
 20
0.0
 30
0.0
  3
*D3
  1

  0
LINE
  5
313
  8
1
 10
-22.0
 20
15.0
 30
0.0
 11
-32.76608768302458
 21
15.0
 31
0.0
  0
LINE
  5
314
  8
1
 10
-22.0
 20
8.0
 30
0.0
 11
-32.76608768302458
 21
8.0000000000000036
 31
0.0
  0
LINE
  5
315
  8
1
 10
-31.766087683024569
 20
16.0
 30
0.0
 11
-31.76608768302458
 21
7.0000000000000027
 31
0.0
  0
INSERT
  5
316
  8
1
  2
_OBLIQUE
 10
-31.766087683024569
 20
15.0
 30
0.0
 41
2.0
 42
2.0
 43
2.0
 50
90.0
  0
INSERT
  5
317
  8
1
  2
_OBLIQUE
 10
-31.76608768302458
 20
8.0000000000000036
 30
0.0
 41
2.0
 42
2.0
 43
2.0
 50
270.0
  0
TEXT
  5
318
  8
0
 10
-32.76608768302458
 20
10.135572987721689
 30
0.0
 40
3.5
  1
7
 50
90.0
  7
BESCHLAG
  0
POINT
  5
319
  8
DEFPOINTS
 62
     0
 10
-20.0
 20
15.0
 30
0.0
  0
POINT
  5
31A
  8
DEFPOINTS
 62
     0
 10
-20.0
 20
8.0
 30
0.0
  0
POINT
  5
31B
  8
DEFPOINTS
 62
     0
 10
-31.76608768302458
 20
8.0000000000000036
 30
0.0
  0
ENDBLK
  5
312
  8
0
  0
ENDSEC
  0
SECTION
  2
ENTITIES
  0
INSERT
  5
25B
  8
5
  2
NULLPUNKT
 10
0.0
 20
0.0
 30
0.0
  0
TEXT
  5
2F3
  8
1
 10
1.3115457486121611
 20
55.84544876385354
 30
0.0
 40
2.4999999499999999
  1
Hebgo 901
  0
DIMENSION
  5
2F4
  8
1
  2
*D3
 10
-31.76608768302458
 20
8.0000000000000036
 30
0.0
 11
-34.51608768302458
 21
11.499999999999989
 31
0.0
 70
     0
 13
-20.0
 23
15.0
 33
0.0
 14
-20.0
 24
8.0
 34
0.0
 50
90.0
  0
POLYLINE
  5
2F5
  8
6
 66
     1
 10
0.0
 20
0.0
 30
0.0
  0
VERTEX
  5
3DF
  8
6
 10
-11.437830244766239
 20
8.2269336163204798
 30
0.0
 42
-0.0279191771285848
  0
VERTEX
  5
3E0
  8
6
 10
-13.49327308531587
 20
22.463302445744599
 30
0.0
 42
0.1324695894867593
  0
VERTEX
  5
3E1
  8
6
 10
-13.85495422460008
 20
24.62970593492059
 30
0.0
 42
-0.5867084866790316
  0
VERTEX
  5
3E2
  8
6
 10
-12.799999999999949
 20
26.517403212752349
 30
0.0
 42
-0.5867084866791127
  0
VERTEX
  5
3E3
  8
6
 10
-11.745045775399831
 20
24.629705934920249
 30
0.0
 42
0.132607238862008
  0
VERTEX
  5
3E4
  8
6
 10
-12.106503042341499
 20
22.461031223654679
 30
0.0
 42
0.0823704009655956
  0
VERTEX
  5
3E5
  8
6
 10
-9.1878302447662463
 20
8.2269336163204798
 30
0.0
  0
SEQEND
  5
3E6
  8
6
  0
POLYLINE
  5
2F6
  8
6
 66
     1
 10
0.0
 20
0.0
 30
0.0
  0
VERTEX
  5
3E7
  8
6
 10
-10.937830244766239
 20
8.2269336163204798
 30
0.0
 42
-0.0421561373247985
  0
VERTEX
  5
3E8
  8
6
 10
-13.213307557615961
 20
22.449433106164289
 30
0.0
 42
0.1327522819770013
  0
VERTEX
  5
3E9
  8
6
 10
-13.60806915669945
 20
24.7630160462578
 30
0.0
 42
-0.5922717439205512
  0
VERTEX
  5
3EA
  8
6
 10
-12.799999999999949
 20
26.23740321275238
 30
0.0
 42
-0.5922717439206635
  0
VERTEX
  5
3EB
  8
6
 10
-11.99193084330045
 20
24.763016046257569
 30
0.0
 42
0.1328113523651923
  0
VERTEX
  5
3EC
  8
6
 10
-12.38659329935035
 20
22.448393484381651
 30
0.0
 42
0.0687559051268392
  0
VERTEX
  5
3ED
  8
6
 10
-9.6878302447662463
 20
8.2269336163204798
 30
0.0
  0
SEQEND
  5
3EE
  8
6
  0
POLYLINE
  5
2F7
  8
6
 66
     1
 10
0.0
 20
0.0
 30
0.0
  0
VERTEX
  5
3EF
  8
6
 10
-10.53252752875062
 20
8.2269336163204798
 30
0.0
 42
-0.0433958939046891
  0
VERTEX
  5
3F0
  8
6
 10
-12.933331048798429
 20
22.436075705006939
 30
0.0
 42
0.1331579098238507
  0
VERTEX
  5
3F1
  8
6
 10
-13.362701881650761
 20
24.89941552082621
 30
0.0
 42
-0.600780471392009
  0
VERTEX
  5
3F2
  8
6
 10
-12.799999999999949
 20
25.95740321275229
 30
0.0
 42
-0.600780471392009
  0
VERTEX
  5
3F3
  8
6
 10
-12.23729811834891
 20
24.89941552082621
 30
0.0
 42
0.1331579098238511
  0
VERTEX
  5
3F4
  8
6
 10
-12.66666895120124
 20
22.436075705006829
 30
0.0
 42
0.0654887689677891
  0
VERTEX
  5
3F5
  8
6
 10
-10.10166852684813
 20
8.2269336163204798
 30
0.0
  0
SEQEND
  5
3F6
  8
6
  0
POLYLINE
  5
2F8
  8
5
 66
     1
 10
0.0
 20
0.0
 30
0.0
  0
VERTEX
  5
3F7
  8
5
 10
0.0
 20
90.895710566821435
 30
0.0
  0
VERTEX
  5
3F8
  8
5
 10
0.0
 20
0.0
 30
0.0
  0
VERTEX
  5
3F9
  8
5
 10
10.0
 20
0.0
 30
0.0
  0
SEQEND
  5
3FA
  8
5
  0
POLYLINE
  5
2F9
  8
5
 66
     1
 10
0.0
 20
0.0
 30
0.0
  0
VERTEX
  5
3FB
  8
5
 10
-24.02257814698282
 20
8.0
 30
0.0
  0
VERTEX
  5
3FC
  8
5
 10
-0.5
 20
8.0
 30
0.0
  0
VERTEX
  5
3FD
  8
5
 10
-0.5
 20
-7.0
 30
0.0
  0
VERTEX
  5
3FE
  8
5
 10
6.8466679648138324
 20
-7.0
 30
0.0
  0
SEQEND
  5
3FF
  8
5
  0
POLYLINE
  5
2FA
  8
6
 66
     1
 10
0.0
 20
0.0
 30
0.0
 70
     1
  0
VERTEX
  5
400
  8
6
 10
-4.7616130449335961
 20
49.627382269255229
 30
0.0
  0
VERTEX
  5
401
  8
6
 10
-3.5411847139097281
 20
49.200000000000053
 30
0.0
  0
VERTEX
  5
402
  8
6
 10
-2.9325090642558962
 20
50.206393037037508
 30
0.0
  0
VERTEX
  5
403
  8
6
 10
0.0
 20
50.206393037037508
 30
0.0
  0
VERTEX
  5
404
  8
6
 10
0.0
 20
55.79360696296294
 30
0.0
  0
VERTEX
  5
405
  8
6
 10
-2.9325090642558962
 20
55.79360696296294
 30
0.0
  0
VERTEX
  5
406
  8
6
 10
-3.5411847139097281
 20
56.800000000000409
 30
0.0
  0
VERTEX
  5
407
  8
6
 10
-4.7616130449335961
 20
56.372617730745219
 30
0.0
  0
VERTEX
  5
408
  8
6
 10
-4.7616130449335961
 20
53.00000000000022
 30
0.0
  0
SEQEND
  5
409
  8
6
  0
POLYLINE
  5
2FB
  8
6
 66
     1
 10
0.0
 20
0.0
 30
0.0
  0
VERTEX
  5
40A
  8
6
 10
-3.8062503216355021
 20
50.876166442186452
 30
0.0
  0
VERTEX
  5
40B
  8
6
 10
-4.5116130449335961
 20
50.200000000000273
 30
0.0
  0
VERTEX
  5
40C
  8
6
 10
-4.7116130449336424
 20
50.200000000000273
 30
0.0
  0
VERTEX
  5
40D
  8
6
 10
-4.7116130449336424
 20
56.00000000000022
 30
0.0
  0
VERTEX
  5
40E
  8
6
 10
-4.5116130449335961
 20
56.00000000000022
 30
0.0
  0
VERTEX
  5
40F
  8
6
 10
-3.8062503216355021
 20
55.225068117014651
 30
0.0
 42
0.142709741532141
  0
SEQEND
  5
410
  8
6
  0
INSERT
  5
2FC
  8
2
  2
*X2
 10
-682.3870782243406
 20
8.4725376252578144
 30
0.0
1001
ACAD
1000
HATCH
1002
{
1070
    16
1000
_U,I
1040
1.1999999999999991
1040
0.7853981633974483
1070
     0
1002
}
  0
POLYLINE
  5
2FD
  8
6
 66
     1
 10
0.0
 20
0.0
 30
0.0
 70
     1
  0
VERTEX
  5
411
  8
6
 10
-10.48559322033906
 20
70.596497618958438
 30
0.0
 42
-0.6258301644315236
  0
VERTEX
  5
412
  8
6
 10
-11.100000000000129
 20
75.504886114323426
 30
0.0
  0
VERTEX
  5
413
  8
6
 10
-11.0999999999999
 20
75.646925639128312
 30
0.0
 42
0.577350269189626
  0
VERTEX
  5
414
  8
6
 10
-12.14999999999986
 20
76.253143421777395
 30
0.0
  0
VERTEX
  5
415
  8
6
 10
-18.0
 20
72.875644347018124
 30
0.0
 42
0.2679491924311245
  0
VERTEX
  5
416
  8
6
 10
-18.5
 20
72.00961894323359
 30
0.0
  0
VERTEX
  5
417
  8
6
 10
-18.5
 20
59.500000000000227
 30
0.0
 42
0.4142135623730951
  0
VERTEX
  5
418
  8
6
 10
-17.5
 20
58.50000000000022
 30
0.0
  0
VERTEX
  5
419
  8
6
 10
-0.1269386943454265
 20
58.50000000000022
 30
0.0
 42
-0.6681786368568687
  0
VERTEX
  5
41A
  8
6
 10
-0.03501481252124
 20
58.278076118715951
 30
0.0
  0
VERTEX
  5
41B
  8
6
 10
-0.4216695745656125
 20
57.891421354399647
 30
0.0
 42
0.4142135627202392
  0
VERTEX
  5
41C
  8
6
 10
-0.4216695745803918
 20
57.608578641757269
 30
0.0
  0
VERTEX
  5
41D
  8
6
 10
-0.0585786438391551
 20
57.24548771332298
 30
0.0
 42
-0.4931454261992676
  0
VERTEX
  5
41E
  8
6
 10
-0.1000000000001364
 20
56.930861276252251
 30
0.0
  0
VERTEX
  5
41F
  8
6
 10
-2.4251234357873268
 20
55.599064803569043
 30
0.0
 42
-0.4132091454310479
  0
VERTEX
  5
420
  8
6
 10
-2.697733747297888
 20
55.672611915613061
 30
0.0
  0
VERTEX
  5
421
  8
6
 10
-3.4063665882188161
 20
56.900000000000091
 30
0.0
 42
0.2679491924311262
  0
VERTEX
  5
422
  8
6
 10
-3.5795716689756309
 20
57.000000000000227
 30
0.0
  0
VERTEX
  5
423
  8
6
 10
-17.0
 20
57.000000000000227
 30
0.0
 42
0.4142135623730951
  0
VERTEX
  5
424
  8
6
 10
-18.0
 20
56.00000000000022
 30
0.0
  0
VERTEX
  5
425
  8
6
 10
-18.0
 20
53.582842712474758
 30
0.0
 42
-0.198912367379658
  0
VERTEX
  5
426
  8
6
 10
-18.05857864376275
 20
53.44142135623747
 30
0.0
  0
VERTEX
  5
427
  8
6
 10
-18.358578643762709
 20
53.141421354003569
 30
0.0
 42
0.4142135623730962
  0
VERTEX
  5
428
  8
6
 10
-18.358578643762709
 20
52.858578641528773
 30
0.0
  0
VERTEX
  5
429
  8
6
 10
-18.05857864420318
 20
52.558578643838473
 30
0.0
 42
-0.1989123681892413
  0
VERTEX
  5
42A
  8
6
 10
-18.0
 20
52.417157287160528
 30
0.0
  0
VERTEX
  5
42B
  8
6
 10
-18.0
 20
50.000000000000227
 30
0.0
 42
0.4142135623730951
  0
VERTEX
  5
42C
  8
6
 10
-17.0
 20
49.000000000000227
 30
0.0
  0
VERTEX
  5
42D
  8
6
 10
-3.5795716689756309
 20
49.000000000000227
 30
0.0
 42
0.2679491924311262
  0
VERTEX
  5
42E
  8
6
 10
-3.4063665882188161
 20
49.100000000000144
 30
0.0
  0
VERTEX
  5
42F
  8
6
 10
-2.697733747297888
 20
50.327388084387167
 30
0.0
 42
-0.4132091454310479
  0
VERTEX
  5
430
  8
6
 10
-2.4251234357873268
 20
50.400935196431419
 30
0.0
  0
VERTEX
  5
431
  8
6
 10
-0.1000000000001364
 20
49.069138723747983
 30
0.0
 42
-0.4931454261992676
  0
VERTEX
  5
432
  8
6
 10
-0.0585786438391551
 20
48.754512286677482
 30
0.0
  0
VERTEX
  5
433
  8
6
 10
-0.4216695745803918
 20
48.391421358242951
 30
0.0
 42
0.4142135627202392
  0
VERTEX
  5
434
  8
6
 10
-0.4216695745656125
 20
48.108578645600801
 30
0.0
  0
VERTEX
  5
435
  8
6
 10
-0.03501481252124
 20
47.721923881284283
 30
0.0
 42
-0.6681786368568687
  0
VERTEX
  5
436
  8
6
 10
-0.1269386943454265
 20
47.500000000000227
 30
0.0
  0
VERTEX
  5
437
  8
6
 10
-17.5
 20
47.500000000000227
 30
0.0
 42
0.4142135623730956
  0
VERTEX
  5
438
  8
6
 10
-18.5
 20
46.50000000000022
 30
0.0
  0
VERTEX
  5
439
  8
6
 10
-18.5
 20
26.200000000000269
 30
0.0
 42
0.4142135623730951
  0
VERTEX
  5
43A
  8
6
 10
-18.0
 20
25.700000000000269
 30
0.0
  0
VERTEX
  5
43B
  8
6
 10
-16.5
 20
25.700000000000269
 30
0.0
 42
0.4142135623730971
  0
VERTEX
  5
43C
  8
6
 10
-16.0
 20
26.200000000000269
 30
0.0
  0
VERTEX
  5
43D
  8
6
 10
-16.0
 20
27.750000000000231
 30
0.0
 42
-0.4142135623730951
  0
VERTEX
  5
43E
  8
6
 10
-15.049999999999949
 20
28.700000000000269
 30
0.0
  0
VERTEX
  5
43F
  8
6
 10
-11.13727922061366
 20
28.700000000000269
 30
0.0
 42
0.1989123673796601
  0
VERTEX
  5
440
  8
6
 10
-11.07363961030682
 20
28.726360389693351
 30
0.0
  0
VERTEX
  5
441
  8
6
 10
-10.61550480057962
 20
29.18449519942078
 30
0.0
 42
-0.3742420918651766
  0
VERTEX
  5
442
  8
6
 10
-10.35352021063977
 20
29.202649864813331
 30
0.0
 42
2.910137834726485
  0
VERTEX
  5
443
  8
6
 10
-10.75124271227264
 20
30.686970448219881
 30
0.0
 42
-0.3742420918651923
  0
VERTEX
  5
444
  8
6
 10
-10.987205355256711
 20
30.57170055467736
 30
0.0
  0
VERTEX
  5
445
  8
6
 10
-12.055523281497919
 20
30.8579554802734
 30
0.0
 42
-0.437400690340917
  0
VERTEX
  5
446
  8
6
 10
-12.192289627181481
 20
31.117896774592509
 30
0.0
 42
-1.059771986950611
  0
VERTEX
  5
447
  8
6
 10
-7.1314205178725842
 20
28.98813559322047
 30
0.0
 42
0.5551486701290861
  0
VERTEX
  5
448
  8
6
 10
-6.951887464626906
 20
28.700000000000269
 30
0.0
  0
VERTEX
  5
449
  8
6
 10
-1.5899999999999179
 20
28.700000000000269
 30
0.0
 42
0.4142135623730943
  0
VERTEX
  5
44A
  8
6
 10
-1.5
 20
28.790000000000191
 30
0.0
  0
VERTEX
  5
44B
  8
6
 10
-1.5
 20
33.141805777227539
 30
0.0
 42
-0.4142135623730951
  0
VERTEX
  5
44C
  8
6
 10
-0.5499999999999546
 20
34.091805777227592
 30
0.0
  0
VERTEX
  5
44D
  8
6
 10
-0.5
 20
34.091805777227592
 30
0.0
  0
VERTEX
  5
44E
  8
6
 10
-0.0585786437627576
 20
33.841421323888419
 30
0.0
 42
-0.198912367379662
  0
VERTEX
  5
44F
  8
6
 10
0.0
 20
33.699999967650911
 30
0.0
 42
-0.198912367379662
  0
VERTEX
  5
450
  8
6
 10
-0.0585786437627576
 20
33.558578611413623
 30
0.0
  0
VERTEX
  5
451
  8
6
 10
-0.4414213562372425
 20
33.341421326376803
 30
0.0
 42
0.1989123673796251
  0
VERTEX
  5
452
  8
6
 10
-0.5
 20
33.199999970139508
 30
0.0
 42
0.1989123673796251
  0
VERTEX
  5
453
  8
6
 10
-0.4414213562372425
 20
33.05857861390222
 30
0.0
  0
VERTEX
  5
454
  8
6
 10
-0.0585786437627576
 20
32.841421328865181
 30
0.0
 42
-0.198912367379662
  0
VERTEX
  5
455
  8
6
 10
0.0
 20
32.699999972627893
 30
0.0
 42
-0.198912367379662
  0
VERTEX
  5
456
  8
6
 10
-0.0585786437627576
 20
32.558578616390598
 30
0.0
  0
VERTEX
  5
457
  8
6
 10
-0.4414213562372425
 20
32.341421331353551
 30
0.0
 42
0.1989123673796251
  0
VERTEX
  5
458
  8
6
 10
-0.5
 20
32.19999997511627
 30
0.0
 42
0.1989123673796251
  0
VERTEX
  5
459
  8
6
 10
-0.4414213562372425
 20
32.058578618878983
 30
0.0
  0
VERTEX
  5
45A
  8
6
 10
-0.0585786437627576
 20
31.841421333841929
 30
0.0
 42
-0.198912367379662
  0
VERTEX
  5
45B
  8
6
 10
0.0
 20
31.699999977604651
 30
0.0
 42
-0.198912367379662
  0
VERTEX
  5
45C
  8
6
 10
-0.0585786437627576
 20
31.55857862136736
 30
0.0
  0
VERTEX
  5
45D
  8
6
 10
-0.4414213562372425
 20
31.34142133633031
 30
0.0
 42
0.1989123673796251
  0
VERTEX
  5
45E
  8
6
 10
-0.5
 20
31.199999980093018
 30
0.0
 42
0.1989123673796251
  0
VERTEX
  5
45F
  8
6
 10
-0.4414213562372425
 20
31.05857862385573
 30
0.0
  0
VERTEX
  5
460
  8
6
 10
-0.0585786437627576
 20
30.841421338818691
 30
0.0
 42
-0.198912367379662
  0
VERTEX
  5
461
  8
6
 10
0.0
 20
30.699999982581399
 30
0.0
 42
-0.198912367379662
  0
VERTEX
  5
462
  8
6
 10
-0.0585786437627576
 20
30.558578626344111
 30
0.0
  0
VERTEX
  5
463
  8
6
 10
-0.4414213562372425
 20
30.341421341307068
 30
0.0
 42
0.1989123673796251
  0
VERTEX
  5
464
  8
6
 10
-0.5
 20
30.19999998506978
 30
0.0
 42
0.1989123673796251
  0
VERTEX
  5
465
  8
6
 10
-0.4414213562372425
 20
30.058578628832489
 30
0.0
  0
VERTEX
  5
466
  8
6
 10
-0.0585786437627576
 20
29.841421343795439
 30
0.0
 42
-0.198912367379662
  0
VERTEX
  5
467
  8
6
 10
0.0
 20
29.699999987558151
 30
0.0
 42
-0.198912367379662
  0
VERTEX
  5
468
  8
6
 10
-0.0585786437627576
 20
29.55857863132087
 30
0.0
  0
VERTEX
  5
469
  8
6
 10
-0.4414213562372425
 20
29.34142134628382
 30
0.0
 42
0.1989123673796251
  0
VERTEX
  5
46A
  8
6
 10
-0.5
 20
29.199999990046528
 30
0.0
 42
0.1989123673796251
  0
VERTEX
  5
46B
  8
6
 10
-0.4414213562372425
 20
29.058578633809251
 30
0.0
  0
VERTEX
  5
46C
  8
6
 10
-0.0585786437627576
 20
28.841421348772421
 30
0.0
 42
-0.198912367379662
  0
VERTEX
  5
46D
  8
6
 10
0.0
 20
28.699999992534909
 30
0.0
 42
-0.198912367379662
  0
VERTEX
  5
46E
  8
6
 10
-0.0585786437627576
 20
28.558578636297622
 30
0.0
  0
VERTEX
  5
46F
  8
6
 10
-0.4414213562372425
 20
28.341421351260799
 30
0.0
 42
0.1989123673796251
  0
VERTEX
  5
470
  8
6
 10
-0.5
 20
28.199999995023521
 30
0.0
 42
0.1989123673796251
  0
VERTEX
  5
471
  8
6
 10
-0.4414213562372425
 20
28.05857863878623
 30
0.0
  0
VERTEX
  5
472
  8
6
 10
-0.0585786437627576
 20
27.84142135374918
 30
0.0
 42
-0.198912367379662
  0
VERTEX
  5
473
  8
6
 10
0.0
 20
27.699999997511888
 30
0.0
 42
-0.198912367379662
  0
VERTEX
  5
474
  8
6
 10
-0.0585786437627576
 20
27.55857864127438
 30
0.0
  0
VERTEX
  5
475
  8
6
 10
-0.4414213562372425
 20
27.341421356237561
 30
0.0
 42
0.1989123673796251
  0
VERTEX
  5
476
  8
6
 10
-0.5
 20
27.200000000000269
 30
0.0
  0
VERTEX
  5
477
  8
6
 10
-9.5099999999999891
 20
27.200000000000269
 30
0.0
 42
0.4142135623730956
  0
VERTEX
  5
478
  8
6
 10
-9.5999999999999091
 20
27.11000000000012
 30
0.0
  0
VERTEX
  5
479
  8
6
 10
-9.6000000000001364
 20
21.090000000000138
 30
0.0
 42
-0.4142135623730951
  0
VERTEX
  5
47A
  8
6
 10
-9.6900000000000546
 20
21.00000000000022
 30
0.0
  0
VERTEX
  5
47B
  8
6
 10
-10.70000000000004
 20
21.00000000000022
 30
0.0
 42
-0.4142135623730951
  0
VERTEX
  5
47C
  8
6
 10
-11.600000000000129
 20
21.900000000000091
 30
0.0
  0
VERTEX
  5
47D
  8
6
 10
-11.600000000000129
 20
21.910000000000078
 30
0.0
 42
-0.4142135623730951
  0
VERTEX
  5
47E
  8
6
 10
-11.509999999999989
 20
22.00000000000022
 30
0.0
  0
VERTEX
  5
47F
  8
6
 10
-11.100000000000129
 20
22.00000000000022
 30
0.0
  0
VERTEX
  5
480
  8
6
 10
-11.100000000000129
 20
27.200000000000269
 30
0.0
  0
VERTEX
  5
481
  8
6
 10
-14.5
 20
27.200000000000269
 30
0.0
  0
VERTEX
  5
482
  8
6
 10
-14.5
 20
22.00000000000022
 30
0.0
  0
VERTEX
  5
483
  8
6
 10
-14.089999999999909
 20
22.00000000000022
 30
0.0
 42
-0.4142135623730951
  0
VERTEX
  5
484
  8
6
 10
-14.0
 20
21.910000000000078
 30
0.0
  0
VERTEX
  5
485
  8
6
 10
-14.0
 20
21.900000000000091
 30
0.0
 42
-0.4142135623730951
  0
VERTEX
  5
486
  8
6
 10
-14.900000000000089
 20
21.00000000000022
 30
0.0
  0
VERTEX
  5
487
  8
6
 10
-15.91000000000008
 20
21.00000000000022
 30
0.0
 42
-0.4142135623730951
  0
VERTEX
  5
488
  8
6
 10
-16.0
 20
21.090000000000138
 30
0.0
  0
VERTEX
  5
489
  8
6
 10
-16.0
 20
23.700000000000269
 30
0.0
 42
0.4142135623730951
  0
VERTEX
  5
48A
  8
6
 10
-16.5
 20
24.200000000000269
 30
0.0
  0
VERTEX
  5
48B
  8
6
 10
-18.0
 20
24.200000000000269
 30
0.0
 42
0.414213562373093
  0
VERTEX
  5
48C
  8
6
 10
-18.5
 20
23.700000000000269
 30
0.0
  0
VERTEX
  5
48D
  8
6
 10
-18.5
 20
15.09000000000014
 30
0.0
 42
-0.4142135623730941
  0
VERTEX
  5
48E
  8
6
 10
-18.589999999999911
 20
15.00000000000022
 30
0.0
  0
VERTEX
  5
48F
  8
6
 10
-19.910000000000078
 20
15.00000000000022
 30
0.0
 42
-0.4142135623730951
  0
VERTEX
  5
490
  8
6
 10
-20.0
 20
15.09000000000014
 30
0.0
  0
VERTEX
  5
491
  8
6
 10
-20.0
 20
71.720943808638822
 30
0.0
 42
-0.2679491924311224
  0
VERTEX
  5
492
  8
6
 10
-18.5
 20
74.319020019992195
 30
0.0
  0
VERTEX
  5
493
  8
6
 10
-0.2999999999999545
 20
84.826794919243426
 30
0.0
 42
-0.5773502691896129
  0
VERTEX
  5
494
  8
6
 10
0.0
 20
84.653589838486354
 30
0.0
  0
VERTEX
  5
495
  8
6
 10
0.0
 20
83.893677409312659
 30
0.0
 42
-0.3534884879630113
  0
VERTEX
  5
496
  8
6
 10
-0.1579795664981702
 20
83.698141522150308
 30
0.0
 42
0.8079313152740247
  0
VERTEX
  5
497
  8
6
 10
-0.1579795664981702
 20
79.787423778905577
 30
0.0
 42
-0.3534884879630113
  0
VERTEX
  5
498
  8
6
 10
0.0
 20
79.591887891743227
 30
0.0
  0
VERTEX
  5
499
  8
6
 10
0.0
 20
78.706564441293494
 30
0.0
 42
-0.4335667118375687
  0
VERTEX
  5
49A
  8
6
 10
-0.213114754098342
 20
78.506994896460355
 30
0.0
 42
-0.3398860975834932
  0
VERTEX
  5
49B
  8
6
 10
-3.18863780173433
 20
81.121438969271367
 30
0.0
 42
0.5141979049360717
  0
VERTEX
  5
49C
  8
6
 10
-3.4848616664564811
 20
81.255963371213966
 30
0.0
  0
VERTEX
  5
49D
  8
6
 10
-9.5499999999999545
 20
77.754254121670328
 30
0.0
 42
0.2679491924311228
  0
VERTEX
  5
49E
  8
6
 10
-9.6000000000001364
 20
77.667651581291921
 30
0.0
  0
VERTEX
  5
49F
  8
6
 10
-9.6000000000001364
 20
74.636140661634727
 30
0.0
 42
-0.3742420918651691
  0
VERTEX
  5
4A0
  8
6
 10
-9.7724137931033965
 20
74.438052294512772
 30
0.0
 42
2.9101378347264499
  0
VERTEX
  5
4A1
  8
6
 10
-8.4416083651867666
 20
73.669711422465966
 30
0.0
 42
-0.3742420918651645
  0
VERTEX
  5
4A2
  8
6
 10
-8.3562657036168275
 20
73.9180703308175
 30
0.0
  0
VERTEX
  5
4A3
  8
6
 10
-7.3984380544713977
 20
74.471072381888689
 30
0.0
 42
-0.4374006903409171
  0
VERTEX
  5
4A4
  8
6
 10
-7.1179233920768183
 20
74.383974540436384
 30
0.0
 42
-0.4489753641201027
  0
VERTEX
  5
4A5
  8
6
 10
-8.7144067796609761
 20
70.596497618958438
 30
0.0
 42
0.3211323993548997
  0
VERTEX
  5
4A6
  8
6
 10
-8.8500000000001364
 20
70.407151991246323
 30
0.0
  0
VERTEX
  5
4A7
  8
6
 10
-8.8500000000001364
 20
68.654248688935468
 30
0.0
 42
-0.4142135623730951
  0
VERTEX
  5
4A8
  8
6
 10
-8.9500000000000455
 20
68.554248688935559
 30
0.0
  0
VERTEX
  5
4A9
  8
6
 10
-10.25
 20
68.554248688935559
 30
0.0
 42
-0.4142135623730951
  0
VERTEX
  5
4AA
  8
6
 10
-10.350000000000129
 20
68.654248688935468
 30
0.0
  0
VERTEX
  5
4AB
  8
6
 10
-10.350000000000129
 20
70.407151991246323
 30
0.0
 42
0.3211323993548997
  0
SEQEND
  5
4AC
  8
6
  0
POLYLINE
  5
2FE
  8
4
 66
     1
 10
0.0
 20
0.0
 30
0.0
 70
     1
  0
VERTEX
  5
4AD
  8
4
 10
-20.0
 20
15.0
 30
0.0
  0
VERTEX
  5
4AE
  8
4
 10
-20.0
 20
73.452994616207661
 30
0.0
  0
VERTEX
  5
4AF
  8
4
 10
0.0
 20
85.0
 30
0.0
  0
VERTEX
  5
4B0
  8
4
 10
0.0
 20
15.0
 30
0.0
  0
SEQEND
  5
4B1
  8
4
  0
CIRCLE
  5
2FF
  8
6
 10
-12.799999999999949
 20
25.278769909719131
 30
0.0
 40
0.5425533030331441
  0
POLYLINE
  5
300
  8
6
 66
     1
 10
0.0
 20
0.0
 30
0.0
 70
     1
  0
VERTEX
  5
4B2
  8
6
 10
-13.645396920398291
 20
22.226933616320469
 30
0.0
  0
VERTEX
  5
4B3
  8
6
 10
-13.95472108093804
 20
22.226933616320469
 30
0.0
 42
-0.4142135623730951
  0
VERTEX
  5
4B4
  8
6
 10
-14.370521080938261
 20
22.64273361632058
 30
0.0
  0
VERTEX
  5
4B5
  8
6
 10
-14.370521080938261
 20
26.584200000000351
 30
0.0
 42
-0.4142135623730951
  0
VERTEX
  5
4B6
  8
6
 10
-13.95472108093804
 20
27.000000000000341
 30
0.0
  0
VERTEX
  5
4B7
  8
6
 10
-11.64527891906163
 20
27.000000000000341
 30
0.0
 42
-0.4142135623730951
  0
VERTEX
  5
4B8
  8
6
 10
-11.22947891906164
 20
26.584200000000351
 30
0.0
  0
VERTEX
  5
4B9
  8
6
 10
-11.22947891906164
 20
22.64273361632058
 30
0.0
 42
-0.4142135623730951
  0
VERTEX
  5
4BA
  8
6
 10
-11.64527891906163
 20
22.226933616320469
 30
0.0
  0
VERTEX
  5
4BB
  8
6
 10
-11.95460307960138
 20
22.226933616320469
 30
0.0
  0
VERTEX
  5
4BC
  8
6
 10
-11.95460307960138
 20
22.64273361632058
 30
0.0
  0
VERTEX
  5
4BD
  8
6
 10
-11.758678919061589
 20
22.64273361632058
 30
0.0
 42
0.4142135623730945
  0
VERTEX
  5
4BE
  8
6
 10
-11.64527891906163
 20
22.756133616320529
 30
0.0
  0
VERTEX
  5
4BF
  8
6
 10
-11.64527891906163
 20
26.470800000000391
 30
0.0
 42
0.4142135623730948
  0
VERTEX
  5
4C0
  8
6
 10
-11.758678919061589
 20
26.584200000000351
 30
0.0
  0
VERTEX
  5
4C1
  8
6
 10
-13.84132108093808
 20
26.584200000000351
 30
0.0
 42
0.4142135623730951
  0
VERTEX
  5
4C2
  8
6
 10
-13.95472108093827
 20
26.470800000000391
 30
0.0
  0
VERTEX
  5
4C3
  8
6
 10
-13.95472108093804
 20
22.756133616320529
 30
0.0
 42
0.4142135623730955
  0
VERTEX
  5
4C4
  8
6
 10
-13.84132108093808
 20
22.64273361632058
 30
0.0
  0
VERTEX
  5
4C5
  8
6
 10
-13.645396920398291
 20
22.64273361632058
 30
0.0
  0
SEQEND
  5
4C6
  8
6
  0
TEXT
  5
301
  8
1
 10
-32.656001126915271
 20
87.478362750898214
 30
0.0
 40
2.4999999499999999
  1
Hebgo 157/756
  0
LINE
  5
302
  8
6
  6
STRICHPUNKT
 10
-5.3326130449336233
 20
53.00000000000022
 30
0.0
 11
14.96861957829128
 21
53.00000000000022
 31
0.0
  0
POLYLINE
  5
303
  8
6
 66
     1
 10
0.0
 20
0.0
 30
0.0
  0
VERTEX
  5
4C7
  8
6
 10
-1.066181442512061
 20
53.84873720389885
 30
0.0
 42
0.0698020145797582
  0
VERTEX
  5
4C8
  8
6
 10
-0.0000000000001137
 20
53.57577505004798
 30
0.0
 42
-3.2234280385613259
  0
SEQEND
  5
4C9
  8
6
  0
POLYLINE
  5
304
  8
6
 66
     1
 10
0.0
 20
0.0
 30
0.0
  0
VERTEX
  5
4CA
  8
6
 10
-0.0000000000001137
 20
52.428654341814592
 30
0.0
 42
0.0716230936514669
  0
VERTEX
  5
4CB
  8
6
 10
-1.066181442512061
 20
52.158367884416009
 30
0.0
  0
SEQEND
  5
4CC
  8
6
  0
POLYLINE
  5
305
  8
6
 66
     1
 10
0.0
 20
0.0
 30
0.0
  0
VERTEX
  5
4CD
  8
6
 10
-2.6438617404056681
 20
51.88268415172103
 30
0.0
 42
0.0347698152739638
  0
VERTEX
  5
4CE
  8
6
 10
-3.0805629094367069
 20
51.571816296422298
 30
0.0
  0
VERTEX
  5
4CF
  8
6
 10
-3.4532285592578091
 20
51.214575974185827
 30
0.0
  0
SEQEND
  5
4D0
  8
6
  0
POLYLINE
  5
306
  8
6
 66
     1
 10
0.0
 20
0.0
 30
0.0
  0
VERTEX
  5
4D1
  8
6
 10
-3.4532285592578091
 20
54.837228201438897
 30
0.0
  0
VERTEX
  5
4D2
  8
6
 10
-3.0807386347174761
 20
54.428000000000232
 30
0.0
 42
0.0337004454472373
  0
VERTEX
  5
4D3
  8
6
 10
-2.6438617404056681
 20
54.122078023043507
 30
0.0
 42
-3.2234280385613259
  0
SEQEND
  5
4D4
  8
6
  0
VIEWPORT
  5
22
 67
     1
  8
0
 10
210.0
 20
170.2366863905325
 30
0.0
 40
420.0
 41
340.47337278106511
 68
     1
 69
     1
1001
ACAD
1000
MVIEW
1002
{
1070
    16
1010
0.0
1020
0.0
1030
0.0
1010
0.0
1020
0.0
1030
1.0
1040
0.0
1040
340.47337278106511
1040
210.0
1040
170.2366863905325
1040
50.0
1040
0.0
1040
0.0
1070
     0
1070
   100
1070
     1
1070
     1
1070
     0
1070
     0
1070
     0
1070
     0
1040
0.0
1040
0.0
1040
0.0
1040
5.0
1040
5.0
1040
10.0
1040
10.0
1070
     0
1002
{
1002
}
1002
}
  0
ENDSEC
  0
EOF
