  0
SECTION
  2
HEADER
  9
$ACADVER
  1
AC1009
  9
$INSBASE
 10
0.0
 20
0.0
 30
0.0
  9
$EXTMIN
 10
-33.918295442886098
 20
-13.885503159131529
 30
0.0
  9
$EXTMAX
 10
11.472903491872779
 20
14.0
 30
0.0
  9
$LIMMIN
 10
-150.0
 20
-150.0
  9
$LIMMAX
 10
150.0
 20
150.0
  9
$ORTHOMODE
 70
     0
  9
$REGENMODE
 70
     1
  9
$FILLMODE
 70
     1
  9
$QTEXTMODE
 70
     0
  9
$MIRRTEXT
 70
     0
  9
$DRAGMODE
 70
     2
  9
$LTSCALE
 40
1.0
  9
$OSMODE
 70
   111
  9
$ATTMODE
 70
     1
  9
$TEXTSIZE
 40
3.5
  9
$TRACEWID
 40
1.0
  9
$TEXTSTYLE
  7
BESCHLAG
  9
$CLAYER
  8
0
  9
$CELTYPE
  6
BYLAYER
  9
$CECOLOR
 62
   256
  9
$DIMSCALE
 40
1.0
  9
$DIMASZ
 40
2.0
  9
$DIMEXO
 40
2.0
  9
$DIMDLI
 40
0.0
  9
$DIMRND
 40
0.0
  9
$DIMDLE
 40
1.0
  9
$DIMEXE
 40
1.0
  9
$DIMTP
 40
0.0
  9
$DIMTM
 40
0.0
  9
$DIMTXT
 40
3.5
  9
$DIMCEN
 40
0.0
  9
$DIMTSZ
 40
0.0
  9
$DIMTOL
 70
     0
  9
$DIMLIM
 70
     0
  9
$DIMTIH
 70
     0
  9
$DIMTOH
 70
     0
  9
$DIMSE1
 70
     0
  9
$DIMSE2
 70
     0
  9
$DIMTAD
 70
     1
  9
$DIMZIN
 70
     8
  9
$DIMBLK
  1

  9
$DIMASO
 70
     1
  9
$DIMSHO
 70
     1
  9
$DIMPOST
  1

  9
$DIMAPOST
  1

  9
$DIMALT
 70
     0
  9
$DIMALTD
 70
     2
  9
$DIMALTF
 40
0.039370078740157
  9
$DIMLFAC
 40
1.0
  9
$DIMTOFL
 70
     1
  9
$DIMTVP
 40
0.0
  9
$DIMTIX
 70
     1
  9
$DIMSOXD
 70
     0
  9
$DIMSAH
 70
     1
  9
$DIMBLK1
  1
OBLIQUE
  9
$DIMBLK2
  1
OBLIQUE
  9
$DIMSTYLE
  2
OPO-SSTRICH
  9
$DIMCLRD
 70
   256
  9
$DIMCLRE
 70
   256
  9
$DIMCLRT
 70
   256
  9
$DIMTFAC
 40
0.7114285714285716
  9
$DIMGAP
 40
1.0
  9
$LUNITS
 70
     2
  9
$LUPREC
 70
     1
  9
$SKETCHINC
 40
1.0
  9
$FILLETRAD
 40
0.0
  9
$AUNITS
 70
     0
  9
$AUPREC
 70
     1
  9
$MENU
  1
D:\ACL_CGWG\CGTAB13
  9
$ELEVATION
 40
0.0
  9
$PELEVATION
 40
0.0
  9
$THICKNESS
 40
0.0
  9
$LIMCHECK
 70
     0
  9
$BLIPMODE
 70
     0
  9
$CHAMFERA
 40
1.0
  9
$CHAMFERB
 40
1.0
  9
$SKPOLY
 70
     0
  9
$TDCREATE
 40
2451739.8457137849
  9
$TDUPDATE
 40
2452086.7210747912
  9
$TDINDWG
 40
0.000885162
  9
$TDUSRTIMER
 40
0.0008849884
  9
$USRTIMER
 70
     1
  9
$ANGBASE
 50
0.0
  9
$ANGDIR
 70
     0
  9
$PDMODE
 70
    35
  9
$PDSIZE
 40
5.0
  9
$PLINEWID
 40
0.0
  9
$COORDS
 70
     1
  9
$SPLFRAME
 70
     0
  9
$SPLINETYPE
 70
     6
  9
$SPLINESEGS
 70
     8
  9
$ATTDIA
 70
     1
  9
$ATTREQ
 70
     1
  9
$HANDLING
 70
-16383
  9
$HANDSEED
  5
42F
  9
$SURFTAB1
 70
    12
  9
$SURFTAB2
 70
    12
  9
$SURFTYPE
 70
     6
  9
$SURFU
 70
    12
  9
$SURFV
 70
    12
  9
$UCSNAME
  2

  9
$UCSORG
 10
0.0
 20
0.0
 30
0.0
  9
$UCSXDIR
 10
1.0
 20
0.0
 30
0.0
  9
$UCSYDIR
 10
0.0
 20
1.0
 30
0.0
  9
$PUCSNAME
  2

  9
$PUCSORG
 10
0.0
 20
0.0
 30
0.0
  9
$PUCSXDIR
 10
1.0
 20
0.0
 30
0.0
  9
$PUCSYDIR
 10
0.0
 20
1.0
 30
0.0
  9
$USERI1
 70
     0
  9
$USERI2
 70
     0
  9
$USERI3
 70
     0
  9
$USERI4
 70
     0
  9
$USERI5
 70
     0
  9
$USERR1
 40
0.0
  9
$USERR2
 40
0.0
  9
$USERR3
 40
0.0
  9
$USERR4
 40
0.0
  9
$USERR5
 40
0.0
  9
$WORLDVIEW
 70
     1
  9
$SHADEDGE
 70
     3
  9
$SHADEDIF
 70
    70
  9
$TILEMODE
 70
     1
  9
$MAXACTVP
 70
    48
  9
$PLIMCHECK
 70
     0
  9
$PEXTMIN
 10
1.0000000000000000E+020
 20
1.0000000000000000E+020
 30
1.0000000000000000E+020
  9
$PEXTMAX
 10
-1.0000000000000000E+020
 20
-1.0000000000000000E+020
 30
-1.0000000000000000E+020
  9
$PLIMMIN
 10
0.0
 20
0.0
  9
$PLIMMAX
 10
420.0
 20
297.0
  9
$UNITMODE
 70
     0
  9
$VISRETAIN
 70
     1
  9
$PLINEGEN
 70
     0
  9
$PSLTSCALE
 70
     1
  0
ENDSEC
  0
SECTION
  2
TABLES
  0
TABLE
  2
VPORT
 70
     2
  0
VPORT
  2
*ACTIVE
 70
     0
 10
0.0
 20
0.0
 11
1.0
 21
1.0
 12
-11.215209275501699
 22
0.0572211575429833
 13
0.0
 23
0.0
 14
0.5
 24
0.5
 15
10.0
 25
10.0
 16
0.0
 26
0.0
 36
1.0
 17
0.0
 27
0.0
 37
0.0
 40
28.399668746055909
 41
1.6070460704607039
 42
50.0
 43
0.0
 44
0.0
 50
0.0
 51
0.0
 71
     0
 72
   800
 73
     1
 74
     1
 75
     0
 76
     0
 77
     0
 78
     0
  0
ENDTAB
  0
TABLE
  2
LTYPE
 70
     1
  0
LTYPE
  2
CONTINUOUS
 70
     0
  3
_______________________________________________
 72
    65
 73
     2
 40
1.0
 49
1.0
 49
0.0
  0
ENDTAB
  0
TABLE
  2
LAYER
 70
     5
  0
LAYER
  2
0
 70
     0
 62
    30
  6
CONTINUOUS
  0
LAYER
  2
1
 70
     0
 62
     2
  6
CONTINUOUS
  0
LAYER
  2
5
 70
     0
 62
     1
  6
CONTINUOUS
  0
LAYER
  2
6
 70
     0
 62
     3
  6
CONTINUOUS
  0
LAYER
  2
DEFPOINTS
 70
     0
 62
     7
  6
CONTINUOUS
  0
ENDTAB
  0
TABLE
  2
STYLE
 70
     2
  0
STYLE
  2
STANDARD
 70
     0
 40
0.0
 41
1.0
 50
0.0
 71
     0
 42
2.5
  3
txt
  4

  0
STYLE
  2
BESCHLAG
 70
     0
 40
0.0
 41
1.0
 50
0.0
 71
     0
 42
3.5
  3
txt
  4

  0
ENDTAB
  0
TABLE
  2
VIEW
 70
     0
  0
ENDTAB
  0
TABLE
  2
UCS
 70
     0
  0
ENDTAB
  0
TABLE
  2
APPID
 70
     1
  0
APPID
  2
ACAD
 70
     0
  0
ENDTAB
  0
TABLE
  2
DIMSTYLE
 70
     1
  0
DIMSTYLE
  2
OPO-SSTRICH
 70
     0
  3

  4

  5

  6
OBLIQUE
  7
OBLIQUE
 40
1.0
 41
2.0
 42
2.0
 43
0.0
 44
1.0
 45
0.0
 46
1.0
 47
0.0
 48
0.0
140
3.5
141
0.0
142
0.0
143
0.039370078740157
144
1.0
145
0.0
146
0.7114285714285716
147
1.0
 71
     0
 72
     0
 73
     0
 74
     0
 75
     0
 76
     0
 77
     1
 78
     8
170
     0
171
     2
172
     1
173
     1
174
     1
175
     0
176
   256
177
   256
178
   256
  0
ENDTAB
  0
ENDSEC
  0
SECTION
  2
BLOCKS
  0
BLOCK
  8
0
  2
$MODEL_SPACE
 70
     0
 10
0.0
 20
0.0
 30
0.0
  3
$MODEL_SPACE
  1

  0
ENDBLK
  5
1C
  8
0
  0
BLOCK
 67
     1
  8
0
  2
$PAPER_SPACE
 70
     0
 10
0.0
 20
0.0
 30
0.0
  3
$PAPER_SPACE
  1

  0
ENDBLK
  5
19
 67
     1
  8
0
  0
BLOCK
  8
0
  2
_OBLIQUE
 70
     0
 10
0.0
 20
0.0
 30
0.0
  3
_OBLIQUE
  1

  0
LINE
  5
204
  8
0
 62
     0
 10
-0.5
 20
-0.5
 30
0.0
 11
0.5
 21
0.5
 31
0.0
  0
ENDBLK
  5
206
  8
0
  0
BLOCK
  8
0
  2
NULLPUNKT
 70
     0
 10
0.0
 20
0.0
 30
0.0
  3
NULLPUNKT
  1

  0
SOLID
  5
254
  8
5
 10
0.0
 20
0.0
 30
0.0
 11
2.0
 21
0.0
 31
0.0
 12
0.0
 22
-2.0
 32
0.0
 13
0.0
 23
-2.0
 33
0.0
  0
SOLID
  5
255
  8
5
 10
0.0
 20
0.0
 30
0.0
 11
-2.0
 21
0.0
 31
0.0
 12
0.0
 22
2.0
 32
0.0
 13
0.0
 23
2.0
 33
0.0
  0
POLYLINE
  5
256
  8
5
 66
     1
 10
0.0
 20
0.0
 30
0.0
  0
VERTEX
  5
405
  8
5
 10
0.0
 20
2.0
 30
0.0
  0
VERTEX
  5
406
  8
5
 10
0.0
 20
-2.0
 30
0.0
  0
SEQEND
  5
407
  8
5
  0
POLYLINE
  5
257
  8
5
 66
     1
 10
0.0
 20
0.0
 30
0.0
  0
VERTEX
  5
408
  8
5
 10
-2.0
 20
0.0
 30
0.0
  0
VERTEX
  5
409
  8
5
 10
2.0
 20
0.0
 30
0.0
  0
SEQEND
  5
40A
  8
5
  0
CIRCLE
  5
258
  8
5
 10
0.0
 20
0.0
 30
0.0
 40
2.0
  0
ENDBLK
  5
25A
  8
0
  0
BLOCK
  8
0
  2
*D2
 70
     1
 10
0.0
 20
0.0
 30
0.0
  3
*D2
  1

  0
LINE
  5
2E4
  8
1
 10
-12.0
 20
-2.0
 30
0.0
 11
-12.0
 21
-13.885503159131529
 31
0.0
  0
LINE
  5
2E5
  8
1
 10
-0.0000000000000001
 20
-2.0
 30
0.0
 11
-0.0000000000000009
 21
-13.885503159131529
 31
0.0
  0
LINE
  5
2E6
  8
1
 10
-13.0
 20
-12.885503159131529
 30
0.0
 11
0.9999999999999992
 21
-12.885503159131529
 31
0.0
  0
INSERT
  5
2E7
  8
1
  2
_OBLIQUE
 10
-12.0
 20
-12.885503159131529
 30
0.0
 41
2.0
 42
2.0
 43
2.0
 50
180.0
  0
INSERT
  5
2E8
  8
1
  2
_OBLIQUE
 10
-0.0000000000000008
 20
-12.885503159131529
 30
0.0
 41
2.0
 42
2.0
 43
2.0
  0
TEXT
  5
2E9
  8
0
 10
-8.8565825375170526
 20
-11.87834081261038
 30
0.0
 40
3.5
  1
12
  7
BESCHLAG
  0
POINT
  5
2EA
  8
DEFPOINTS
 62
     0
 10
-12.0
 20
0.0
 30
0.0
  0
POINT
  5
2EB
  8
DEFPOINTS
 62
     0
 10
0.0
 20
0.0
 30
0.0
  0
POINT
  5
2EC
  8
DEFPOINTS
 62
     0
 10
-0.0000000000000008
 20
-12.885503159131529
 30
0.0
  0
ENDBLK
  5
2BD
  8
0
  0
BLOCK
  8
0
  2
*D3
 70
     1
 10
0.0
 20
0.0
 30
0.0
  3
*D3
  1

  0
LINE
  5
2ED
  8
1
 10
-22.0
 20
4.0
 30
0.0
 11
-29.491965292817891
 21
4.0000000000000018
 31
0.0
  0
LINE
  5
2EE
  8
1
 10
-22.0
 20
0.0000000000000006
 30
0.0
 11
-29.491965292817891
 21
0.0000000000000027
 31
0.0
  0
LINE
  5
2EF
  8
1
 10
-28.491965292817891
 20
4.0000000000000018
 30
0.0
 11
-28.491965292817891
 21
6.0000000000000018
 31
0.0
  0
LINE
  5
2F0
  8
1
 10
-28.491965292817891
 20
0.0000000000000024
 30
0.0
 11
-28.491965292817891
 21
-1.9999999999999969
 31
0.0
  0
LINE
  5
2F1
  8
1
 10
-28.491965292817891
 20
4.0000000000000018
 30
0.0
 11
-28.491965292817891
 21
0.0000000000000024
 31
0.0
  0
INSERT
  5
2F2
  8
1
  2
_OBLIQUE
 10
-28.491965292817891
 20
4.0000000000000018
 30
0.0
 41
2.0
 42
2.0
 43
2.0
 50
270.0
  0
INSERT
  5
2F3
  8
1
  2
_OBLIQUE
 10
-28.491965292817891
 20
0.0000000000000024
 30
0.0
 41
2.0
 42
2.0
 43
2.0
 50
90.0
  0
TEXT
  5
2F4
  8
0
 10
-29.491965292817891
 20
0.7274897680763964
 30
0.0
 40
3.5
  1
4
 50
90.0
  7
BESCHLAG
  0
POINT
  5
2F5
  8
DEFPOINTS
 62
     0
 10
-20.0
 20
4.0
 30
0.0
  0
POINT
  5
2F6
  8
DEFPOINTS
 62
     0
 10
-20.0
 20
0.0
 30
0.0
  0
POINT
  5
2F7
  8
DEFPOINTS
 62
     0
 10
-28.491965292817891
 20
0.0000000000000024
 30
0.0
  0
ENDBLK
  5
2CB
  8
0
  0
BLOCK
  8
0
  2
*D4
 70
     1
 10
0.0
 20
0.0
 30
0.0
  3
*D4
  1

  0
LINE
  5
2F8
  8
1
 10
-20.0
 20
-2.0
 30
0.0
 11
-20.0
 21
-13.885503159131529
 31
0.0
  0
LINE
  5
2F9
  8
1
 10
-12.0
 20
-2.0
 30
0.0
 11
-12.0
 21
-13.885503159131529
 31
0.0
  0
LINE
  5
2FA
  8
1
 10
-21.0
 20
-12.885503159131529
 30
0.0
 11
-11.0
 21
-12.885503159131529
 31
0.0
  0
INSERT
  5
2FB
  8
1
  2
_OBLIQUE
 10
-20.0
 20
-12.885503159131529
 30
0.0
 41
2.0
 42
2.0
 43
2.0
 50
180.0
  0
INSERT
  5
2FC
  8
1
  2
_OBLIQUE
 10
-12.0
 20
-12.885503159131529
 30
0.0
 41
2.0
 42
2.0
 43
2.0
  0
TEXT
  5
2FD
  8
0
 10
-17.351296043656209
 20
-11.818654591600829
 30
0.0
 40
3.5
  1
8
  7
BESCHLAG
  0
POINT
  5
2FE
  8
DEFPOINTS
 62
     0
 10
-20.0
 20
0.0
 30
0.0
  0
POINT
  5
2FF
  8
DEFPOINTS
 62
     0
 10
-12.0
 20
0.0
 30
0.0
  0
POINT
  5
300
  8
DEFPOINTS
 62
     0
 10
-12.0
 20
-12.885503159131529
 30
0.0
  0
ENDBLK
  5
2D7
  8
0
  0
BLOCK
  8
0
  2
*D5
 70
     1
 10
0.0
 20
0.0
 30
0.0
  3
*D5
  1

  0
LINE
  5
301
  8
1
 10
3.0650389861925751
 20
5.9999999999999991
 30
0.0
 11
11.472903491872779
 21
5.9999999999999956
 31
0.0
  0
LINE
  5
302
  8
1
 10
-18.0
 20
-0.0000000000000006
 30
0.0
 11
11.472903491872779
 21
-0.0000000000000089
 31
0.0
  0
LINE
  5
303
  8
1
 10
10.472903491872779
 20
6.9999999999999956
 30
0.0
 11
10.472903491872779
 21
-1.000000000000008
 31
0.0
  0
INSERT
  5
304
  8
1
  2
_OBLIQUE
 10
10.472903491872779
 20
5.9999999999999956
 30
0.0
 41
2.0
 42
2.0
 43
2.0
 50
90.0
  0
INSERT
  5
305
  8
1
  2
_OBLIQUE
 10
10.472903491872779
 20
-0.0000000000000086
 30
0.0
 41
2.0
 42
2.0
 43
2.0
 50
270.0
  0
TEXT
  5
306
  8
0
 10
9.4060549243420901
 20
1.6606412005456981
 30
0.0
 40
3.5
  1
6
 50
90.0
  7
BESCHLAG
  0
POINT
  5
307
  8
DEFPOINTS
 62
     0
 10
1.0650389861925751
 20
6.0
 30
0.0
  0
POINT
  5
308
  8
DEFPOINTS
 62
     0
 10
-20.0
 20
0.0
 30
0.0
  0
POINT
  5
309
  8
DEFPOINTS
 62
     0
 10
10.472903491872779
 20
-0.0000000000000086
 30
0.0
  0
ENDBLK
  5
2E3
  8
0
  0
ENDSEC
  0
SECTION
  2
ENTITIES
  0
INSERT
  5
25B
  8
5
  2
NULLPUNKT
 10
0.0
 20
0.0
 30
0.0
  0
POLYLINE
  5
2AA
  8
5
 66
     1
 10
0.0
 20
0.0
 30
0.0
  0
VERTEX
  5
40B
  8
5
 10
-8.0
 20
13.94371462543608
 30
0.0
  0
VERTEX
  5
40C
  8
5
 10
-8.0
 20
6.0
 30
0.0
  0
VERTEX
  5
40D
  8
5
 10
5.7686455178518372
 20
6.0
 30
0.0
  0
SEQEND
  5
40E
  8
5
  0
DIMENSION
  5
2AB
  8
1
  2
*D2
 10
-0.0000000000000008
 20
-12.885503159131529
 30
0.0
 11
-6.0
 21
-10.12834081261038
 31
0.0
 70
     0
 13
-12.0
 23
0.0
 33
0.0
 14
0.0
 24
0.0
 34
0.0
  0
DIMENSION
  5
2AC
  8
1
  2
*D3
 10
-28.491965292817891
 20
0.0000000000000024
 30
0.0
 11
-31.241965292817891
 21
1.999999999999998
 31
0.0
 70
     0
 13
-20.0
 23
4.0
 33
0.0
 14
-20.0
 24
0.0
 34
0.0
 50
90.0
  0
POLYLINE
  5
2AD
  8
6
 66
     1
 10
0.0
 20
0.0
 30
0.0
 70
     1
  0
VERTEX
  5
40F
  8
6
 10
-17.04113613751224
 20
0.0
 30
0.0
 42
-0.305294726488735
  0
VERTEX
  5
410
  8
6
 10
-18.364946918221442
 20
0.9392192405941841
 30
0.0
 42
-0.4284183035689967
  0
VERTEX
  5
411
  8
6
 10
-15.742947587332759
 20
3.9959511333609039
 30
0.0
 42
-1.0465126329365619
  0
VERTEX
  5
412
  8
6
 10
-15.563592585738199
 20
3.3470359713413691
 30
0.0
 42
0.1183701177789444
  0
VERTEX
  5
413
  8
6
 10
-16.554489511062911
 20
2.7964731489032602
 30
0.0
 42
0.7172693017763349
  0
VERTEX
  5
414
  8
6
 10
-16.286524002246551
 20
2.1919999904046099
 30
0.0
 42
0.2267137887975871
  0
VERTEX
  5
415
  8
6
 10
-14.589951115718121
 20
3.1079619733884551
 30
0.0
 42
-0.2604217855214455
  0
VERTEX
  5
416
  8
6
 10
-12.79640109977117
 20
4.0301045204420234
 30
0.0
 42
-0.681537798151271
  0
VERTEX
  5
417
  8
6
 10
-12.79640109977117
 20
3.4238812076279141
 30
0.0
 42
0.1246976551253776
  0
VERTEX
  5
418
  8
6
 10
-13.74442041577594
 20
2.5700454924135552
 30
0.0
 42
0.5756058751681837
  0
VERTEX
  5
419
  8
6
 10
-13.462576874633211
 20
2.288279702932186
 30
0.0
 42
0.1089061844295352
  0
VERTEX
  5
41A
  8
6
 10
-12.89034902333287
 20
2.3736632859889819
 30
0.0
 42
0.2126740566231339
  0
VERTEX
  5
41B
  8
6
 10
-12.01065540036052
 20
3.5178031374550751
 30
0.0
  0
VERTEX
  5
41C
  8
6
 10
-12.01065540036052
 20
5.7719293956290576
 30
0.0
 42
-0.3503006430983182
  0
VERTEX
  5
41D
  8
6
 10
-11.071176853370609
 20
5.1144758868391591
 30
0.0
 42
0.3638783423850789
  0
VERTEX
  5
41E
  8
6
 10
-8.5175032155138979
 20
2.4248933666106041
 30
0.0
 42
0.001914200158795
  0
VERTEX
  5
41F
  8
6
 10
-3.7261624804882549
 20
1.656441234453041
 30
0.0
 42
0.2258315071639381
  0
VERTEX
  5
420
  8
6
 10
-2.1461303126520761
 20
1.861361787647865
 30
0.0
 42
0.4237420855774056
  0
VERTEX
  5
421
  8
6
 10
-2.9200631804251311
 20
3.61231193190656
 30
0.0
 42
0.1255188323790475
  0
VERTEX
  5
422
  8
6
 10
-9.4300791396826753
 20
4.8810951967058136
 30
0.0
 42
-0.9311403750637201
  0
VERTEX
  5
423
  8
6
 10
-9.5423889935655097
 20
6.0024649891346371
 30
0.0
 42
-0.0707462304133712
  0
VERTEX
  5
424
  8
6
 10
-3.606592479425216
 20
5.4560101037124014
 30
0.0
 42
-0.2925615100444521
  0
VERTEX
  5
425
  8
6
 10
-0.0109517550308738
 20
2.334400744888284
 30
0.0
  0
VERTEX
  5
426
  8
6
 10
-0.0109517550308738
 20
0.0
 30
0.0
  0
SEQEND
  5
427
  8
6
  0
POLYLINE
  5
2AE
  8
5
 66
     1
 10
0.0
 20
0.0
 30
0.0
  0
VERTEX
  5
428
  8
5
 10
-12.0
 20
14.0
 30
0.0
  0
VERTEX
  5
429
  8
5
 10
-12.0
 20
4.0
 30
0.0
  0
VERTEX
  5
42A
  8
5
 10
-20.0
 20
4.0
 30
0.0
  0
VERTEX
  5
42B
  8
5
 10
-20.0
 20
0.0
 30
0.0
  0
VERTEX
  5
42C
  8
5
 10
0.0
 20
0.0
 30
0.0
  0
VERTEX
  5
42D
  8
5
 10
0.0
 20
-10.0
 30
0.0
  0
SEQEND
  5
42E
  8
5
  0
TEXT
  5
2AF
  8
1
 10
-6.3481027189229726
 20
9.2674433110884991
 30
0.0
 40
2.5
  1
Hebgo 822
  7
BESCHLAG
  0
DIMENSION
  5
2B0
  8
1
  2
*D4
 10
-12.0
 20
-12.885503159131529
 30
0.0
 11
-16.0
 21
-10.098497702105609
 31
0.0
 70
     0
 13
-20.0
 23
0.0
 33
0.0
 14
-12.0
 24
0.0
 34
0.0
  0
DIMENSION
  5
2B1
  8
1
  2
*D5
 10
10.472903491872779
 20
-0.0000000000000086
 30
0.0
 11
7.6858980348468631
 21
2.999999999999996
 31
0.0
 70
     0
 13
1.0650389861925751
 23
6.0
 33
0.0
 14
-20.0
 24
0.0
 34
0.0
 50
90.0
  0
VIEWPORT
  5
22
 67
     1
  8
0
 10
210.0
 20
170.2366863905325
 30
0.0
 40
420.0
 41
340.47337278106511
 68
     1
 69
     1
1001
ACAD
1000
MVIEW
1002
{
1070
    16
1010
0.0
1020
0.0
1030
0.0
1010
0.0
1020
0.0
1030
1.0
1040
0.0
1040
340.47337278106511
1040
210.0
1040
170.2366863905325
1040
50.0
1040
0.0
1040
0.0
1070
     0
1070
   100
1070
     1
1070
     1
1070
     0
1070
     0
1070
     0
1070
     0
1040
0.0
1040
0.0
1040
0.0
1040
5.0
1040
5.0
1040
10.0
1040
10.0
1070
     0
1002
{
1002
}
1002
}
  0
ENDSEC
  0
EOF
