  0
SECTION
  2
HEADER
  9
$ACADVER
  1
AC1009
  9
$INSBASE
 10
0.0
 20
0.0
 30
0.0
  9
$EXTMIN
 10
-101.30023293923681
 20
-27.892269185878359
 30
0.0
  9
$EXTMAX
 10
11.6099191423309
 20
33.891008707262237
 30
0.0
  9
$LIMMIN
 10
-150.0
 20
-150.0
  9
$LIMMAX
 10
150.0
 20
150.0
  9
$ORTHOMODE
 70
     0
  9
$REGENMODE
 70
     1
  9
$FILLMODE
 70
     1
  9
$QTEXTMODE
 70
     0
  9
$MIRRTEXT
 70
     0
  9
$DRAGMODE
 70
     2
  9
$LTSCALE
 40
4.0
  9
$OSMODE
 70
   111
  9
$ATTMODE
 70
     1
  9
$TEXTSIZE
 40
3.5
  9
$TRACEWID
 40
1.0
  9
$TEXTSTYLE
  7
BESCHLAG
  9
$CLAYER
  8
0
  9
$CELTYPE
  6
BYLAYER
  9
$CECOLOR
 62
   256
  9
$DIMSCALE
 40
1.0
  9
$DIMASZ
 40
2.0
  9
$DIMEXO
 40
2.0
  9
$DIMDLI
 40
0.0
  9
$DIMRND
 40
0.0
  9
$DIMDLE
 40
1.0
  9
$DIMEXE
 40
1.0
  9
$DIMTP
 40
0.0
  9
$DIMTM
 40
0.0
  9
$DIMTXT
 40
3.5
  9
$DIMCEN
 40
0.0
  9
$DIMTSZ
 40
0.0
  9
$DIMTOL
 70
     0
  9
$DIMLIM
 70
     0
  9
$DIMTIH
 70
     0
  9
$DIMTOH
 70
     0
  9
$DIMSE1
 70
     0
  9
$DIMSE2
 70
     0
  9
$DIMTAD
 70
     1
  9
$DIMZIN
 70
     8
  9
$DIMBLK
  1

  9
$DIMASO
 70
     1
  9
$DIMSHO
 70
     1
  9
$DIMPOST
  1

  9
$DIMAPOST
  1

  9
$DIMALT
 70
     0
  9
$DIMALTD
 70
     2
  9
$DIMALTF
 40
0.039370078740157
  9
$DIMLFAC
 40
1.0
  9
$DIMTOFL
 70
     1
  9
$DIMTVP
 40
0.0
  9
$DIMTIX
 70
     1
  9
$DIMSOXD
 70
     0
  9
$DIMSAH
 70
     1
  9
$DIMBLK1
  1
OBLIQUE
  9
$DIMBLK2
  1
OBLIQUE
  9
$DIMSTYLE
  2
OPO-SSTRICH
  9
$DIMCLRD
 70
   256
  9
$DIMCLRE
 70
   256
  9
$DIMCLRT
 70
   256
  9
$DIMTFAC
 40
0.7114285714285716
  9
$DIMGAP
 40
1.0
  9
$LUNITS
 70
     2
  9
$LUPREC
 70
     1
  9
$SKETCHINC
 40
1.0
  9
$FILLETRAD
 40
0.0
  9
$AUNITS
 70
     0
  9
$AUPREC
 70
     1
  9
$MENU
  1
D:\ACL_CGWG\CGTAB13
  9
$ELEVATION
 40
0.0
  9
$PELEVATION
 40
0.0
  9
$THICKNESS
 40
0.0
  9
$LIMCHECK
 70
     0
  9
$BLIPMODE
 70
     0
  9
$CHAMFERA
 40
1.0
  9
$CHAMFERB
 40
1.0
  9
$SKPOLY
 70
     0
  9
$TDCREATE
 40
2451739.8763344442
  9
$TDUPDATE
 40
2452087.6184864808
  9
$TDINDWG
 40
0.0013602662
  9
$TDUSRTIMER
 40
0.0013602662
  9
$USRTIMER
 70
     1
  9
$ANGBASE
 50
0.0
  9
$ANGDIR
 70
     0
  9
$PDMODE
 70
    35
  9
$PDSIZE
 40
5.0
  9
$PLINEWID
 40
0.0
  9
$COORDS
 70
     1
  9
$SPLFRAME
 70
     0
  9
$SPLINETYPE
 70
     6
  9
$SPLINESEGS
 70
     8
  9
$ATTDIA
 70
     1
  9
$ATTREQ
 70
     1
  9
$HANDLING
 70
-16383
  9
$HANDSEED
  5
5E7
  9
$SURFTAB1
 70
    12
  9
$SURFTAB2
 70
    12
  9
$SURFTYPE
 70
     6
  9
$SURFU
 70
    12
  9
$SURFV
 70
    12
  9
$UCSNAME
  2

  9
$UCSORG
 10
0.0
 20
0.0
 30
0.0
  9
$UCSXDIR
 10
1.0
 20
0.0
 30
0.0
  9
$UCSYDIR
 10
0.0
 20
1.0
 30
0.0
  9
$PUCSNAME
  2

  9
$PUCSORG
 10
0.0
 20
0.0
 30
0.0
  9
$PUCSXDIR
 10
1.0
 20
0.0
 30
0.0
  9
$PUCSYDIR
 10
0.0
 20
1.0
 30
0.0
  9
$USERI1
 70
     0
  9
$USERI2
 70
     0
  9
$USERI3
 70
     0
  9
$USERI4
 70
     0
  9
$USERI5
 70
     0
  9
$USERR1
 40
0.0
  9
$USERR2
 40
0.0
  9
$USERR3
 40
0.0
  9
$USERR4
 40
0.0
  9
$USERR5
 40
0.0
  9
$WORLDVIEW
 70
     1
  9
$SHADEDGE
 70
     3
  9
$SHADEDIF
 70
    70
  9
$TILEMODE
 70
     1
  9
$MAXACTVP
 70
    48
  9
$PLIMCHECK
 70
     0
  9
$PEXTMIN
 10
1.0000000000000000E+020
 20
1.0000000000000000E+020
 30
1.0000000000000000E+020
  9
$PEXTMAX
 10
-1.0000000000000000E+020
 20
-1.0000000000000000E+020
 30
-1.0000000000000000E+020
  9
$PLIMMIN
 10
0.0
 20
0.0
  9
$PLIMMAX
 10
420.0
 20
297.0
  9
$UNITMODE
 70
     0
  9
$VISRETAIN
 70
     1
  9
$PLINEGEN
 70
     0
  9
$PSLTSCALE
 70
     1
  0
ENDSEC
  0
SECTION
  2
TABLES
  0
TABLE
  2
VPORT
 70
     2
  0
VPORT
  2
*ACTIVE
 70
     0
 10
0.0
 20
0.0
 11
1.0
 21
1.0
 12
-44.837951013862501
 22
4.1979603233781111
 13
0.0
 23
0.0
 14
0.5
 24
0.5
 15
10.0
 25
10.0
 16
0.0
 26
0.0
 36
1.0
 17
0.0
 27
0.0
 37
0.0
 40
70.669864913683853
 41
1.6070460704607039
 42
50.0
 43
0.0
 44
0.0
 50
0.0
 51
0.0
 71
     0
 72
   800
 73
     1
 74
     1
 75
     0
 76
     0
 77
     0
 78
     0
  0
ENDTAB
  0
TABLE
  2
LTYPE
 70
     2
  0
LTYPE
  2
CONTINUOUS
 70
     0
  3
_______________________________________________
 72
    65
 73
     2
 40
1.0
 49
1.0
 49
0.0
  0
LTYPE
  2
STRICHPUNKT
 70
     0
  3
__ . __ . __ . __ . __ . __ . __ . __ . __ . __
 72
    65
 73
     4
 40
1.0
 49
0.5
 49
-0.25
 49
0.0
 49
-0.25
  0
ENDTAB
  0
TABLE
  2
LAYER
 70
     7
  0
LAYER
  2
0
 70
     0
 62
    30
  6
CONTINUOUS
  0
LAYER
  2
1
 70
     0
 62
     2
  6
CONTINUOUS
  0
LAYER
  2
2
 70
     0
 62
     9
  6
CONTINUOUS
  0
LAYER
  2
4
 70
     1
 62
     4
  6
CONTINUOUS
  0
LAYER
  2
5
 70
     0
 62
     1
  6
CONTINUOUS
  0
LAYER
  2
6
 70
     0
 62
     3
  6
CONTINUOUS
  0
LAYER
  2
DEFPOINTS
 70
     0
 62
     7
  6
CONTINUOUS
  0
ENDTAB
  0
TABLE
  2
STYLE
 70
     2
  0
STYLE
  2
STANDARD
 70
     0
 40
0.0
 41
1.0
 50
0.0
 71
     0
 42
2.5
  3
txt
  4

  0
STYLE
  2
BESCHLAG
 70
     0
 40
0.0
 41
1.0
 50
0.0
 71
     0
 42
3.5
  3
txt
  4

  0
ENDTAB
  0
TABLE
  2
VIEW
 70
     0
  0
ENDTAB
  0
TABLE
  2
UCS
 70
     0
  0
ENDTAB
  0
TABLE
  2
APPID
 70
     1
  0
APPID
  2
ACAD
 70
     0
  0
ENDTAB
  0
TABLE
  2
DIMSTYLE
 70
     1
  0
DIMSTYLE
  2
OPO-SSTRICH
 70
     0
  3

  4

  5

  6
OBLIQUE
  7
OBLIQUE
 40
1.0
 41
2.0
 42
2.0
 43
0.0
 44
1.0
 45
0.0
 46
1.0
 47
0.0
 48
0.0
140
3.5
141
0.0
142
0.0
143
0.039370078740157
144
1.0
145
0.0
146
0.7114285714285716
147
1.0
 71
     0
 72
     0
 73
     0
 74
     0
 75
     0
 76
     0
 77
     1
 78
     8
170
     0
171
     2
172
     1
173
     1
174
     1
175
     0
176
   256
177
   256
178
   256
  0
ENDTAB
  0
ENDSEC
  0
SECTION
  2
BLOCKS
  0
BLOCK
  8
0
  2
$MODEL_SPACE
 70
     0
 10
0.0
 20
0.0
 30
0.0
  3
$MODEL_SPACE
  1

  0
ENDBLK
  5
1C
  8
0
  0
BLOCK
 67
     1
  8
0
  2
$PAPER_SPACE
 70
     0
 10
0.0
 20
0.0
 30
0.0
  3
$PAPER_SPACE
  1

  0
ENDBLK
  5
19
 67
     1
  8
0
  0
BLOCK
  8
0
  2
_OBLIQUE
 70
     0
 10
0.0
 20
0.0
 30
0.0
  3
_OBLIQUE
  1

  0
LINE
  5
204
  8
0
 62
     0
 10
-0.5
 20
-0.5
 30
0.0
 11
0.5
 21
0.5
 31
0.0
  0
ENDBLK
  5
206
  8
0
  0
BLOCK
  8
0
  2
NULLPUNKT
 70
     0
 10
0.0
 20
0.0
 30
0.0
  3
NULLPUNKT
  1

  0
SOLID
  5
254
  8
5
 10
0.0
 20
0.0
 30
0.0
 11
2.0
 21
0.0
 31
0.0
 12
0.0
 22
-2.0
 32
0.0
 13
0.0
 23
-2.0
 33
0.0
  0
SOLID
  5
255
  8
5
 10
0.0
 20
0.0
 30
0.0
 11
-2.0
 21
0.0
 31
0.0
 12
0.0
 22
2.0
 32
0.0
 13
0.0
 23
2.0
 33
0.0
  0
POLYLINE
  5
256
  8
5
 66
     1
 10
0.0
 20
0.0
 30
0.0
  0
VERTEX
  5
4B1
  8
5
 10
0.0
 20
2.0
 30
0.0
  0
VERTEX
  5
4B2
  8
5
 10
0.0
 20
-2.0
 30
0.0
  0
SEQEND
  5
4B3
  8
5
  0
POLYLINE
  5
257
  8
5
 66
     1
 10
0.0
 20
0.0
 30
0.0
  0
VERTEX
  5
4B4
  8
5
 10
-2.0
 20
0.0
 30
0.0
  0
VERTEX
  5
4B5
  8
5
 10
2.0
 20
0.0
 30
0.0
  0
SEQEND
  5
4B6
  8
5
  0
CIRCLE
  5
258
  8
5
 10
0.0
 20
0.0
 30
0.0
 40
2.0
  0
ENDBLK
  5
25A
  8
0
  0
BLOCK
  8
0
  2
*X2
 70
     1
 10
0.0
 20
0.0
 30
0.0
  3
*X2
  1

  0
LINE
  5
26C
  8
0
 62
     0
 10
610.34055244290266
 20
-132.97009594039591
 30
0.0
 11
613.39908612261831
 21
-129.91156226068031
 31
0.0
  0
LINE
  5
26D
  8
0
 62
     0
 10
608.40595781630282
 20
-133.2076342921481
 30
0.0
 11
611.43886200496809
 21
-130.17473010348269
 31
0.0
  0
LINE
  5
26E
  8
0
 62
     0
 10
606.47136318970297
 20
-133.44517264390029
 30
0.0
 11
609.47863788731809
 21
-130.43789794628509
 31
0.0
  0
LINE
  5
26F
  8
0
 62
     0
 10
604.5367685631029
 20
-133.68271099565251
 30
0.0
 11
607.51841376966809
 21
-130.70106578908729
 31
0.0
  0
LINE
  5
270
  8
0
 62
     0
 10
602.60217393650305
 20
-133.92024934740471
 30
0.0
 11
605.55818965201786
 21
-130.96423363188981
 31
0.0
  0
LINE
  5
271
  8
0
 62
     0
 10
600.6675793099032
 20
-134.15778769915681
 30
0.0
 11
603.59796553436786
 21
-131.2274014746921
 31
0.0
  0
LINE
  5
272
  8
0
 62
     0
 10
598.73298468330324
 20
-134.39532605090909
 30
0.0
 11
601.63774141671786
 21
-131.49056931749439
 31
0.0
  0
LINE
  5
273
  8
0
 62
     0
 10
596.79839005670351
 20
-134.6328644026612
 30
0.0
 11
599.67751729906786
 21
-131.75373716029679
 31
0.0
  0
LINE
  5
274
  8
0
 62
     0
 10
594.86379543010344
 20
-134.87040275441339
 30
0.0
 11
597.71729318141774
 21
-132.01690500309911
 31
0.0
  0
LINE
  5
275
  8
0
 62
     0
 10
592.92920080350348
 20
-135.1079411061657
 30
0.0
 11
595.75706906376763
 21
-132.2800728459014
 31
0.0
  0
LINE
  5
276
  8
0
 62
     0
 10
590.99460617690374
 20
-135.3454794579178
 30
0.0
 11
593.79684494611763
 21
-132.5432406887038
 31
0.0
  0
LINE
  5
277
  8
0
 62
     0
 10
589.06001155030378
 20
-135.58301780967
 30
0.0
 11
591.83662082846763
 21
-132.80640853150609
 31
0.0
  0
LINE
  5
278
  8
0
 62
     0
 10
587.12541692370382
 20
-135.82055616142219
 30
0.0
 11
589.87639671081752
 21
-133.0695763743085
 31
0.0
  0
LINE
  5
279
  8
0
 62
     0
 10
585.19082229710386
 20
-136.05809451317441
 30
0.0
 11
587.91617259316752
 21
-133.33274421711079
 31
0.0
  0
LINE
  5
27A
  8
0
 62
     0
 10
583.25622767050413
 20
-136.2956328649266
 30
0.0
 11
585.95594847551752
 21
-133.59591205991319
 31
0.0
  0
LINE
  5
27B
  8
0
 62
     0
 10
581.32163304390417
 20
-136.5331712166788
 30
0.0
 11
583.99572435786729
 21
-133.85907990271559
 31
0.0
  0
LINE
  5
27C
  8
0
 62
     0
 10
579.3870384173041
 20
-136.77070956843099
 30
0.0
 11
582.03550024021717
 21
-134.12224774551791
 31
0.0
  0
LINE
  5
27D
  8
0
 62
     0
 10
568.26418940707526
 20
-146.19650230381211
 30
0.0
 11
569.12212555079964
 21
-145.33856616008779
 31
0.0
  0
LINE
  5
27E
  8
0
 62
     0
 10
577.45244379070425
 20
-137.00824792018321
 30
0.0
 11
580.07527612256717
 21
-134.3854155883202
 31
0.0
  0
LINE
  5
27F
  8
0
 62
     0
 10
567.59054317284085
 20
-145.17309226319881
 30
0.0
 11
568.93654025083151
 21
-143.82709518520821
 31
0.0
  0
LINE
  5
280
  8
0
 62
     0
 10
575.5178491641044
 20
-137.24578627193529
 30
0.0
 11
578.11505200491717
 21
-134.64858343112249
 31
0.0
  0
LINE
  5
281
  8
0
 62
     0
 10
567.40495787287284
 20
-143.6616212883192
 30
0.0
 11
568.7509549508635
 21
-142.31562421032851
 31
0.0
  0
LINE
  5
282
  8
0
 62
     0
 10
573.58325453750444
 20
-137.48332462368751
 30
0.0
 11
576.15482788726706
 21
-134.91175127392481
 31
0.0
  0
LINE
  5
283
  8
0
 62
     0
 10
567.21937257290472
 20
-142.15015031343961
 30
0.0
 11
568.56536965089526
 21
-140.80415323544889
 31
0.0
  0
LINE
  5
284
  8
0
 62
     0
 10
571.64865991090471
 20
-137.7208629754397
 30
0.0
 11
574.19460376961706
 21
-135.1749191167273
 31
0.0
  0
LINE
  5
285
  8
0
 62
     0
 10
567.03378727293659
 20
-140.63867933856
 30
0.0
 11
568.37978435092737
 21
-139.29268226056919
 31
0.0
  0
LINE
  5
286
  8
0
 62
     0
 10
569.71406528430464
 20
-137.95840132719189
 30
0.0
 11
572.23437965196695
 21
-135.43808695952961
 31
0.0
  0
LINE
  5
287
  8
0
 62
     0
 10
566.84820197296858
 20
-139.12720836368041
 30
0.0
 11
570.27415553431695
 21
-135.70125480233199
 31
0.0
  0
LINE
  5
288
  8
0
 62
     0
 10
566.66261667300034
 20
-137.61573738880071
 30
0.0
 11
567.87727515835445
 21
-136.40107890344669
 31
0.0
  0
LINE
  5
289
  8
0
 62
     0
 10
612.27514706950251
 20
-132.73255758864369
 30
0.0
 11
614.35180041480942
 21
-130.65590424333681
 31
0.0
  0
LINE
  5
28A
  8
0
 62
     0
 10
614.41821503787003
 20
-130.5894896202762
 30
0.0
 11
615.35931024026831
 21
-129.64839441787791
 31
0.0
  0
LINE
  5
28B
  8
0
 62
     0
 10
613.34255162946886
 20
-133.36220930352499
 30
0.0
 11
616.31202453245953
 21
-130.3927364005344
 31
0.0
  0
LINE
  5
28C
  8
0
 62
     0
 10
616.56154511835382
 20
-130.1432158146402
 30
0.0
 11
617.31953435791843
 21
-129.38522657507559
 31
0.0
  0
LINE
  5
28D
  8
0
 62
     0
 10
613.34255162946886
 20
-135.05926557837279
 30
0.0
 11
614.84255162946897
 21
-133.55926557837279
 31
0.0
  0
LINE
  5
28E
  8
0
 62
     0
 10
618.70487519883807
 20
-129.69694200900361
 30
0.0
 11
619.27975847556843
 21
-129.1220587322733
 31
0.0
  0
LINE
  5
28F
  8
0
 62
     0
 10
616.1443363227022
 20
-132.2574808851395
 30
0.0
 11
618.27224865010953
 21
-130.1295685577322
 31
0.0
  0
LINE
  5
290
  8
0
 62
     0
 10
613.34255162946886
 20
-136.75632185322041
 30
0.0
 11
614.84255162946897
 21
-135.2563218532205
 31
0.0
  0
LINE
  5
291
  8
0
 62
     0
 10
620.84820527932391
 20
-129.25066820336551
 30
0.0
 11
621.23998259321843
 21
-128.85889088947101
 31
0.0
  0
LINE
  5
292
  8
0
 62
     0
 10
618.07893094930216
 20
-132.01994253338719
 30
0.0
 11
620.23247276775965
 21
-129.8664007149298
 31
0.0
  0
LINE
  5
293
  8
0
 62
     0
 10
613.34255162946886
 20
-138.45337812806821
 30
0.0
 11
614.84255162946897
 21
-136.95337812806829
 31
0.0
  0
LINE
  5
294
  8
0
 62
     0
 10
631.64255162946893
 20
-120.1533781280683
 30
0.0
 11
634.08885990955491
 21
-117.7070698479824
 31
0.0
  0
LINE
  5
295
  8
0
 62
     0
 10
620.01352557590224
 20
-131.782404181635
 30
0.0
 11
622.19269688540976
 21
-129.60323287212751
 31
0.0
  0
LINE
  5
296
  8
0
 62
     0
 10
622.99153535980838
 20
-128.8043943977288
 30
0.0
 11
623.20020671086866
 21
-128.59572304666861
 31
0.0
  0
LINE
  5
297
  8
0
 62
     0
 10
613.34255162946886
 20
-140.15043440291581
 30
0.0
 11
614.84255162946897
 21
-138.65043440291589
 31
0.0
  0
LINE
  5
298
  8
0
 62
     0
 10
631.65701584716601
 20
-121.8359701852189
 30
0.0
 11
635.78591618440237
 21
-117.7070698479824
 31
0.0
  0
LINE
  5
299
  8
0
 62
     0
 10
621.94812020250197
 20
-131.5448658298827
 30
0.0
 11
624.15292100305976
 21
-129.3400650293251
 31
0.0
  0
LINE
  5
29A
  8
0
 62
     0
 10
613.34255162946886
 20
-141.8474906777636
 30
0.0
 11
614.84255162946897
 21
-140.34749067776369
 31
0.0
  0
LINE
  5
29B
  8
0
 62
     0
 10
635.48297245925016
 20
-119.7070698479824
 30
0.0
 11
637.48297245925016
 21
-117.7070698479824
 31
0.0
  0
LINE
  5
29C
  8
0
 62
     0
 10
623.88271482910216
 20
-131.3073274781305
 30
0.0
 11
626.11314512070987
 21
-129.0768971865227
 31
0.0
  0
LINE
  5
29D
  8
0
 62
     0
 10
632.27818155541206
 20
-122.9118607518206
 30
0.0
 11
633.59587300903604
 21
-121.5941692981966
 31
0.0
  0
LINE
  5
29E
  8
0
 62
     0
 10
613.76129018178335
 20
-143.1258084002969
 30
0.0
 11
615.18002873409796
 21
-141.70706984798241
 31
0.0
  0
LINE
  5
29F
  8
0
 62
     0
 10
637.18002873409796
 20
-119.7070698479824
 30
0.0
 11
638.64255162946893
 21
-118.2445469526115
 31
0.0
  0
LINE
  5
2A0
  8
0
 62
     0
 10
625.34255162946886
 20
-131.5445469526114
 30
0.0
 11
627.88466669201841
 21
-129.0024318900619
 31
0.0
  0
LINE
  5
2A1
  8
0
 62
     0
 10
632.56409066038623
 20
-124.3230079216942
 30
0.0
 11
634.21703871728209
 21
-122.6700598647983
 31
0.0
  0
LINE
  5
2A2
  8
0
 62
     0
 10
615.60981831920731
 20
-142.97433653772069
 30
0.0
 11
616.87708500894564
 21
-141.70706984798241
 31
0.0
  0
LINE
  5
2A3
  8
0
 62
     0
 10
632.56409066038623
 20
-126.0200641965418
 30
0.0
 11
634.64255162946893
 21
-123.9416032274591
 31
0.0
  0
LINE
  5
2A4
  8
0
 62
     0
 10
625.34255162946886
 20
-133.241603227459
 30
0.0
 11
627.14255162946893
 21
-131.4416032274591
 31
0.0
  0
LINE
  5
2A5
  8
0
 62
     0
 10
627.67708500894548
 20
-130.9070698479824
 30
0.0
 11
629.81926131861815
 21
-128.76489353830979
 31
0.0
  0
LINE
  5
2A6
  8
0
 62
     0
 10
617.45834645663115
 20
-142.82286467514459
 30
0.0
 11
618.57414128379344
 21
-141.70706984798241
 31
0.0
  0
LINE
  5
2A7
  8
0
 62
     0
 10
632.56409066038623
 20
-127.71712047138961
 30
0.0
 11
634.64255162946893
 21
-125.63865950230689
 31
0.0
  0
LINE
  5
2A8
  8
0
 62
     0
 10
625.34255162946886
 20
-134.93865950230679
 30
0.0
 11
627.14255162946893
 21
-133.13865950230681
 31
0.0
  0
LINE
  5
2A9
  8
0
 62
     0
 10
629.37414128379339
 20
-130.9070698479824
 30
0.0
 11
631.75385594521811
 21
-128.5273551865576
 31
0.0
  0
LINE
  5
2AA
  8
0
 62
     0
 10
618.80687459405488
 20
-143.1713928125684
 30
0.0
 11
620.27119755864101
 21
-141.70706984798241
 31
0.0
  0
LINE
  5
2AB
  8
0
 62
     0
 10
631.07119755864085
 20
-130.9070698479824
 30
0.0
 11
634.64255162946893
 21
-127.3357157771545
 31
0.0
  0
LINE
  5
2AC
  8
0
 62
     0
 10
625.34255162946886
 20
-136.63571577715439
 30
0.0
 11
627.16281417667028
 21
-134.81545322995299
 31
0.0
  0
LINE
  5
2AD
  8
0
 62
     0
 10
620.65540273147883
 20
-143.0199209499923
 30
0.0
 11
621.34255162946886
 21
-142.33277205200221
 31
0.0
  0
LINE
  5
2AE
  8
0
 62
     0
 10
632.76825383348876
 20
-130.9070698479824
 30
0.0
 11
634.64255162946893
 21
-129.03277205200229
 31
0.0
  0
LINE
  5
2AF
  8
0
 62
     0
 10
626.5682538334886
 20
-137.1070698479825
 30
0.0
 11
628.66825383348873
 21
-135.00706984798231
 31
0.0
  0
LINE
  5
2B0
  8
0
 62
     0
 10
628.26531010833651
 20
-137.1070698479825
 30
0.0
 11
630.36531010833653
 21
-135.00706984798231
 31
0.0
  0
LINE
  5
2B1
  8
0
 62
     0
 10
629.96236638318396
 20
-137.1070698479825
 30
0.0
 11
632.06236638318421
 21
-135.00706984798231
 31
0.0
  0
LINE
  5
2B2
  8
0
 62
     0
 10
631.65942265803187
 20
-137.1070698479825
 30
0.0
 11
634.03240509399859
 21
-134.7340874120157
 31
0.0
  0
LINE
  5
2B3
  8
0
 62
     0
 10
632.84255162946886
 20
-137.620997151393
 30
0.0
 11
634.48592875365625
 21
-135.9776200272058
 31
0.0
  0
LINE
  5
2B4
  8
0
 62
     0
 10
632.84255162946886
 20
-139.31805342624079
 30
0.0
 11
634.64255162946893
 21
-137.51805342624081
 31
0.0
  0
LINE
  5
2B5
  8
0
 62
     0
 10
632.84255162946886
 20
-141.01510970108839
 30
0.0
 11
634.64255162946893
 21
-139.21510970108849
 31
0.0
  0
LINE
  5
2B6
  8
0
 62
     0
 10
638.74255162946884
 20
-135.1151097010885
 30
0.0
 11
639.1505914825749
 21
-134.70706984798241
 31
0.0
  0
LINE
  5
2B7
  8
0
 62
     0
 10
632.84255162946886
 20
-142.71216597593619
 30
0.0
 11
634.64255162946893
 21
-140.9121659759362
 31
0.0
  0
LINE
  5
2B8
  8
0
 62
     0
 10
638.74255162946884
 20
-136.8121659759363
 30
0.0
 11
640.84764775742281
 21
-134.70706984798241
 31
0.0
  0
LINE
  5
2B9
  8
0
 62
     0
 10
634.11862783086974
 20
-143.13314604938321
 30
0.0
 11
635.54470403227049
 21
-141.70706984798241
 31
0.0
  0
LINE
  5
2BA
  8
0
 62
     0
 10
638.74255162946884
 20
-138.50922225078409
 30
0.0
 11
642.45575713527637
 21
-134.79601674497661
 31
0.0
  0
LINE
  5
2BB
  8
0
 62
     0
 10
635.96715596829347
 20
-142.981674186807
 30
0.0
 11
637.24176030711806
 21
-141.70706984798241
 31
0.0
  0
LINE
  5
2BC
  8
0
 62
     0
 10
642.24176030711806
 20
-136.70706984798241
 30
0.0
 11
642.54255058853289
 21
-136.40627956656749
 31
0.0
  0
LINE
  5
2BD
  8
0
 62
     0
 10
638.74255162946884
 20
-140.20627852563169
 30
0.0
 11
641.06895612973767
 21
-137.87987402536291
 31
0.0
  0
LINE
  5
2BE
  8
0
 62
     0
 10
637.81568410571742
 20
-142.8302023242309
 30
0.0
 11
640.54255162946879
 21
-140.1033348004795
 31
0.0
  0
LINE
  5
2BF
  8
0
 62
     0
 10
640.96441206353859
 20
-139.6814743664097
 30
0.0
 11
642.76326026415882
 21
-137.88262616578959
 31
0.0
  0
LINE
  5
2C0
  8
0
 62
     0
 10
639.16421224314115
 20
-143.17873046165471
 30
0.0
 11
640.54255162946879
 21
-141.80039107532721
 31
0.0
  0
LINE
  5
2C1
  8
0
 62
     0
 10
642.65908437733458
 20
-139.68385832746131
 30
0.0
 11
644.45756439857962
 21
-137.8853783062163
 31
0.0
  0
LINE
  5
2C2
  8
0
 62
     0
 10
644.3537566911308
 20
-139.686242288513
 30
0.0
 11
646.15186853300065
 21
-137.888130446643
 31
0.0
  0
LINE
  5
2C3
  8
0
 62
     0
 10
646.04842900492702
 20
-139.68862624956461
 30
0.0
 11
647.84617266742168
 21
-137.89088258706971
 31
0.0
  0
LINE
  5
2C4
  8
0
 62
     0
 10
647.74310131872301
 20
-139.69101021061621
 30
0.0
 11
649.54047680184271
 21
-137.89363472749639
 31
0.0
  0
LINE
  5
2C5
  8
0
 62
     0
 10
649.43777363251911
 20
-139.69339417166779
 30
0.0
 11
651.23478093626375
 21
-137.8963868679231
 31
0.0
  0
LINE
  5
2C6
  8
0
 62
     0
 10
651.1324459463151
 20
-139.6957781327194
 30
0.0
 11
652.92908507068455
 21
-137.89913900834989
 31
0.0
  0
LINE
  5
2C7
  8
0
 62
     0
 10
652.82711826011132
 20
-139.698162093771
 30
0.0
 11
655.243666721615
 21
-137.28161363226729
 31
0.0
  0
LINE
  5
2C8
  8
0
 62
     0
 10
654.28865858118365
 20
-139.93367804754649
 30
0.0
 11
656.06257620980227
 21
-138.15976041892759
 31
0.0
  0
ENDBLK
  5
2CA
  8
0
  0
BLOCK
  8
0
  2
*X3
 70
     1
 10
0.0
 20
0.0
 30
0.0
  3
*X3
  1

  0
LINE
  5
30A
  8
0
 62
     0
 10
649.12298323442633
 20
-142.87047582293661
 30
0.0
 11
652.09403361829891
 21
-139.89942543906409
 31
0.0
  0
LINE
  5
30B
  8
0
 62
     0
 10
655.14477857815973
 20
-136.84868047920321
 30
0.0
 11
657.32408041416443
 21
-134.66937864319851
 31
0.0
  0
LINE
  5
30C
  8
0
 62
     0
 10
648.17566065076085
 20
-142.4035848442289
 30
0.0
 11
650.39727027918138
 21
-140.18197521580851
 31
0.0
  0
LINE
  5
30D
  8
0
 62
     0
 10
653.42744374039307
 20
-137.15180175459659
 30
0.0
 11
655.90986685179132
 21
-134.66937864319851
 31
0.0
  0
LINE
  5
30E
  8
0
 62
     0
 10
646.29455610968012
 20
-142.87047582293661
 30
0.0
 11
649.29455610968012
 21
-139.87047582293661
 31
0.0
  0
LINE
  5
30F
  8
0
 62
     0
 10
651.71010890262664
 20
-137.45492302999
 30
0.0
 11
654.49565328941821
 21
-134.66937864319851
 31
0.0
  0
LINE
  5
310
  8
0
 62
     0
 10
644.8803425473069
 20
-142.87047582293661
 30
0.0
 11
647.88034254730712
 21
-139.8704758229365
 31
0.0
  0
LINE
  5
311
  8
0
 62
     0
 10
650.33378240617299
 20
-137.41703596407049
 30
0.0
 11
653.08143972704511
 21
-134.66937864319851
 31
0.0
  0
LINE
  5
312
  8
0
 62
     0
 10
643.4661289849339
 20
-142.87047582293661
 30
0.0
 11
646.46612898493402
 21
-139.8704758229365
 31
0.0
  0
LINE
  5
313
  8
0
 62
     0
 10
648.66722616467189
 20
-137.66937864319851
 30
0.0
 11
651.667226164672
 21
-134.66937864319851
 31
0.0
  0
LINE
  5
314
  8
0
 62
     0
 10
642.0519154225608
 20
-142.87047582293661
 30
0.0
 11
645.05191542256091
 21
-139.87047582293641
 31
0.0
  0
LINE
  5
315
  8
0
 62
     0
 10
647.2530126022989
 20
-137.66937864319851
 30
0.0
 11
649.44778211588391
 21
-135.4746091296135
 31
0.0
  0
LINE
  5
316
  8
0
 62
     0
 10
641.14255162946847
 20
-142.36562605365569
 30
0.0
 11
642.71677658368185
 21
-140.7914010994424
 31
0.0
  0
LINE
  5
317
  8
0
 62
     0
 10
645.8387990399259
 20
-137.66937864319851
 30
0.0
 11
648.74067533469736
 21
-134.767502348427
 31
0.0
  0
LINE
  5
318
  8
0
 62
     0
 10
641.14255162946847
 20
-140.95141249128261
 30
0.0
 11
641.30256302130886
 21
-140.7914010994424
 31
0.0
  0
LINE
  5
319
  8
0
 62
     0
 10
644.4245854775528
 20
-137.66937864319851
 30
0.0
 11
647.42458547755257
 21
-134.66937864319851
 31
0.0
  0
LINE
  5
31A
  8
0
 62
     0
 10
643.14255162946893
 20
-137.53719892890919
 30
0.0
 11
646.01037191517958
 21
-134.66937864319851
 31
0.0
  0
LINE
  5
31B
  8
0
 62
     0
 10
643.14255162946893
 20
-136.1229853665362
 30
0.0
 11
644.59615835280636
 21
-134.66937864319851
 31
0.0
  0
LINE
  5
31C
  8
0
 62
     0
 10
650.53719679679944
 20
-142.87047582293661
 30
0.0
 11
652.82611167761013
 21
-140.58156094212589
 31
0.0
  0
LINE
  5
31D
  8
0
 62
     0
 10
655.82719264643424
 20
-137.58047997330181
 30
0.0
 11
658.23829397653753
 21
-135.16937864319851
 31
0.0
  0
LINE
  5
31E
  8
0
 62
     0
 10
651.95141035917254
 20
-142.87047582293661
 30
0.0
 11
654.52287501672765
 21
-140.2990111653815
 31
0.0
  0
LINE
  5
31F
  8
0
 62
     0
 10
658.73210323670264
 20
-136.0897829454064
 30
0.0
 11
659.65250753891064
 21
-135.16937864319851
 31
0.0
  0
LINE
  5
320
  8
0
 62
     0
 10
653.36562392154565
 20
-142.87047582293661
 30
0.0
 11
656.36562392154565
 21
-139.8704758229365
 31
0.0
  0
LINE
  5
321
  8
0
 62
     0
 10
660.19023348888902
 20
-136.04586625559321
 30
0.0
 11
661.06672110128363
 21
-135.16937864319851
 31
0.0
  0
LINE
  5
322
  8
0
 62
     0
 10
654.77983748391875
 20
-142.87047582293661
 30
0.0
 11
657.25944831018228
 21
-140.390864996673
 31
0.0
  0
LINE
  5
323
  8
0
 62
     0
 10
661.16348939307443
 20
-136.48682391378091
 30
0.0
 11
662.98093466365674
 21
-134.66937864319851
 31
0.0
  0
LINE
  5
324
  8
0
 62
     0
 10
656.19405104629175
 20
-142.87047582293661
 30
0.0
 11
657.97471196760625
 21
-141.08981490162199
 31
0.0
  0
LINE
  5
325
  8
0
 62
     0
 10
661.86243929802345
 20
-137.202087571205
 30
0.0
 11
663.64255162946893
 21
-135.42197523975949
 31
0.0
  0
LINE
  5
326
  8
0
 62
     0
 10
657.60826460866485
 20
-142.87047582293661
 30
0.0
 11
658.96832677817429
 21
-141.51041365342721
 31
0.0
  0
LINE
  5
327
  8
0
 62
     0
 10
662.28303804982863
 20
-138.1957023817728
 30
0.0
 11
663.64255162946893
 21
-136.8361888021326
 31
0.0
  0
LINE
  5
328
  8
0
 62
     0
 10
659.52247817103785
 20
-142.37047582293661
 30
0.0
 11
660.48718322412435
 21
-141.40577076985031
 31
0.0
  0
LINE
  5
329
  8
0
 62
     0
 10
662.17839516625179
 20
-139.7145588277229
 30
0.0
 11
663.6425516294687
 21
-138.2504023645059
 31
0.0
  0
LINE
  5
32A
  8
0
 62
     0
 10
660.8146216814398
 20
-142.49254587490771
 30
0.0
 11
663.6425516294687
 21
-139.66461592687901
 31
0.0
  0
LINE
  5
32B
  8
0
 62
     0
 10
661.85090529578417
 20
-142.87047582293661
 30
0.0
 11
663.6425516294687
 21
-141.07882948925209
 31
0.0
  0
LINE
  5
32C
  8
0
 62
     0
 10
656.54885327699094
 20
-142.87047582293661
 30
0.0
 11
653.7357800041616
 21
-140.0574025501073
 31
0.0
  0
LINE
  5
32D
  8
0
 62
     0
 10
650.72804630518795
 20
-137.04966885113359
 30
0.0
 11
648.34775609725284
 21
-134.66937864319851
 31
0.0
  0
LINE
  5
32E
  8
0
 62
     0
 10
655.13463971461783
 20
-142.87047582293661
 30
0.0
 11
653.05336593588697
 21
-140.78920204420581
 31
0.0
  0
LINE
  5
32F
  8
0
 62
     0
 10
649.93354253487973
 20
-137.66937864319851
 30
0.0
 11
646.93354253487973
 21
-134.66937864319851
 31
0.0
  0
LINE
  5
330
  8
0
 62
     0
 10
653.72042615224473
 20
-142.87047582293661
 30
0.0
 11
651.33603109812054
 21
-140.4860807688124
 31
0.0
  0
LINE
  5
331
  8
0
 62
     0
 10
648.51932897250663
 20
-137.66937864319851
 30
0.0
 11
645.51932897250663
 21
-134.66937864319851
 31
0.0
  0
LINE
  5
332
  8
0
 62
     0
 10
652.30621258987162
 20
-142.87047582293661
 30
0.0
 11
649.30621258987162
 21
-139.87047582293661
 31
0.0
  0
LINE
  5
333
  8
0
 62
     0
 10
647.10511541013352
 20
-137.66937864319851
 30
0.0
 11
644.10511541013352
 21
-134.66937864319851
 31
0.0
  0
LINE
  5
334
  8
0
 62
     0
 10
650.89199902749851
 20
-142.87047582293661
 30
0.0
 11
647.8919990274984
 21
-139.8704758229365
 31
0.0
  0
LINE
  5
335
  8
0
 62
     0
 10
645.69090184776053
 20
-137.66937864319851
 30
0.0
 11
643.14255162946893
 21
-135.121028424907
 31
0.0
  0
LINE
  5
336
  8
0
 62
     0
 10
649.47778546512552
 20
-142.87047582293661
 30
0.0
 11
646.47778546512518
 21
-139.8704758229365
 31
0.0
  0
LINE
  5
337
  8
0
 62
     0
 10
644.27668828538742
 20
-137.66937864319851
 30
0.0
 11
643.14255162946893
 21
-136.5352419872801
 31
0.0
  0
LINE
  5
338
  8
0
 62
     0
 10
647.35306176611039
 20
-142.15996568629481
 30
0.0
 11
645.06357190275219
 21
-139.87047582293641
 31
0.0
  0
LINE
  5
339
  8
0
 62
     0
 10
646.64595498492395
 20
-142.86707246748131
 30
0.0
 11
643.85641762317698
 21
-140.07753510573431
 31
0.0
  0
LINE
  5
33A
  8
0
 62
     0
 10
645.2351447780062
 20
-142.87047582293661
 30
0.0
 11
643.14931084199043
 21
-140.78464188692089
 31
0.0
  0
LINE
  5
33B
  8
0
 62
     0
 10
643.8209312156331
 20
-142.87047582293661
 30
0.0
 11
641.74185649213894
 21
-140.7914010994424
 31
0.0
  0
LINE
  5
33C
  8
0
 62
     0
 10
642.40671765325999
 20
-142.87047582293661
 30
0.0
 11
641.14255162946847
 21
-141.60630979914529
 31
0.0
  0
LINE
  5
33D
  8
0
 62
     0
 10
657.96306683936405
 20
-142.87047582293661
 30
0.0
 11
655.45311484192803
 21
-140.36052382550071
 31
0.0
  0
LINE
  5
33E
  8
0
 62
     0
 10
652.42480964430536
 20
-137.33221862787801
 30
0.0
 11
650.20226064454744
 21
-135.10966962812
 31
0.0
  0
LINE
  5
33F
  8
0
 62
     0
 10
658.87728040173715
 20
-142.37047582293661
 30
0.0
 11
656.37728040173693
 21
-139.8704758229365
 31
0.0
  0
LINE
  5
340
  8
0
 62
     0
 10
654.12157298342288
 20
-137.6147684046224
 30
0.0
 11
651.17618322199905
 21
-134.66937864319851
 31
0.0
  0
LINE
  5
341
  8
0
 62
     0
 10
660.29149396411015
 20
-142.37047582293661
 30
0.0
 11
659.49046078661365
 21
-141.56944264544001
 31
0.0
  0
LINE
  5
342
  8
0
 62
     0
 10
654.85365104273421
 20
-136.93263290156059
 30
0.0
 11
652.59039678437216
 21
-134.66937864319851
 31
0.0
  0
LINE
  5
343
  8
0
 62
     0
 10
662.20570752648325
 20
-142.87047582293661
 30
0.0
 11
660.66870637774878
 21
-141.33347467420211
 31
0.0
  0
LINE
  5
344
  8
0
 62
     0
 10
656.97900418833456
 20
-137.6437724847878
 30
0.0
 11
654.00461034674515
 21
-134.66937864319851
 31
0.0
  0
LINE
  5
345
  8
0
 62
     0
 10
663.40623635916245
 20
-142.65679109324279
 30
0.0
 11
661.51082713083929
 21
-140.76138186491971
 31
0.0
  0
LINE
  5
346
  8
0
 62
     0
 10
657.55109699761692
 20
-136.80165173169709
 30
0.0
 11
655.41882390911837
 21
-134.66937864319851
 31
0.0
  0
LINE
  5
347
  8
0
 62
     0
 10
663.6425516294687
 20
-141.47889280117579
 30
0.0
 11
662.09178290166324
 21
-139.9281240733703
 31
0.0
  0
LINE
  5
348
  8
0
 62
     0
 10
658.38435478916608
 20
-136.2206959608734
 30
0.0
 11
656.83303747149137
 21
-134.66937864319851
 31
0.0
  0
LINE
  5
349
  8
0
 62
     0
 10
663.6425516294687
 20
-140.06467923880271
 30
0.0
 11
662.34254670211374
 21
-138.76467431144781
 31
0.0
  0
LINE
  5
34A
  8
0
 62
     0
 10
659.5478045510888
 20
-135.9699321604229
 30
0.0
 11
658.74725103386447
 21
-135.16937864319851
 31
0.0
  0
LINE
  5
34B
  8
0
 62
     0
 10
663.6425516294687
 20
-138.6504656764296
 30
0.0
 11
660.16146459623747
 21
-135.16937864319851
 31
0.0
  0
LINE
  5
34C
  8
0
 62
     0
 10
663.64255162946893
 20
-137.2362521140567
 30
0.0
 11
661.33411489403966
 21
-134.9278153786276
 31
0.0
  0
LINE
  5
34D
  8
0
 62
     0
 10
663.64255162946893
 20
-135.82203855168359
 30
0.0
 11
662.48989172098368
 21
-134.66937864319851
 31
0.0
  0
ENDBLK
  5
34F
  8
0
  0
BLOCK
  8
0
  2
*D4
 70
     1
 10
0.0
 20
0.0
 30
0.0
  3
*D4
  1

  0
LINE
  5
3BD
  8
1
 10
-28.999999999999769
 20
-12.525899772360839
 30
0.0
 11
-28.999999999999769
 21
-24.711692475452079
 31
0.0
  0
LINE
  5
3BE
  8
1
 10
-97.999999999999773
 20
-15.030650887779069
 30
0.0
 11
-97.999999999999773
 21
-24.711692475452079
 31
0.0
  0
LINE
  5
3BF
  8
1
 10
-27.999999999999769
 20
-23.711692475452079
 30
0.0
 11
-98.999999999999773
 21
-23.711692475452079
 31
0.0
  0
INSERT
  5
3C0
  8
1
  2
_OBLIQUE
 10
-28.999999999999769
 20
-23.711692475452079
 30
0.0
 41
2.0
 42
2.0
 43
2.0
  0
INSERT
  5
3C1
  8
1
  2
_OBLIQUE
 10
-97.999999999999773
 20
-23.711692475452079
 30
0.0
 41
2.0
 42
2.0
 43
2.0
 50
180.0
  0
TEXT
  5
3C2
  8
0
 10
-66.203785811732374
 20
-22.644843907921391
 30
0.0
 40
3.5
  1
69
  7
BESCHLAG
  0
POINT
  5
3C3
  8
DEFPOINTS
 62
     0
 10
-28.999999999999769
 20
-10.525899772360839
 30
0.0
  0
POINT
  5
3C4
  8
DEFPOINTS
 62
     0
 10
-97.999999999999773
 20
-13.030650887779069
 30
0.0
  0
POINT
  5
3C5
  8
DEFPOINTS
 62
     0
 10
-97.999999999999773
 20
-23.711692475452079
 30
0.0
  0
ENDBLK
  5
38B
  8
0
  0
BLOCK
  8
0
  2
*D5
 70
     1
 10
0.0
 20
0.0
 30
0.0
  3
*D5
  1

  0
LINE
  5
3C6
  8
1
 10
-28.999999999999769
 20
6.5
 30
0.0
 11
-28.999999999999769
 21
-24.711692475452079
 31
0.0
  0
LINE
  5
3C7
  8
1
 10
-22.999999999999769
 20
13.0
 30
0.0
 11
-22.999999999999769
 21
-24.711692475452079
 31
0.0
  0
LINE
  5
3C8
  8
1
 10
-29.999999999999769
 20
-23.711692475452079
 30
0.0
 11
-21.999999999999769
 21
-23.711692475452079
 31
0.0
  0
INSERT
  5
3C9
  8
1
  2
_OBLIQUE
 10
-28.999999999999769
 20
-23.711692475452079
 30
0.0
 41
2.0
 42
2.0
 43
2.0
 50
180.0
  0
INSERT
  5
3CA
  8
1
  2
_OBLIQUE
 10
-22.999999999999769
 20
-23.711692475452079
 30
0.0
 41
2.0
 42
2.0
 43
2.0
  0
TEXT
  5
3CB
  8
0
 10
-27.339358799454072
 20
-22.644843907921391
 30
0.0
 40
3.5
  1
6
  7
BESCHLAG
  0
POINT
  5
3CC
  8
DEFPOINTS
 62
     0
 10
-28.999999999999769
 20
8.5
 30
0.0
  0
POINT
  5
3CD
  8
DEFPOINTS
 62
     0
 10
-22.999999999999769
 20
15.0
 30
0.0
  0
POINT
  5
3CE
  8
DEFPOINTS
 62
     0
 10
-22.999999999999769
 20
-23.711692475452079
 30
0.0
  0
ENDBLK
  5
397
  8
0
  0
BLOCK
  8
0
  2
*D6
 70
     1
 10
0.0
 20
0.0
 30
0.0
  3
*D6
  1

  0
LINE
  5
3CF
  8
1
 10
-22.999999999999769
 20
13.0
 30
0.0
 11
-22.999999999999769
 21
-24.711692475452079
 31
0.0
  0
LINE
  5
3D0
  8
1
 10
-0.0000000000000001
 20
-2.0
 30
0.0
 11
-0.0000000000000015
 21
-24.711692475452079
 31
0.0
  0
LINE
  5
3D1
  8
1
 10
-23.999999999999769
 20
-23.711692475452079
 30
0.0
 11
0.9999999999999985
 21
-23.711692475452079
 31
0.0
  0
INSERT
  5
3D2
  8
1
  2
_OBLIQUE
 10
-22.999999999999769
 20
-23.711692475452079
 30
0.0
 41
2.0
 42
2.0
 43
2.0
 50
180.0
  0
INSERT
  5
3D3
  8
1
  2
_OBLIQUE
 10
-0.0000000000000015
 20
-23.711692475452079
 30
0.0
 41
2.0
 42
2.0
 43
2.0
  0
TEXT
  5
3D4
  8
0
 10
-14.179911323328669
 20
-22.642456459081
 30
0.0
 40
3.5
  1
23
  7
BESCHLAG
  0
POINT
  5
3D5
  8
DEFPOINTS
 62
     0
 10
-22.999999999999769
 20
15.0
 30
0.0
  0
POINT
  5
3D6
  8
DEFPOINTS
 62
     0
 10
0.0
 20
0.0
 30
0.0
  0
POINT
  5
3D7
  8
DEFPOINTS
 62
     0
 10
-0.0000000000000015
 20
-23.711692475452079
 30
0.0
  0
ENDBLK
  5
3A3
  8
0
  0
BLOCK
  8
0
  2
*D7
 70
     1
 10
0.0
 20
0.0
 30
0.0
  3
*D7
  1

  0
LINE
  5
3EB
  8
1
 10
-33.999999999999773
 20
25.5
 30
0.0
 11
-40.688032348196877
 21
25.5
 31
0.0
  0
LINE
  5
3EC
  8
1
 10
-34.000000000000227
 20
0.5000000000000006
 30
0.0
 11
-40.688032348196877
 21
0.5000000000000026
 31
0.0
  0
LINE
  5
3ED
  8
1
 10
-39.688032348196877
 20
26.5
 30
0.0
 11
-39.688032348196877
 21
-0.4999999999999979
 31
0.0
  0
TEXT
  5
3EE
  8
0
 10
-42.254880915727583
 20
17.143058566111311
 30
0.0
 40
3.5
  1
25
 50
90.0
  7
BESCHLAG
  0
INSERT
  5
3EF
  8
1
  2
_OBLIQUE
 10
-39.688032348196877
 20
25.5
 30
0.0
 41
2.0
 42
2.0
 43
2.0
 50
90.0
  0
INSERT
  5
3F0
  8
1
  2
_OBLIQUE
 10
-39.688032348196877
 20
0.5000000000000022
 30
0.0
 41
2.0
 42
2.0
 43
2.0
 50
270.0
  0
POINT
  5
3F1
  8
DEFPOINTS
 62
     0
 10
-31.999999999999769
 20
25.5
 30
0.0
  0
POINT
  5
3F2
  8
DEFPOINTS
 62
     0
 10
-32.00000000000022
 20
0.5
 30
0.0
  0
POINT
  5
3F3
  8
DEFPOINTS
 62
     0
 10
-39.688032348196877
 20
0.5000000000000022
 30
0.0
  0
ENDBLK
  5
3B0
  8
0
  0
BLOCK
  8
0
  2
*D8
 70
     1
 10
0.0
 20
0.0
 30
0.0
  3
*D8
  1

  0
LINE
  5
3E2
  8
1
 10
2.0
 20
-0.0000000000000006
 30
0.0
 11
11.6099191423309
 21
-0.0000000000000033
 31
0.0
  0
LINE
  5
3E3
  8
1
 10
1.5500000000001819
 20
8.5376912047838687
 30
0.0
 11
11.6099191423309
 21
8.5376912047838651
 31
0.0
  0
LINE
  5
3E4
  8
1
 10
10.6099191423309
 20
-1.0000000000000031
 30
0.0
 11
10.609919142330909
 21
9.5376912047838651
 31
0.0
  0
INSERT
  5
3E5
  8
1
  2
_OBLIQUE
 10
10.6099191423309
 20
-0.000000000000003
 30
0.0
 41
2.0
 42
2.0
 43
2.0
 50
270.0
  0
INSERT
  5
3E6
  8
1
  2
_OBLIQUE
 10
10.609919142330909
 20
8.5376912047838651
 30
0.0
 41
2.0
 42
2.0
 43
2.0
 50
90.0
  0
TEXT
  5
3E7
  8
0
 10
9.5430705748002111
 20
0.8691184536879772
 30
0.0
 40
3.5
  1
8.5
 50
90.0
  7
BESCHLAG
  0
POINT
  5
3E8
  8
DEFPOINTS
 62
     0
 10
0.0
 20
0.0
 30
0.0
  0
POINT
  5
3E9
  8
DEFPOINTS
 62
     0
 10
-0.4499999999998181
 20
8.5376912047838687
 30
0.0
  0
POINT
  5
3EA
  8
DEFPOINTS
 62
     0
 10
10.609919142330909
 20
8.5376912047838651
 30
0.0
  0
ENDBLK
  5
3BC
  8
0
  0
ENDSEC
  0
SECTION
  2
ENTITIES
  0
INSERT
  5
25B
  8
5
  2
NULLPUNKT
 10
0.0
 20
0.0
 30
0.0
  0
DIMENSION
  5
36B
  8
1
  2
*D4
 10
-97.999999999999773
 20
-23.711692475452079
 30
0.0
 11
-63.499999999999773
 21
-20.924687018426159
 31
0.0
 70
     0
 13
-28.999999999999769
 23
-10.525899772360839
 33
0.0
 14
-97.999999999999773
 24
-13.030650887779069
 34
0.0
  0
INSERT
  5
36C
  8
2
  2
*X2
 10
-663.6425516294687
 20
143.20706984798241
 30
0.0
1001
ACAD
1000
HATCH
1002
{
1070
    16
1000
_U,I
1040
1.1999999999999991
1040
0.7853981633974483
1070
     0
1002
}
  0
POLYLINE
  5
36D
  8
5
 66
     1
 10
0.0
 20
0.0
 30
0.0
  0
VERTEX
  5
4B7
  8
5
 10
-53.0
 20
-11.96316912996212
 30
0.0
  0
VERTEX
  5
4B8
  8
5
 10
-53.0
 20
0.0
 30
0.0
  0
VERTEX
  5
4B9
  8
5
 10
-101.30023293923681
 20
-5.1802378698973817
 30
0.0
  0
SEQEND
  5
4BA
  8
5
  0
POLYLINE
  5
36E
  8
4
 66
     1
 10
0.0
 20
0.0
 30
0.0
  0
VERTEX
  5
4BB
  8
4
 10
-94.429391494597894
 20
-2.8729135017074441
 30
0.0
  0
VERTEX
  5
4BC
  8
4
 10
-95.918210722059925
 20
-3.0557175168153199
 30
0.0
  0
VERTEX
  5
4BD
  8
4
 10
-97.016253506140401
 20
5.8871233094730542
 30
0.0
  0
VERTEX
  5
4BE
  8
4
 10
-94.068177407099711
 20
8.0525441263735047
 30
0.0
  0
VERTEX
  5
4BF
  8
4
 10
-31.999999999999769
 20
15.789074948209411
 30
0.0
  0
VERTEX
  5
4C0
  8
4
 10
-31.999999999999769
 20
25.5
 30
0.0
  0
VERTEX
  5
4C1
  8
4
 10
-24.999999999999769
 20
25.5
 30
0.0
  0
VERTEX
  5
4C2
  8
4
 10
-24.999999999999769
 20
23.5
 30
0.0
  0
VERTEX
  5
4C3
  8
4
 10
-28.999999999999769
 20
23.5
 30
0.0
  0
VERTEX
  5
4C4
  8
4
 10
-28.999999999999769
 20
8.5
 30
0.0
  0
VERTEX
  5
4C5
  8
4
 10
-21.099999999999898
 20
8.5
 30
0.0
  0
VERTEX
  5
4C6
  8
4
 10
-21.099999999999898
 20
6.0184776630701426
 30
0.0
  0
VERTEX
  5
4C7
  8
4
 10
-6.9284840231409808
 20
6.0184776630701426
 30
0.0
  0
VERTEX
  5
4C8
  8
4
 10
-6.9284840231409808
 20
2.7240065840462639
 30
0.0
  0
VERTEX
  5
4C9
  8
4
 10
-23.099999999999909
 20
2.7240065840462639
 30
0.0
  0
VERTEX
  5
4CA
  8
4
 10
-23.099999999999909
 20
0.0
 30
0.0
  0
VERTEX
  5
4CB
  8
4
 10
-50.29999999999972
 20
0.0
 30
0.0
  0
VERTEX
  5
4CC
  8
4
 10
-50.29999999999972
 20
1.5
 30
0.0
  0
SEQEND
  5
4CD
  8
4
  0
POLYLINE
  5
36F
  8
6
 66
     1
 10
0.0
 20
0.0
 30
0.0
  0
VERTEX
  5
4CE
  8
6
 10
-31.078460969082471
 20
19.799999999999951
 30
0.0
  0
VERTEX
  5
4CF
  8
6
 10
-31.078460969082471
 20
14.779198975154941
 30
0.0
  0
VERTEX
  5
4D0
  8
6
 10
-37.371177420138793
 20
14.00655054882554
 30
0.0
  0
VERTEX
  5
4D1
  8
6
 10
-38.4855929151854
 20
14.87722735706188
 30
0.0
  0
VERTEX
  5
4D2
  8
6
 10
-39.356269723421519
 20
13.76281186201526
 30
0.0
  0
VERTEX
  5
4D3
  8
6
 10
-40.470685218468127
 20
14.6334886702516
 30
0.0
  0
VERTEX
  5
4D4
  8
6
 10
-41.341362026704253
 20
13.519073175204991
 30
0.0
  0
VERTEX
  5
4D5
  8
6
 10
-42.455777521750861
 20
14.389749983441099
 30
0.0
  0
VERTEX
  5
4D6
  8
6
 10
-43.326454329986973
 20
13.275334488394719
 30
0.0
  0
VERTEX
  5
4D7
  8
6
 10
-44.44086982503336
 20
14.14601129663083
 30
0.0
  0
VERTEX
  5
4D8
  8
6
 10
-45.3115466332697
 20
13.031595801584441
 30
0.0
  0
VERTEX
  5
4D9
  8
6
 10
-46.425962128315859
 20
13.90227260982055
 30
0.0
  0
VERTEX
  5
4DA
  8
6
 10
-47.296638936552199
 20
12.78785711477417
 30
0.0
  0
VERTEX
  5
4DB
  8
6
 10
-48.411054431598579
 20
13.65853392301028
 30
0.0
  0
VERTEX
  5
4DC
  8
6
 10
-49.281731239834691
 20
12.54411842796366
 30
0.0
  0
VERTEX
  5
4DD
  8
6
 10
-50.396146734881313
 20
13.4147952362
 30
0.0
  0
VERTEX
  5
4DE
  8
6
 10
-51.266823543117432
 20
12.300379741153391
 30
0.0
  0
VERTEX
  5
4DF
  8
6
 10
-52.38123903816404
 20
13.17105654938973
 30
0.0
  0
VERTEX
  5
4E0
  8
6
 10
-53.251915846400152
 20
12.05664105434311
 30
0.0
  0
VERTEX
  5
4E1
  8
6
 10
-54.366331341446767
 20
12.92731786257945
 30
0.0
  0
VERTEX
  5
4E2
  8
6
 10
-55.237008149682879
 20
11.812902367532841
 30
0.0
  0
VERTEX
  5
4E3
  8
6
 10
-56.351423644729259
 20
12.68357917576918
 30
0.0
  0
VERTEX
  5
4E4
  8
6
 10
-57.222100452965599
 20
11.569163680722561
 30
0.0
  0
VERTEX
  5
4E5
  8
6
 10
-58.336515948011993
 20
12.439840488958669
 30
0.0
  0
VERTEX
  5
4E6
  8
6
 10
-59.207192756248112
 20
11.325424993912289
 30
0.0
  0
VERTEX
  5
4E7
  8
6
 10
-60.321608251294492
 20
12.1961018021484
 30
0.0
  0
VERTEX
  5
4E8
  8
6
 10
-61.192285059530832
 20
11.081686307102011
 30
0.0
  0
VERTEX
  5
4E9
  8
6
 10
-62.306700554577212
 20
11.95236311533813
 30
0.0
  0
VERTEX
  5
4EA
  8
6
 10
-63.177377362813331
 20
10.83794762029174
 30
0.0
  0
VERTEX
  5
4EB
  8
6
 10
-64.291792857859946
 20
11.70862442852785
 30
0.0
  0
VERTEX
  5
4EC
  8
6
 10
-65.162469666096058
 20
10.594208933481459
 30
0.0
  0
VERTEX
  5
4ED
  8
6
 10
-66.276885161142673
 20
11.46488574171758
 30
0.0
  0
VERTEX
  5
4EE
  8
6
 10
-67.147561969378785
 20
10.350470246670961
 30
0.0
  0
VERTEX
  5
4EF
  8
6
 10
-68.261977464425172
 20
11.2211470549073
 30
0.0
  0
VERTEX
  5
4F0
  8
6
 10
-69.132654272661512
 20
10.106731559860689
 30
0.0
  0
VERTEX
  5
4F1
  8
6
 10
-70.247069767707899
 20
10.977408368097031
 30
0.0
  0
VERTEX
  5
4F2
  8
6
 10
-71.117746575944011
 20
9.8629928730504162
 30
0.0
  0
VERTEX
  5
4F3
  8
6
 10
-72.232162070990384
 20
10.73366968128675
 30
0.0
  0
VERTEX
  5
4F4
  8
6
 10
-73.102838879226738
 20
9.6192541862401413
 30
0.0
  0
VERTEX
  5
4F5
  8
6
 10
-74.217254374273125
 20
10.489930994476479
 30
0.0
  0
VERTEX
  5
4F6
  8
6
 10
-75.087931182509237
 20
9.3755154994298664
 30
0.0
  0
VERTEX
  5
4F7
  8
6
 10
-76.202346677555852
 20
10.246192307666201
 30
0.0
  0
VERTEX
  5
4F8
  8
6
 10
-77.073023485791964
 20
9.1317768126195915
 30
0.0
  0
VERTEX
  5
4F9
  8
6
 10
-78.187438980838579
 20
10.002453620855929
 30
0.0
  0
VERTEX
  5
4FA
  8
6
 10
-79.058115789074691
 20
8.8880381258093166
 30
0.0
  0
VERTEX
  5
4FB
  8
6
 10
-80.172531284121064
 20
9.7587149340454271
 30
0.0
  0
VERTEX
  5
4FC
  8
6
 10
-81.043208092357418
 20
8.6442994389990417
 30
0.0
  0
VERTEX
  5
4FD
  8
6
 10
-82.157623587403805
 20
9.514976247235154
 30
0.0
  0
VERTEX
  5
4FE
  8
6
 10
-83.028300395639917
 20
8.4005607521887669
 30
0.0
  0
VERTEX
  5
4FF
  8
6
 10
-84.142715890686304
 20
9.2712375604248791
 30
0.0
  0
VERTEX
  5
500
  8
6
 10
-85.013392698922416
 20
8.1568220653784902
 30
0.0
  0
VERTEX
  5
501
  8
6
 10
-86.127808193969031
 20
9.0274988736146042
 30
0.0
  0
VERTEX
  5
502
  8
6
 10
-86.998485002205143
 20
7.9130833785682171
 30
0.0
  0
VERTEX
  5
503
  8
6
 10
-88.112900497251758
 20
8.7837601868043294
 30
0.0
  0
VERTEX
  5
504
  8
6
 10
-88.983577305487856
 20
7.6693446917577139
 30
0.0
  0
VERTEX
  5
505
  8
6
 10
-90.097992800534485
 20
8.5400214999940545
 30
0.0
  0
VERTEX
  5
506
  8
6
 10
-90.968669608770597
 20
7.4256060049474391
 30
0.0
  0
VERTEX
  5
507
  8
6
 10
-92.083085103816984
 20
8.2962828131837796
 30
0.0
  0
VERTEX
  5
508
  8
6
 10
-92.953761912053324
 20
7.1818673181371651
 30
0.0
  0
VERTEX
  5
509
  8
6
 10
-94.068177407099711
 20
8.0525441263735047
 30
0.0
  0
VERTEX
  5
50A
  8
6
 10
-97.016253506140401
 20
5.8871233094730542
 30
0.0
  0
VERTEX
  5
50B
  8
6
 10
-95.954771525081469
 20
-2.7579536713228658
 30
0.0
 42
0.4142135623730971
  0
VERTEX
  5
50C
  8
6
 10
-95.620446876567485
 20
-3.01915671379379
 30
0.0
  0
VERTEX
  5
50D
  8
6
 10
-94.727155340090349
 20
-2.9094743047292009
 30
0.0
 42
0.4142135623730956
  0
VERTEX
  5
50E
  8
6
 10
-94.465952297619424
 20
-2.5751496562152161
 30
0.0
  0
VERTEX
  5
50F
  8
6
 10
-95.367785438817464
 20
4.7696918659305529
 30
0.0
 42
-0.4142135623730951
  0
VERTEX
  5
510
  8
6
 10
-95.106582396346766
 20
5.1040165144445382
 30
0.0
  0
VERTEX
  5
511
  8
6
 10
-50.636560803021439
 20
10.56424858912373
 30
0.0
 42
-0.4504671536907993
  0
VERTEX
  5
512
  8
6
 10
-50.29999999999972
 20
10.266484743631279
 30
0.0
  0
VERTEX
  5
513
  8
6
 10
-50.29999999999972
 20
0.5
 30
0.0
  0
VERTEX
  5
514
  8
6
 10
-49.79999999999972
 20
0.0
 30
0.0
  0
VERTEX
  5
515
  8
6
 10
-49.299999999999727
 20
0.5
 30
0.0
  0
VERTEX
  5
516
  8
6
 10
-48.799999999999727
 20
0.0
 30
0.0
  0
VERTEX
  5
517
  8
6
 10
-48.299999999999727
 20
0.5
 30
0.0
  0
VERTEX
  5
518
  8
6
 10
-47.79999999999972
 20
0.0
 30
0.0
  0
VERTEX
  5
519
  8
6
 10
-47.29999999999972
 20
0.5
 30
0.0
  0
VERTEX
  5
51A
  8
6
 10
-46.799999999999727
 20
0.0
 30
0.0
  0
VERTEX
  5
51B
  8
6
 10
-46.299999999999727
 20
0.5
 30
0.0
  0
VERTEX
  5
51C
  8
6
 10
-45.79999999999972
 20
0.0
 30
0.0
  0
VERTEX
  5
51D
  8
6
 10
-45.29999999999972
 20
0.5
 30
0.0
  0
VERTEX
  5
51E
  8
6
 10
-44.79999999999972
 20
0.0
 30
0.0
  0
VERTEX
  5
51F
  8
6
 10
-44.299999999999727
 20
0.5
 30
0.0
  0
VERTEX
  5
520
  8
6
 10
-43.799999999999727
 20
0.0
 30
0.0
  0
VERTEX
  5
521
  8
6
 10
-43.29999999999972
 20
0.5
 30
0.0
  0
VERTEX
  5
522
  8
6
 10
-42.79999999999972
 20
0.0
 30
0.0
  0
VERTEX
  5
523
  8
6
 10
-42.29999999999972
 20
0.5
 30
0.0
  0
VERTEX
  5
524
  8
6
 10
-42.29999999999972
 20
1.1999999999998181
 30
0.0
 42
0.4142135623730951
  0
VERTEX
  5
525
  8
6
 10
-42.599999999999902
 20
1.5
 30
0.0
  0
VERTEX
  5
526
  8
6
 10
-48.5
 20
1.5
 30
0.0
 42
-0.4142135623730956
  0
VERTEX
  5
527
  8
6
 10
-48.799999999999727
 20
1.7999999999999541
 30
0.0
  0
VERTEX
  5
528
  8
6
 10
-48.799999999999727
 20
10.52433232152748
 30
0.0
 42
-0.3788661086953132
  0
VERTEX
  5
529
  8
6
 10
-48.53656080302153
 20
10.8220961670197
 30
0.0
  0
VERTEX
  5
52A
  8
6
 10
-38.636560803021439
 20
12.03766331995871
 30
0.0
 42
-0.4504671536908001
  0
VERTEX
  5
52B
  8
6
 10
-38.299999999999727
 20
11.739899474466251
 30
0.0
  0
VERTEX
  5
52C
  8
6
 10
-38.299999999999727
 20
6.3999999999998627
 30
0.0
 42
0.4142135623730959
  0
VERTEX
  5
52D
  8
6
 10
-38.0
 20
6.0999999999999091
 30
0.0
  0
VERTEX
  5
52E
  8
6
 10
-31.099999999999898
 20
6.0999999999999091
 30
0.0
 42
-0.414213562373096
  0
VERTEX
  5
52F
  8
6
 10
-30.79999999999972
 20
5.7999999999999536
 30
0.0
  0
VERTEX
  5
530
  8
6
 10
-30.79999999999972
 20
0.349999999999909
 30
0.0
  0
VERTEX
  5
531
  8
6
 10
-30.449999999999822
 20
0.0
 30
0.0
  0
VERTEX
  5
532
  8
6
 10
-29.949999999999811
 20
0.5
 30
0.0
  0
VERTEX
  5
533
  8
6
 10
-29.449999999999822
 20
0.0
 30
0.0
  0
VERTEX
  5
534
  8
6
 10
-28.949999999999811
 20
0.5
 30
0.0
  0
VERTEX
  5
535
  8
6
 10
-28.449999999999811
 20
0.0
 30
0.0
  0
VERTEX
  5
536
  8
6
 10
-27.949999999999822
 20
0.5
 30
0.0
  0
VERTEX
  5
537
  8
6
 10
-27.449999999999811
 20
0.0
 30
0.0
  0
VERTEX
  5
538
  8
6
 10
-26.949999999999822
 20
0.5
 30
0.0
  0
VERTEX
  5
539
  8
6
 10
-26.449999999999811
 20
0.0
 30
0.0
  0
VERTEX
  5
53A
  8
6
 10
-25.949999999999811
 20
0.5
 30
0.0
  0
VERTEX
  5
53B
  8
6
 10
-25.449999999999822
 20
0.0
 30
0.0
  0
VERTEX
  5
53C
  8
6
 10
-24.949999999999811
 20
0.5
 30
0.0
  0
VERTEX
  5
53D
  8
6
 10
-24.449999999999822
 20
0.0
 30
0.0
  0
VERTEX
  5
53E
  8
6
 10
-23.949999999999811
 20
0.5
 30
0.0
  0
VERTEX
  5
53F
  8
6
 10
-23.449999999999811
 20
0.0
 30
0.0
  0
VERTEX
  5
540
  8
6
 10
-23.099999999999909
 20
0.349999999999909
 30
0.0
  0
VERTEX
  5
541
  8
6
 10
-23.099999999999909
 20
3.2259349309085792
 30
0.0
 42
-0.4244748162096039
  0
VERTEX
  5
542
  8
6
 10
-22.789530150989091
 20
3.5257521790144888
 30
0.0
  0
VERTEX
  5
543
  8
6
 10
-9.6920462795746971
 20
3.5073274421674792
 30
0.0
 42
-0.1990523613993445
  0
VERTEX
  5
544
  8
6
 10
-9.4829998426498605
 20
3.4119914895607049
 30
0.0
  0
VERTEX
  5
545
  8
6
 10
-8.9311125154467845
 20
2.8195252885473101
 30
0.0
 42
0.414371337763161
  0
VERTEX
  5
546
  8
6
 10
-8.5069967214922144
 20
2.8046004735606398
 30
0.0
  0
VERTEX
  5
547
  8
6
 10
-7.1119363979159971
 20
4.1055152713674943
 30
0.0
 42
0.4142135623730888
  0
VERTEX
  5
548
  8
6
 10
-7.0971297954490629
 20
4.5295208898719457
 30
0.0
  0
VERTEX
  5
549
  8
6
 10
-8.3966420510655553
 20
5.9230771710888339
 30
0.0
 42
0.4140983237049574
  0
VERTEX
  5
54A
  8
6
 10
-8.8205613250102033
 20
5.9379642594083171
 30
0.0
  0
VERTEX
  5
54B
  8
6
 10
-9.4124039212192656
 20
5.3864973195597941
 30
0.0
 42
-0.1988101110404441
  0
VERTEX
  5
54C
  8
6
 10
-9.6273869336887401
 20
5.3061666677922403
 30
0.0
  0
VERTEX
  5
54D
  8
6
 10
-22.81046984901058
 20
5.327580589120088
 30
0.0
 42
-0.4040262258351575
  0
VERTEX
  5
54E
  8
6
 10
-23.099999999999909
 20
5.6273978372257707
 30
0.0
  0
VERTEX
  5
54F
  8
6
 10
-23.099999999999909
 20
6.1999999999998181
 30
0.0
 42
-0.4142135623730855
  0
VERTEX
  5
550
  8
6
 10
-22.79999999999972
 20
6.5
 30
0.0
  0
VERTEX
  5
551
  8
6
 10
-21.39999999999986
 20
6.5
 30
0.0
 42
0.4142135623730951
  0
VERTEX
  5
552
  8
6
 10
-21.099999999999898
 20
6.7999999999999536
 30
0.0
  0
VERTEX
  5
553
  8
6
 10
-21.099999999999898
 20
8.1999999999998181
 30
0.0
 42
0.4142135623730951
  0
VERTEX
  5
554
  8
6
 10
-21.39999999999986
 20
8.5
 30
0.0
  0
VERTEX
  5
555
  8
6
 10
-24.599999999999909
 20
8.5
 30
0.0
 42
0.4142135623730951
  0
VERTEX
  5
556
  8
6
 10
-24.89999999999986
 20
8.1999999999998181
 30
0.0
  0
VERTEX
  5
557
  8
6
 10
-24.89999999999986
 20
1.7999999999999541
 30
0.0
 42
-0.4142135623730951
  0
VERTEX
  5
558
  8
6
 10
-25.199999999999811
 20
1.5
 30
0.0
  0
VERTEX
  5
559
  8
6
 10
-28.699999999999811
 20
1.5
 30
0.0
 42
-0.4142135623730971
  0
VERTEX
  5
55A
  8
6
 10
-28.999999999999769
 20
1.7999999999999541
 30
0.0
  0
VERTEX
  5
55B
  8
6
 10
-28.999999999999769
 20
6.7999999999999536
 30
0.0
  0
VERTEX
  5
55C
  8
6
 10
-29.619999999999891
 20
8.5
 30
0.0
  0
VERTEX
  5
55D
  8
6
 10
-29.999999999999769
 20
8.5
 30
0.0
  0
VERTEX
  5
55E
  8
6
 10
-29.999999999999769
 20
8.2000000000000455
 30
0.0
  0
VERTEX
  5
55F
  8
6
 10
-36.199999999999811
 20
8.2000000000000455
 30
0.0
 42
-0.4142135623730951
  0
VERTEX
  5
560
  8
6
 10
-36.499999999999773
 20
8.5
 30
0.0
  0
VERTEX
  5
561
  8
6
 10
-36.499999999999773
 20
12.0
 30
0.0
 42
-0.414213562373096
  0
VERTEX
  5
562
  8
6
 10
-36.199999999999811
 20
12.299999999999949
 30
0.0
  0
VERTEX
  5
563
  8
6
 10
-29.849999999999898
 20
12.299999999999949
 30
0.0
 42
0.4142135623730951
  0
VERTEX
  5
564
  8
6
 10
-28.999999999999769
 20
13.14999999999986
 30
0.0
  0
VERTEX
  5
565
  8
6
 10
-28.999999999999769
 20
19.799999999999951
 30
0.0
  0
VERTEX
  5
566
  8
6
 10
-30.199999999999811
 20
21.878460969082649
 30
0.0
  0
VERTEX
  5
567
  8
6
 10
-30.199999999999811
 20
22.5
 30
0.0
 42
-0.4142135623730951
  0
VERTEX
  5
568
  8
6
 10
-29.199999999999822
 20
23.5
 30
0.0
  0
VERTEX
  5
569
  8
6
 10
-25.849999999999909
 20
23.5
 30
0.0
 42
0.414213562373093
  0
VERTEX
  5
56A
  8
6
 10
-24.999999999999769
 20
24.349999999999909
 30
0.0
  0
VERTEX
  5
56B
  8
6
 10
-24.999999999999769
 20
25.07999999999992
 30
0.0
  0
VERTEX
  5
56C
  8
6
 10
-25.419999999999838
 20
25.5
 30
0.0
  0
VERTEX
  5
56D
  8
6
 10
-26.57999999999992
 20
25.5
 30
0.0
  0
VERTEX
  5
56E
  8
6
 10
-26.999999999999769
 20
25.07999999999992
 30
0.0
  0
VERTEX
  5
56F
  8
6
 10
-27.419999999999611
 20
25.5
 30
0.0
  0
VERTEX
  5
570
  8
6
 10
-28.07999999999992
 20
25.5
 30
0.0
  0
VERTEX
  5
571
  8
6
 10
-28.499999999999769
 20
25.07999999999992
 30
0.0
  0
VERTEX
  5
572
  8
6
 10
-28.919999999999622
 20
25.5
 30
0.0
  0
VERTEX
  5
573
  8
6
 10
-31.179999999999829
 20
25.5
 30
0.0
  0
VERTEX
  5
574
  8
6
 10
-31.999999999999769
 20
24.679999999999829
 30
0.0
  0
VERTEX
  5
575
  8
6
 10
-31.999999999999769
 20
21.39615242270656
 30
0.0
  0
VERTEX
  5
576
  8
6
 10
-30.999999999999769
 20
19.664101615137721
 30
0.0
  0
SEQEND
  5
577
  8
6
  0
TEXT
  5
370
  8
1
 10
-82.134572318104347
 20
14.70923183598506
 30
0.0
 40
2.5
  1
Hebgo 162/833
  0
LINE
  5
371
  8
6
  6
STRICHPUNKT
 10
-13.999999999999771
 20
9.3001413397664692
 30
0.0
 11
-13.999999999999771
 21
-15.3399529210485
 31
0.0
  0
POLYLINE
  5
372
  8
5
 66
     1
 10
0.0
 20
0.0
 30
0.0
  0
VERTEX
  5
578
  8
5
 10
0.0
 20
-11.98615426501919
 30
0.0
  0
VERTEX
  5
579
  8
5
 10
0.0
 20
0.0
 30
0.0
  0
VERTEX
  5
57A
  8
5
 10
-48.0
 20
0.0
 30
0.0
  0
VERTEX
  5
57B
  8
5
 10
-48.0
 20
-11.98615426501919
 30
0.0
  0
SEQEND
  5
57C
  8
5
  0
DIMENSION
  5
373
  8
1
  2
*D5
 10
-22.999999999999769
 20
-23.711692475452079
 30
0.0
 11
-25.999999999999769
 21
-20.924687018426159
 31
0.0
 70
     0
 13
-28.999999999999769
 23
8.5
 33
0.0
 14
-22.999999999999769
 24
15.0
 34
0.0
  0
DIMENSION
  5
374
  8
1
  2
*D6
 10
-0.0000000000000015
 20
-23.711692475452079
 30
0.0
 11
-11.499999999999879
 21
-20.923493294005969
 31
0.0
 70
     0
 13
-22.999999999999769
 23
15.0
 33
0.0
 14
0.0
 24
0.0
 34
0.0
  0
TEXT
  5
375
  8
1
 10
-19.050219139716319
 20
-27.448203701567301
 30
0.0
 40
1.5
  1
VAR. 25, 27
  0
INSERT
  5
376
  8
2
  2
*X3
 10
-663.6425516294687
 20
143.20706984798241
 30
0.0
1001
ACAD
1000
HATCH
1002
{
1070
    16
1000
_U,I
1040
1.0
1040
0.7853981633974483
1070
     1
1002
}
  0
POLYLINE
  5
377
  8
6
 66
     1
 10
0.0
 20
0.0
 30
0.0
  0
VERTEX
  5
57D
  8
6
 10
0.0000000000002274
 20
5.3882397946526899
 30
0.0
  0
VERTEX
  5
57E
  8
6
 10
0.0000000000002274
 20
8.0876912047838232
 30
0.0
  0
VERTEX
  5
57F
  8
6
 10
-0.4499999999998181
 20
8.5376912047838687
 30
0.0
  0
VERTEX
  5
580
  8
6
 10
-2.0499999999999541
 20
8.5376912047838687
 30
0.0
  0
VERTEX
  5
581
  8
6
 10
-2.4999999999997722
 20
8.0876912047838232
 30
0.0
  0
VERTEX
  5
582
  8
6
 10
-2.4999999999997722
 20
8.0376912047838687
 30
0.0
  0
VERTEX
  5
583
  8
6
 10
-5.4999999999997717
 20
8.0376912047838687
 30
0.0
  0
VERTEX
  5
584
  8
6
 10
-5.4999999999997717
 20
8.0876912047838232
 30
0.0
  0
VERTEX
  5
585
  8
6
 10
-5.9499999999998181
 20
8.5376912047838687
 30
0.0
  0
VERTEX
  5
586
  8
6
 10
-12.999999999999771
 20
8.5376912047838687
 30
0.0
  0
VERTEX
  5
587
  8
6
 10
-13.999999999999771
 20
7.5376912047838678
 30
0.0
  0
VERTEX
  5
588
  8
6
 10
-14.999999999999771
 20
8.5376912047838687
 30
0.0
  0
VERTEX
  5
589
  8
6
 10
-20.299999999999951
 20
8.5376912047838687
 30
0.0
  0
VERTEX
  5
58A
  8
6
 10
-20.499999999999769
 20
8.3376912047838232
 30
0.0
  0
VERTEX
  5
58B
  8
6
 10
-20.499999999999769
 20
5.5376912047838678
 30
0.0
  0
VERTEX
  5
58C
  8
6
 10
-13.579587173670911
 20
5.5376912047838678
 30
0.0
  0
VERTEX
  5
58D
  8
6
 10
-12.591236345765081
 20
6.4586164812897087
 30
0.0
  0
VERTEX
  5
58E
  8
6
 10
-11.732459632218021
 20
5.5376912047836413
 30
0.0
  0
VERTEX
  5
58F
  8
6
 10
-11.579587173670911
 20
5.5376912047838678
 30
0.0
  0
VERTEX
  5
590
  8
6
 10
-10.591236345765081
 20
6.4586164812897087
 30
0.0
  0
VERTEX
  5
591
  8
6
 10
-9.7324596322180241
 20
5.5376912047836413
 30
0.0
  0
VERTEX
  5
592
  8
6
 10
-9.5795871736709142
 20
5.5376912047838678
 30
0.0
  0
VERTEX
  5
593
  8
6
 10
-8.5912363457650827
 20
6.4586164812897087
 30
0.0
  0
VERTEX
  5
594
  8
6
 10
-7.7324596322180241
 20
5.5376912047836413
 30
0.0
  0
VERTEX
  5
595
  8
6
 10
-6.6746442086891866
 20
5.5376912047838678
 30
0.0
 42
-4.8836046478686121
  0
VERTEX
  5
596
  8
6
 10
-6.6746442086891866
 20
3.3365940250457689
 30
0.0
  0
VERTEX
  5
597
  8
6
 10
-7.7324596322180241
 20
3.3365940250459971
 30
0.0
  0
VERTEX
  5
598
  8
6
 10
-8.5912363457650827
 20
2.415668748539928
 30
0.0
  0
VERTEX
  5
599
  8
6
 10
-9.5795871736709142
 20
3.3365940250457689
 30
0.0
  0
VERTEX
  5
59A
  8
6
 10
-9.7324596322180241
 20
3.3365940250459971
 30
0.0
  0
VERTEX
  5
59B
  8
6
 10
-10.591236345765081
 20
2.415668748539928
 30
0.0
  0
VERTEX
  5
59C
  8
6
 10
-11.579587173670911
 20
3.3365940250457689
 30
0.0
  0
VERTEX
  5
59D
  8
6
 10
-11.732459632218021
 20
3.3365940250459971
 30
0.0
  0
VERTEX
  5
59E
  8
6
 10
-12.591236345765081
 20
2.415668748539928
 30
0.0
  0
VERTEX
  5
59F
  8
6
 10
-13.579587173670911
 20
3.3365940250457689
 30
0.0
  0
VERTEX
  5
5A0
  8
6
 10
-19.579074723493932
 20
3.3365940250459971
 30
0.0
  0
VERTEX
  5
5A1
  8
6
 10
-20.499999999999769
 20
2.415668748539928
 30
0.0
  0
VERTEX
  5
5A2
  8
6
 10
-22.5
 20
2.415668748539928
 30
0.0
  0
VERTEX
  5
5A3
  8
6
 10
-22.5
 20
0.5365940250458153
 30
0.0
  0
VERTEX
  5
5A4
  8
6
 10
-22.299999999999951
 20
0.3365940250457697
 30
0.0
  0
VERTEX
  5
5A5
  8
6
 10
-17.0
 20
0.3365940250457697
 30
0.0
  0
VERTEX
  5
5A6
  8
6
 10
-16.0
 20
1.3365940250457691
 30
0.0
  0
VERTEX
  5
5A7
  8
6
 10
-15.0
 20
0.3365940250457697
 30
0.0
  0
VERTEX
  5
5A8
  8
6
 10
-5.5
 20
0.3365940250457697
 30
0.0
  0
VERTEX
  5
5A9
  8
6
 10
-5.5
 20
0.3865940250457243
 30
0.0
  0
VERTEX
  5
5AA
  8
6
 10
-5.0499999999999536
 20
0.8365940250457697
 30
0.0
  0
VERTEX
  5
5AB
  8
6
 10
-2.9499999999998181
 20
0.8365940250457697
 30
0.0
  0
VERTEX
  5
5AC
  8
6
 10
-2.5
 20
0.3865940250457243
 30
0.0
  0
VERTEX
  5
5AD
  8
6
 10
-2.5
 20
0.3365940250457697
 30
0.0
  0
VERTEX
  5
5AE
  8
6
 10
-0.4499999999998181
 20
0.3365940250457697
 30
0.0
  0
VERTEX
  5
5AF
  8
6
 10
0.0
 20
0.7865940250458153
 30
0.0
  0
VERTEX
  5
5B0
  8
6
 10
0.0
 20
5.5376912047838678
 30
0.0
  0
SEQEND
  5
5B1
  8
6
  0
POLYLINE
  5
378
  8
5
 66
     1
 10
0.0
 20
0.0
 30
0.0
  0
VERTEX
  5
5B2
  8
5
 10
-22.999999999999769
 20
33.891008707262237
 30
0.0
  0
VERTEX
  5
5B3
  8
5
 10
-22.999999999999769
 20
15.0
 30
0.0
  0
VERTEX
  5
5B4
  8
5
 10
1.0
 20
15.0
 30
0.0
  0
VERTEX
  5
5B5
  8
5
 10
1.0
 20
-3.0
 30
0.0
  0
VERTEX
  5
5B6
  8
5
 10
4.9481751402765886
 20
-3.0
 30
0.0
  0
SEQEND
  5
5B7
  8
5
  0
DIMENSION
  5
379
  8
1
  2
*D7
 10
-39.688032348196877
 20
0.5000000000000022
 30
0.0
 11
-43.975037805222797
 21
19.836100858062188
 31
0.0
 70
   128
 13
-31.999999999999769
 23
25.5
 33
0.0
 14
-32.00000000000022
 24
0.5
 34
0.0
 50
90.0
  0
POLYLINE
  5
37A
  8
6
 66
     1
 10
0.0
 20
0.0
 30
0.0
 70
     1
  0
VERTEX
  5
5B8
  8
6
 10
-28.825561201494789
 20
3.3551737681498248
 30
0.0
 42
0.2158035951233518
  0
VERTEX
  5
5B9
  8
6
 10
-27.79168375313202
 20
1.666182403075481
 30
0.0
 42
0.2355896391344016
  0
VERTEX
  5
5BA
  8
6
 10
-26.838310394071861
 20
1.790041558902657
 30
0.0
 42
0.1685043559430312
  0
VERTEX
  5
5BB
  8
6
 10
-24.90252960499129
 20
3.633777055383006
 30
0.0
 42
0.1664180345968526
  0
VERTEX
  5
5BC
  8
6
 10
-24.87750118532017
 20
4.3468888619509007
 30
0.0
 42
0.5413849556030098
  0
VERTEX
  5
5BD
  8
6
 10
-25.389210567050888
 20
4.3539457239728563
 30
0.0
 42
-0.0052316930712576
  0
VERTEX
  5
5BE
  8
6
 10
-25.846279746002661
 20
3.806183466233505
 30
0.0
 42
-0.054152680530166
  0
VERTEX
  5
5BF
  8
6
 10
-26.366690097946961
 20
3.206033423397229
 30
0.0
 42
-0.9349225624350127
  0
VERTEX
  5
5C0
  8
6
 10
-26.57784470659135
 20
3.3641151755386991
 30
0.0
  0
VERTEX
  5
5C1
  8
6
 10
-26.53061070096669
 20
4.8704906317175301
 30
0.0
 42
-0.2594323004936584
  0
VERTEX
  5
5C2
  8
6
 10
-26.398146374066531
 20
5.095846950604936
 30
0.0
 42
0.2179033253512271
  0
VERTEX
  5
5C3
  8
6
 10
-24.957314384207159
 20
6.4707375334639892
 30
0.0
 42
0.1112925639295422
  0
VERTEX
  5
5C4
  8
6
 10
-24.973232999047688
 20
7.2074857056404653
 30
0.0
 42
0.5856445095830515
  0
VERTEX
  5
5C5
  8
6
 10
-25.519646309127889
 20
7.2032889751342282
 30
0.0
 42
0.0198357983581517
  0
VERTEX
  5
5C6
  8
6
 10
-25.870469829530521
 20
6.8222028510735981
 30
0.0
 42
-0.1280421017227575
  0
VERTEX
  5
5C7
  8
6
 10
-26.50524149094986
 20
6.2858133365302811
 30
0.0
 42
-0.5229847949340832
  0
VERTEX
  5
5C8
  8
6
 10
-26.805660004796891
 20
6.4156728037050916
 30
0.0
 42
-0.1251403261995197
  0
VERTEX
  5
5C9
  8
6
 10
-26.82009899046875
 20
7.252787311495239
 30
0.0
 42
-0.2490436840219318
  0
VERTEX
  5
5CA
  8
6
 10
-25.435306495491879
 20
8.5103429457924449
 30
0.0
  0
VERTEX
  5
5CB
  8
6
 10
-23.554228991438318
 20
8.5
 30
0.0
 42
0.2502581264948605
  0
VERTEX
  5
5CC
  8
6
 10
-24.207948323892651
 20
9.6145147372512838
 30
0.0
 42
-0.0644626761139379
  0
VERTEX
  5
5CD
  8
6
 10
-26.354912916910958
 20
10.94247662870816
 30
0.0
 42
-0.1851361650694223
  0
VERTEX
  5
5CE
  8
6
 10
-26.79453200126067
 20
11.70675769325157
 30
0.0
 42
-0.0172179558845785
  0
VERTEX
  5
5CF
  8
6
 10
-26.46015127670648
 20
16.913071327023768
 30
0.0
 42
-0.0012604142569355
  0
VERTEX
  5
5D0
  8
6
 10
-26.55040509387117
 20
20.298655608208708
 30
0.0
 42
-0.2920130677617143
  0
VERTEX
  5
5D1
  8
6
 10
-25.79066613211512
 20
21.527843430839539
 30
0.0
 42
-0.506821038445564
  0
VERTEX
  5
5D2
  8
6
 10
-24.903499935760919
 20
21.142967891533079
 30
0.0
 42
-0.23023162935384
  0
VERTEX
  5
5D3
  8
6
 10
-25.047441025849128
 20
20.11146846487577
 30
0.0
  0
VERTEX
  5
5D4
  8
6
 10
-24.26470650217675
 20
12.454680705957109
 30
0.0
 42
0.5749769721072952
  0
VERTEX
  5
5D5
  8
6
 10
-23.158684529119451
 20
12.54911595680505
 30
0.0
 42
-0.0048945404723578
  0
VERTEX
  5
5D6
  8
6
 10
-23.434004083012258
 20
20.73698912351551
 30
0.0
 42
0.2931582629719567
  0
VERTEX
  5
5D7
  8
6
 10
-25.382417068345831
 20
22.929288943805201
 30
0.0
  0
VERTEX
  5
5D8
  8
6
 10
-27.778409815876781
 20
22.844905492866701
 30
0.0
 42
-0.0178703319042379
  0
VERTEX
  5
5D9
  8
6
 10
-28.892333156385799
 20
23.246233910135508
 30
0.0
 42
0.5266950425120051
  0
VERTEX
  5
5DA
  8
6
 10
-29.246774237250289
 20
23.195441375551809
 30
0.0
 42
0.3223702371585889
  0
VERTEX
  5
5DB
  8
6
 10
-29.32458284766539
 20
21.861116237300159
 30
0.0
 42
-0.079536068176344
  0
VERTEX
  5
5DC
  8
6
 10
-28.856100094550349
 20
19.977332918765789
 30
0.0
 42
-0.0560121319077553
  0
VERTEX
  5
5DD
  8
6
 10
-29.09640330123716
 20
11.04549336862396
 30
0.0
  0
SEQEND
  5
5DE
  8
6
  0
POINT
  5
37B
  8
5
 10
-28.999999999999769
 20
8.5
 30
0.0
  0
POINT
  5
37C
  8
5
 10
-28.999999999999769
 20
8.5
 30
0.0
  0
DIMENSION
  5
37D
  8
1
  2
*D8
 10
10.609919142330909
 20
8.5376912047838651
 30
0.0
 11
7.8229136853049859
 21
4.2688456023919326
 31
0.0
 70
     0
 13
0.0
 23
0.0
 33
0.0
 14
-0.4499999999998181
 24
8.5376912047838687
 34
0.0
 50
90.0
  0
POLYLINE
  5
37E
  8
5
 66
     1
 10
0.0
 20
0.0
 30
0.0
  0
VERTEX
  5
5DF
  8
5
 10
3.8041438526099678
 20
15.0
 30
0.0
  0
VERTEX
  5
5E0
  8
5
 10
5.0
 20
15.0
 30
0.0
  0
VERTEX
  5
5E1
  8
5
 10
5.0
 20
13.254045909564409
 30
0.0
  0
SEQEND
  5
5E2
  8
5
  0
POLYLINE
  5
37F
  8
5
 66
     1
 10
0.0
 20
0.0
 30
0.0
  0
VERTEX
  5
5E3
  8
5
 10
1.804143852609968
 20
15.0
 30
0.0
  0
VERTEX
  5
5E4
  8
5
 10
3.0
 20
15.0
 30
0.0
  0
VERTEX
  5
5E5
  8
5
 10
3.0
 20
13.254045909564409
 30
0.0
  0
SEQEND
  5
5E6
  8
5
  0
VIEWPORT
  5
22
 67
     1
  8
0
 10
210.0
 20
170.2366863905325
 30
0.0
 40
420.0
 41
340.47337278106511
 68
     1
 69
     1
1001
ACAD
1000
MVIEW
1002
{
1070
    16
1010
0.0
1020
0.0
1030
0.0
1010
0.0
1020
0.0
1030
1.0
1040
0.0
1040
340.47337278106511
1040
210.0
1040
170.2366863905325
1040
50.0
1040
0.0
1040
0.0
1070
     0
1070
   100
1070
     1
1070
     1
1070
     0
1070
     0
1070
     0
1070
     0
1040
0.0
1040
0.0
1040
0.0
1040
5.0
1040
5.0
1040
10.0
1040
10.0
1070
     0
1002
{
1002
}
1002
}
  0
ENDSEC
  0
EOF
