  0
SECTION
  2
HEADER
  9
$ACADVER
  1
AC1009
  9
$INSBASE
 10
0.0
 20
0.0
 30
0.0
  9
$EXTMIN
 10
-88.691710655917049
 20
-13.481139279297849
 30
-0.0000000000000058
  9
$EXTMAX
 10
17.005920953822731
 20
57.5408941455429
 30
0.0000000000000104
  9
$LIMMIN
 10
-150.0
 20
-150.0
  9
$LIMMAX
 10
150.0
 20
150.0
  9
$ORTHOMODE
 70
     0
  9
$REGENMODE
 70
     1
  9
$FILLMODE
 70
     1
  9
$QTEXTMODE
 70
     0
  9
$MIRRTEXT
 70
     0
  9
$DRAGMODE
 70
     2
  9
$LTSCALE
 40
1.0
  9
$OSMODE
 70
   111
  9
$ATTMODE
 70
     1
  9
$TEXTSIZE
 40
3.5
  9
$TRACEWID
 40
1.0
  9
$TEXTSTYLE
  7
BESCHLAG
  9
$CLAYER
  8
0
  9
$CELTYPE
  6
BYLAYER
  9
$CECOLOR
 62
   256
  9
$DIMSCALE
 40
1.0
  9
$DIMASZ
 40
2.0
  9
$DIMEXO
 40
2.0
  9
$DIMDLI
 40
0.0
  9
$DIMRND
 40
0.0
  9
$DIMDLE
 40
1.0
  9
$DIMEXE
 40
1.0
  9
$DIMTP
 40
0.0
  9
$DIMTM
 40
0.0
  9
$DIMTXT
 40
3.5
  9
$DIMCEN
 40
0.0
  9
$DIMTSZ
 40
0.0
  9
$DIMTOL
 70
     0
  9
$DIMLIM
 70
     0
  9
$DIMTIH
 70
     0
  9
$DIMTOH
 70
     0
  9
$DIMSE1
 70
     0
  9
$DIMSE2
 70
     0
  9
$DIMTAD
 70
     1
  9
$DIMZIN
 70
     8
  9
$DIMBLK
  1

  9
$DIMASO
 70
     1
  9
$DIMSHO
 70
     1
  9
$DIMPOST
  1

  9
$DIMAPOST
  1

  9
$DIMALT
 70
     0
  9
$DIMALTD
 70
     2
  9
$DIMALTF
 40
0.039370078740157
  9
$DIMLFAC
 40
1.0
  9
$DIMTOFL
 70
     1
  9
$DIMTVP
 40
0.0
  9
$DIMTIX
 70
     1
  9
$DIMSOXD
 70
     0
  9
$DIMSAH
 70
     1
  9
$DIMBLK1
  1
OBLIQUE
  9
$DIMBLK2
  1
OBLIQUE
  9
$DIMSTYLE
  2
OPO-SSTRICH
  9
$DIMCLRD
 70
   256
  9
$DIMCLRE
 70
   256
  9
$DIMCLRT
 70
   256
  9
$DIMTFAC
 40
0.7114285714285716
  9
$DIMGAP
 40
1.0
  9
$LUNITS
 70
     2
  9
$LUPREC
 70
     1
  9
$SKETCHINC
 40
1.0
  9
$FILLETRAD
 40
0.0
  9
$AUNITS
 70
     0
  9
$AUPREC
 70
     1
  9
$MENU
  1
D:\ACL_CGWG\CGTAB13
  9
$ELEVATION
 40
0.0
  9
$PELEVATION
 40
0.0
  9
$THICKNESS
 40
0.0
  9
$LIMCHECK
 70
     0
  9
$BLIPMODE
 70
     0
  9
$CHAMFERA
 40
1.0
  9
$CHAMFERB
 40
1.0
  9
$SKPOLY
 70
     0
  9
$TDCREATE
 40
2451739.897795497
  9
$TDUPDATE
 40
2452087.6330471169
  9
$TDINDWG
 40
0.0015791319
  9
$TDUSRTIMER
 40
0.0015791319
  9
$USRTIMER
 70
     1
  9
$ANGBASE
 50
0.0
  9
$ANGDIR
 70
     0
  9
$PDMODE
 70
    35
  9
$PDSIZE
 40
5.0
  9
$PLINEWID
 40
0.0
  9
$COORDS
 70
     1
  9
$SPLFRAME
 70
     0
  9
$SPLINETYPE
 70
     6
  9
$SPLINESEGS
 70
     8
  9
$ATTDIA
 70
     1
  9
$ATTREQ
 70
     1
  9
$HANDLING
 70
-16383
  9
$HANDSEED
  5
50A
  9
$SURFTAB1
 70
    12
  9
$SURFTAB2
 70
    12
  9
$SURFTYPE
 70
     6
  9
$SURFU
 70
    12
  9
$SURFV
 70
    12
  9
$UCSNAME
  2

  9
$UCSORG
 10
0.0
 20
0.0
 30
0.0
  9
$UCSXDIR
 10
1.0
 20
0.0
 30
0.0
  9
$UCSYDIR
 10
0.0
 20
1.0
 30
0.0
  9
$PUCSNAME
  2

  9
$PUCSORG
 10
0.0
 20
0.0
 30
0.0
  9
$PUCSXDIR
 10
1.0
 20
0.0
 30
0.0
  9
$PUCSYDIR
 10
0.0
 20
1.0
 30
0.0
  9
$USERI1
 70
     0
  9
$USERI2
 70
     0
  9
$USERI3
 70
     0
  9
$USERI4
 70
     0
  9
$USERI5
 70
     0
  9
$USERR1
 40
0.0
  9
$USERR2
 40
0.0
  9
$USERR3
 40
0.0
  9
$USERR4
 40
0.0
  9
$USERR5
 40
0.0
  9
$WORLDVIEW
 70
     1
  9
$SHADEDGE
 70
     3
  9
$SHADEDIF
 70
    70
  9
$TILEMODE
 70
     1
  9
$MAXACTVP
 70
    48
  9
$PLIMCHECK
 70
     0
  9
$PEXTMIN
 10
1.0000000000000000E+020
 20
1.0000000000000000E+020
 30
1.0000000000000000E+020
  9
$PEXTMAX
 10
-1.0000000000000000E+020
 20
-1.0000000000000000E+020
 30
-1.0000000000000000E+020
  9
$PLIMMIN
 10
0.0
 20
0.0
  9
$PLIMMAX
 10
420.0
 20
297.0
  9
$UNITMODE
 70
     0
  9
$VISRETAIN
 70
     1
  9
$PLINEGEN
 70
     0
  9
$PSLTSCALE
 70
     1
  0
ENDSEC
  0
SECTION
  2
TABLES
  0
TABLE
  2
VPORT
 70
     2
  0
VPORT
  2
*ACTIVE
 70
     0
 10
0.0
 20
0.0
 11
1.0
 21
1.0
 12
-35.842894851047163
 22
22.029877433122518
 13
0.0
 23
0.0
 14
0.5
 24
0.5
 15
10.0
 25
10.0
 16
0.0
 26
0.0
 36
1.0
 17
0.0
 27
0.0
 37
0.0
 40
71.598666984447021
 41
1.6070460704607039
 42
50.0
 43
0.0
 44
0.0
 50
0.0
 51
0.0
 71
     0
 72
   800
 73
     1
 74
     1
 75
     0
 76
     0
 77
     0
 78
     0
  0
ENDTAB
  0
TABLE
  2
LTYPE
 70
     1
  0
LTYPE
  2
CONTINUOUS
 70
     0
  3
_______________________________________________
 72
    65
 73
     2
 40
1.0
 49
1.0
 49
0.0
  0
ENDTAB
  0
TABLE
  2
LAYER
 70
     7
  0
LAYER
  2
0
 70
     0
 62
    30
  6
CONTINUOUS
  0
LAYER
  2
1
 70
     0
 62
     2
  6
CONTINUOUS
  0
LAYER
  2
2
 70
     0
 62
     9
  6
CONTINUOUS
  0
LAYER
  2
4
 70
     1
 62
     4
  6
CONTINUOUS
  0
LAYER
  2
5
 70
     0
 62
     1
  6
CONTINUOUS
  0
LAYER
  2
6
 70
     0
 62
     3
  6
CONTINUOUS
  0
LAYER
  2
DEFPOINTS
 70
     0
 62
     7
  6
CONTINUOUS
  0
ENDTAB
  0
TABLE
  2
STYLE
 70
     2
  0
STYLE
  2
STANDARD
 70
     0
 40
0.0
 41
1.0
 50
0.0
 71
     0
 42
2.5
  3
txt
  4

  0
STYLE
  2
BESCHLAG
 70
     0
 40
0.0
 41
1.0
 50
0.0
 71
     0
 42
3.5
  3
txt
  4

  0
ENDTAB
  0
TABLE
  2
VIEW
 70
     0
  0
ENDTAB
  0
TABLE
  2
UCS
 70
     0
  0
ENDTAB
  0
TABLE
  2
APPID
 70
     1
  0
APPID
  2
ACAD
 70
     0
  0
ENDTAB
  0
TABLE
  2
DIMSTYLE
 70
     1
  0
DIMSTYLE
  2
OPO-SSTRICH
 70
     0
  3

  4

  5

  6
OBLIQUE
  7
OBLIQUE
 40
1.0
 41
2.0
 42
2.0
 43
0.0
 44
1.0
 45
0.0
 46
1.0
 47
0.0
 48
0.0
140
3.5
141
0.0
142
0.0
143
0.039370078740157
144
1.0
145
0.0
146
0.7114285714285716
147
1.0
 71
     0
 72
     0
 73
     0
 74
     0
 75
     0
 76
     0
 77
     1
 78
     8
170
     0
171
     2
172
     1
173
     1
174
     1
175
     0
176
   256
177
   256
178
   256
  0
ENDTAB
  0
ENDSEC
  0
SECTION
  2
BLOCKS
  0
BLOCK
  8
0
  2
$MODEL_SPACE
 70
     0
 10
0.0
 20
0.0
 30
0.0
  3
$MODEL_SPACE
  1

  0
ENDBLK
  5
1C
  8
0
  0
BLOCK
 67
     1
  8
0
  2
$PAPER_SPACE
 70
     0
 10
0.0
 20
0.0
 30
0.0
  3
$PAPER_SPACE
  1

  0
ENDBLK
  5
19
 67
     1
  8
0
  0
BLOCK
  8
0
  2
_OBLIQUE
 70
     0
 10
0.0
 20
0.0
 30
0.0
  3
_OBLIQUE
  1

  0
LINE
  5
204
  8
0
 62
     0
 10
-0.5
 20
-0.5
 30
0.0
 11
0.5
 21
0.5
 31
0.0
  0
ENDBLK
  5
206
  8
0
  0
BLOCK
  8
0
  2
NULLPUNKT
 70
     0
 10
0.0
 20
0.0
 30
0.0
  3
NULLPUNKT
  1

  0
SOLID
  5
254
  8
5
 10
0.0
 20
0.0
 30
0.0
 11
2.0
 21
0.0
 31
0.0
 12
0.0
 22
-2.0
 32
0.0
 13
0.0
 23
-2.0
 33
0.0
  0
SOLID
  5
255
  8
5
 10
0.0
 20
0.0
 30
0.0
 11
-2.0
 21
0.0
 31
0.0
 12
0.0
 22
2.0
 32
0.0
 13
0.0
 23
2.0
 33
0.0
  0
POLYLINE
  5
256
  8
5
 66
     1
 10
0.0
 20
0.0
 30
0.0
  0
VERTEX
  5
3FB
  8
5
 10
0.0
 20
2.0
 30
0.0
  0
VERTEX
  5
3FC
  8
5
 10
0.0
 20
-2.0
 30
0.0
  0
SEQEND
  5
3FD
  8
5
  0
POLYLINE
  5
257
  8
5
 66
     1
 10
0.0
 20
0.0
 30
0.0
  0
VERTEX
  5
3FE
  8
5
 10
-2.0
 20
0.0
 30
0.0
  0
VERTEX
  5
3FF
  8
5
 10
2.0
 20
0.0
 30
0.0
  0
SEQEND
  5
400
  8
5
  0
CIRCLE
  5
258
  8
5
 10
0.0
 20
0.0
 30
0.0
 40
2.0
  0
ENDBLK
  5
25A
  8
0
  0
BLOCK
  8
0
  2
*X2
 70
     1
 10
0.0
 20
0.0
 30
0.0
  3
*X2
  1

  0
LINE
  5
290
  8
0
 62
     0
 10
1274.083937749971
 20
-521.40160103890946
 30
0.0
 11
1276.4911824871399
 21
-518.99435630174139
 31
0.0
  0
LINE
  5
291
  8
0
 62
     0
 10
1279.8359489729371
 20
-515.64958981594384
 30
0.0
 11
1283.991182487139
 21
-511.49435630174122
 31
0.0
  0
LINE
  5
292
  8
0
 62
     0
 10
1273.991182487139
 20
-519.79730002689348
 30
0.0
 11
1276.4911824871399
 21
-517.29730002689348
 31
0.0
  0
LINE
  5
293
  8
0
 62
     0
 10
1281.4911824871399
 20
-512.29730002689348
 30
0.0
 11
1283.991182487139
 21
-509.79730002689348
 31
0.0
  0
LINE
  5
294
  8
0
 62
     0
 10
1278.138892698089
 20
-515.64958981594384
 30
0.0
 11
1280.638892698089
 21
-513.14958981594384
 31
0.0
  0
LINE
  5
295
  8
0
 62
     0
 10
1273.991182487139
 20
-518.10024375204603
 30
0.0
 11
1278.941836423242
 21
-513.14958981594384
 31
0.0
  0
LINE
  5
296
  8
0
 62
     0
 10
1281.4911824871399
 20
-510.60024375204603
 30
0.0
 11
1283.991182487139
 21
-508.10024375204603
 31
0.0
  0
LINE
  5
297
  8
0
 62
     0
 10
1273.991182487139
 20
-516.40318747719823
 30
0.0
 11
1277.2447801483941
 21
-513.14958981594384
 31
0.0
  0
LINE
  5
298
  8
0
 62
     0
 10
1285.4947801483941
 20
-504.89958981594378
 30
0.0
 11
1287.4947801483941
 21
-502.8995898159439
 31
0.0
  0
LINE
  5
299
  8
0
 62
     0
 10
1281.4911824871399
 20
-508.90318747719817
 30
0.0
 11
1283.675512024445
 21
-506.7188579398927
 31
0.0
  0
LINE
  5
29A
  8
0
 62
     0
 10
1274.057148820616
 20
-514.64016486887397
 30
0.0
 11
1275.48175754007
 21
-513.21555614942031
 31
0.0
  0
LINE
  5
29B
  8
0
 62
     0
 10
1286.390740436186
 20
-502.30657325330412
 30
0.0
 11
1286.791333886403
 21
-501.90597980308638
 31
0.0
  0
LINE
  5
29C
  8
0
 62
     0
 10
1281.4911824871399
 20
-507.20613120235049
 30
0.0
 11
1283.575324403625
 21
-505.12198928586531
 31
0.0
  0
LINE
  5
29D
  8
0
 62
     0
 10
1283.713581957061
 20
-504.98373173242891
 30
0.0
 11
1285.7977238735459
 21
-502.8995898159439
 31
0.0
  0
LINE
  5
29E
  8
0
 62
     0
 10
1281.4911824871399
 20
-505.50907492750258
 30
0.0
 11
1284.9459682510089
 21
-502.05428916363297
 31
0.0
  0
LINE
  5
29F
  8
0
 62
     0
 10
1281.4911824871399
 20
-503.8120186526549
 30
0.0
 11
1283.0568533503319
 21
-502.24634778946239
 31
0.0
  0
LINE
  5
2A0
  8
0
 62
     0
 10
1259.991182487139
 20
-537.19141257658919
 30
0.0
 11
1261.783005247785
 21
-535.39958981594384
 31
0.0
  0
LINE
  5
2A1
  8
0
 62
     0
 10
1281.533005247785
 20
-515.64958981594384
 30
0.0
 11
1283.991182487139
 21
-513.19141257658907
 31
0.0
  0
LINE
  5
2A2
  8
0
 62
     0
 10
1274.7865158685361
 20
-522.39607919519267
 30
0.0
 11
1277.4330052477851
 21
-519.74958981594375
 31
0.0
  0
LINE
  5
2A3
  8
0
 62
     0
 10
1259.991182487139
 20
-538.88846885143687
 30
0.0
 11
1263.480061522632
 21
-535.39958981594384
 31
0.0
  0
LINE
  5
2A4
  8
0
 62
     0
 10
1283.2696019411169
 20
-515.61004939745965
 30
0.0
 11
1283.951642068655
 21
-514.92800926992106
 31
0.0
  0
LINE
  5
2A5
  8
0
 62
     0
 10
1276.0800615226319
 20
-522.79958981594393
 30
0.0
 11
1279.130061522633
 21
-519.74958981594375
 31
0.0
  0
LINE
  5
2A6
  8
0
 62
     0
 10
1259.991182487139
 20
-540.58552512628455
 30
0.0
 11
1261.9911824871399
 21
-538.58552512628455
 31
0.0
  0
LINE
  5
2A7
  8
0
 62
     0
 10
1277.7771177974801
 20
-522.79958981594393
 30
0.0
 11
1280.8271177974809
 21
-519.74958981594375
 31
0.0
  0
LINE
  5
2A8
  8
0
 62
     0
 10
1262.6771177974799
 20
-537.89958981594384
 30
0.0
 11
1265.1771177974799
 21
-535.39958981594384
 31
0.0
  0
LINE
  5
2A9
  8
0
 62
     0
 10
1260.3741740723281
 20
-541.89958981594384
 30
0.0
 11
1262.000395979491
 21
-540.27336790878087
 31
0.0
  0
LINE
  5
2AA
  8
0
 62
     0
 10
1279.474174072328
 20
-522.79958981594393
 30
0.0
 11
1282.5241740723279
 21
-519.74958981594375
 31
0.0
  0
LINE
  5
2AB
  8
0
 62
     0
 10
1264.3741740723281
 20
-537.89958981594384
 30
0.0
 11
1266.8741740723281
 21
-535.39958981594384
 31
0.0
  0
LINE
  5
2AC
  8
0
 62
     0
 10
1262.071230347176
 20
-541.89958981594384
 30
0.0
 11
1263.4712303471761
 21
-540.49958981594375
 31
0.0
  0
LINE
  5
2AD
  8
0
 62
     0
 10
1281.058025510564
 20
-522.91279465255502
 30
0.0
 11
1283.79273143155
 21
-520.17808873157003
 31
0.0
  0
LINE
  5
2AE
  8
0
 62
     0
 10
1266.0712303471751
 20
-537.89958981594384
 30
0.0
 11
1268.5712303471751
 21
-535.39958981594373
 31
0.0
  0
LINE
  5
2AF
  8
0
 62
     0
 10
1267.768286622023
 20
-537.89958981594384
 30
0.0
 11
1270.268286622023
 21
-535.39958981594373
 31
0.0
  0
LINE
  5
2B0
  8
0
 62
     0
 10
1281.241182487139
 20
-524.42669395082748
 30
0.0
 11
1283.991182487139
 21
-521.67669395082771
 31
0.0
  0
LINE
  5
2B1
  8
0
 62
     0
 10
1269.4653428968711
 20
-537.89958981594384
 30
0.0
 11
1271.9653428968711
 21
-535.39958981594373
 31
0.0
  0
LINE
  5
2B2
  8
0
 62
     0
 10
1281.241182487139
 20
-526.12375022567528
 30
0.0
 11
1283.991182487139
 21
-523.37375022567539
 31
0.0
  0
LINE
  5
2B3
  8
0
 62
     0
 10
1271.162399171719
 20
-537.89958981594384
 30
0.0
 11
1273.662399171719
 21
-535.39958981594373
 31
0.0
  0
LINE
  5
2B4
  8
0
 62
     0
 10
1287.8623991717191
 20
-521.19958981594345
 30
0.0
 11
1288.8623991717191
 21
-520.19958981594345
 31
0.0
  0
LINE
  5
2B5
  8
0
 62
     0
 10
1281.3536119089731
 20
-527.70837707868975
 30
0.0
 11
1283.991182487139
 21
-525.0708065005233
 31
0.0
  0
LINE
  5
2B6
  8
0
 62
     0
 10
1272.859455446566
 20
-537.89958981594384
 30
0.0
 11
1275.175318966853
 21
-535.58372629565713
 31
0.0
  0
LINE
  5
2B7
  8
0
 62
     0
 10
1288.09118248714
 20
-522.66786277537051
 30
0.0
 11
1289.991182487139
 21
-520.76786277537065
 31
0.0
  0
LINE
  5
2B8
  8
0
 62
     0
 10
1282.200318966853
 20
-528.55872629565715
 30
0.0
 11
1283.991182487139
 21
-526.76786277537065
 31
0.0
  0
LINE
  5
2B9
  8
0
 62
     0
 10
1273.991182487139
 20
-538.46491905021844
 30
0.0
 11
1276.0238471042769
 21
-536.43225443308108
 31
0.0
  0
LINE
  5
2BA
  8
0
 62
     0
 10
1288.09118248714
 20
-524.3649190502183
 30
0.0
 11
1289.991182487139
 21
-522.46491905021844
 31
0.0
  0
LINE
  5
2BB
  8
0
 62
     0
 10
1283.048847104277
 20
-529.40725443308111
 30
0.0
 11
1284.756511721414
 21
-527.69958981594402
 31
0.0
  0
LINE
  5
2BC
  8
0
 62
     0
 10
1272.4557016076801
 20
-541.69745620452534
 30
0.0
 11
1273.6535679962619
 21
-540.49958981594375
 31
0.0
  0
LINE
  5
2BD
  8
0
 62
     0
 10
1288.09118248714
 20
-526.0619753250661
 30
0.0
 11
1289.991182487139
 21
-524.16197532506624
 31
0.0
  0
LINE
  5
2BE
  8
0
 62
     0
 10
1273.991182487139
 20
-540.16197532506624
 30
0.0
 11
1276.8723752417011
 21
-537.28078257050493
 31
0.0
  0
LINE
  5
2BF
  8
0
 62
     0
 10
1283.897375241701
 20
-530.25578257050495
 30
0.0
 11
1286.4535679962621
 21
-527.69958981594402
 31
0.0
  0
LINE
  5
2C0
  8
0
 62
     0
 10
1273.95062427111
 20
-541.89958981594384
 30
0.0
 11
1277.7209033791239
 21
-538.12931070792877
 31
0.0
  0
LINE
  5
2C1
  8
0
 62
     0
 10
1284.7459033791249
 20
-531.10431070792879
 30
0.0
 11
1289.991182487139
 21
-525.85903159991403
 31
0.0
  0
LINE
  5
2C2
  8
0
 62
     0
 10
1275.6476805459581
 20
-541.89958981594384
 30
0.0
 11
1278.650016282844
 21
-538.89725407905735
 31
0.0
  0
LINE
  5
2C3
  8
0
 62
     0
 10
1285.5944315165491
 20
-531.95283884535274
 30
0.0
 11
1289.991182487139
 21
-527.55608787476183
 31
0.0
  0
LINE
  5
2C4
  8
0
 62
     0
 10
1277.3447368208051
 20
-541.89958981594384
 30
0.0
 11
1280.3447368208051
 21
-538.89958981594384
 31
0.0
  0
LINE
  5
2C5
  8
0
 62
     0
 10
1286.442959653973
 20
-532.80136698277647
 30
0.0
 11
1289.991182487139
 21
-529.25314414960928
 31
0.0
  0
LINE
  5
2C6
  8
0
 62
     0
 10
1279.041793095653
 20
-541.89958981594384
 30
0.0
 11
1282.041793095653
 21
-538.89958981594384
 31
0.0
  0
LINE
  5
2C7
  8
0
 62
     0
 10
1286.9911824871399
 20
-533.95020042445685
 30
0.0
 11
1289.991182487139
 21
-530.95020042445708
 31
0.0
  0
LINE
  5
2C8
  8
0
 62
     0
 10
1280.7388493705
 20
-541.89958981594384
 30
0.0
 11
1283.7388493705009
 21
-538.89958981594384
 31
0.0
  0
LINE
  5
2C9
  8
0
 62
     0
 10
1286.9911824871399
 20
-535.64725669930465
 30
0.0
 11
1289.991182487139
 21
-532.64725669930465
 31
0.0
  0
LINE
  5
2CA
  8
0
 62
     0
 10
1282.4359056453479
 20
-541.89958981594384
 30
0.0
 11
1285.4359056453479
 21
-538.89958981594384
 31
0.0
  0
LINE
  5
2CB
  8
0
 62
     0
 10
1286.9911824871399
 20
-537.34431297415244
 30
0.0
 11
1289.991182487139
 21
-534.34431297415244
 31
0.0
  0
LINE
  5
2CC
  8
0
 62
     0
 10
1284.1329619201961
 20
-541.89958981594384
 30
0.0
 11
1289.991182487139
 21
-536.0413692489999
 31
0.0
  0
LINE
  5
2CD
  8
0
 62
     0
 10
1285.830018195044
 20
-541.89958981594384
 30
0.0
 11
1289.991182487139
 21
-537.73842552384781
 31
0.0
  0
LINE
  5
2CE
  8
0
 62
     0
 10
1287.527074469891
 20
-541.89958981594384
 30
0.0
 11
1289.991182487139
 21
-539.4354817986956
 31
0.0
  0
LINE
  5
2CF
  8
0
 62
     0
 10
1289.2241307447391
 20
-541.89958981594384
 30
0.0
 11
1289.991182487139
 21
-541.1325380735434
 31
0.0
  0
ENDBLK
  5
2D1
  8
0
  0
BLOCK
  8
0
  2
*D3
 70
     1
 10
0.0
 20
0.0
 30
0.0
  3
*D3
  1

  0
LINE
  5
323
  8
1
 10
-30.0
 20
-2.0
 30
0.0
 11
-30.0
 21
-13.465011161312299
 31
0.0
  0
LINE
  5
324
  8
1
 10
-0.0000000000000001
 20
-2.0
 30
0.0
 11
-0.0000000000000008
 21
-13.465011161312299
 31
0.0
  0
LINE
  5
325
  8
1
 10
-31.0
 20
-12.465011161312299
 30
0.0
 11
0.9999999999999992
 21
-12.465011161312299
 31
0.0
  0
INSERT
  5
326
  8
1
  2
_OBLIQUE
 10
-30.0
 20
-12.465011161312299
 30
0.0
 41
2.0
 42
2.0
 43
2.0
 50
180.0
  0
INSERT
  5
327
  8
1
  2
_OBLIQUE
 10
-0.0000000000000008
 20
-12.465011161312299
 30
0.0
 41
2.0
 42
2.0
 43
2.0
  0
TEXT
  5
328
  8
0
 10
-17.704979536152791
 20
-11.39577514494122
 30
0.0
 40
3.5
  1
30
  7
BESCHLAG
  0
POINT
  5
329
  8
DEFPOINTS
 62
     0
 10
-30.0
 20
0.0
 30
0.0
  0
POINT
  5
32A
  8
DEFPOINTS
 62
     0
 10
0.0
 20
0.0
 30
0.0
  0
POINT
  5
32B
  8
DEFPOINTS
 62
     0
 10
-0.0000000000000008
 20
-12.465011161312299
 30
0.0
  0
ENDBLK
  5
30A
  8
0
  0
BLOCK
  8
0
  2
*D4
 70
     1
 10
0.0
 20
0.0
 30
0.0
  3
*D4
  1

  0
LINE
  5
32C
  8
1
 10
-2.0
 20
0.0000000000000006
 30
0.0
 11
-18.721789270574622
 21
0.0000000000000053
 31
0.0
  0
LINE
  5
32D
  8
1
 10
-10.5
 20
40.0
 30
0.0
 11
-18.721789270574611
 21
40.0
 31
0.0
  0
LINE
  5
32E
  8
1
 10
-17.721789270574629
 20
-0.999999999999995
 30
0.0
 11
-17.721789270574611
 21
41.0
 31
0.0
  0
INSERT
  5
32F
  8
1
  2
_OBLIQUE
 10
-17.721789270574629
 20
0.000000000000005
 30
0.0
 41
2.0
 42
2.0
 43
2.0
 50
270.0
  0
INSERT
  5
330
  8
1
  2
_OBLIQUE
 10
-17.721789270574611
 20
40.0
 30
0.0
 41
2.0
 42
2.0
 43
2.0
 50
90.0
  0
TEXT
  5
331
  8
0
 10
-18.78863783810532
 20
17.366643929058661
 30
0.0
 40
3.5
  1
40
 50
90.0
  7
BESCHLAG
  0
POINT
  5
332
  8
DEFPOINTS
 62
     0
 10
0.0
 20
0.0
 30
0.0
  0
POINT
  5
333
  8
DEFPOINTS
 62
     0
 10
-8.5
 20
40.0
 30
0.0
  0
POINT
  5
334
  8
DEFPOINTS
 62
     0
 10
-17.721789270574611
 20
40.0
 30
0.0
  0
ENDBLK
  5
316
  8
0
  0
BLOCK
  8
0
  2
*D5
 70
     1
 10
0.0
 20
0.0
 30
0.0
  3
*D5
  1

  0
LINE
  5
335
  8
1
 10
-6.0
 20
39.0
 30
0.0
 11
-5.9999999999999991
 21
53.04099531929819
 31
0.0
  0
LINE
  5
336
  8
1
 10
0.0000000000000001
 20
39.0
 30
0.0
 11
0.000000000000001
 21
53.04099531929819
 31
0.0
  0
LINE
  5
337
  8
1
 10
-6.9999999999999991
 20
52.04099531929819
 30
0.0
 11
1.0
 21
52.04099531929819
 31
0.0
  0
INSERT
  5
338
  8
1
  2
_OBLIQUE
 10
-5.9999999999999991
 20
52.04099531929819
 30
0.0
 41
2.0
 42
2.0
 43
2.0
 50
180.0
  0
INSERT
  5
339
  8
1
  2
_OBLIQUE
 10
0.0000000000000009
 20
52.04099531929819
 30
0.0
 41
2.0
 42
2.0
 43
2.0
  0
TEXT
  5
33A
  8
0
 10
-4.3393587994542964
 20
53.107843886828888
 30
0.0
 40
3.5
  1
6
  7
BESCHLAG
  0
POINT
  5
33B
  8
DEFPOINTS
 62
     0
 10
-6.0
 20
37.0
 30
0.0
  0
POINT
  5
33C
  8
DEFPOINTS
 62
     0
 10
0.0
 20
37.0
 30
0.0
  0
POINT
  5
33D
  8
DEFPOINTS
 62
     0
 10
0.0000000000000009
 20
52.04099531929819
 30
0.0
  0
ENDBLK
  5
322
  8
0
  0
ENDSEC
  0
SECTION
  2
ENTITIES
  0
INSERT
  5
25B
  8
5
  2
NULLPUNKT
 10
0.0
 20
0.0
 30
0.0
  0
TEXT
  5
2EB
  8
1
 10
-71.114057609128849
 20
-7.3925258189977958
 30
0.0
 40
2.4999999499999999
  1
Hebgo 906
  0
INSERT
  5
2EC
  8
2
  2
*X2
 10
-1289.991182487139
 20
541.89958981594384
 30
0.0
1001
ACAD
1000
HATCH
1002
{
1070
    16
1000
_U,I
1040
1.1999999999999991
1040
0.7853981633974483
1070
     0
1002
}
  0
TEXT
  5
2ED
  8
1
 10
-48.005342163238993
 20
13.25138794462702
 30
0.0
 40
2.4999999499999999
  1
Hebgo 183/833
  0
DIMENSION
  5
2EE
  8
1
  2
*D3
 10
-0.0000000000000008
 20
-12.465011161312299
 30
0.0
 11
-15.0
 21
-9.6768119798661925
 31
0.0
 70
     0
 13
-30.0
 23
0.0
 33
0.0
 14
0.0
 24
0.0
 34
0.0
  0
POINT
  5
2EF
  8
5
 10
-6.0
 20
21.699999999999811
 30
0.0
  0
POLYLINE
  5
2F0
  8
5
 66
     1
 10
0.0
 20
0.0
 30
0.0
  0
VERTEX
  5
401
  8
5
 10
0.0
 20
45.211362810109222
 30
0.0
  0
VERTEX
  5
402
  8
5
 10
0.0
 20
28.0
 30
0.0
  0
VERTEX
  5
403
  8
5
 10
16.988439487426369
 20
28.0
 30
0.0
  0
SEQEND
  5
404
  8
5
  0
DIMENSION
  5
2F1
  8
1
  2
*D4
 10
-17.721789270574611
 20
40.0
 30
0.0
 11
-20.508794727600542
 21
20.0
 31
0.0
 70
     0
 13
0.0
 23
0.0
 33
0.0
 14
-8.5
 24
40.0
 34
0.0
 50
90.0
  0
POLYLINE
  5
2F2
  8
6
 66
     1
 10
0.0
 20
0.0
 30
0.0
 70
     1
  0
VERTEX
  5
405
  8
6
 10
-8.5
 20
38.131795577144658
 30
0.0
  0
VERTEX
  5
406
  8
6
 10
-8.5
 20
29.25
 30
0.0
 42
-0.4142135623730951
  0
VERTEX
  5
407
  8
6
 10
-9.0
 20
28.75
 30
0.0
  0
VERTEX
  5
408
  8
6
 10
-14.0
 20
28.75
 30
0.0
 42
0.4142135623730951
  0
VERTEX
  5
409
  8
6
 10
-16.0
 20
26.75
 30
0.0
  0
VERTEX
  5
40A
  8
6
 10
-16.0
 20
21.099999999999898
 30
0.0
 42
0.4142135623730945
  0
VERTEX
  5
40B
  8
6
 10
-14.0
 20
19.099999999999909
 30
0.0
  0
VERTEX
  5
40C
  8
6
 10
-9.25
 20
19.099999999999909
 30
0.0
 42
-0.4142135623730941
  0
VERTEX
  5
40D
  8
6
 10
-8.75
 20
18.599999999999898
 30
0.0
  0
VERTEX
  5
40E
  8
6
 10
-8.75
 20
14.507106781186391
 30
0.0
 42
0.198912367379658
  0
VERTEX
  5
40F
  8
6
 10
-8.6035533905933335
 20
14.15355339059351
 30
0.0
  0
VERTEX
  5
410
  8
6
 10
-3.1464466094066661
 20
8.6964466094068484
 30
0.0
 42
-0.198912367379658
  0
VERTEX
  5
411
  8
6
 10
-3.0
 20
8.3428932188135132
 30
0.0
  0
VERTEX
  5
412
  8
6
 10
-3.0
 20
3.300000000000181
 30
0.0
 42
-0.4142135623730951
  0
VERTEX
  5
413
  8
6
 10
-3.2999999999999541
 20
3.0
 30
0.0
  0
VERTEX
  5
414
  8
6
 10
-11.29289321881333
 20
3.0
 30
0.0
 42
-0.1989123673796592
  0
VERTEX
  5
415
  8
6
 10
-11.646446609406659
 20
3.1464466094066661
 30
0.0
  0
VERTEX
  5
416
  8
6
 10
-14.85355339059333
 20
6.3535533905933326
 30
0.0
 42
0.1989123673796596
  0
VERTEX
  5
417
  8
6
 10
-15.20710678118644
 20
6.5
 30
0.0
  0
VERTEX
  5
418
  8
6
 10
-21.499999999999989
 20
6.5
 30
0.0
  0
VERTEX
  5
419
  8
6
 10
-22.5
 20
6.5
 30
0.0
  0
VERTEX
  5
41A
  8
6
 10
-29.700000000000038
 20
6.5
 30
0.0
 42
0.4142135623730951
  0
VERTEX
  5
41B
  8
6
 10
-30.0
 20
6.1999999999998181
 30
0.0
  0
VERTEX
  5
41C
  8
6
 10
-30.0
 20
0.3000000000001819
 30
0.0
 42
0.4142135623730951
  0
VERTEX
  5
41D
  8
6
 10
-29.700000000000038
 20
0.0
 30
0.0
  0
VERTEX
  5
41E
  8
6
 10
-27.099999999999909
 20
0.0
 30
0.0
 42
0.4142135623730951
  0
VERTEX
  5
41F
  8
6
 10
-26.0
 20
1.0999999999999091
 30
0.0
  0
VERTEX
  5
420
  8
6
 10
-26.0
 20
1.1999999999998181
 30
0.0
 42
0.4142135623730951
  0
VERTEX
  5
421
  8
6
 10
-26.200000000000038
 20
1.4000000000000901
 30
0.0
  0
VERTEX
  5
422
  8
6
 10
-27.700000000000038
 20
1.4000000000000901
 30
0.0
 42
-0.4142135623730914
  0
VERTEX
  5
423
  8
6
 10
-28.0
 20
1.6999999999998181
 30
0.0
  0
VERTEX
  5
424
  8
6
 10
-28.0
 20
3.6999999999998181
 30
0.0
 42
-0.4142135623730951
  0
VERTEX
  5
425
  8
6
 10
-27.700000000000038
 20
4.0
 30
0.0
  0
VERTEX
  5
426
  8
6
 10
-16.299999999999951
 20
4.0
 30
0.0
 42
-0.4142135623730988
  0
VERTEX
  5
427
  8
6
 10
-16.0
 20
3.6999999999998181
 30
0.0
  0
VERTEX
  5
428
  8
6
 10
-16.0
 20
1.6999999999998181
 30
0.0
 42
-0.4142135623730951
  0
VERTEX
  5
429
  8
6
 10
-16.299999999999951
 20
1.4000000000000901
 30
0.0
  0
VERTEX
  5
42A
  8
6
 10
-17.799999999999951
 20
1.4000000000000901
 30
0.0
 42
0.4142135623730951
  0
VERTEX
  5
42B
  8
6
 10
-18.0
 20
1.1999999999998181
 30
0.0
  0
VERTEX
  5
42C
  8
6
 10
-18.0
 20
1.0999999999999091
 30
0.0
 42
0.4142135623730942
  0
VERTEX
  5
42D
  8
6
 10
-16.89999999999986
 20
0.0
 30
0.0
  0
VERTEX
  5
42E
  8
6
 10
-0.2999999999999545
 20
0.0
 30
0.0
 42
0.414213562373096
  0
VERTEX
  5
42F
  8
6
 10
0.0
 20
0.2999999999997271
 30
0.0
  0
VERTEX
  5
430
  8
6
 10
0.0
 20
21.200000000000269
 30
0.0
 42
0.4142135623730951
  0
VERTEX
  5
431
  8
6
 10
-0.5
 20
21.700000000000269
 30
0.0
  0
VERTEX
  5
432
  8
6
 10
-1.5
 20
21.700000000000269
 30
0.0
 42
0.4142135623730951
  0
VERTEX
  5
433
  8
6
 10
-2.2999999999999541
 20
20.900000000000091
 30
0.0
  0
VERTEX
  5
434
  8
6
 10
-2.2999999999999541
 20
20.849999999999909
 30
0.0
 42
0.4142135623730951
  0
VERTEX
  5
435
  8
6
 10
-2.1499999999998631
 20
20.700000000000269
 30
0.0
  0
VERTEX
  5
436
  8
6
 10
-2.0
 20
20.700000000000269
 30
0.0
 42
-0.4142135623730951
  0
VERTEX
  5
437
  8
6
 10
-1.8999999999998629
 20
20.599999999999909
 30
0.0
  0
VERTEX
  5
438
  8
6
 10
-1.8999999999998629
 20
14.699999999999809
 30
0.0
 42
-0.4142135623730939
  0
VERTEX
  5
439
  8
6
 10
-2.3999999999998631
 20
14.199999999999809
 30
0.0
  0
VERTEX
  5
43A
  8
6
 10
-5.5
 20
14.199999999999809
 30
0.0
 42
-0.4142135623730951
  0
VERTEX
  5
43B
  8
6
 10
-6.0
 20
14.699999999999809
 30
0.0
  0
VERTEX
  5
43C
  8
6
 10
-6.0
 20
21.176261290272571
 30
0.0
  0
VERTEX
  5
43D
  8
6
 10
-6.4425235801816143
 20
22.39208483439824
 30
0.0
 42
0.3152987888789824
  0
VERTEX
  5
43E
  8
6
 10
-6.6680498091702702
 20
22.550000000000178
 30
0.0
  0
VERTEX
  5
43F
  8
6
 10
-6.75999999999999
 20
22.550000000000178
 30
0.0
 42
0.4142135623730951
  0
VERTEX
  5
440
  8
6
 10
-7.0
 20
22.309999999999938
 30
0.0
  0
VERTEX
  5
441
  8
6
 10
-7.0
 20
22.300000000000178
 30
0.0
 42
-0.4142135623730951
  0
VERTEX
  5
442
  8
6
 10
-7.1499999999998627
 20
22.150000000000091
 30
0.0
  0
VERTEX
  5
443
  8
6
 10
-13.0
 20
22.150000000000091
 30
0.0
 42
-0.4142135623730951
  0
VERTEX
  5
444
  8
6
 10
-13.5
 20
22.650000000000091
 30
0.0
  0
VERTEX
  5
445
  8
6
 10
-13.5
 20
25.75
 30
0.0
 42
-0.4142135623730951
  0
VERTEX
  5
446
  8
6
 10
-13.0
 20
26.25
 30
0.0
  0
VERTEX
  5
447
  8
6
 10
-7.0
 20
26.25
 30
0.0
 42
0.4142135623730951
  0
VERTEX
  5
448
  8
6
 10
-6.0
 20
27.25
 30
0.0
  0
VERTEX
  5
449
  8
6
 10
-6.0
 20
34.633974596215459
 30
0.0
  0
VERTEX
  5
44A
  8
6
 10
-6.5
 20
35.5
 30
0.0
  0
VERTEX
  5
44B
  8
6
 10
-6.5
 20
36.5
 30
0.0
 42
-0.4142135623730951
  0
VERTEX
  5
44C
  8
6
 10
-6.0
 20
37.0
 30
0.0
  0
VERTEX
  5
44D
  8
6
 10
-3.5
 20
37.0
 30
0.0
 42
0.4142135623730951
  0
VERTEX
  5
44E
  8
6
 10
-2.0
 20
38.5
 30
0.0
  0
VERTEX
  5
44F
  8
6
 10
-2.0
 20
38.800000000000182
 30
0.0
 42
0.4142135623730951
  0
VERTEX
  5
450
  8
6
 10
-2.200000000000045
 20
39.0
 30
0.0
  0
VERTEX
  5
451
  8
6
 10
-2.4994446500534191
 20
39.0
 30
0.0
 42
-0.2679491924311209
  0
VERTEX
  5
452
  8
6
 10
-2.586047190431827
 20
39.050000000000182
 30
0.0
  0
VERTEX
  5
453
  8
6
 10
-3.0767949192431838
 20
39.900000000000091
 30
0.0
 42
0.5773502691896273
  0
VERTEX
  5
454
  8
6
 10
-3.4232050807568148
 20
39.900000000000091
 30
0.0
  0
VERTEX
  5
455
  8
6
 10
-3.9139528095679448
 20
39.050000000000182
 30
0.0
 42
-0.2679491924311209
  0
VERTEX
  5
456
  8
6
 10
-4.0005553499465796
 20
39.0
 30
0.0
  0
VERTEX
  5
457
  8
6
 10
-4.4994446500534186
 20
39.0
 30
0.0
 42
-0.2679491924311209
  0
VERTEX
  5
458
  8
6
 10
-4.5860471904318274
 20
39.050000000000182
 30
0.0
  0
VERTEX
  5
459
  8
6
 10
-5.0767949192431843
 20
39.900000000000091
 30
0.0
 42
0.5773502691896273
  0
VERTEX
  5
45A
  8
6
 10
-5.4232050807568148
 20
39.900000000000091
 30
0.0
  0
VERTEX
  5
45B
  8
6
 10
-5.9139528095679452
 20
39.050000000000182
 30
0.0
 42
-0.2679491924311209
  0
VERTEX
  5
45C
  8
6
 10
-6.0005553499465796
 20
39.0
 30
0.0
  0
VERTEX
  5
45D
  8
6
 10
-6.4994446500534186
 20
39.0
 30
0.0
 42
-0.2679491924311209
  0
VERTEX
  5
45E
  8
6
 10
-6.5860471904318274
 20
39.050000000000182
 30
0.0
  0
VERTEX
  5
45F
  8
6
 10
-7.0767949192431843
 20
39.900000000000091
 30
0.0
 42
0.5773502691896273
  0
VERTEX
  5
460
  8
6
 10
-7.4232050807568148
 20
39.900000000000091
 30
0.0
  0
VERTEX
  5
461
  8
6
 10
-7.9139528095683991
 20
39.04999999999972
 30
0.0
 42
-0.2679491924311166
  0
VERTEX
  5
462
  8
6
 10
-8.0005553499468078
 20
38.999999999999538
 30
0.0
  0
VERTEX
  5
463
  8
6
 10
-8.2999999999999545
 20
38.999999999999538
 30
0.0
 42
0.4142135623730951
  0
VERTEX
  5
464
  8
6
 10
-8.5
 20
38.79999999999972
 30
0.0
  0
SEQEND
  5
465
  8
6
  0
POLYLINE
  5
2F3
  8
4
 66
     1
 10
0.0
 20
0.0
 30
0.0
  0
VERTEX
  5
466
  8
4
 10
-6.0
 20
27.25
 30
0.0
  0
VERTEX
  5
467
  8
4
 10
-6.0
 20
37.0
 30
0.0
  0
VERTEX
  5
468
  8
4
 10
-2.0
 20
37.0
 30
0.0
  0
VERTEX
  5
469
  8
4
 10
-2.0
 20
40.0
 30
0.0
  0
VERTEX
  5
46A
  8
4
 10
-8.5
 20
40.0
 30
0.0
  0
VERTEX
  5
46B
  8
4
 10
-8.5
 20
28.75
 30
0.0
  0
VERTEX
  5
46C
  8
4
 10
-16.0
 20
28.75
 30
0.0
  0
VERTEX
  5
46D
  8
4
 10
-16.0
 20
19.099999999999909
 30
0.0
  0
VERTEX
  5
46E
  8
4
 10
-8.75
 20
19.099999999999451
 30
0.0
  0
VERTEX
  5
46F
  8
4
 10
-8.75
 20
14.29999999999972
 30
0.0
  0
VERTEX
  5
470
  8
4
 10
-3.0
 20
8.5499999999997272
 30
0.0
  0
VERTEX
  5
471
  8
4
 10
-3.0
 20
3.0
 30
0.0
  0
VERTEX
  5
472
  8
4
 10
-11.5
 20
3.0
 30
0.0
  0
VERTEX
  5
473
  8
4
 10
-15.0
 20
6.5
 30
0.0
  0
VERTEX
  5
474
  8
4
 10
-30.0
 20
6.5
 30
0.0
  0
VERTEX
  5
475
  8
4
 10
-30.0
 20
0.0
 30
0.0
  0
VERTEX
  5
476
  8
4
 10
0.0
 20
0.0
 30
0.0
  0
VERTEX
  5
477
  8
4
 10
0.0
 20
21.699999999999811
 30
0.0
  0
VERTEX
  5
478
  8
4
 10
-1.9000000000000901
 20
21.699999999999811
 30
0.0
  0
SEQEND
  5
479
  8
4
  0
DIMENSION
  5
2F4
  8
1
  2
*D5
 10
0.0000000000000009
 20
52.04099531929819
 30
0.0
 11
-2.9999999999999991
 21
54.82800077632411
 31
0.0
 70
     0
 13
-6.0
 23
37.0
 33
0.0
 14
0.0
 24
37.0
 34
0.0
  0
POINT
  5
2F5
  8
5
 10
-6.0
 20
21.699999999999811
 30
0.0
  0
POLYLINE
  5
2F6
  8
6
 66
     1
 10
0.0
 20
0.0
 30
0.0
 70
     1
  0
VERTEX
  5
47A
  8
6
 10
-5.8255612014950202
 20
16.55517376814964
 30
0.0
 42
0.2158035951233518
  0
VERTEX
  5
47B
  8
6
 10
-4.7916837531322471
 20
14.86618240307507
 30
0.0
 42
0.2355896391344016
  0
VERTEX
  5
47C
  8
6
 10
-3.8383103940720948
 20
14.990041558902471
 30
0.0
 42
0.1685043559430312
  0
VERTEX
  5
47D
  8
6
 10
-1.9025296049915139
 20
16.833777055382591
 30
0.0
 42
0.1664180345968526
  0
VERTEX
  5
47E
  8
6
 10
-1.8775011853203969
 20
17.546888861950709
 30
0.0
 42
0.5413849556030098
  0
VERTEX
  5
47F
  8
6
 10
-2.3892105670511219
 20
17.553945723972671
 30
0.0
 42
-0.0052316930712576
  0
VERTEX
  5
480
  8
6
 10
-2.8462797460028919
 20
17.00618346623332
 30
0.0
 42
-0.054152680530166
  0
VERTEX
  5
481
  8
6
 10
-3.3666900979471839
 20
16.406033423397041
 30
0.0
 42
-0.9349225624350127
  0
VERTEX
  5
482
  8
6
 10
-3.5778447065915771
 20
16.564115175538511
 30
0.0
  0
VERTEX
  5
483
  8
6
 10
-3.5306107009669172
 20
18.070490631717341
 30
0.0
 42
-0.2594323004936584
  0
VERTEX
  5
484
  8
6
 10
-3.398146374066755
 20
18.295846950604751
 30
0.0
 42
0.2179033253512271
  0
VERTEX
  5
485
  8
6
 10
-1.957314384207393
 20
19.670737533463569
 30
0.0
 42
0.1112925639295422
  0
VERTEX
  5
486
  8
6
 10
-1.973232999047922
 20
20.40748570564028
 30
0.0
 42
0.5856445095830515
  0
VERTEX
  5
487
  8
6
 10
-2.5196463091281198
 20
20.403288975134039
 30
0.0
 42
0.0198357983581517
  0
VERTEX
  5
488
  8
6
 10
-2.870469829530748
 20
20.022202851073409
 30
0.0
 42
-0.1280421017227575
  0
VERTEX
  5
489
  8
6
 10
-3.5052414909500831
 20
19.4858133365301
 30
0.0
 42
-0.5229847949340832
  0
VERTEX
  5
48A
  8
6
 10
-3.8056600047971179
 20
19.615672803704911
 30
0.0
 42
-0.1251403261995197
  0
VERTEX
  5
48B
  8
6
 10
-3.8200989904689768
 20
20.452787311495051
 30
0.0
 42
-0.2490436840219318
  0
VERTEX
  5
48C
  8
6
 10
-2.4353064954921129
 20
21.71034294579249
 30
0.0
  0
VERTEX
  5
48D
  8
6
 10
-0.5542289914385492
 20
21.699999999999811
 30
0.0
 42
0.2502581264948605
  0
VERTEX
  5
48E
  8
6
 10
-1.2079483238928781
 20
22.814514737251098
 30
0.0
 42
-0.0644626761139379
  0
VERTEX
  5
48F
  8
6
 10
-3.3549129169111889
 20
24.142476628707751
 30
0.0
 42
-0.1851361650694223
  0
VERTEX
  5
490
  8
6
 10
-3.7945320012609041
 20
24.906757693251159
 30
0.0
 42
-0.0172179558845785
  0
VERTEX
  5
491
  8
6
 10
-3.4601512767067102
 20
30.11307132702359
 30
0.0
 42
-0.0012604142569355
  0
VERTEX
  5
492
  8
6
 10
-3.550405093871404
 20
33.498655608208537
 30
0.0
 42
-0.2920130677617143
  0
VERTEX
  5
493
  8
6
 10
-2.790666132115347
 20
34.72784343083935
 30
0.0
 42
-0.506821038445564
  0
VERTEX
  5
494
  8
6
 10
-1.903499935761146
 20
34.342967891532901
 30
0.0
 42
-0.23023162935384
  0
VERTEX
  5
495
  8
6
 10
-2.0474410258493658
 20
33.311468464875361
 30
0.0
  0
VERTEX
  5
496
  8
6
 10
-1.264706502176977
 20
25.654680705956931
 30
0.0
 42
0.5749769721072952
  0
VERTEX
  5
497
  8
6
 10
-0.1586845291196823
 20
25.749115956804872
 30
0.0
 42
-0.0048945404723578
  0
VERTEX
  5
498
  8
6
 10
-0.4340040830124963
 20
33.936989123515332
 30
0.0
 42
0.2931582629719567
  0
VERTEX
  5
499
  8
6
 10
-2.382417068346057
 20
36.129288943805022
 30
0.0
  0
VERTEX
  5
49A
  8
6
 10
-4.7784098158770121
 20
36.044905492866512
 30
0.0
 42
-0.0178703319042379
  0
VERTEX
  5
49B
  8
6
 10
-5.8923331563860302
 20
36.446233910135327
 30
0.0
 42
0.5266950425120051
  0
VERTEX
  5
49C
  8
6
 10
-6.2467742372505191
 20
36.39544137555162
 30
0.0
 42
0.3223702371585889
  0
VERTEX
  5
49D
  8
6
 10
-6.3245828476656243
 20
35.061116237299977
 30
0.0
 42
-0.079536068176344
  0
VERTEX
  5
49E
  8
6
 10
-5.856100094550583
 20
33.177332918765607
 30
0.0
 42
-0.0560121319077553
  0
VERTEX
  5
49F
  8
6
 10
-6.0964033012373866
 20
24.245493368623549
 30
0.0
  0
SEQEND
  5
4A0
  8
6
  0
POLYLINE
  5
2F7
  8
6
 66
     1
 10
0.0
 20
0.0
 30
0.0
 70
     1
  0
VERTEX
  5
4A1
  8
6
 10
-16.39999999999986
 20
3.700000000000045
 30
0.0
  0
VERTEX
  5
4A2
  8
6
 10
-23.07818298123766
 20
3.6999999999999309
 30
0.0
 42
0.2979024853978631
  0
VERTEX
  5
4A3
  8
6
 10
-24.910288806168179
 20
2.5021148585182109
 30
0.0
  0
VERTEX
  5
4A4
  8
6
 10
-26.150849823681369
 20
0.0023065905892281
 30
0.0
 42
-0.2979024853978892
  0
VERTEX
  5
4A5
  8
6
 10
-26.60887627991405
 20
-0.2971646947812587
 30
0.0
  0
VERTEX
  5
4A6
  8
6
 10
-29.65020276315931
 20
-0.2971646947812587
 30
0.0
 42
-0.4142135623730951
  0
VERTEX
  5
4A7
  8
6
 10
-30.15020276315931
 20
0.2028353052187413
 30
0.0
  0
VERTEX
  5
4A8
  8
6
 10
-30.15020276315931
 20
6.0249982568549276
 30
0.0
 42
-0.1564024178525488
  0
VERTEX
  5
4A9
  8
6
 10
-30.056972813598119
 20
6.315752665361515
 30
0.0
  0
VERTEX
  5
4AA
  8
6
 10
-28.087616562855821
 20
8.0721435225143523
 30
0.0
  0
VERTEX
  5
4AB
  8
6
 10
-29.41882007820254
 20
9.5647577394936434
 30
0.0
  0
VERTEX
  5
4AC
  8
6
 10
-31.490604399056789
 20
7.7170153425712442
 30
0.0
 42
0.1880239795834631
  0
VERTEX
  5
4AD
  8
6
 10
-32.150202763159307
 20
6.0249982568016094
 30
0.0
  0
VERTEX
  5
4AE
  8
6
 10
-32.150202763159307
 20
0.2028353052187413
 30
0.0
 42
0.4142135623730951
  0
VERTEX
  5
4AF
  8
6
 10
-29.65020276315931
 20
-2.2971646947812578
 30
0.0
  0
VERTEX
  5
4B0
  8
6
 10
-26.60887627993327
 20
-2.2971646947812578
 30
0.0
 42
0.2906967135076304
  0
VERTEX
  5
4B1
  8
6
 10
-24.346142200321079
 20
-0.860195496329652
 30
0.0
  0
VERTEX
  5
4B2
  8
6
 10
-23.075613267880609
 20
1.7000000000001589
 30
0.0
  0
VERTEX
  5
4B3
  8
6
 10
-16.39999999999986
 20
1.700000000000045
 30
0.0
  0
SEQEND
  5
4B4
  8
6
  0
POLYLINE
  5
2F8
  8
6
 66
     1
 10
0.0
 20
0.0
 30
0.0
  0
VERTEX
  5
4B5
  8
6
 10
-16.39999999999986
 20
3.200000000000045
 30
0.0
  0
VERTEX
  5
4B6
  8
6
 10
-23.07818298123766
 20
3.1999999999999309
 30
0.0
 42
0.2999244947259431
  0
VERTEX
  5
4B7
  8
6
 10
-24.45669100147563
 20
2.2913675998344161
 30
0.0
  0
VERTEX
  5
4B8
  8
6
 10
-25.698550645519159
 20
-0.2110574820134161
 30
0.0
 42
-0.294080808329901
  0
VERTEX
  5
4B9
  8
6
 10
-26.60887627991405
 20
-0.7971646947812588
 30
0.0
  0
VERTEX
  5
4BA
  8
6
 10
-29.65020276315931
 20
-0.7971646947812588
 30
0.0
 42
-0.4142135623730951
  0
VERTEX
  5
4BB
  8
6
 10
-30.65020276315931
 20
0.2028353052187413
 30
0.0
  0
VERTEX
  5
4BC
  8
6
 10
-30.65020276315931
 20
6.0249982568549276
 30
0.0
 42
-0.1731346391236261
  0
VERTEX
  5
4BD
  8
6
 10
-30.424153006677209
 20
6.6582446705912162
 30
0.0
  0
VERTEX
  5
4BE
  8
6
 10
-28.4204174416925
 20
8.4452970767591751
 30
0.0
  0
SEQEND
  5
4BF
  8
6
  0
POLYLINE
  5
2F9
  8
6
 66
     1
 10
0.0
 20
0.0
 30
0.0
  0
VERTEX
  5
4C0
  8
6
 10
-16.39999999999986
 20
2.700000000000045
 30
0.0
  0
VERTEX
  5
4C1
  8
6
 10
-23.07818298123561
 20
2.700000000000045
 30
0.0
 42
0.3033220033015464
  0
VERTEX
  5
4C2
  8
6
 10
-24.002027914210771
 20
2.0827669523565642
 30
0.0
  0
VERTEX
  5
4C3
  8
6
 10
-25.247279707970389
 20
-0.4264935239518764
 30
0.0
 42
-0.2923904282578467
  0
VERTEX
  5
4C4
  8
6
 10
-26.60887627993645
 20
-1.2971646947812581
 30
0.0
  0
VERTEX
  5
4C5
  8
6
 10
-29.65020276315931
 20
-1.2971646947812581
 30
0.0
 42
-0.4142135623730951
  0
VERTEX
  5
4C6
  8
6
 10
-31.15020276315931
 20
0.2028353052187413
 30
0.0
  0
VERTEX
  5
4C7
  8
6
 10
-31.15020276315931
 20
6.0249982568165024
 30
0.0
 42
-0.1805621658660177
  0
VERTEX
  5
4C8
  8
6
 10
-30.7832854132389
 20
7.0079141779382317
 30
0.0
  0
VERTEX
  5
4C9
  8
6
 10
-28.753218320529179
 20
8.8184506310039978
 30
0.0
  0
SEQEND
  5
4CA
  8
6
  0
POLYLINE
  5
2FA
  8
6
 66
     1
 10
0.0
 20
0.0
 30
0.0
  0
VERTEX
  5
4CB
  8
6
 10
-16.39999999999986
 20
2.200000000000045
 30
0.0
  0
VERTEX
  5
4CC
  8
6
 10
-23.07818298123572
 20
2.200000000000045
 30
0.0
 42
0.3110176465481184
  0
VERTEX
  5
4CD
  8
6
 10
-23.545305334850919
 20
1.8783163106375009
 30
0.0
  0
VERTEX
  5
4CE
  8
6
 10
-24.796540928796269
 20
-0.6430018983962782
 30
0.0
 42
-0.2913835292343037
  0
VERTEX
  5
4CF
  8
6
 10
-26.608876279930989
 20
-1.7971646947812581
 30
0.0
  0
VERTEX
  5
4D0
  8
6
 10
-29.65020276315931
 20
-1.7971646947812581
 30
0.0
 42
-0.4142135623730951
  0
VERTEX
  5
4D1
  8
6
 10
-31.65020276315931
 20
0.2028353052187413
 30
0.0
  0
VERTEX
  5
4D2
  8
6
 10
-31.65020276315931
 20
6.0249982567686402
 30
0.0
 42
-0.184995633674859
  0
VERTEX
  5
4D3
  8
6
 10
-31.13826845854976
 20
7.3612843362778904
 30
0.0
  0
VERTEX
  5
4D4
  8
6
 10
-29.086019199365861
 20
9.1916041852488206
 30
0.0
  0
SEQEND
  5
4D5
  8
6
  0
POLYLINE
  5
2FB
  8
6
 66
     1
 10
0.0
 20
0.0
 30
0.0
  0
VERTEX
  5
4D6
  8
6
 10
-29.600202763159579
 20
-0.2971646947812587
 30
0.0
  0
VERTEX
  5
4D7
  8
6
 10
-43.805022074132808
 20
-0.297164694781145
 30
0.0
  0
VERTEX
  5
4D8
  8
6
 10
-53.491245664688677
 20
4.853396223599133
 30
0.0
 42
0.2418206986979301
  0
VERTEX
  5
4D9
  8
6
 10
-57.146252815582102
 20
4.9052462844956599
 30
0.0
  0
VERTEX
  5
4DA
  8
6
 10
-66.452942958113908
 20
0.2902407400135871
 30
0.0
  0
VERTEX
  5
4DB
  8
6
 10
-75.791526297276391
 20
4.9210614966742687
 30
0.0
 42
0.2343261328240422
  0
VERTEX
  5
4DC
  8
6
 10
-79.345595000450203
 20
4.921061496674155
 30
0.0
  0
VERTEX
  5
4DD
  8
6
 10
-88.684178339612913
 20
0.2902407400135871
 30
0.0
  0
VERTEX
  5
4DE
  8
6
 10
-87.795661163819545
 20
-1.501556466234887
 30
0.0
  0
VERTEX
  5
4DF
  8
6
 10
-78.457077824656494
 20
3.1292642904257941
 30
0.0
 42
-0.2343261328239351
  0
VERTEX
  5
4E0
  8
6
 10
-76.680043473069986
 20
3.12926429042568
 30
0.0
  0
VERTEX
  5
4E1
  8
6
 10
-67.341460133907162
 20
-1.501556466234887
 30
0.0
 42
0.2343261328239322
  0
VERTEX
  5
4E2
  8
6
 10
-65.564425782320754
 20
-1.501556466234887
 30
0.0
  0
VERTEX
  5
4E3
  8
6
 10
-56.257735639788727
 20
3.1134490782471849
 30
0.0
 42
-0.2418206986978837
  0
VERTEX
  5
4E4
  8
6
 10
-54.430232064342128
 20
3.087524047798865
 30
0.0
  0
VERTEX
  5
4E5
  8
6
 10
-44.744008473786153
 20
-2.0630368705815272
 30
0.0
 42
0.1227907796755793
  0
VERTEX
  5
4E6
  8
6
 10
-43.805022074133142
 20
-2.2971646947812578
 30
0.0
  0
VERTEX
  5
4E7
  8
6
 10
-29.600202763159579
 20
-2.2971646947812578
 30
0.0
  0
SEQEND
  5
4E8
  8
6
  0
POLYLINE
  5
2FC
  8
6
 66
     1
 10
0.0
 20
0.0
 30
0.0
  0
VERTEX
  5
4E9
  8
6
 10
-29.600202763159579
 20
-1.7971646947812581
 30
0.0
  0
VERTEX
  5
4EA
  8
6
 10
-43.805022074132687
 20
-1.797164694781145
 30
0.0
 42
-0.1227907796755781
  0
VERTEX
  5
4EB
  8
6
 10
-44.509261873872447
 20
-1.621568826631687
 30
0.0
  0
VERTEX
  5
4EC
  8
6
 10
-54.195485464428771
 20
3.5289920917489321
 30
0.0
 42
0.2418206986979325
  0
VERTEX
  5
4ED
  8
6
 10
-56.479864933737304
 20
3.5613983798091331
 30
0.0
  0
VERTEX
  5
4EE
  8
6
 10
-65.786555076268755
 20
-1.0536071646727121
 30
0.0
 42
-0.2343261328240303
  0
VERTEX
  5
4EF
  8
6
 10
-67.119330839959275
 20
-1.053607164672598
 30
0.0
  0
VERTEX
  5
4F0
  8
6
 10
-76.457914179121417
 20
3.5772135919877419
 30
0.0
 42
0.2343261328240438
  0
VERTEX
  5
4F1
  8
6
 10
-78.679207118605291
 20
3.5772135919877419
 30
0.0
  0
VERTEX
  5
4F2
  8
6
 10
-88.017790457767873
 20
-1.053607164672826
 30
0.0
 42
-0.2343261328240571
  0
SEQEND
  5
4F3
  8
6
  0
POLYLINE
  5
2FD
  8
6
 66
     1
 10
0.0
 20
0.0
 30
0.0
  0
VERTEX
  5
4F4
  8
6
 10
-29.600202763159579
 20
-1.2971646947812581
 30
0.0
  0
VERTEX
  5
4F5
  8
6
 10
-43.805022074133028
 20
-1.297164694781145
 30
0.0
 42
-0.1227907796755804
  0
VERTEX
  5
4F6
  8
6
 10
-44.274515273959423
 20
-1.1801007826813921
 30
0.0
  0
VERTEX
  5
4F7
  8
6
 10
-53.960738864515292
 20
3.9704601356989988
 30
0.0
 42
0.2418206986979378
  0
VERTEX
  5
4F8
  8
6
 10
-56.701994227685532
 20
4.0093476813713087
 30
0.0
  0
VERTEX
  5
4F9
  8
6
 10
-66.008684370216983
 20
-0.6056578631105367
 30
0.0
 42
-0.2343261328240147
  0
VERTEX
  5
4FA
  8
6
 10
-66.89720154601082
 20
-0.6056578631105367
 30
0.0
  0
VERTEX
  5
4FB
  8
6
 10
-76.235784885173075
 20
4.0251628935499184
 30
0.0
 42
0.2343261328240469
  0
VERTEX
  5
4FC
  8
6
 10
-78.901336412553633
 20
4.0251628935499184
 30
0.0
  0
VERTEX
  5
4FD
  8
6
 10
-88.239919751716215
 20
-0.6056578631106504
 30
0.0
 42
-0.2343261328240553
  0
SEQEND
  5
4FE
  8
6
  0
POLYLINE
  5
2FE
  8
6
 66
     1
 10
0.0
 20
0.0
 30
0.0
  0
VERTEX
  5
4FF
  8
6
 10
-29.600202763159579
 20
-0.7971646947812588
 30
0.0
  0
VERTEX
  5
500
  8
6
 10
-43.805022074133028
 20
-0.797164694781145
 30
0.0
 42
-0.1227907796755586
  0
VERTEX
  5
501
  8
6
 10
-44.039768674046059
 20
-0.738632738731326
 30
0.0
  0
VERTEX
  5
502
  8
6
 10
-53.725992264601921
 20
4.4119281796490659
 30
0.0
 42
0.2418206986979313
  0
VERTEX
  5
503
  8
6
 10
-56.92412352163376
 20
4.4572969829334852
 30
0.0
  0
VERTEX
  5
504
  8
6
 10
-66.230813664165225
 20
-0.1577085615483611
 30
0.0
 42
-0.2343261328240752
  0
VERTEX
  5
505
  8
6
 10
-66.675072252062591
 20
-0.1577085615483611
 30
0.0
  0
VERTEX
  5
506
  8
6
 10
-76.013655591224733
 20
4.473112195112094
 30
0.0
 42
0.2343261328240394
  0
VERTEX
  5
507
  8
6
 10
-79.123465706501861
 20
4.473112195112094
 30
0.0
  0
VERTEX
  5
508
  8
6
 10
-88.462049045664571
 20
-0.1577085615484748
 30
0.0
 42
-0.2343261328240224
  0
SEQEND
  5
509
  8
6
  0
VIEWPORT
  5
22
 67
     1
  8
0
 10
210.0
 20
170.2366863905325
 30
0.0
 40
420.0
 41
340.47337278106511
 68
     1
 69
     1
1001
ACAD
1000
MVIEW
1002
{
1070
    16
1010
0.0
1020
0.0
1030
0.0
1010
0.0
1020
0.0
1030
1.0
1040
0.0
1040
340.47337278106511
1040
210.0
1040
170.2366863905325
1040
50.0
1040
0.0
1040
0.0
1070
     0
1070
   100
1070
     1
1070
     1
1070
     0
1070
     0
1070
     0
1070
     0
1040
0.0
1040
0.0
1040
0.0
1040
5.0
1040
5.0
1040
10.0
1040
10.0
1070
     0
1002
{
1002
}
1002
}
  0
ENDSEC
  0
EOF
