  0
SECTION
  2
HEADER
  9
$ACADVER
  1
AC1009
  9
$INSBASE
 10
0.0
 20
0.0
 30
0.0
  9
$EXTMIN
 10
-88.691710655917049
 20
-13.481139279297849
 30
-0.0000000000000058
  9
$EXTMAX
 10
17.005920953822731
 20
57.5408941455429
 30
0.0000000000000104
  9
$LIMMIN
 10
-150.0
 20
-150.0
  9
$LIMMAX
 10
150.0
 20
150.0
  9
$ORTHOMODE
 70
     0
  9
$REGENMODE
 70
     1
  9
$FILLMODE
 70
     1
  9
$QTEXTMODE
 70
     0
  9
$MIRRTEXT
 70
     0
  9
$DRAGMODE
 70
     2
  9
$LTSCALE
 40
1.0
  9
$OSMODE
 70
   111
  9
$ATTMODE
 70
     1
  9
$TEXTSIZE
 40
3.5
  9
$TRACEWID
 40
1.0
  9
$TEXTSTYLE
  7
BESCHLAG
  9
$CLAYER
  8
0
  9
$CELTYPE
  6
BYLAYER
  9
$CECOLOR
 62
   256
  9
$DIMSCALE
 40
1.0
  9
$DIMASZ
 40
2.0
  9
$DIMEXO
 40
2.0
  9
$DIMDLI
 40
0.0
  9
$DIMRND
 40
0.0
  9
$DIMDLE
 40
1.0
  9
$DIMEXE
 40
1.0
  9
$DIMTP
 40
0.0
  9
$DIMTM
 40
0.0
  9
$DIMTXT
 40
3.5
  9
$DIMCEN
 40
0.0
  9
$DIMTSZ
 40
0.0
  9
$DIMTOL
 70
     0
  9
$DIMLIM
 70
     0
  9
$DIMTIH
 70
     0
  9
$DIMTOH
 70
     0
  9
$DIMSE1
 70
     0
  9
$DIMSE2
 70
     0
  9
$DIMTAD
 70
     1
  9
$DIMZIN
 70
     8
  9
$DIMBLK
  1

  9
$DIMASO
 70
     1
  9
$DIMSHO
 70
     1
  9
$DIMPOST
  1

  9
$DIMAPOST
  1

  9
$DIMALT
 70
     0
  9
$DIMALTD
 70
     2
  9
$DIMALTF
 40
0.039370078740157
  9
$DIMLFAC
 40
1.0
  9
$DIMTOFL
 70
     1
  9
$DIMTVP
 40
0.0
  9
$DIMTIX
 70
     1
  9
$DIMSOXD
 70
     0
  9
$DIMSAH
 70
     1
  9
$DIMBLK1
  1
OBLIQUE
  9
$DIMBLK2
  1
OBLIQUE
  9
$DIMSTYLE
  2
OPO-SSTRICH
  9
$DIMCLRD
 70
   256
  9
$DIMCLRE
 70
   256
  9
$DIMCLRT
 70
   256
  9
$DIMTFAC
 40
0.7114285714285716
  9
$DIMGAP
 40
1.0
  9
$LUNITS
 70
     2
  9
$LUPREC
 70
     1
  9
$SKETCHINC
 40
1.0
  9
$FILLETRAD
 40
0.0
  9
$AUNITS
 70
     0
  9
$AUPREC
 70
     1
  9
$MENU
  1
D:\ACL_CGWG\CGTAB13
  9
$ELEVATION
 40
0.0
  9
$PELEVATION
 40
0.0
  9
$THICKNESS
 40
0.0
  9
$LIMCHECK
 70
     0
  9
$BLIPMODE
 70
     0
  9
$CHAMFERA
 40
1.0
  9
$CHAMFERB
 40
1.0
  9
$SKPOLY
 70
     0
  9
$TDCREATE
 40
2451739.8990301271
  9
$TDUPDATE
 40
2452087.633468206
  9
$TDINDWG
 40
0.000912338
  9
$TDUSRTIMER
 40
0.000912338
  9
$USRTIMER
 70
     1
  9
$ANGBASE
 50
0.0
  9
$ANGDIR
 70
     0
  9
$PDMODE
 70
    35
  9
$PDSIZE
 40
5.0
  9
$PLINEWID
 40
0.0
  9
$COORDS
 70
     1
  9
$SPLFRAME
 70
     0
  9
$SPLINETYPE
 70
     6
  9
$SPLINESEGS
 70
     8
  9
$ATTDIA
 70
     1
  9
$ATTREQ
 70
     1
  9
$HANDLING
 70
-16383
  9
$HANDSEED
  5
504
  9
$SURFTAB1
 70
    12
  9
$SURFTAB2
 70
    12
  9
$SURFTYPE
 70
     6
  9
$SURFU
 70
    12
  9
$SURFV
 70
    12
  9
$UCSNAME
  2

  9
$UCSORG
 10
0.0
 20
0.0
 30
0.0
  9
$UCSXDIR
 10
1.0
 20
0.0
 30
0.0
  9
$UCSYDIR
 10
0.0
 20
1.0
 30
0.0
  9
$PUCSNAME
  2

  9
$PUCSORG
 10
0.0
 20
0.0
 30
0.0
  9
$PUCSXDIR
 10
1.0
 20
0.0
 30
0.0
  9
$PUCSYDIR
 10
0.0
 20
1.0
 30
0.0
  9
$USERI1
 70
     0
  9
$USERI2
 70
     0
  9
$USERI3
 70
     0
  9
$USERI4
 70
     0
  9
$USERI5
 70
     0
  9
$USERR1
 40
0.0
  9
$USERR2
 40
0.0
  9
$USERR3
 40
0.0
  9
$USERR4
 40
0.0
  9
$USERR5
 40
0.0
  9
$WORLDVIEW
 70
     1
  9
$SHADEDGE
 70
     3
  9
$SHADEDIF
 70
    70
  9
$TILEMODE
 70
     1
  9
$MAXACTVP
 70
    48
  9
$PLIMCHECK
 70
     0
  9
$PEXTMIN
 10
1.0000000000000000E+020
 20
1.0000000000000000E+020
 30
1.0000000000000000E+020
  9
$PEXTMAX
 10
-1.0000000000000000E+020
 20
-1.0000000000000000E+020
 30
-1.0000000000000000E+020
  9
$PLIMMIN
 10
0.0
 20
0.0
  9
$PLIMMAX
 10
420.0
 20
297.0
  9
$UNITMODE
 70
     0
  9
$VISRETAIN
 70
     1
  9
$PLINEGEN
 70
     0
  9
$PSLTSCALE
 70
     1
  0
ENDSEC
  0
SECTION
  2
TABLES
  0
TABLE
  2
VPORT
 70
     2
  0
VPORT
  2
*ACTIVE
 70
     0
 10
0.0
 20
0.0
 11
1.0
 21
1.0
 12
-35.842894851047163
 22
22.029877433122518
 13
0.0
 23
0.0
 14
0.5
 24
0.5
 15
10.0
 25
10.0
 16
0.0
 26
0.0
 36
1.0
 17
0.0
 27
0.0
 37
0.0
 40
71.598666984447021
 41
1.6070460704607039
 42
50.0
 43
0.0
 44
0.0
 50
0.0
 51
0.0
 71
     0
 72
   800
 73
     1
 74
     1
 75
     0
 76
     0
 77
     0
 78
     0
  0
ENDTAB
  0
TABLE
  2
LTYPE
 70
     1
  0
LTYPE
  2
CONTINUOUS
 70
     0
  3
_______________________________________________
 72
    65
 73
     2
 40
1.0
 49
1.0
 49
0.0
  0
ENDTAB
  0
TABLE
  2
LAYER
 70
     7
  0
LAYER
  2
0
 70
     0
 62
    30
  6
CONTINUOUS
  0
LAYER
  2
1
 70
     0
 62
     2
  6
CONTINUOUS
  0
LAYER
  2
2
 70
     0
 62
     9
  6
CONTINUOUS
  0
LAYER
  2
4
 70
     1
 62
     4
  6
CONTINUOUS
  0
LAYER
  2
5
 70
     0
 62
     1
  6
CONTINUOUS
  0
LAYER
  2
6
 70
     0
 62
     3
  6
CONTINUOUS
  0
LAYER
  2
DEFPOINTS
 70
     0
 62
     7
  6
CONTINUOUS
  0
ENDTAB
  0
TABLE
  2
STYLE
 70
     2
  0
STYLE
  2
STANDARD
 70
     0
 40
0.0
 41
1.0
 50
0.0
 71
     0
 42
2.5
  3
txt
  4

  0
STYLE
  2
BESCHLAG
 70
     0
 40
0.0
 41
1.0
 50
0.0
 71
     0
 42
3.5
  3
txt
  4

  0
ENDTAB
  0
TABLE
  2
VIEW
 70
     0
  0
ENDTAB
  0
TABLE
  2
UCS
 70
     0
  0
ENDTAB
  0
TABLE
  2
APPID
 70
     1
  0
APPID
  2
ACAD
 70
     0
  0
ENDTAB
  0
TABLE
  2
DIMSTYLE
 70
     1
  0
DIMSTYLE
  2
OPO-SSTRICH
 70
     0
  3

  4

  5

  6
OBLIQUE
  7
OBLIQUE
 40
1.0
 41
2.0
 42
2.0
 43
0.0
 44
1.0
 45
0.0
 46
1.0
 47
0.0
 48
0.0
140
3.5
141
0.0
142
0.0
143
0.039370078740157
144
1.0
145
0.0
146
0.7114285714285716
147
1.0
 71
     0
 72
     0
 73
     0
 74
     0
 75
     0
 76
     0
 77
     1
 78
     8
170
     0
171
     2
172
     1
173
     1
174
     1
175
     0
176
   256
177
   256
178
   256
  0
ENDTAB
  0
ENDSEC
  0
SECTION
  2
BLOCKS
  0
BLOCK
  8
0
  2
$MODEL_SPACE
 70
     0
 10
0.0
 20
0.0
 30
0.0
  3
$MODEL_SPACE
  1

  0
ENDBLK
  5
1C
  8
0
  0
BLOCK
 67
     1
  8
0
  2
$PAPER_SPACE
 70
     0
 10
0.0
 20
0.0
 30
0.0
  3
$PAPER_SPACE
  1

  0
ENDBLK
  5
19
 67
     1
  8
0
  0
BLOCK
  8
0
  2
_OBLIQUE
 70
     0
 10
0.0
 20
0.0
 30
0.0
  3
_OBLIQUE
  1

  0
LINE
  5
204
  8
0
 62
     0
 10
-0.5
 20
-0.5
 30
0.0
 11
0.5
 21
0.5
 31
0.0
  0
ENDBLK
  5
206
  8
0
  0
BLOCK
  8
0
  2
NULLPUNKT
 70
     0
 10
0.0
 20
0.0
 30
0.0
  3
NULLPUNKT
  1

  0
SOLID
  5
254
  8
5
 10
0.0
 20
0.0
 30
0.0
 11
2.0
 21
0.0
 31
0.0
 12
0.0
 22
-2.0
 32
0.0
 13
0.0
 23
-2.0
 33
0.0
  0
SOLID
  5
255
  8
5
 10
0.0
 20
0.0
 30
0.0
 11
-2.0
 21
0.0
 31
0.0
 12
0.0
 22
2.0
 32
0.0
 13
0.0
 23
2.0
 33
0.0
  0
POLYLINE
  5
256
  8
5
 66
     1
 10
0.0
 20
0.0
 30
0.0
  0
VERTEX
  5
3FB
  8
5
 10
0.0
 20
2.0
 30
0.0
  0
VERTEX
  5
3FC
  8
5
 10
0.0
 20
-2.0
 30
0.0
  0
SEQEND
  5
3FD
  8
5
  0
POLYLINE
  5
257
  8
5
 66
     1
 10
0.0
 20
0.0
 30
0.0
  0
VERTEX
  5
3FE
  8
5
 10
-2.0
 20
0.0
 30
0.0
  0
VERTEX
  5
3FF
  8
5
 10
2.0
 20
0.0
 30
0.0
  0
SEQEND
  5
400
  8
5
  0
CIRCLE
  5
258
  8
5
 10
0.0
 20
0.0
 30
0.0
 40
2.0
  0
ENDBLK
  5
25A
  8
0
  0
BLOCK
  8
0
  2
*X2
 70
     1
 10
0.0
 20
0.0
 30
0.0
  3
*X2
  1

  0
LINE
  5
290
  8
0
 62
     0
 10
1470.4068185918529
 20
-455.75205336030177
 30
0.0
 11
1470.7592821362109
 21
-455.39958981594401
 31
0.0
  0
LINE
  5
291
  8
0
 62
     0
 10
1490.5092821362109
 20
-435.6495898159439
 30
0.0
 11
1494.4068185918529
 21
-431.75205336030189
 31
0.0
  0
LINE
  5
292
  8
0
 62
     0
 10
1484.569403971871
 20
-441.5894679802841
 30
0.0
 11
1486.9068185918529
 21
-439.252053360302
 31
0.0
  0
LINE
  5
293
  8
0
 62
     0
 10
1484.4068185918529
 20
-440.05499708545392
 30
0.0
 11
1486.9068185918529
 21
-437.5549970854542
 31
0.0
  0
LINE
  5
294
  8
0
 62
     0
 10
1491.9068185918529
 20
-432.5549970854542
 30
0.0
 11
1494.4068185918529
 21
-430.05499708545409
 31
0.0
  0
LINE
  5
295
  8
0
 62
     0
 10
1488.812225861363
 20
-435.6495898159439
 30
0.0
 11
1491.312225861363
 21
-433.14958981594401
 31
0.0
  0
LINE
  5
296
  8
0
 62
     0
 10
1484.4068185918529
 20
-438.35794081060618
 30
0.0
 11
1489.6151695865151
 21
-433.14958981594401
 31
0.0
  0
LINE
  5
297
  8
0
 62
     0
 10
1491.9068185918529
 20
-430.85794081060641
 30
0.0
 11
1494.4068185918529
 21
-428.35794081060641
 31
0.0
  0
LINE
  5
298
  8
0
 62
     0
 10
1484.4068185918529
 20
-436.66088453575838
 30
0.0
 11
1487.9181133116681
 21
-433.14958981594401
 31
0.0
  0
LINE
  5
299
  8
0
 62
     0
 10
1496.168113311667
 20
-424.89958981594401
 30
0.0
 11
1498.1681133116681
 21
-422.89958981594401
 31
0.0
  0
LINE
  5
29A
  8
0
 62
     0
 10
1491.9068185918529
 20
-429.16088453575861
 30
0.0
 11
1494.185471799072
 21
-426.88223132853938
 31
0.0
  0
LINE
  5
29B
  8
0
 62
     0
 10
1484.416379122054
 20
-434.95426773071028
 30
0.0
 11
1486.2114965066189
 21
-433.1591503461446
 31
0.0
  0
LINE
  5
29C
  8
0
 62
     0
 10
1494.47105703682
 20
-424.89958981594401
 30
0.0
 11
1497.3450429263139
 21
-422.02560392645029
 31
0.0
  0
LINE
  5
29D
  8
0
 62
     0
 10
1491.9068185918529
 20
-427.46382826091082
 30
0.0
 11
1493.9068185918529
 21
-425.46382826091082
 31
0.0
  0
LINE
  5
29E
  8
0
 62
     0
 10
1491.9068185918529
 20
-425.7667719860633
 30
0.0
 11
1495.455928025636
 21
-422.21766255227988
 31
0.0
  0
LINE
  5
29F
  8
0
 62
     0
 10
1491.9068185918529
 20
-424.06971571121562
 30
0.0
 11
1493.566813124959
 21
-422.40972117810929
 31
0.0
  0
LINE
  5
2A0
  8
0
 62
     0
 10
1470.4068185918529
 20
-457.44910963514928
 30
0.0
 11
1472.4563384110579
 21
-455.39958981594401
 31
0.0
  0
LINE
  5
2A1
  8
0
 62
     0
 10
1492.2063384110579
 20
-435.6495898159439
 30
0.0
 11
1494.4068185918529
 21
-433.44910963514928
 31
0.0
  0
LINE
  5
2A2
  8
0
 62
     0
 10
1485.355158870228
 20
-442.50076935677401
 30
0.0
 11
1488.1063384110589
 21
-439.74958981594398
 31
0.0
  0
LINE
  5
2A3
  8
0
 62
     0
 10
1470.4068185918529
 20
-459.14616590999702
 30
0.0
 11
1474.1533946859061
 21
-455.39958981594401
 31
0.0
  0
LINE
  5
2A4
  8
0
 62
     0
 10
1486.753394685906
 20
-442.79958981594422
 30
0.0
 11
1489.8033946859071
 21
-439.74958981594398
 31
0.0
  0
LINE
  5
2A5
  8
0
 62
     0
 10
1470.4068185918529
 20
-460.84322218484482
 30
0.0
 11
1472.4068185918529
 21
-458.84322218484488
 31
0.0
  0
LINE
  5
2A6
  8
0
 62
     0
 10
1488.4504509607541
 20
-442.79958981594422
 30
0.0
 11
1491.5004509607541
 21
-439.74958981594398
 31
0.0
  0
LINE
  5
2A7
  8
0
 62
     0
 10
1473.350450960754
 20
-457.89958981594401
 30
0.0
 11
1475.850450960754
 21
-455.39958981594401
 31
0.0
  0
LINE
  5
2A8
  8
0
 62
     0
 10
1471.0475072356021
 20
-461.89958981594413
 30
0.0
 11
1472.5160086846511
 21
-460.43108836689498
 31
0.0
  0
LINE
  5
2A9
  8
0
 62
     0
 10
1493.4134232110821
 20
-439.5336738404639
 30
0.0
 11
1493.5909026163729
 21
-439.35619443517282
 31
0.0
  0
LINE
  5
2AA
  8
0
 62
     0
 10
1475.0475072356021
 20
-457.89958981594401
 30
0.0
 11
1477.5475072356021
 21
-455.39958981594401
 31
0.0
  0
LINE
  5
2AB
  8
0
 62
     0
 10
1490.147507235602
 20
-442.79958981594422
 30
0.0
 11
1493.197507235602
 21
-439.74958981594398
 31
0.0
  0
LINE
  5
2AC
  8
0
 62
     0
 10
1472.7445635104491
 20
-461.89958981594413
 30
0.0
 11
1474.144563510449
 21
-460.49958981594381
 31
0.0
  0
LINE
  5
2AD
  8
0
 62
     0
 10
1491.5915546035769
 20
-443.0525987228167
 30
0.0
 11
1494.2771330095979
 21
-440.3670203167959
 31
0.0
  0
LINE
  5
2AE
  8
0
 62
     0
 10
1476.7445635104491
 20
-457.89958981594401
 30
0.0
 11
1479.2445635104491
 21
-455.39958981594401
 31
0.0
  0
LINE
  5
2AF
  8
0
 62
     0
 10
1478.441619785297
 20
-457.89958981594401
 30
0.0
 11
1480.941619785297
 21
-455.39958981594401
 31
0.0
  0
LINE
  5
2B0
  8
0
 62
     0
 10
1491.6568185918529
 20
-444.68439100938781
 30
0.0
 11
1494.4068185918529
 21
-441.93439100938798
 31
0.0
  0
LINE
  5
2B1
  8
0
 62
     0
 10
1480.138676060144
 20
-457.89958981594401
 30
0.0
 11
1482.6386760601449
 21
-455.39958981594401
 31
0.0
  0
LINE
  5
2B2
  8
0
 62
     0
 10
1491.6568185918529
 20
-446.38144728423561
 30
0.0
 11
1494.4068185918529
 21
-443.63144728423572
 31
0.0
  0
LINE
  5
2B3
  8
0
 62
     0
 10
1481.8357323349919
 20
-457.89958981594401
 30
0.0
 11
1484.3357323349919
 21
-455.39958981594401
 31
0.0
  0
LINE
  5
2B4
  8
0
 62
     0
 10
1498.4904925054
 20
-441.24482964553641
 30
0.0
 11
1499.5357323349931
 21
-440.19958981594368
 31
0.0
  0
LINE
  5
2B5
  8
0
 62
     0
 10
1491.8962754634231
 20
-447.8390466875137
 30
0.0
 11
1494.4068185918529
 21
-445.32850355908357
 31
0.0
  0
LINE
  5
2B6
  8
0
 62
     0
 10
1483.5327886098401
 20
-457.89958981594401
 30
0.0
 11
1485.719803600846
 21
-455.71257482493769
 31
0.0
  0
LINE
  5
2B7
  8
0
 62
     0
 10
1498.5068185918531
 20
-442.925559833931
 30
0.0
 11
1500.4068185918529
 21
-441.02555983393131
 31
0.0
  0
LINE
  5
2B8
  8
0
 62
     0
 10
1492.744803600847
 20
-448.68757482493749
 30
0.0
 11
1494.4068185918529
 21
-447.02555983393131
 31
0.0
  0
LINE
  5
2B9
  8
0
 62
     0
 10
1482.4068185918529
 20
-460.72261610877899
 30
0.0
 11
1482.6298448846881
 21
-460.49958981594381
 31
0.0
  0
LINE
  5
2BA
  8
0
 62
     0
 10
1498.5068185918531
 20
-444.6226161087788
 30
0.0
 11
1500.4068185918529
 21
-442.72261610877911
 31
0.0
  0
LINE
  5
2BB
  8
0
 62
     0
 10
1484.4068185918529
 20
-458.72261610877899
 30
0.0
 11
1486.56833173827
 21
-456.56110296236147
 31
0.0
  0
LINE
  5
2BC
  8
0
 62
     0
 10
1493.593331738271
 20
-449.5361029623615
 30
0.0
 11
1495.429844884688
 21
-447.69958981594419
 31
0.0
  0
LINE
  5
2BD
  8
0
 62
     0
 10
1483.033798806865
 20
-461.79269216861462
 30
0.0
 11
1487.4168598756939
 21
-457.4096310997852
 31
0.0
  0
LINE
  5
2BE
  8
0
 62
     0
 10
1498.5068185918531
 20
-446.3196723836262
 30
0.0
 11
1500.4068185918529
 21
-444.41967238362662
 31
0.0
  0
LINE
  5
2BF
  8
0
 62
     0
 10
1494.441859875694
 20
-450.38463109978522
 30
0.0
 11
1497.126901159535
 21
-447.69958981594419
 31
0.0
  0
LINE
  5
2C0
  8
0
 62
     0
 10
1484.623957434384
 20
-461.89958981594413
 30
0.0
 11
1488.2653880131179
 21
-458.25815923720921
 31
0.0
  0
LINE
  5
2C1
  8
0
 62
     0
 10
1495.290388013118
 20
-451.23315923720912
 30
0.0
 11
1500.4068185918529
 21
-446.11672865847441
 31
0.0
  0
LINE
  5
2C2
  8
0
 62
     0
 10
1486.321013709231
 20
-461.89958981594413
 30
0.0
 11
1489.321013709231
 21
-458.89958981594413
 31
0.0
  0
LINE
  5
2C3
  8
0
 62
     0
 10
1496.1389161505419
 20
-452.08168737463302
 30
0.0
 11
1500.4068185918529
 21
-447.8137849333221
 31
0.0
  0
LINE
  5
2C4
  8
0
 62
     0
 10
1488.0180699840789
 20
-461.89958981594413
 30
0.0
 11
1491.0180699840789
 21
-458.89958981594413
 31
0.0
  0
LINE
  5
2C5
  8
0
 62
     0
 10
1496.9874442879659
 20
-452.93021551205692
 30
0.0
 11
1500.4068185918529
 21
-449.51084120816989
 31
0.0
  0
LINE
  5
2C6
  8
0
 62
     0
 10
1489.7151262589271
 20
-461.89958981594413
 30
0.0
 11
1492.7151262589271
 21
-458.89958981594413
 31
0.0
  0
LINE
  5
2C7
  8
0
 62
     0
 10
1497.4068185918529
 20
-454.20789748301758
 30
0.0
 11
1500.4068185918529
 21
-451.20789748301769
 31
0.0
  0
LINE
  5
2C8
  8
0
 62
     0
 10
1491.4121825337741
 20
-461.89958981594413
 30
0.0
 11
1494.4121825337741
 21
-458.89958981594413
 31
0.0
  0
LINE
  5
2C9
  8
0
 62
     0
 10
1497.4068185918529
 20
-455.90495375786509
 30
0.0
 11
1500.4068185918529
 21
-452.90495375786509
 31
0.0
  0
LINE
  5
2CA
  8
0
 62
     0
 10
1493.109238808622
 20
-461.89958981594413
 30
0.0
 11
1496.109238808622
 21
-458.89958981594413
 31
0.0
  0
LINE
  5
2CB
  8
0
 62
     0
 10
1497.4068185918529
 20
-457.60201003271288
 30
0.0
 11
1500.4068185918529
 21
-454.60201003271288
 31
0.0
  0
LINE
  5
2CC
  8
0
 62
     0
 10
1494.8062950834701
 20
-461.89958981594413
 30
0.0
 11
1500.4068185918529
 21
-456.29906630756068
 31
0.0
  0
LINE
  5
2CD
  8
0
 62
     0
 10
1496.5033513583171
 20
-461.89958981594413
 30
0.0
 11
1500.4068185918529
 21
-457.99612258240842
 31
0.0
  0
LINE
  5
2CE
  8
0
 62
     0
 10
1498.200407633165
 20
-461.89958981594413
 30
0.0
 11
1500.4068185918529
 21
-459.69317885725621
 31
0.0
  0
LINE
  5
2CF
  8
0
 62
     0
 10
1499.8974639080129
 20
-461.89958981594413
 30
0.0
 11
1500.4068185918529
 21
-461.39023513210373
 31
0.0
  0
ENDBLK
  5
2D1
  8
0
  0
BLOCK
  8
0
  2
*D3
 70
     1
 10
0.0
 20
0.0
 30
0.0
  3
*D3
  1

  0
LINE
  5
323
  8
1
 10
-30.0
 20
-2.0
 30
0.0
 11
-30.0
 21
-13.465011161312299
 31
0.0
  0
LINE
  5
324
  8
1
 10
-0.0000000000000001
 20
-2.0
 30
0.0
 11
-0.0000000000000008
 21
-13.465011161312299
 31
0.0
  0
LINE
  5
325
  8
1
 10
-31.0
 20
-12.465011161312299
 30
0.0
 11
0.9999999999999992
 21
-12.465011161312299
 31
0.0
  0
INSERT
  5
326
  8
1
  2
_OBLIQUE
 10
-30.0
 20
-12.465011161312299
 30
0.0
 41
2.0
 42
2.0
 43
2.0
 50
180.0
  0
INSERT
  5
327
  8
1
  2
_OBLIQUE
 10
-0.0000000000000008
 20
-12.465011161312299
 30
0.0
 41
2.0
 42
2.0
 43
2.0
  0
TEXT
  5
328
  8
0
 10
-17.704979536152791
 20
-11.39577514494122
 30
0.0
 40
3.5
  1
30
  7
BESCHLAG
  0
POINT
  5
329
  8
DEFPOINTS
 62
     0
 10
-30.0
 20
0.0
 30
0.0
  0
POINT
  5
32A
  8
DEFPOINTS
 62
     0
 10
0.0
 20
0.0
 30
0.0
  0
POINT
  5
32B
  8
DEFPOINTS
 62
     0
 10
-0.0000000000000008
 20
-12.465011161312299
 30
0.0
  0
ENDBLK
  5
30A
  8
0
  0
BLOCK
  8
0
  2
*D4
 70
     1
 10
0.0
 20
0.0
 30
0.0
  3
*D4
  1

  0
LINE
  5
32C
  8
1
 10
-2.0
 20
0.0000000000000006
 30
0.0
 11
-18.721789270574622
 21
0.0000000000000053
 31
0.0
  0
LINE
  5
32D
  8
1
 10
-10.5
 20
40.0
 30
0.0
 11
-18.721789270574611
 21
40.0
 31
0.0
  0
LINE
  5
32E
  8
1
 10
-17.721789270574629
 20
-0.999999999999995
 30
0.0
 11
-17.721789270574611
 21
41.0
 31
0.0
  0
INSERT
  5
32F
  8
1
  2
_OBLIQUE
 10
-17.721789270574629
 20
0.000000000000005
 30
0.0
 41
2.0
 42
2.0
 43
2.0
 50
270.0
  0
INSERT
  5
330
  8
1
  2
_OBLIQUE
 10
-17.721789270574611
 20
40.0
 30
0.0
 41
2.0
 42
2.0
 43
2.0
 50
90.0
  0
TEXT
  5
331
  8
0
 10
-18.78863783810532
 20
17.366643929058661
 30
0.0
 40
3.5
  1
40
 50
90.0
  7
BESCHLAG
  0
POINT
  5
332
  8
DEFPOINTS
 62
     0
 10
0.0
 20
0.0
 30
0.0
  0
POINT
  5
333
  8
DEFPOINTS
 62
     0
 10
-8.5
 20
40.0
 30
0.0
  0
POINT
  5
334
  8
DEFPOINTS
 62
     0
 10
-17.721789270574611
 20
40.0
 30
0.0
  0
ENDBLK
  5
316
  8
0
  0
BLOCK
  8
0
  2
*D5
 70
     1
 10
0.0
 20
0.0
 30
0.0
  3
*D5
  1

  0
LINE
  5
335
  8
1
 10
-6.0
 20
39.0
 30
0.0
 11
-5.9999999999999991
 21
53.04099531929819
 31
0.0
  0
LINE
  5
336
  8
1
 10
0.0000000000000001
 20
39.0
 30
0.0
 11
0.000000000000001
 21
53.04099531929819
 31
0.0
  0
LINE
  5
337
  8
1
 10
-6.9999999999999991
 20
52.04099531929819
 30
0.0
 11
1.0
 21
52.04099531929819
 31
0.0
  0
INSERT
  5
338
  8
1
  2
_OBLIQUE
 10
-5.9999999999999991
 20
52.04099531929819
 30
0.0
 41
2.0
 42
2.0
 43
2.0
 50
180.0
  0
INSERT
  5
339
  8
1
  2
_OBLIQUE
 10
0.0000000000000009
 20
52.04099531929819
 30
0.0
 41
2.0
 42
2.0
 43
2.0
  0
TEXT
  5
33A
  8
0
 10
-4.3393587994542964
 20
53.107843886828888
 30
0.0
 40
3.5
  1
6
  7
BESCHLAG
  0
POINT
  5
33B
  8
DEFPOINTS
 62
     0
 10
-6.0
 20
37.0
 30
0.0
  0
POINT
  5
33C
  8
DEFPOINTS
 62
     0
 10
0.0
 20
37.0
 30
0.0
  0
POINT
  5
33D
  8
DEFPOINTS
 62
     0
 10
0.0000000000000009
 20
52.04099531929819
 30
0.0
  0
ENDBLK
  5
322
  8
0
  0
ENDSEC
  0
SECTION
  2
ENTITIES
  0
INSERT
  5
25B
  8
5
  2
NULLPUNKT
 10
0.0
 20
0.0
 30
0.0
  0
TEXT
  5
2EB
  8
1
 10
-71.114057609128849
 20
-6.975377571595458
 30
0.0
 40
2.4999999499999999
  1
Hebgo 906
  0
INSERT
  5
2EC
  8
2
  2
*X2
 10
-1500.4068185918529
 20
461.89958981594413
 30
0.0
1001
ACAD
1000
HATCH
1002
{
1070
    16
1000
_U,I
1040
1.1999999999999991
1040
0.7853981633974483
1070
     0
1002
}
  0
TEXT
  5
2ED
  8
1
 10
-44.401654545737749
 20
13.026297744932769
 30
0.0
 40
2.4999999499999999
  1
Hebgo 183/843
  0
DIMENSION
  5
2EE
  8
1
  2
*D3
 10
-0.0000000000000008
 20
-12.465011161312299
 30
0.0
 11
-15.0
 21
-9.6768119798661925
 31
0.0
 70
     0
 13
-30.0
 23
0.0
 33
0.0
 14
0.0
 24
0.0
 34
0.0
  0
POINT
  5
2EF
  8
5
 10
-6.0
 20
21.699999999999811
 30
0.0
  0
POLYLINE
  5
2F0
  8
5
 66
     1
 10
0.0
 20
0.0
 30
0.0
  0
VERTEX
  5
401
  8
5
 10
0.0
 20
45.211362810109222
 30
0.0
  0
VERTEX
  5
402
  8
5
 10
0.0
 20
28.0
 30
0.0
  0
VERTEX
  5
403
  8
5
 10
16.988439487426369
 20
28.0
 30
0.0
  0
SEQEND
  5
404
  8
5
  0
DIMENSION
  5
2F1
  8
1
  2
*D4
 10
-17.721789270574611
 20
40.0
 30
0.0
 11
-20.508794727600542
 21
20.0
 31
0.0
 70
     0
 13
0.0
 23
0.0
 33
0.0
 14
-8.5
 24
40.0
 34
0.0
 50
90.0
  0
POLYLINE
  5
2F2
  8
6
 66
     1
 10
0.0
 20
0.0
 30
0.0
 70
     1
  0
VERTEX
  5
405
  8
6
 10
-8.5
 20
38.131795577144658
 30
0.0
  0
VERTEX
  5
406
  8
6
 10
-8.5
 20
29.25
 30
0.0
 42
-0.4142135623730951
  0
VERTEX
  5
407
  8
6
 10
-9.0
 20
28.75
 30
0.0
  0
VERTEX
  5
408
  8
6
 10
-14.0
 20
28.75
 30
0.0
 42
0.4142135623730951
  0
VERTEX
  5
409
  8
6
 10
-16.0
 20
26.75
 30
0.0
  0
VERTEX
  5
40A
  8
6
 10
-16.0
 20
21.099999999999898
 30
0.0
 42
0.4142135623730945
  0
VERTEX
  5
40B
  8
6
 10
-14.0
 20
19.099999999999909
 30
0.0
  0
VERTEX
  5
40C
  8
6
 10
-9.25
 20
19.099999999999909
 30
0.0
 42
-0.4142135623730941
  0
VERTEX
  5
40D
  8
6
 10
-8.75
 20
18.599999999999898
 30
0.0
  0
VERTEX
  5
40E
  8
6
 10
-8.75
 20
14.507106781186391
 30
0.0
 42
0.198912367379658
  0
VERTEX
  5
40F
  8
6
 10
-8.6035533905933335
 20
14.15355339059351
 30
0.0
  0
VERTEX
  5
410
  8
6
 10
-3.1464466094066661
 20
8.6964466094068484
 30
0.0
 42
-0.198912367379658
  0
VERTEX
  5
411
  8
6
 10
-3.0
 20
8.3428932188135132
 30
0.0
  0
VERTEX
  5
412
  8
6
 10
-3.0
 20
3.300000000000181
 30
0.0
 42
-0.4142135623730951
  0
VERTEX
  5
413
  8
6
 10
-3.2999999999999541
 20
3.0
 30
0.0
  0
VERTEX
  5
414
  8
6
 10
-11.29289321881333
 20
3.0
 30
0.0
 42
-0.1989123673796592
  0
VERTEX
  5
415
  8
6
 10
-11.646446609406659
 20
3.1464466094066661
 30
0.0
  0
VERTEX
  5
416
  8
6
 10
-14.85355339059333
 20
6.3535533905933326
 30
0.0
 42
0.1989123673796596
  0
VERTEX
  5
417
  8
6
 10
-15.20710678118644
 20
6.5
 30
0.0
  0
VERTEX
  5
418
  8
6
 10
-21.499999999999989
 20
6.5
 30
0.0
  0
VERTEX
  5
419
  8
6
 10
-22.5
 20
6.5
 30
0.0
  0
VERTEX
  5
41A
  8
6
 10
-29.700000000000038
 20
6.5
 30
0.0
 42
0.4142135623730951
  0
VERTEX
  5
41B
  8
6
 10
-30.0
 20
6.1999999999998181
 30
0.0
  0
VERTEX
  5
41C
  8
6
 10
-30.0
 20
0.3000000000001819
 30
0.0
 42
0.4142135623730951
  0
VERTEX
  5
41D
  8
6
 10
-29.700000000000038
 20
0.0
 30
0.0
  0
VERTEX
  5
41E
  8
6
 10
-27.099999999999909
 20
0.0
 30
0.0
 42
0.4142135623730951
  0
VERTEX
  5
41F
  8
6
 10
-26.0
 20
1.0999999999999091
 30
0.0
  0
VERTEX
  5
420
  8
6
 10
-26.0
 20
1.1999999999998181
 30
0.0
 42
0.4142135623730951
  0
VERTEX
  5
421
  8
6
 10
-26.200000000000038
 20
1.4000000000000901
 30
0.0
  0
VERTEX
  5
422
  8
6
 10
-27.700000000000038
 20
1.4000000000000901
 30
0.0
 42
-0.4142135623730914
  0
VERTEX
  5
423
  8
6
 10
-28.0
 20
1.6999999999998181
 30
0.0
  0
VERTEX
  5
424
  8
6
 10
-28.0
 20
3.6999999999998181
 30
0.0
 42
-0.4142135623730951
  0
VERTEX
  5
425
  8
6
 10
-27.700000000000038
 20
4.0
 30
0.0
  0
VERTEX
  5
426
  8
6
 10
-16.299999999999951
 20
4.0
 30
0.0
 42
-0.4142135623730988
  0
VERTEX
  5
427
  8
6
 10
-16.0
 20
3.6999999999998181
 30
0.0
  0
VERTEX
  5
428
  8
6
 10
-16.0
 20
1.6999999999998181
 30
0.0
 42
-0.4142135623730951
  0
VERTEX
  5
429
  8
6
 10
-16.299999999999951
 20
1.4000000000000901
 30
0.0
  0
VERTEX
  5
42A
  8
6
 10
-17.799999999999951
 20
1.4000000000000901
 30
0.0
 42
0.4142135623730951
  0
VERTEX
  5
42B
  8
6
 10
-18.0
 20
1.1999999999998181
 30
0.0
  0
VERTEX
  5
42C
  8
6
 10
-18.0
 20
1.0999999999999091
 30
0.0
 42
0.4142135623730942
  0
VERTEX
  5
42D
  8
6
 10
-16.89999999999986
 20
0.0
 30
0.0
  0
VERTEX
  5
42E
  8
6
 10
-0.2999999999999545
 20
0.0
 30
0.0
 42
0.414213562373096
  0
VERTEX
  5
42F
  8
6
 10
0.0
 20
0.2999999999997271
 30
0.0
  0
VERTEX
  5
430
  8
6
 10
0.0
 20
21.200000000000269
 30
0.0
 42
0.4142135623730951
  0
VERTEX
  5
431
  8
6
 10
-0.5
 20
21.700000000000269
 30
0.0
  0
VERTEX
  5
432
  8
6
 10
-1.5
 20
21.700000000000269
 30
0.0
 42
0.4142135623730951
  0
VERTEX
  5
433
  8
6
 10
-2.2999999999999541
 20
20.900000000000091
 30
0.0
  0
VERTEX
  5
434
  8
6
 10
-2.2999999999999541
 20
20.849999999999909
 30
0.0
 42
0.4142135623730951
  0
VERTEX
  5
435
  8
6
 10
-2.1499999999998631
 20
20.700000000000269
 30
0.0
  0
VERTEX
  5
436
  8
6
 10
-2.0
 20
20.700000000000269
 30
0.0
 42
-0.4142135623730951
  0
VERTEX
  5
437
  8
6
 10
-1.8999999999998629
 20
20.599999999999909
 30
0.0
  0
VERTEX
  5
438
  8
6
 10
-1.8999999999998629
 20
14.699999999999809
 30
0.0
 42
-0.4142135623730939
  0
VERTEX
  5
439
  8
6
 10
-2.3999999999998631
 20
14.199999999999809
 30
0.0
  0
VERTEX
  5
43A
  8
6
 10
-5.5
 20
14.199999999999809
 30
0.0
 42
-0.4142135623730951
  0
VERTEX
  5
43B
  8
6
 10
-6.0
 20
14.699999999999809
 30
0.0
  0
VERTEX
  5
43C
  8
6
 10
-6.0
 20
21.176261290272571
 30
0.0
  0
VERTEX
  5
43D
  8
6
 10
-6.4425235801816143
 20
22.39208483439824
 30
0.0
 42
0.3152987888789824
  0
VERTEX
  5
43E
  8
6
 10
-6.6680498091702702
 20
22.550000000000178
 30
0.0
  0
VERTEX
  5
43F
  8
6
 10
-6.75999999999999
 20
22.550000000000178
 30
0.0
 42
0.4142135623730951
  0
VERTEX
  5
440
  8
6
 10
-7.0
 20
22.309999999999938
 30
0.0
  0
VERTEX
  5
441
  8
6
 10
-7.0
 20
22.300000000000178
 30
0.0
 42
-0.4142135623730951
  0
VERTEX
  5
442
  8
6
 10
-7.1499999999998627
 20
22.150000000000091
 30
0.0
  0
VERTEX
  5
443
  8
6
 10
-13.0
 20
22.150000000000091
 30
0.0
 42
-0.4142135623730951
  0
VERTEX
  5
444
  8
6
 10
-13.5
 20
22.650000000000091
 30
0.0
  0
VERTEX
  5
445
  8
6
 10
-13.5
 20
25.75
 30
0.0
 42
-0.4142135623730951
  0
VERTEX
  5
446
  8
6
 10
-13.0
 20
26.25
 30
0.0
  0
VERTEX
  5
447
  8
6
 10
-7.0
 20
26.25
 30
0.0
 42
0.4142135623730951
  0
VERTEX
  5
448
  8
6
 10
-6.0
 20
27.25
 30
0.0
  0
VERTEX
  5
449
  8
6
 10
-6.0
 20
34.633974596215459
 30
0.0
  0
VERTEX
  5
44A
  8
6
 10
-6.5
 20
35.5
 30
0.0
  0
VERTEX
  5
44B
  8
6
 10
-6.5
 20
36.5
 30
0.0
 42
-0.4142135623730951
  0
VERTEX
  5
44C
  8
6
 10
-6.0
 20
37.0
 30
0.0
  0
VERTEX
  5
44D
  8
6
 10
-3.5
 20
37.0
 30
0.0
 42
0.4142135623730951
  0
VERTEX
  5
44E
  8
6
 10
-2.0
 20
38.5
 30
0.0
  0
VERTEX
  5
44F
  8
6
 10
-2.0
 20
38.800000000000182
 30
0.0
 42
0.4142135623730951
  0
VERTEX
  5
450
  8
6
 10
-2.200000000000045
 20
39.0
 30
0.0
  0
VERTEX
  5
451
  8
6
 10
-2.4994446500534191
 20
39.0
 30
0.0
 42
-0.2679491924311209
  0
VERTEX
  5
452
  8
6
 10
-2.586047190431827
 20
39.050000000000182
 30
0.0
  0
VERTEX
  5
453
  8
6
 10
-3.0767949192431838
 20
39.900000000000091
 30
0.0
 42
0.5773502691896273
  0
VERTEX
  5
454
  8
6
 10
-3.4232050807568148
 20
39.900000000000091
 30
0.0
  0
VERTEX
  5
455
  8
6
 10
-3.9139528095679448
 20
39.050000000000182
 30
0.0
 42
-0.2679491924311209
  0
VERTEX
  5
456
  8
6
 10
-4.0005553499465796
 20
39.0
 30
0.0
  0
VERTEX
  5
457
  8
6
 10
-4.4994446500534186
 20
39.0
 30
0.0
 42
-0.2679491924311209
  0
VERTEX
  5
458
  8
6
 10
-4.5860471904318274
 20
39.050000000000182
 30
0.0
  0
VERTEX
  5
459
  8
6
 10
-5.0767949192431843
 20
39.900000000000091
 30
0.0
 42
0.5773502691896273
  0
VERTEX
  5
45A
  8
6
 10
-5.4232050807568148
 20
39.900000000000091
 30
0.0
  0
VERTEX
  5
45B
  8
6
 10
-5.9139528095679452
 20
39.050000000000182
 30
0.0
 42
-0.2679491924311209
  0
VERTEX
  5
45C
  8
6
 10
-6.0005553499465796
 20
39.0
 30
0.0
  0
VERTEX
  5
45D
  8
6
 10
-6.4994446500534186
 20
39.0
 30
0.0
 42
-0.2679491924311209
  0
VERTEX
  5
45E
  8
6
 10
-6.5860471904318274
 20
39.050000000000182
 30
0.0
  0
VERTEX
  5
45F
  8
6
 10
-7.0767949192431843
 20
39.900000000000091
 30
0.0
 42
0.5773502691896273
  0
VERTEX
  5
460
  8
6
 10
-7.4232050807568148
 20
39.900000000000091
 30
0.0
  0
VERTEX
  5
461
  8
6
 10
-7.9139528095683991
 20
39.04999999999972
 30
0.0
 42
-0.2679491924311166
  0
VERTEX
  5
462
  8
6
 10
-8.0005553499468078
 20
38.999999999999538
 30
0.0
  0
VERTEX
  5
463
  8
6
 10
-8.2999999999999545
 20
38.999999999999538
 30
0.0
 42
0.4142135623730951
  0
VERTEX
  5
464
  8
6
 10
-8.5
 20
38.79999999999972
 30
0.0
  0
SEQEND
  5
465
  8
6
  0
POLYLINE
  5
2F3
  8
4
 66
     1
 10
0.0
 20
0.0
 30
0.0
  0
VERTEX
  5
466
  8
4
 10
-6.0
 20
27.25
 30
0.0
  0
VERTEX
  5
467
  8
4
 10
-6.0
 20
37.0
 30
0.0
  0
VERTEX
  5
468
  8
4
 10
-2.0
 20
37.0
 30
0.0
  0
VERTEX
  5
469
  8
4
 10
-2.0
 20
40.0
 30
0.0
  0
VERTEX
  5
46A
  8
4
 10
-8.5
 20
40.0
 30
0.0
  0
VERTEX
  5
46B
  8
4
 10
-8.5
 20
28.75
 30
0.0
  0
VERTEX
  5
46C
  8
4
 10
-16.0
 20
28.75
 30
0.0
  0
VERTEX
  5
46D
  8
4
 10
-16.0
 20
19.099999999999909
 30
0.0
  0
VERTEX
  5
46E
  8
4
 10
-8.75
 20
19.099999999999451
 30
0.0
  0
VERTEX
  5
46F
  8
4
 10
-8.75
 20
14.29999999999972
 30
0.0
  0
VERTEX
  5
470
  8
4
 10
-3.0
 20
8.5499999999997272
 30
0.0
  0
VERTEX
  5
471
  8
4
 10
-3.0
 20
3.0
 30
0.0
  0
VERTEX
  5
472
  8
4
 10
-11.5
 20
3.0
 30
0.0
  0
VERTEX
  5
473
  8
4
 10
-15.0
 20
6.5
 30
0.0
  0
VERTEX
  5
474
  8
4
 10
-30.0
 20
6.5
 30
0.0
  0
VERTEX
  5
475
  8
4
 10
-30.0
 20
0.0
 30
0.0
  0
VERTEX
  5
476
  8
4
 10
0.0
 20
0.0
 30
0.0
  0
VERTEX
  5
477
  8
4
 10
0.0
 20
21.699999999999811
 30
0.0
  0
VERTEX
  5
478
  8
4
 10
-1.9000000000000901
 20
21.699999999999811
 30
0.0
  0
SEQEND
  5
479
  8
4
  0
DIMENSION
  5
2F4
  8
1
  2
*D5
 10
0.0000000000000009
 20
52.04099531929819
 30
0.0
 11
-2.9999999999999991
 21
54.82800077632411
 31
0.0
 70
     0
 13
-6.0
 23
37.0
 33
0.0
 14
0.0
 24
37.0
 34
0.0
  0
POINT
  5
2F5
  8
5
 10
-6.0
 20
21.699999999999811
 30
0.0
  0
POLYLINE
  5
2F6
  8
6
 66
     1
 10
0.0
 20
0.0
 30
0.0
  0
VERTEX
  5
47A
  8
6
 10
-6.0
 20
26.075018549836841
 30
0.0
  0
VERTEX
  5
47B
  8
6
 10
-11.317777593600111
 20
26.075018549836841
 30
0.0
 42
0.2057883710538204
  0
VERTEX
  5
47C
  8
6
 10
-12.850174213871011
 20
25.488237556383861
 30
0.0
 42
0.3549142717655278
  0
VERTEX
  5
47D
  8
6
 10
-12.914907545490671
 20
24.239464245912579
 30
0.0
 42
0.1297593261325319
  0
VERTEX
  5
47E
  8
6
 10
-10.80645027662421
 20
22.176675735656989
 30
0.0
 42
0.9351078027123772
  0
VERTEX
  5
47F
  8
6
 10
-10.30707880532599
 20
22.768686784141892
 30
0.0
 42
-0.0191884285460261
  0
VERTEX
  5
480
  8
6
 10
-11.44453600199131
 20
23.702954219017549
 30
0.0
 42
-0.5601684513071198
  0
VERTEX
  5
481
  8
6
 10
-11.32431697853462
 20
24.063710924291168
 30
0.0
 42
-0.0746422886383072
  0
VERTEX
  5
482
  8
6
 10
-9.8262025646404254
 20
23.961959008082879
 30
0.0
 42
-0.1471616994481645
  0
VERTEX
  5
483
  8
6
 10
-9.3453263729074934
 20
23.23119540562379
 30
0.0
 42
0.1875175819089431
  0
VERTEX
  5
484
  8
6
 10
-7.9026976998029559
 20
22.18592586262821
 30
0.0
 42
0.9920182636924723
  0
VERTEX
  5
485
  8
6
 10
-7.4588119692948558
 20
22.759436592230031
 30
0.0
 42
-0.1131030402240264
  0
VERTEX
  5
486
  8
6
 10
-8.4483072721086501
 20
23.702954219017549
 30
0.0
 42
-0.5007469553256806
  0
VERTEX
  5
487
  8
6
 10
-8.3188405599162252
 20
24.063710924291168
 30
0.0
 42
-0.1021657030667729
  0
VERTEX
  5
488
  8
6
 10
-0.5680720627337906
 20
21.89670063231187
 30
0.0
 42
0.8965962527673989
  0
VERTEX
  5
489
  8
6
 10
0.2021565150134847
 20
22.608685021691819
 30
0.0
 42
-0.0085191296085994
  0
VERTEX
  5
48A
  8
6
 10
-2.7949595540376322
 20
24.180231352682078
 30
0.0
 42
-0.1064519250600937
  0
VERTEX
  5
48B
  8
6
 10
-3.4619438232948592
 20
25.364455349713349
 30
0.0
 42
0.0058592952504923
  0
VERTEX
  5
48C
  8
6
 10
-3.228499343740622
 20
30.38489779696647
 30
0.0
 42
0.016562962246573
  0
VERTEX
  5
48D
  8
6
 10
-3.1951501253824972
 20
34.371229235112871
 30
0.0
 42
-0.2871734719844753
  0
VERTEX
  5
48E
  8
6
 10
-2.1279752358273072
 20
35.30526502717111
 30
0.0
 42
-0.511245233838921
  0
VERTEX
  5
48F
  8
6
 10
-1.4276416992588561
 20
34.604738183127211
 30
0.0
 42
-0.2109741856144979
  0
VERTEX
  5
490
  8
6
 10
-1.644411643063449
 20
33.754098416099851
 30
0.0
 42
-0.0327986461560527
  0
VERTEX
  5
491
  8
6
 10
-1.327594093137122
 20
26.031623744780291
 30
0.0
 42
0.7034783614102022
  0
VERTEX
  5
492
  8
6
 10
0.0230491279858143
 20
26.081661385775071
 30
0.0
  0
VERTEX
  5
493
  8
6
 10
0.0230491279858143
 20
34.571379734150689
 30
0.0
 42
0.2980669407217146
  0
VERTEX
  5
494
  8
6
 10
-2.161324454185432
 20
36.874351492830321
 30
0.0
  0
VERTEX
  5
495
  8
6
 10
-4.4457456424784141
 20
36.874351492830321
 30
0.0
 42
-0.0826786650355534
  0
VERTEX
  5
496
  8
6
 10
-5.3795236586011006
 20
37.02322375324411
 30
0.0
 42
0.4797327513156193
  0
VERTEX
  5
497
  8
6
 10
-6.0
 20
36.756356356252809
 30
0.0
  0
VERTEX
  5
498
  8
6
 10
-6.0
 20
35.813889337118781
 30
0.0
 42
-0.0794902430460504
  0
VERTEX
  5
499
  8
6
 10
-6.0
 20
26.075018549836841
 30
0.0
  0
SEQEND
  5
49A
  8
6
  0
POLYLINE
  5
2F7
  8
6
 66
     1
 10
0.0
 20
0.0
 30
0.0
 70
     1
  0
VERTEX
  5
49B
  8
6
 10
-16.39999999999986
 20
3.700000000000045
 30
0.0
  0
VERTEX
  5
49C
  8
6
 10
-23.07818298123766
 20
3.6999999999999309
 30
0.0
 42
0.2979024853978631
  0
VERTEX
  5
49D
  8
6
 10
-24.910288806168179
 20
2.5021148585182109
 30
0.0
  0
VERTEX
  5
49E
  8
6
 10
-26.150849823681369
 20
0.0023065905892281
 30
0.0
 42
-0.2979024853978892
  0
VERTEX
  5
49F
  8
6
 10
-26.60887627991405
 20
-0.2971646947812587
 30
0.0
  0
VERTEX
  5
4A0
  8
6
 10
-29.65020276315931
 20
-0.2971646947812587
 30
0.0
 42
-0.4142135623730951
  0
VERTEX
  5
4A1
  8
6
 10
-30.15020276315931
 20
0.2028353052187413
 30
0.0
  0
VERTEX
  5
4A2
  8
6
 10
-30.15020276315931
 20
6.0249982568549276
 30
0.0
 42
-0.1564024178525488
  0
VERTEX
  5
4A3
  8
6
 10
-30.056972813598119
 20
6.315752665361515
 30
0.0
  0
VERTEX
  5
4A4
  8
6
 10
-28.087616562855821
 20
8.0721435225143523
 30
0.0
  0
VERTEX
  5
4A5
  8
6
 10
-29.41882007820254
 20
9.5647577394936434
 30
0.0
  0
VERTEX
  5
4A6
  8
6
 10
-31.490604399056789
 20
7.7170153425712442
 30
0.0
 42
0.1880239795834631
  0
VERTEX
  5
4A7
  8
6
 10
-32.150202763159307
 20
6.0249982568016094
 30
0.0
  0
VERTEX
  5
4A8
  8
6
 10
-32.150202763159307
 20
0.2028353052187413
 30
0.0
 42
0.4142135623730951
  0
VERTEX
  5
4A9
  8
6
 10
-29.65020276315931
 20
-2.2971646947812578
 30
0.0
  0
VERTEX
  5
4AA
  8
6
 10
-26.60887627993327
 20
-2.2971646947812578
 30
0.0
 42
0.2906967135076304
  0
VERTEX
  5
4AB
  8
6
 10
-24.346142200321079
 20
-0.860195496329652
 30
0.0
  0
VERTEX
  5
4AC
  8
6
 10
-23.075613267880609
 20
1.7000000000001589
 30
0.0
  0
VERTEX
  5
4AD
  8
6
 10
-16.39999999999986
 20
1.700000000000045
 30
0.0
  0
SEQEND
  5
4AE
  8
6
  0
POLYLINE
  5
2F8
  8
6
 66
     1
 10
0.0
 20
0.0
 30
0.0
  0
VERTEX
  5
4AF
  8
6
 10
-16.39999999999986
 20
3.200000000000045
 30
0.0
  0
VERTEX
  5
4B0
  8
6
 10
-23.07818298123766
 20
3.1999999999999309
 30
0.0
 42
0.2999244947259431
  0
VERTEX
  5
4B1
  8
6
 10
-24.45669100147563
 20
2.2913675998344161
 30
0.0
  0
VERTEX
  5
4B2
  8
6
 10
-25.698550645519159
 20
-0.2110574820134161
 30
0.0
 42
-0.294080808329901
  0
VERTEX
  5
4B3
  8
6
 10
-26.60887627991405
 20
-0.7971646947812588
 30
0.0
  0
VERTEX
  5
4B4
  8
6
 10
-29.65020276315931
 20
-0.7971646947812588
 30
0.0
 42
-0.4142135623730951
  0
VERTEX
  5
4B5
  8
6
 10
-30.65020276315931
 20
0.2028353052187413
 30
0.0
  0
VERTEX
  5
4B6
  8
6
 10
-30.65020276315931
 20
6.0249982568549276
 30
0.0
 42
-0.1731346391236261
  0
VERTEX
  5
4B7
  8
6
 10
-30.424153006677209
 20
6.6582446705912162
 30
0.0
  0
VERTEX
  5
4B8
  8
6
 10
-28.4204174416925
 20
8.4452970767591751
 30
0.0
  0
SEQEND
  5
4B9
  8
6
  0
POLYLINE
  5
2F9
  8
6
 66
     1
 10
0.0
 20
0.0
 30
0.0
  0
VERTEX
  5
4BA
  8
6
 10
-16.39999999999986
 20
2.700000000000045
 30
0.0
  0
VERTEX
  5
4BB
  8
6
 10
-23.07818298123561
 20
2.700000000000045
 30
0.0
 42
0.3033220033015464
  0
VERTEX
  5
4BC
  8
6
 10
-24.002027914210771
 20
2.0827669523565642
 30
0.0
  0
VERTEX
  5
4BD
  8
6
 10
-25.247279707970389
 20
-0.4264935239518764
 30
0.0
 42
-0.2923904282578467
  0
VERTEX
  5
4BE
  8
6
 10
-26.60887627993645
 20
-1.2971646947812581
 30
0.0
  0
VERTEX
  5
4BF
  8
6
 10
-29.65020276315931
 20
-1.2971646947812581
 30
0.0
 42
-0.4142135623730951
  0
VERTEX
  5
4C0
  8
6
 10
-31.15020276315931
 20
0.2028353052187413
 30
0.0
  0
VERTEX
  5
4C1
  8
6
 10
-31.15020276315931
 20
6.0249982568165024
 30
0.0
 42
-0.1805621658660177
  0
VERTEX
  5
4C2
  8
6
 10
-30.7832854132389
 20
7.0079141779382317
 30
0.0
  0
VERTEX
  5
4C3
  8
6
 10
-28.753218320529179
 20
8.8184506310039978
 30
0.0
  0
SEQEND
  5
4C4
  8
6
  0
POLYLINE
  5
2FA
  8
6
 66
     1
 10
0.0
 20
0.0
 30
0.0
  0
VERTEX
  5
4C5
  8
6
 10
-16.39999999999986
 20
2.200000000000045
 30
0.0
  0
VERTEX
  5
4C6
  8
6
 10
-23.07818298123572
 20
2.200000000000045
 30
0.0
 42
0.3110176465481184
  0
VERTEX
  5
4C7
  8
6
 10
-23.545305334850919
 20
1.8783163106375009
 30
0.0
  0
VERTEX
  5
4C8
  8
6
 10
-24.796540928796269
 20
-0.6430018983962782
 30
0.0
 42
-0.2913835292343037
  0
VERTEX
  5
4C9
  8
6
 10
-26.608876279930989
 20
-1.7971646947812581
 30
0.0
  0
VERTEX
  5
4CA
  8
6
 10
-29.65020276315931
 20
-1.7971646947812581
 30
0.0
 42
-0.4142135623730951
  0
VERTEX
  5
4CB
  8
6
 10
-31.65020276315931
 20
0.2028353052187413
 30
0.0
  0
VERTEX
  5
4CC
  8
6
 10
-31.65020276315931
 20
6.0249982567686402
 30
0.0
 42
-0.184995633674859
  0
VERTEX
  5
4CD
  8
6
 10
-31.13826845854976
 20
7.3612843362778904
 30
0.0
  0
VERTEX
  5
4CE
  8
6
 10
-29.086019199365861
 20
9.1916041852488206
 30
0.0
  0
SEQEND
  5
4CF
  8
6
  0
POLYLINE
  5
2FB
  8
6
 66
     1
 10
0.0
 20
0.0
 30
0.0
  0
VERTEX
  5
4D0
  8
6
 10
-29.600202763159579
 20
-0.2971646947812587
 30
0.0
  0
VERTEX
  5
4D1
  8
6
 10
-43.805022074132808
 20
-0.297164694781145
 30
0.0
  0
VERTEX
  5
4D2
  8
6
 10
-53.491245664688677
 20
4.853396223599133
 30
0.0
 42
0.2418206986979301
  0
VERTEX
  5
4D3
  8
6
 10
-57.146252815582102
 20
4.9052462844956599
 30
0.0
  0
VERTEX
  5
4D4
  8
6
 10
-66.452942958113908
 20
0.2902407400135871
 30
0.0
  0
VERTEX
  5
4D5
  8
6
 10
-75.791526297276391
 20
4.9210614966742687
 30
0.0
 42
0.2343261328240422
  0
VERTEX
  5
4D6
  8
6
 10
-79.345595000450203
 20
4.921061496674155
 30
0.0
  0
VERTEX
  5
4D7
  8
6
 10
-88.684178339612913
 20
0.2902407400135871
 30
0.0
  0
VERTEX
  5
4D8
  8
6
 10
-87.795661163819545
 20
-1.501556466234887
 30
0.0
  0
VERTEX
  5
4D9
  8
6
 10
-78.457077824656494
 20
3.1292642904257941
 30
0.0
 42
-0.2343261328239351
  0
VERTEX
  5
4DA
  8
6
 10
-76.680043473069986
 20
3.12926429042568
 30
0.0
  0
VERTEX
  5
4DB
  8
6
 10
-67.341460133907162
 20
-1.501556466234887
 30
0.0
 42
0.2343261328239322
  0
VERTEX
  5
4DC
  8
6
 10
-65.564425782320754
 20
-1.501556466234887
 30
0.0
  0
VERTEX
  5
4DD
  8
6
 10
-56.257735639788727
 20
3.1134490782471849
 30
0.0
 42
-0.2418206986978837
  0
VERTEX
  5
4DE
  8
6
 10
-54.430232064342128
 20
3.087524047798865
 30
0.0
  0
VERTEX
  5
4DF
  8
6
 10
-44.744008473786153
 20
-2.0630368705815272
 30
0.0
 42
0.1227907796755793
  0
VERTEX
  5
4E0
  8
6
 10
-43.805022074133142
 20
-2.2971646947812578
 30
0.0
  0
VERTEX
  5
4E1
  8
6
 10
-29.600202763159579
 20
-2.2971646947812578
 30
0.0
  0
SEQEND
  5
4E2
  8
6
  0
POLYLINE
  5
2FC
  8
6
 66
     1
 10
0.0
 20
0.0
 30
0.0
  0
VERTEX
  5
4E3
  8
6
 10
-29.600202763159579
 20
-1.7971646947812581
 30
0.0
  0
VERTEX
  5
4E4
  8
6
 10
-43.805022074132687
 20
-1.797164694781145
 30
0.0
 42
-0.1227907796755781
  0
VERTEX
  5
4E5
  8
6
 10
-44.509261873872447
 20
-1.621568826631687
 30
0.0
  0
VERTEX
  5
4E6
  8
6
 10
-54.195485464428771
 20
3.5289920917489321
 30
0.0
 42
0.2418206986979325
  0
VERTEX
  5
4E7
  8
6
 10
-56.479864933737304
 20
3.5613983798091331
 30
0.0
  0
VERTEX
  5
4E8
  8
6
 10
-65.786555076268755
 20
-1.0536071646727121
 30
0.0
 42
-0.2343261328240303
  0
VERTEX
  5
4E9
  8
6
 10
-67.119330839959275
 20
-1.053607164672598
 30
0.0
  0
VERTEX
  5
4EA
  8
6
 10
-76.457914179121417
 20
3.5772135919877419
 30
0.0
 42
0.2343261328240438
  0
VERTEX
  5
4EB
  8
6
 10
-78.679207118605291
 20
3.5772135919877419
 30
0.0
  0
VERTEX
  5
4EC
  8
6
 10
-88.017790457767873
 20
-1.053607164672826
 30
0.0
 42
-0.2343261328240571
  0
SEQEND
  5
4ED
  8
6
  0
POLYLINE
  5
2FD
  8
6
 66
     1
 10
0.0
 20
0.0
 30
0.0
  0
VERTEX
  5
4EE
  8
6
 10
-29.600202763159579
 20
-1.2971646947812581
 30
0.0
  0
VERTEX
  5
4EF
  8
6
 10
-43.805022074133028
 20
-1.297164694781145
 30
0.0
 42
-0.1227907796755804
  0
VERTEX
  5
4F0
  8
6
 10
-44.274515273959423
 20
-1.1801007826813921
 30
0.0
  0
VERTEX
  5
4F1
  8
6
 10
-53.960738864515292
 20
3.9704601356989988
 30
0.0
 42
0.2418206986979378
  0
VERTEX
  5
4F2
  8
6
 10
-56.701994227685532
 20
4.0093476813713087
 30
0.0
  0
VERTEX
  5
4F3
  8
6
 10
-66.008684370216983
 20
-0.6056578631105367
 30
0.0
 42
-0.2343261328240147
  0
VERTEX
  5
4F4
  8
6
 10
-66.89720154601082
 20
-0.6056578631105367
 30
0.0
  0
VERTEX
  5
4F5
  8
6
 10
-76.235784885173075
 20
4.0251628935499184
 30
0.0
 42
0.2343261328240469
  0
VERTEX
  5
4F6
  8
6
 10
-78.901336412553633
 20
4.0251628935499184
 30
0.0
  0
VERTEX
  5
4F7
  8
6
 10
-88.239919751716215
 20
-0.6056578631106504
 30
0.0
 42
-0.2343261328240553
  0
SEQEND
  5
4F8
  8
6
  0
POLYLINE
  5
2FE
  8
6
 66
     1
 10
0.0
 20
0.0
 30
0.0
  0
VERTEX
  5
4F9
  8
6
 10
-29.600202763159579
 20
-0.7971646947812588
 30
0.0
  0
VERTEX
  5
4FA
  8
6
 10
-43.805022074133028
 20
-0.797164694781145
 30
0.0
 42
-0.1227907796755586
  0
VERTEX
  5
4FB
  8
6
 10
-44.039768674046059
 20
-0.738632738731326
 30
0.0
  0
VERTEX
  5
4FC
  8
6
 10
-53.725992264601921
 20
4.4119281796490659
 30
0.0
 42
0.2418206986979313
  0
VERTEX
  5
4FD
  8
6
 10
-56.92412352163376
 20
4.4572969829334852
 30
0.0
  0
VERTEX
  5
4FE
  8
6
 10
-66.230813664165225
 20
-0.1577085615483611
 30
0.0
 42
-0.2343261328240752
  0
VERTEX
  5
4FF
  8
6
 10
-66.675072252062591
 20
-0.1577085615483611
 30
0.0
  0
VERTEX
  5
500
  8
6
 10
-76.013655591224733
 20
4.473112195112094
 30
0.0
 42
0.2343261328240394
  0
VERTEX
  5
501
  8
6
 10
-79.123465706501861
 20
4.473112195112094
 30
0.0
  0
VERTEX
  5
502
  8
6
 10
-88.462049045664571
 20
-0.1577085615484748
 30
0.0
 42
-0.2343261328240224
  0
SEQEND
  5
503
  8
6
  0
VIEWPORT
  5
22
 67
     1
  8
0
 10
210.0
 20
170.2366863905325
 30
0.0
 40
420.0
 41
340.47337278106511
 68
     1
 69
     1
1001
ACAD
1000
MVIEW
1002
{
1070
    16
1010
0.0
1020
0.0
1030
0.0
1010
0.0
1020
0.0
1030
1.0
1040
0.0
1040
340.47337278106511
1040
210.0
1040
170.2366863905325
1040
50.0
1040
0.0
1040
0.0
1070
     0
1070
   100
1070
     1
1070
     1
1070
     0
1070
     0
1070
     0
1070
     0
1040
0.0
1040
0.0
1040
0.0
1040
5.0
1040
5.0
1040
10.0
1040
10.0
1070
     0
1002
{
1002
}
1002
}
  0
ENDSEC
  0
EOF
