  0
SECTION
  2
HEADER
  9
$ACADVER
  1
AC1009
  9
$INSBASE
 10
0.0
 20
0.0
 30
0.0
  9
$EXTMIN
 10
-17.395018678385551
 20
-14.96887121462362
 30
-0.0000000000112498
  9
$EXTMAX
 10
27.809143622649341
 20
7.5531011185994421
 30
0.0000000000002956
  9
$LIMMIN
 10
-150.0
 20
-150.0
  9
$LIMMAX
 10
150.0
 20
150.0
  9
$ORTHOMODE
 70
     0
  9
$REGENMODE
 70
     1
  9
$FILLMODE
 70
     1
  9
$QTEXTMODE
 70
     0
  9
$MIRRTEXT
 70
     0
  9
$DRAGMODE
 70
     2
  9
$LTSCALE
 40
3.0
  9
$OSMODE
 70
   111
  9
$ATTMODE
 70
     1
  9
$TEXTSIZE
 40
3.5
  9
$TRACEWID
 40
1.0
  9
$TEXTSTYLE
  7
BESCHLAG
  9
$CLAYER
  8
0
  9
$CELTYPE
  6
BYLAYER
  9
$CECOLOR
 62
   256
  9
$DIMSCALE
 40
1.0
  9
$DIMASZ
 40
2.0
  9
$DIMEXO
 40
2.0
  9
$DIMDLI
 40
0.0
  9
$DIMRND
 40
0.0
  9
$DIMDLE
 40
1.0
  9
$DIMEXE
 40
1.0
  9
$DIMTP
 40
0.0
  9
$DIMTM
 40
0.0
  9
$DIMTXT
 40
3.5
  9
$DIMCEN
 40
0.0
  9
$DIMTSZ
 40
0.0
  9
$DIMTOL
 70
     0
  9
$DIMLIM
 70
     0
  9
$DIMTIH
 70
     0
  9
$DIMTOH
 70
     0
  9
$DIMSE1
 70
     0
  9
$DIMSE2
 70
     0
  9
$DIMTAD
 70
     1
  9
$DIMZIN
 70
     8
  9
$DIMBLK
  1

  9
$DIMASO
 70
     1
  9
$DIMSHO
 70
     1
  9
$DIMPOST
  1

  9
$DIMAPOST
  1

  9
$DIMALT
 70
     0
  9
$DIMALTD
 70
     2
  9
$DIMALTF
 40
0.039370078740157
  9
$DIMLFAC
 40
1.0
  9
$DIMTOFL
 70
     1
  9
$DIMTVP
 40
0.0
  9
$DIMTIX
 70
     1
  9
$DIMSOXD
 70
     0
  9
$DIMSAH
 70
     1
  9
$DIMBLK1
  1
OBLIQUE
  9
$DIMBLK2
  1
OBLIQUE
  9
$DIMSTYLE
  2
OPO-SSTRICH
  9
$DIMCLRD
 70
   256
  9
$DIMCLRE
 70
   256
  9
$DIMCLRT
 70
   256
  9
$DIMTFAC
 40
0.7114285714285716
  9
$DIMGAP
 40
1.0
  9
$LUNITS
 70
     2
  9
$LUPREC
 70
     1
  9
$SKETCHINC
 40
1.0
  9
$FILLETRAD
 40
0.0
  9
$AUNITS
 70
     0
  9
$AUPREC
 70
     1
  9
$MENU
  1
D:\ACL_CGWG\CGTAB13
  9
$ELEVATION
 40
0.0
  9
$PELEVATION
 40
0.0
  9
$THICKNESS
 40
0.0
  9
$LIMCHECK
 70
     0
  9
$BLIPMODE
 70
     0
  9
$CHAMFERA
 40
1.0
  9
$CHAMFERB
 40
1.0
  9
$SKPOLY
 70
     0
  9
$TDCREATE
 40
2451739.8677345482
  9
$TDUPDATE
 40
2452087.6082316898
  9
$TDINDWG
 40
0.0010910185
  9
$TDUSRTIMER
 40
0.0010910185
  9
$USRTIMER
 70
     1
  9
$ANGBASE
 50
0.0
  9
$ANGDIR
 70
     0
  9
$PDMODE
 70
    35
  9
$PDSIZE
 40
5.0
  9
$PLINEWID
 40
0.0
  9
$COORDS
 70
     1
  9
$SPLFRAME
 70
     0
  9
$SPLINETYPE
 70
     6
  9
$SPLINESEGS
 70
     8
  9
$ATTDIA
 70
     1
  9
$ATTREQ
 70
     1
  9
$HANDLING
 70
-16383
  9
$HANDSEED
  5
3F8
  9
$SURFTAB1
 70
    12
  9
$SURFTAB2
 70
    12
  9
$SURFTYPE
 70
     6
  9
$SURFU
 70
    12
  9
$SURFV
 70
    12
  9
$UCSNAME
  2

  9
$UCSORG
 10
0.0
 20
0.0
 30
0.0
  9
$UCSXDIR
 10
1.0
 20
0.0
 30
0.0
  9
$UCSYDIR
 10
0.0
 20
1.0
 30
0.0
  9
$PUCSNAME
  2

  9
$PUCSORG
 10
0.0
 20
0.0
 30
0.0
  9
$PUCSXDIR
 10
1.0
 20
0.0
 30
0.0
  9
$PUCSYDIR
 10
0.0
 20
1.0
 30
0.0
  9
$USERI1
 70
     0
  9
$USERI2
 70
     0
  9
$USERI3
 70
     0
  9
$USERI4
 70
     0
  9
$USERI5
 70
     0
  9
$USERR1
 40
0.0
  9
$USERR2
 40
0.0
  9
$USERR3
 40
0.0
  9
$USERR4
 40
0.0
  9
$USERR5
 40
0.0
  9
$WORLDVIEW
 70
     1
  9
$SHADEDGE
 70
     3
  9
$SHADEDIF
 70
    70
  9
$TILEMODE
 70
     1
  9
$MAXACTVP
 70
    48
  9
$PLIMCHECK
 70
     0
  9
$PEXTMIN
 10
1.0000000000000000E+020
 20
1.0000000000000000E+020
 30
1.0000000000000000E+020
  9
$PEXTMAX
 10
-1.0000000000000000E+020
 20
-1.0000000000000000E+020
 30
-1.0000000000000000E+020
  9
$PLIMMIN
 10
0.0
 20
0.0
  9
$PLIMMAX
 10
420.0
 20
297.0
  9
$UNITMODE
 70
     0
  9
$VISRETAIN
 70
     1
  9
$PLINEGEN
 70
     0
  9
$PSLTSCALE
 70
     1
  0
ENDSEC
  0
SECTION
  2
TABLES
  0
TABLE
  2
VPORT
 70
     2
  0
VPORT
  2
*ACTIVE
 70
     0
 10
0.0
 20
0.0
 11
1.0
 21
1.0
 12
5.2070624721318941
 22
-3.7078850480120868
 13
0.0
 23
0.0
 14
0.5
 24
0.5
 15
10.0
 25
10.0
 16
0.0
 26
0.0
 36
1.0
 17
0.0
 27
0.0
 37
0.0
 40
28.270839602567889
 41
1.6070460704607039
 42
50.0
 43
0.0
 44
0.0
 50
0.0
 51
0.0
 71
     0
 72
   800
 73
     1
 74
     1
 75
     0
 76
     0
 77
     0
 78
     0
  0
ENDTAB
  0
TABLE
  2
LTYPE
 70
     2
  0
LTYPE
  2
CONTINUOUS
 70
     0
  3
_______________________________________________
 72
    65
 73
     2
 40
1.0
 49
1.0
 49
0.0
  0
LTYPE
  2
STRICHPUNKT
 70
     0
  3
__ . __ . __ . __ . __ . __ . __ . __ . __ . __
 72
    65
 73
     4
 40
1.0
 49
0.5
 49
-0.25
 49
0.0
 49
-0.25
  0
ENDTAB
  0
TABLE
  2
LAYER
 70
     7
  0
LAYER
  2
0
 70
     0
 62
    30
  6
CONTINUOUS
  0
LAYER
  2
1
 70
     0
 62
     2
  6
CONTINUOUS
  0
LAYER
  2
2
 70
     0
 62
     9
  6
CONTINUOUS
  0
LAYER
  2
4
 70
     1
 62
     4
  6
CONTINUOUS
  0
LAYER
  2
5
 70
     0
 62
     1
  6
CONTINUOUS
  0
LAYER
  2
6
 70
     0
 62
     3
  6
CONTINUOUS
  0
LAYER
  2
DEFPOINTS
 70
     0
 62
     7
  6
CONTINUOUS
  0
ENDTAB
  0
TABLE
  2
STYLE
 70
     2
  0
STYLE
  2
STANDARD
 70
     0
 40
0.0
 41
1.0
 50
0.0
 71
     0
 42
2.5
  3
txt
  4

  0
STYLE
  2
BESCHLAG
 70
     0
 40
0.0
 41
1.0
 50
0.0
 71
     0
 42
3.5
  3
txt
  4

  0
ENDTAB
  0
TABLE
  2
VIEW
 70
     0
  0
ENDTAB
  0
TABLE
  2
UCS
 70
     0
  0
ENDTAB
  0
TABLE
  2
APPID
 70
     1
  0
APPID
  2
ACAD
 70
     0
  0
ENDTAB
  0
TABLE
  2
DIMSTYLE
 70
     1
  0
DIMSTYLE
  2
OPO-SSTRICH
 70
     0
  3

  4

  5

  6
OBLIQUE
  7
OBLIQUE
 40
1.0
 41
2.0
 42
2.0
 43
0.0
 44
1.0
 45
0.0
 46
1.0
 47
0.0
 48
0.0
140
3.5
141
0.0
142
0.0
143
0.039370078740157
144
1.0
145
0.0
146
0.7114285714285716
147
1.0
 71
     0
 72
     0
 73
     0
 74
     0
 75
     0
 76
     0
 77
     1
 78
     8
170
     0
171
     2
172
     1
173
     1
174
     1
175
     0
176
   256
177
   256
178
   256
  0
ENDTAB
  0
ENDSEC
  0
SECTION
  2
BLOCKS
  0
BLOCK
  8
0
  2
$MODEL_SPACE
 70
     0
 10
0.0
 20
0.0
 30
0.0
  3
$MODEL_SPACE
  1

  0
ENDBLK
  5
1C
  8
0
  0
BLOCK
 67
     1
  8
0
  2
$PAPER_SPACE
 70
     0
 10
0.0
 20
0.0
 30
0.0
  3
$PAPER_SPACE
  1

  0
ENDBLK
  5
19
 67
     1
  8
0
  0
BLOCK
  8
0
  2
_OBLIQUE
 70
     0
 10
0.0
 20
0.0
 30
0.0
  3
_OBLIQUE
  1

  0
LINE
  5
204
  8
0
 62
     0
 10
-0.5
 20
-0.5
 30
0.0
 11
0.5
 21
0.5
 31
0.0
  0
ENDBLK
  5
206
  8
0
  0
BLOCK
  8
0
  2
NULLPUNKT
 70
     0
 10
0.0
 20
0.0
 30
0.0
  3
NULLPUNKT
  1

  0
SOLID
  5
254
  8
5
 10
0.0
 20
0.0
 30
0.0
 11
2.0
 21
0.0
 31
0.0
 12
0.0
 22
-2.0
 32
0.0
 13
0.0
 23
-2.0
 33
0.0
  0
SOLID
  5
255
  8
5
 10
0.0
 20
0.0
 30
0.0
 11
-2.0
 21
0.0
 31
0.0
 12
0.0
 22
2.0
 32
0.0
 13
0.0
 23
2.0
 33
0.0
  0
POLYLINE
  5
256
  8
5
 66
     1
 10
0.0
 20
0.0
 30
0.0
  0
VERTEX
  5
3A5
  8
5
 10
0.0
 20
2.0
 30
0.0
  0
VERTEX
  5
3A6
  8
5
 10
0.0
 20
-2.0
 30
0.0
  0
SEQEND
  5
3A7
  8
5
  0
POLYLINE
  5
257
  8
5
 66
     1
 10
0.0
 20
0.0
 30
0.0
  0
VERTEX
  5
3A8
  8
5
 10
-2.0
 20
0.0
 30
0.0
  0
VERTEX
  5
3A9
  8
5
 10
2.0
 20
0.0
 30
0.0
  0
SEQEND
  5
3AA
  8
5
  0
CIRCLE
  5
258
  8
5
 10
0.0
 20
0.0
 30
0.0
 40
2.0
  0
ENDBLK
  5
25A
  8
0
  0
BLOCK
  8
0
  2
*X2
 70
     1
 10
0.0
 20
0.0
 30
0.0
  3
*X2
  1

  0
LINE
  5
26C
  8
0
 62
     0
 10
866.09320061203925
 20
195.75597204719239
 30
0.0
 11
867.27996171223128
 21
196.94273314738439
 31
0.0
  0
LINE
  5
26D
  8
0
 62
     0
 10
870.71820061203937
 20
200.3809720471925
 30
0.0
 11
872.19181087955837
 21
201.85458231471151
 31
0.0
  0
LINE
  5
26E
  8
0
 62
     0
 10
864.89340880737791
 20
196.2532365173787
 30
0.0
 11
866.6934088073782
 21
198.05323651737891
 31
0.0
  0
LINE
  5
26F
  8
0
 62
     0
 10
868.74593614185289
 20
200.1057638518536
 30
0.0
 11
870.54524724282771
 21
201.90507495282839
 31
0.0
  0
LINE
  5
270
  8
0
 62
     0
 10
864.89340880737791
 20
197.95029279222641
 30
0.0
 11
866.6934088073782
 21
199.75029279222659
 31
0.0
  0
LINE
  5
271
  8
0
 62
     0
 10
867.0488798670051
 20
200.1057638518536
 30
0.0
 11
868.76481564053199
 21
201.8216996253804
 31
0.0
  0
LINE
  5
272
  8
0
 62
     0
 10
864.60413396619094
 20
199.35807422588721
 30
0.0
 11
866.81568218487314
 21
201.56962244456929
 31
0.0
  0
LINE
  5
273
  8
0
 62
     0
 10
861.99794327047539
 20
198.44893980501931
 30
0.0
 11
864.62845616507366
 21
201.0794526996176
 31
0.0
  0
LINE
  5
274
  8
0
 62
     0
 10
858.24409061521146
 20
196.3921434246032
 30
0.0
 11
862.05232763427125
 21
200.20038044366279
 31
0.0
  0
LINE
  5
275
  8
0
 62
     0
 10
855.90683334712912
 20
195.75194243136841
 30
0.0
 11
858.56906944479897
 21
198.4141785290382
 31
0.0
  0
LINE
  5
276
  8
0
 62
     0
 10
872.14004869154826
 20
200.1057638518536
 30
0.0
 11
873.73314313564867
 21
201.6988582959541
 31
0.0
  0
LINE
  5
277
  8
0
 62
     0
 10
873.83710496639594
 20
200.1057638518536
 30
0.0
 11
875.18582194495616
 21
201.4544808304139
 31
0.0
  0
LINE
  5
278
  8
0
 62
     0
 10
874.6934088073782
 20
199.26501141798801
 30
0.0
 11
876.56131421767395
 21
201.13291682828381
 31
0.0
  0
LINE
  5
279
  8
0
 62
     0
 10
874.09764897611933
 20
196.97219531188139
 30
0.0
 11
877.86805152290594
 21
200.74259785866809
 31
0.0
  0
LINE
  5
27A
  8
0
 62
     0
 10
874.88584129915864
 20
196.06333136007299
 30
0.0
 11
876.49340880737793
 21
197.67089886829231
 31
0.0
  0
LINE
  5
27B
  8
0
 62
     0
 10
877.85883115496006
 20
199.03632121587449
 30
0.0
 11
879.11239017048956
 21
200.289880231404
 31
0.0
  0
LINE
  5
27C
  8
0
 62
     0
 10
879.09256482089813
 20
198.5729986069648
 30
0.0
 11
880.29920217678682
 21
199.77963596285369
 31
0.0
  0
LINE
  5
27D
  8
0
 62
     0
 10
880.26725284272459
 20
198.0506303539436
 30
0.0
 11
881.43225571578057
 21
199.2156332269997
 31
0.0
  0
LINE
  5
27E
  8
0
 62
     0
 10
881.38676066939297
 20
197.47308190576419
 30
0.0
 11
882.51446845121643
 21
198.60078968758751
 31
0.0
  0
LINE
  5
27F
  8
0
 62
     0
 10
882.4540461651327
 20
196.84331112665629
 30
0.0
 11
883.54808023595001
 21
197.9373451974736
 31
0.0
  0
LINE
  5
280
  8
0
 62
     0
 10
883.47134424307058
 20
196.1635529297464
 30
0.0
 11
884.53477230224507
 21
197.22698098892101
 31
0.0
  0
LINE
  5
281
  8
0
 62
     0
 10
884.71061144002556
 20
195.7057638518537
 30
0.0
 11
885.47574930973985
 21
196.470901721568
 31
0.0
  0
ENDBLK
  5
283
  8
0
  0
BLOCK
  8
0
  2
*D3
 70
     1
 10
0.0
 20
0.0
 30
0.0
  3
*D3
  1

  0
LINE
  5
2D6
  8
1
 10
-15.00000000002569
 20
-2.0
 30
0.0
 11
-15.00000000002569
 21
-13.33947080353027
 31
0.0
  0
LINE
  5
2D7
  8
1
 10
15.00000000002569
 20
-2.0
 30
0.0
 11
15.00000000002569
 21
-13.33947080353027
 31
0.0
  0
LINE
  5
2D8
  8
1
 10
-16.00000000002569
 20
-12.33947080353027
 30
0.0
 11
16.00000000002569
 21
-12.33947080353027
 31
0.0
  0
TEXT
  5
2D9
  8
0
 10
-9.1320909236882297
 20
-10.93366569362184
 30
0.0
 40
3.5
  1
30
  7
BESCHLAG
  0
INSERT
  5
2DA
  8
1
  2
_OBLIQUE
 10
-15.00000000002569
 20
-12.33947080353027
 30
0.0
 41
2.0
 42
2.0
 43
2.0
 50
180.0
  0
INSERT
  5
2DB
  8
1
  2
_OBLIQUE
 10
15.00000000002569
 20
-12.33947080353027
 30
0.0
 41
2.0
 42
2.0
 43
2.0
  0
POINT
  5
2DC
  8
DEFPOINTS
 62
     0
 10
-15.00000000002569
 20
0.0
 30
0.0
  0
POINT
  5
2DD
  8
DEFPOINTS
 62
     0
 10
15.00000000002569
 20
0.0
 30
0.0
  0
POINT
  5
2DE
  8
DEFPOINTS
 62
     0
 10
15.00000000002569
 20
-12.33947080353027
 30
0.0
  0
ENDBLK
  5
2C9
  8
0
  0
BLOCK
  8
0
  2
*D4
 70
     1
 10
0.0
 20
0.0
 30
0.0
  3
*D4
  1

  0
LINE
  5
2DF
  8
1
 10
8.8030434955983292
 20
-0.0000000000000006
 30
0.0
 11
27.78781757010233
 21
-0.0000000000000059
 31
0.0
  0
LINE
  5
2E0
  8
1
 10
8.8030434955983292
 20
6.0
 30
0.0
 11
27.78781757010233
 21
5.9999999999999938
 31
0.0
  0
LINE
  5
2E1
  8
1
 10
26.78781757010233
 20
-1.0000000000000051
 30
0.0
 11
26.78781757010233
 21
6.9999999999999938
 31
0.0
  0
INSERT
  5
2E2
  8
1
  2
_OBLIQUE
 10
26.78781757010233
 20
-0.0000000000000057
 30
0.0
 41
2.0
 42
2.0
 43
2.0
 50
270.0
  0
INSERT
  5
2E3
  8
1
  2
_OBLIQUE
 10
26.78781757010233
 20
5.9999999999999938
 30
0.0
 41
2.0
 42
2.0
 43
2.0
 50
90.0
  0
TEXT
  5
2E4
  8
0
 10
25.720969002571639
 20
1.660641200545701
 30
0.0
 40
3.5
  1
6
 50
90.0
  7
BESCHLAG
  0
POINT
  5
2E5
  8
DEFPOINTS
 62
     0
 10
6.8030434955983301
 20
0.0
 30
0.0
  0
POINT
  5
2E6
  8
DEFPOINTS
 62
     0
 10
6.8030434955983301
 20
6.0
 30
0.0
  0
POINT
  5
2E7
  8
DEFPOINTS
 62
     0
 10
26.78781757010233
 20
5.9999999999999938
 30
0.0
  0
ENDBLK
  5
2D5
  8
0
  0
ENDSEC
  0
SECTION
  2
ENTITIES
  0
INSERT
  5
25B
  8
5
  2
NULLPUNKT
 10
0.0
 20
0.0
 30
0.0
  0
INSERT
  5
2B0
  8
2
  2
*X2
 10
-870.69340880737764
 20
-195.70576385185359
 30
0.0
1001
ACAD
1000
HATCH
1002
{
1070
    16
1000
_U,I
1040
1.1999999999999991
1040
0.7853981633974483
1070
     0
1002
}
  0
LINE
  5
2B1
  8
5
 10
-17.372590282825279
 20
0.0
 30
0.0
 11
17.372590282825279
 21
0.0
 31
0.0
  0
POLYLINE
  5
2B2
  8
4
 66
     1
 10
0.0
 20
0.0
 30
0.0
 70
     1
  0
VERTEX
  5
3AB
  8
4
 10
0.0000000000002274
 20
6.2000000000000446
 30
0.0
 42
-0.1807936771704099
  0
VERTEX
  5
3AC
  8
4
 10
15.00000000002569
 20
0.5729613876937947
 30
0.0
  0
VERTEX
  5
3AD
  8
4
 10
15.00000000002569
 20
0.0
 30
0.0
  0
VERTEX
  5
3AE
  8
4
 10
3.800000000026329
 20
0.0
 30
0.0
  0
VERTEX
  5
3AF
  8
4
 10
3.800000000026329
 20
4.4000000000000901
 30
0.0
  0
VERTEX
  5
3B0
  8
4
 10
0.0000000000002274
 20
4.4000000000000901
 30
0.0
  0
VERTEX
  5
3B1
  8
4
 10
-3.8000000000258751
 20
4.4000000000000901
 30
0.0
  0
VERTEX
  5
3B2
  8
4
 10
-3.8000000000258751
 20
0.0
 30
0.0
  0
VERTEX
  5
3B3
  8
4
 10
-15.00000000002569
 20
0.0
 30
0.0
  0
VERTEX
  5
3B4
  8
4
 10
-15.00000000002569
 20
0.5729613876937947
 30
0.0
 42
-0.1807936771704099
  0
SEQEND
  5
3B5
  8
4
  0
POLYLINE
  5
2B3
  8
6
 66
     1
 10
0.0
 20
0.0
 30
0.0
 70
     1
  0
VERTEX
  5
3B6
  8
6
 10
5.8000000000004093
 20
3.3525021504674442
 30
0.0
  0
VERTEX
  5
3B7
  8
6
 10
5.8000000000004093
 20
0.5
 30
0.0
  0
VERTEX
  5
3B8
  8
6
 10
5.3000000000004093
 20
0.0
 30
0.0
  0
VERTEX
  5
3B9
  8
6
 10
4.9250000000004093
 20
0.375
 30
0.0
  0
VERTEX
  5
3BA
  8
6
 10
4.5500000000004093
 20
0.0
 30
0.0
  0
VERTEX
  5
3BB
  8
6
 10
4.1750000000004093
 20
0.375
 30
0.0
  0
VERTEX
  5
3BC
  8
6
 10
3.8000000000004088
 20
0.0
 30
0.0
  0
VERTEX
  5
3BD
  8
6
 10
3.3000000000004088
 20
1.5999999999999091
 30
0.0
  0
VERTEX
  5
3BE
  8
6
 10
4.0000000000006821
 20
2.0041451884326298
 30
0.0
  0
VERTEX
  5
3BF
  8
6
 10
4.0000000000006821
 20
4.0999999999999091
 30
0.0
 42
0.4142135623730951
  0
VERTEX
  5
3C0
  8
6
 10
3.7000000000004998
 20
4.3999999999998627
 30
0.0
  0
VERTEX
  5
3C1
  8
6
 10
0.3000000000004093
 20
4.3999999999998627
 30
0.0
  0
VERTEX
  5
3C2
  8
6
 10
0.0000000000006821
 20
4.7000000000000446
 30
0.0
  0
VERTEX
  5
3C3
  8
6
 10
-0.2999999999994998
 20
4.3999999999998627
 30
0.0
  0
VERTEX
  5
3C4
  8
6
 10
-3.6999999999995898
 20
4.3999999999998627
 30
0.0
 42
0.4142135623730951
  0
VERTEX
  5
3C5
  8
6
 10
-3.999999999999317
 20
4.0999999999999091
 30
0.0
  0
VERTEX
  5
3C6
  8
6
 10
-3.999999999999317
 20
2.0041451884326298
 30
0.0
  0
VERTEX
  5
3C7
  8
6
 10
-3.2999999999994989
 20
1.5999999999999091
 30
0.0
  0
VERTEX
  5
3C8
  8
6
 10
-3.7999999999994989
 20
0.0
 30
0.0
  0
VERTEX
  5
3C9
  8
6
 10
-4.1749999999994989
 20
0.375
 30
0.0
  0
VERTEX
  5
3CA
  8
6
 10
-4.5499999999994989
 20
0.0
 30
0.0
  0
VERTEX
  5
3CB
  8
6
 10
-4.9249999999994989
 20
0.375
 30
0.0
  0
VERTEX
  5
3CC
  8
6
 10
-5.2999999999994989
 20
0.0
 30
0.0
  0
VERTEX
  5
3CD
  8
6
 10
-5.7999999999994989
 20
0.5
 30
0.0
  0
VERTEX
  5
3CE
  8
6
 10
-5.7999999999994989
 20
3.3525021504674442
 30
0.0
 42
0.4995920842934607
  0
VERTEX
  5
3CF
  8
6
 10
-6.1836239320680297
 20
3.6406115706281521
 30
0.0
 42
0.0926371462800374
  0
VERTEX
  5
3D0
  8
6
 10
-13.399999999999411
 20
0.0
 30
0.0
  0
VERTEX
  5
3D1
  8
6
 10
-14.59999999999968
 20
0.0
 30
0.0
 42
-0.6463639963009483
  0
VERTEX
  5
3D2
  8
6
 10
-14.899542087794771
 20
0.6650934507661077
 30
0.0
 42
-0.1790094689451243
  0
VERTEX
  5
3D3
  8
6
 10
0.0000000000006821
 20
6.2000000000000446
 30
0.0
 42
-0.1790094689451243
  0
VERTEX
  5
3D4
  8
6
 10
14.89954208779613
 20
0.6650934507661077
 30
0.0
 42
-0.6463639963009483
  0
VERTEX
  5
3D5
  8
6
 10
14.600000000000589
 20
0.0
 30
0.0
  0
VERTEX
  5
3D6
  8
6
 10
13.40000000000077
 20
0.0
 30
0.0
 42
0.0926371462800381
  0
VERTEX
  5
3D7
  8
6
 10
6.1836239320689401
 20
3.6406115706281521
 30
0.0
 42
0.4995920842934607
  0
SEQEND
  5
3D8
  8
6
  0
TEXT
  5
2B4
  8
1
 10
-13.761314945471209
 20
-4.39551621859232
 30
0.0
 40
2.4999999499999999
  1
Hebgo  153/903
  0
DIMENSION
  5
2B5
  8
1
  2
*D3
 10
15.00000000002569
 20
-12.33947080353027
 30
0.0
 11
-6.4271113875354331
 21
-9.2147025285468072
 31
0.0
 70
   128
 13
-15.00000000002569
 23
0.0
 33
0.0
 14
15.00000000002569
 24
0.0
 34
0.0
  0
LINE
  5
2B6
  8
6
  6
STRICHPUNKT
 10
0.0
 20
4.2973804217086231
 30
0.0
 11
0.0
 21
-14.96861957829134
 31
0.0
  0
DIMENSION
  5
2B7
  8
1
  2
*D4
 10
26.78781757010233
 20
5.9999999999999938
 30
0.0
 11
24.00081211307641
 21
2.9999999999999991
 31
0.0
 70
     0
 13
6.8030434955983301
 23
0.0
 33
0.0
 14
6.8030434955983301
 24
6.0
 34
0.0
 50
90.0
  0
POLYLINE
  5
2B8
  8
6
 66
     1
 10
0.0
 20
0.0
 30
0.0
 70
     1
  0
VERTEX
  5
3D9
  8
6
 10
-3.3726177307449912
 20
3.726380421708654
 30
0.0
  0
VERTEX
  5
3DA
  8
6
 10
-3.800000000000181
 20
2.5059520906847861
 30
0.0
  0
VERTEX
  5
3DB
  8
6
 10
-2.7936069629627118
 20
1.89727644103084
 30
0.0
  0
VERTEX
  5
3DC
  8
6
 10
-2.7936069629627118
 20
0.0
 30
0.0
  0
VERTEX
  5
3DD
  8
6
 10
2.7936069629627118
 20
0.0
 30
0.0
  0
VERTEX
  5
3DE
  8
6
 10
2.7936069629627118
 20
1.89727644103084
 30
0.0
  0
VERTEX
  5
3DF
  8
6
 10
3.800000000000181
 20
2.5059520906847861
 30
0.0
  0
VERTEX
  5
3E0
  8
6
 10
3.3726177307449912
 20
3.726380421708654
 30
0.0
  0
VERTEX
  5
3E1
  8
6
 10
0.0
 20
3.726380421708654
 30
0.0
  0
SEQEND
  5
3E2
  8
6
  0
POLYLINE
  5
2B9
  8
6
 66
     1
 10
0.0
 20
0.0
 30
0.0
  0
VERTEX
  5
3E3
  8
6
 10
-0.5713456581855781
 20
0.0
 30
0.0
 42
0.0716230936514669
  0
VERTEX
  5
3E4
  8
6
 10
-0.8416321155842751
 20
1.0661814425119469
 30
0.0
  0
SEQEND
  5
3E5
  8
6
  0
POLYLINE
  5
2BA
  8
6
 66
     1
 10
0.0
 20
0.0
 30
0.0
  0
VERTEX
  5
3E6
  8
6
 10
-1.1173158482791901
 20
1.608629117180612
 30
0.0
 42
0.0347698152739638
  0
VERTEX
  5
3E7
  8
6
 10
-1.428183703577929
 20
2.0453302862116511
 30
0.0
  0
VERTEX
  5
3E8
  8
6
 10
-1.78542402581445
 20
2.4179959360328089
 30
0.0
  0
SEQEND
  5
3E9
  8
6
  0
POLYLINE
  5
2BB
  8
6
 66
     1
 10
0.0
 20
0.0
 30
0.0
  0
VERTEX
  5
3EA
  8
6
 10
1.8372282014387331
 20
2.4179959360328089
 30
0.0
  0
VERTEX
  5
3EB
  8
6
 10
1.427999999999997
 20
2.0455060114925341
 30
0.0
 42
0.0337004454472373
  0
VERTEX
  5
3EC
  8
6
 10
1.1220780230432861
 20
1.608629117180612
 30
0.0
 42
-3.2234280385613259
  0
SEQEND
  5
3ED
  8
6
  0
POLYLINE
  5
2BC
  8
6
 66
     1
 10
0.0
 20
0.0
 30
0.0
  0
VERTEX
  5
3EE
  8
6
 10
0.8487372038986222
 20
1.0661814425119469
 30
0.0
 42
0.0698020145797582
  0
VERTEX
  5
3EF
  8
6
 10
0.5757750500478096
 20
0.0
 30
0.0
 42
-3.2234280385613259
  0
SEQEND
  5
3F0
  8
6
  0
POLYLINE
  5
2BD
  8
6
 66
     1
 10
0.0
 20
0.0
 30
0.0
  0
VERTEX
  5
3F1
  8
6
 10
-2.1238335578137821
 20
2.771017698410474
 30
0.0
  0
VERTEX
  5
3F2
  8
6
 10
-2.7999999999999541
 20
3.476380421708654
 30
0.0
  0
VERTEX
  5
3F3
  8
6
 10
-2.7999999999999541
 20
3.6763804217086431
 30
0.0
  0
VERTEX
  5
3F4
  8
6
 10
3.0
 20
3.6763804217086431
 30
0.0
  0
VERTEX
  5
3F5
  8
6
 10
3.0
 20
3.476380421708654
 30
0.0
  0
VERTEX
  5
3F6
  8
6
 10
2.2250681170144162
 20
2.771017698410474
 30
0.0
 42
0.142709741532141
  0
SEQEND
  5
3F7
  8
6
  0
VIEWPORT
  5
22
 67
     1
  8
0
 10
210.0
 20
170.2366863905325
 30
0.0
 40
420.0
 41
340.47337278106511
 68
     1
 69
     1
1001
ACAD
1000
MVIEW
1002
{
1070
    16
1010
0.0
1020
0.0
1030
0.0
1010
0.0
1020
0.0
1030
1.0
1040
0.0
1040
340.47337278106511
1040
210.0
1040
170.2366863905325
1040
50.0
1040
0.0
1040
0.0
1070
     0
1070
   100
1070
     1
1070
     1
1070
     0
1070
     0
1070
     0
1070
     0
1040
0.0
1040
0.0
1040
0.0
1040
5.0
1040
5.0
1040
10.0
1040
10.0
1070
     0
1002
{
1002
}
1002
}
  0
ENDSEC
  0
EOF
