  0
SECTION
  2
HEADER
  9
$ACADVER
  1
AC1009
  9
$INSBASE
 10
0.0
 20
0.0
 30
0.0
  9
$EXTMIN
 10
-265.50858887139742
 20
-622.19371982230916
 30
-0.0000000000000053
  9
$EXTMAX
 10
483.05498745742642
 20
10.048873657202421
 30
0.0000000000000099
  9
$LIMMIN
 10
-150.0
 20
-150.0
  9
$LIMMAX
 10
150.0
 20
150.0
  9
$ORTHOMODE
 70
     0
  9
$REGENMODE
 70
     1
  9
$FILLMODE
 70
     1
  9
$QTEXTMODE
 70
     0
  9
$MIRRTEXT
 70
     0
  9
$DRAGMODE
 70
     2
  9
$LTSCALE
 40
1.0
  9
$OSMODE
 70
   111
  9
$ATTMODE
 70
     1
  9
$TEXTSIZE
 40
3.5
  9
$TRACEWID
 40
1.0
  9
$TEXTSTYLE
  7
BESCHLAG
  9
$CLAYER
  8
0
  9
$CELTYPE
  6
BYLAYER
  9
$CECOLOR
 62
   256
  9
$DIMSCALE
 40
1.0
  9
$DIMASZ
 40
2.0
  9
$DIMEXO
 40
2.0
  9
$DIMDLI
 40
0.0
  9
$DIMRND
 40
0.0
  9
$DIMDLE
 40
1.0
  9
$DIMEXE
 40
1.0
  9
$DIMTP
 40
0.0
  9
$DIMTM
 40
0.0
  9
$DIMTXT
 40
3.5
  9
$DIMCEN
 40
0.0
  9
$DIMTSZ
 40
0.0
  9
$DIMTOL
 70
     0
  9
$DIMLIM
 70
     0
  9
$DIMTIH
 70
     0
  9
$DIMTOH
 70
     0
  9
$DIMSE1
 70
     0
  9
$DIMSE2
 70
     0
  9
$DIMTAD
 70
     1
  9
$DIMZIN
 70
     8
  9
$DIMBLK
  1

  9
$DIMASO
 70
     1
  9
$DIMSHO
 70
     1
  9
$DIMPOST
  1

  9
$DIMAPOST
  1

  9
$DIMALT
 70
     0
  9
$DIMALTD
 70
     2
  9
$DIMALTF
 40
0.039370078740157
  9
$DIMLFAC
 40
1.0
  9
$DIMTOFL
 70
     1
  9
$DIMTVP
 40
0.0
  9
$DIMTIX
 70
     1
  9
$DIMSOXD
 70
     0
  9
$DIMSAH
 70
     1
  9
$DIMBLK1
  1
OBLIQUE
  9
$DIMBLK2
  1
OBLIQUE
  9
$DIMSTYLE
  2
OPO-SSTRICH
  9
$DIMCLRD
 70
   256
  9
$DIMCLRE
 70
   256
  9
$DIMCLRT
 70
   256
  9
$DIMTFAC
 40
0.7114285714285716
  9
$DIMGAP
 40
1.0
  9
$LUNITS
 70
     2
  9
$LUPREC
 70
     1
  9
$SKETCHINC
 40
1.0
  9
$FILLETRAD
 40
0.0
  9
$AUNITS
 70
     0
  9
$AUPREC
 70
     1
  9
$MENU
  1
D:\ACL_CGWG\CGTAB13
  9
$ELEVATION
 40
0.0
  9
$PELEVATION
 40
0.0
  9
$THICKNESS
 40
0.0
  9
$LIMCHECK
 70
     0
  9
$BLIPMODE
 70
     0
  9
$CHAMFERA
 40
1.0
  9
$CHAMFERB
 40
1.0
  9
$SKPOLY
 70
     0
  9
$TDCREATE
 40
2451739.9306875691
  9
$TDUPDATE
 40
2452131.4810290742
  9
$TDINDWG
 40
0.014950625
  9
$TDUSRTIMER
 40
0.014950625
  9
$USRTIMER
 70
     1
  9
$ANGBASE
 50
0.0
  9
$ANGDIR
 70
     0
  9
$PDMODE
 70
    35
  9
$PDSIZE
 40
5.0
  9
$PLINEWID
 40
0.0
  9
$COORDS
 70
     1
  9
$SPLFRAME
 70
     0
  9
$SPLINETYPE
 70
     6
  9
$SPLINESEGS
 70
     8
  9
$ATTDIA
 70
     1
  9
$ATTREQ
 70
     1
  9
$HANDLING
 70
 22529
  9
$HANDSEED
  5
6B2
  9
$SURFTAB1
 70
    12
  9
$SURFTAB2
 70
    12
  9
$SURFTYPE
 70
     6
  9
$SURFU
 70
    12
  9
$SURFV
 70
    12
  9
$UCSNAME
  2

  9
$UCSORG
 10
0.0
 20
0.0
 30
0.0
  9
$UCSXDIR
 10
1.0
 20
0.0
 30
0.0
  9
$UCSYDIR
 10
0.0
 20
1.0
 30
0.0
  9
$PUCSNAME
  2

  9
$PUCSORG
 10
0.0
 20
0.0
 30
0.0
  9
$PUCSXDIR
 10
1.0
 20
0.0
 30
0.0
  9
$PUCSYDIR
 10
0.0
 20
1.0
 30
0.0
  9
$USERI1
 70
     0
  9
$USERI2
 70
     0
  9
$USERI3
 70
     0
  9
$USERI4
 70
     0
  9
$USERI5
 70
     0
  9
$USERR1
 40
0.0
  9
$USERR2
 40
0.0
  9
$USERR3
 40
0.0
  9
$USERR4
 40
0.0
  9
$USERR5
 40
0.0
  9
$WORLDVIEW
 70
     1
  9
$SHADEDGE
 70
     3
  9
$SHADEDIF
 70
    70
  9
$TILEMODE
 70
     1
  9
$MAXACTVP
 70
    48
  9
$PLIMCHECK
 70
     0
  9
$PEXTMIN
 10
1.0000000000000000E+020
 20
1.0000000000000000E+020
 30
1.0000000000000000E+020
  9
$PEXTMAX
 10
-1.0000000000000000E+020
 20
-1.0000000000000000E+020
 30
-1.0000000000000000E+020
  9
$PLIMMIN
 10
0.0
 20
0.0
  9
$PLIMMAX
 10
420.0
 20
297.0
  9
$UNITMODE
 70
     0
  9
$VISRETAIN
 70
     1
  9
$PLINEGEN
 70
     0
  9
$PSLTSCALE
 70
     1
  0
ENDSEC
  0
SECTION
  2
TABLES
  0
TABLE
  2
VPORT
 70
     3
  0
VPORT
  2
*ACTIVE
 70
     0
 10
0.0
 20
0.0
 11
1.0
 21
1.0
 12
108.7731992930145
 22
-306.07242308255343
 13
0.0
 23
0.0
 14
0.5
 24
0.5
 15
10.0
 25
10.0
 16
0.0
 26
0.0
 36
1.0
 17
0.0
 27
0.0
 37
0.0
 40
637.37582157271481
 41
1.6070460704607039
 42
50.0
 43
0.0
 44
0.0
 50
0.0
 51
0.0
 71
     0
 72
   800
 73
     1
 74
     1
 75
     0
 76
     0
 77
     0
 78
     0
  0
ENDTAB
  0
TABLE
  2
LTYPE
 70
     3
  0
LTYPE
  2
CONTINUOUS
 70
     0
  3
_______________________________________________
 72
    65
 73
     2
 40
1.0
 49
1.0
 49
0.0
  0
LTYPE
  2
STRICHLINIE
 70
     0
  3
Strichlinie __ __ __ __ __ __ __ __ __ __ __ __
 72
    65
 73
     2
 40
19.04999999999999
 49
12.699999999999999
 49
-6.3499999999999988
  0
LTYPE
  2
STRICHPUNKT
 70
     0
  3
__ . __ . __ . __ . __ . __ . __ . __ . __ . __
 72
    65
 73
     4
 40
1.0
 49
0.5
 49
-0.25
 49
0.0
 49
-0.25
  0
ENDTAB
  0
TABLE
  2
LAYER
 70
     6
  0
LAYER
  2
0
 70
     0
 62
    30
  6
CONTINUOUS
  0
LAYER
  2
1
 70
     0
 62
     2
  6
CONTINUOUS
  0
LAYER
  2
4
 70
     1
 62
     4
  6
CONTINUOUS
  0
LAYER
  2
5
 70
     0
 62
     1
  6
CONTINUOUS
  0
LAYER
  2
6
 70
     0
 62
     3
  6
CONTINUOUS
  0
LAYER
  2
DEFPOINTS
 70
     0
 62
     7
  6
CONTINUOUS
  0
ENDTAB
  0
TABLE
  2
STYLE
 70
     2
  0
STYLE
  2
STANDARD
 70
     0
 40
0.0
 41
1.0
 50
0.0
 71
     0
 42
2.5
  3
txt
  4

  0
STYLE
  2
BESCHLAG
 70
     0
 40
0.0
 41
1.0
 50
0.0
 71
     0
 42
3.5
  3
txt
  4

  0
ENDTAB
  0
TABLE
  2
VIEW
 70
     0
  0
ENDTAB
  0
TABLE
  2
UCS
 70
     0
  0
ENDTAB
  0
TABLE
  2
APPID
 70
     1
  0
APPID
  2
ACAD
 70
     0
  0
ENDTAB
  0
TABLE
  2
DIMSTYLE
 70
     2
  0
DIMSTYLE
  2
OPO-SSTRICH
 70
     0
  3

  4

  5

  6
OBLIQUE
  7
OBLIQUE
 40
1.0
 41
2.0
 42
2.0
 43
0.0
 44
1.0
 45
0.0
 46
1.0
 47
0.0
 48
0.0
140
3.5
141
0.0
142
0.0
143
0.039370078740157
144
1.0
145
0.0
146
0.7114285714285716
147
1.0
 71
     0
 72
     0
 73
     0
 74
     0
 75
     0
 76
     0
 77
     1
 78
     8
170
     0
171
     2
172
     1
173
     1
174
     1
175
     0
176
   256
177
   256
178
   256
  0
DIMSTYLE
  2
OPO-SSTRICH-10
 70
     0
  3

  4

  5

  6
OBLIQUE
  7
OBLIQUE
 40
10.0
 41
2.0
 42
2.0
 43
0.0
 44
1.0
 45
0.0
 46
1.0
 47
0.0
 48
0.0
140
3.5
141
2.0
142
0.0
143
0.039370078740157
144
1.0
145
0.0
146
1.388888888888888
147
1.0
 71
     0
 72
     0
 73
     0
 74
     0
 75
     0
 76
     0
 77
     1
 78
     8
170
     0
171
     2
172
     1
173
     1
174
     1
175
     0
176
   256
177
   256
178
   256
  0
ENDTAB
  0
ENDSEC
  0
SECTION
  2
BLOCKS
  0
BLOCK
  8
0
  2
$MODEL_SPACE
 70
     0
 10
0.0
 20
0.0
 30
0.0
  3
$MODEL_SPACE
  1

  0
ENDBLK
  5
1C
  8
0
  0
BLOCK
 67
     1
  8
0
  2
$PAPER_SPACE
 70
     0
 10
0.0
 20
0.0
 30
0.0
  3
$PAPER_SPACE
  1

  0
ENDBLK
  5
19
 67
     1
  8
0
  0
BLOCK
  8
0
  2
_OBLIQUE
 70
     0
 10
0.0
 20
0.0
 30
0.0
  3
_OBLIQUE
  1

  0
LINE
  5
204
  8
0
 62
     0
 10
-0.5
 20
-0.5
 30
0.0
 11
0.5
 21
0.5
 31
0.0
  0
ENDBLK
  5
206
  8
0
  0
BLOCK
  8
0
  2
NULLPUNKT
 70
     0
 10
0.0
 20
0.0
 30
0.0
  3
NULLPUNKT
  1

  0
SOLID
  5
254
  8
5
 10
0.0
 20
0.0
 30
0.0
 11
2.0
 21
0.0
 31
0.0
 12
0.0
 22
-2.0
 32
0.0
 13
0.0
 23
-2.0
 33
0.0
  0
SOLID
  5
255
  8
5
 10
0.0
 20
0.0
 30
0.0
 11
-2.0
 21
0.0
 31
0.0
 12
0.0
 22
2.0
 32
0.0
 13
0.0
 23
2.0
 33
0.0
  0
POLYLINE
  5
256
  8
5
 66
     1
 10
0.0
 20
0.0
 30
0.0
  0
VERTEX
  5
62D
  8
5
 10
0.0
 20
2.0
 30
0.0
  0
VERTEX
  5
62E
  8
5
 10
0.0
 20
-2.0
 30
0.0
  0
SEQEND
  5
62F
  8
5
  0
POLYLINE
  5
257
  8
5
 66
     1
 10
0.0
 20
0.0
 30
0.0
  0
VERTEX
  5
630
  8
5
 10
-2.0
 20
0.0
 30
0.0
  0
VERTEX
  5
631
  8
5
 10
2.0
 20
0.0
 30
0.0
  0
SEQEND
  5
632
  8
5
  0
CIRCLE
  5
258
  8
5
 10
0.0
 20
0.0
 30
0.0
 40
2.0
  0
ENDBLK
  5
25A
  8
0
  0
BLOCK
  8
0
  2
*D2
 70
     1
 10
0.0
 20
0.0
 30
0.0
  3
*D2
  1

  0
LINE
  5
51F
  8
1
 10
-0.0000000000000012
 20
-480.0
 30
0.0
 11
-0.0000000000000047
 21
-537.57008781020795
 31
0.0
  0
LINE
  5
520
  8
1
 10
472.99999999999898
 20
-411.18836553267869
 30
0.0
 11
472.99999999999898
 21
-537.57008781020795
 31
0.0
  0
LINE
  5
521
  8
1
 10
-10.0
 20
-527.57008781020795
 30
0.0
 11
482.99999999999909
 21
-527.57008781020795
 31
0.0
  0
INSERT
  5
522
  8
1
  2
_OBLIQUE
 10
-0.0000000000000041
 20
-527.57008781020795
 30
0.0
 41
20.0
 42
20.0
 43
20.0
 50
180.0
  0
INSERT
  5
523
  8
1
  2
_OBLIQUE
 10
472.99999999999898
 20
-527.57008781020795
 30
0.0
 41
20.0
 42
20.0
 43
20.0
  0
TEXT
  5
524
  8
0
 10
196.51023192360111
 20
-516.87772764649719
 30
0.0
 40
35.0
  1
473
  0
POINT
  5
525
  8
DEFPOINTS
 62
     0
 10
0.0
 20
-460.0
 30
0.0
  0
POINT
  5
526
  8
DEFPOINTS
 62
     0
 10
472.99999999999898
 20
-391.18836553267869
 30
0.0
  0
POINT
  5
527
  8
DEFPOINTS
 62
     0
 10
472.99999999999898
 20
-527.57008781020795
 30
0.0
  0
ENDBLK
  5
338
  8
0
  0
BLOCK
  8
0
  2
*D3
 70
     1
 10
0.0
 20
0.0
 30
0.0
  3
*D3
  1

  0
LINE
  5
528
  8
1
 10
-20.0
 20
-460.0
 30
0.0
 11
-102.45935898077281
 21
-460.0
 31
0.0
  0
LINE
  5
529
  8
1
 10
-20.0
 20
0.0000000000000057
 30
0.0
 11
-102.45935898077271
 21
0.000000000000029
 31
0.0
  0
LINE
  5
52A
  8
1
 10
-92.459358980772876
 20
-470.0
 30
0.0
 11
-92.459358980772777
 21
10.00000000000002
 31
0.0
  0
INSERT
  5
52B
  8
1
  2
_OBLIQUE
 10
-92.459358980772876
 20
-460.0
 30
0.0
 41
20.0
 42
20.0
 43
20.0
 50
270.0
  0
INSERT
  5
52C
  8
1
  2
_OBLIQUE
 10
-92.459358980772777
 20
0.0000000000000262
 30
0.0
 41
20.0
 42
20.0
 43
20.0
 50
90.0
  0
TEXT
  5
52D
  8
0
 10
-103.1278446560797
 20
-269.93008185538878
 30
0.0
 40
35.0
  1
460
 50
90.0
  0
POINT
  5
52E
  8
DEFPOINTS
 62
     0
 10
0.0
 20
-460.0
 30
0.0
  0
POINT
  5
52F
  8
DEFPOINTS
 62
     0
 10
0.0
 20
0.0
 30
0.0
  0
POINT
  5
530
  8
DEFPOINTS
 62
     0
 10
-92.459358980772777
 20
0.0000000000000262
 30
0.0
  0
ENDBLK
  5
344
  8
0
  0
ENDSEC
  0
SECTION
  2
ENTITIES
  0
INSERT
  5
25B
  8
5
  2
NULLPUNKT
 10
0.0
 20
0.0
 30
0.0
 41
5.0
 42
5.0
 43
5.0
  0
TEXT
  5
2DC
  8
1
 10
-234.89522956052309
 20
-271.85310629711819
 30
0.0
 40
8.0
  1
M6
  0
TEXT
  5
2DD
  8
1
 10
-234.89522956052309
 20
-192.34691482164951
 30
0.0
 40
8.0
  1
M6
  0
TEXT
  5
2DE
  8
1
 10
-234.89522956052309
 20
-92.964175477312423
 30
0.0
 40
8.0
  1
M6
  0
TEXT
  5
2DF
  8
1
 10
-234.89522956052309
 20
-13.45798400184276
 30
0.0
 40
8.0
  1
M6
  0
POLYLINE
  5
2E0
  8
1
 66
     1
 10
0.0
 20
0.0
 30
0.0
  0
VERTEX
  5
633
  8
1
 10
1.6020105664001669
 20
-439.56880290219658
 30
0.0
  0
VERTEX
  5
634
  8
1
 10
29.531145476717018
 20
-480.21057841031541
 30
0.0
  0
VERTEX
  5
635
  8
1
 10
37.690207900832313
 20
-480.21057841031541
 30
0.0
  0
SEQEND
  5
636
  8
1
  0
POINT
  5
2E1
  8
5
 10
0.0
 20
-598.13641453679327
 30
0.0
  0
POINT
  5
2E2
  8
5
 10
-240.02985425721181
 20
0.0
 30
0.0
  0
LINE
  5
2E3
  8
4
 10
63.374969596054143
 20
-574.13641453679327
 30
0.0
 11
63.374969596054143
 21
-622.13641453679338
 31
0.0
  0
POLYLINE
  5
2E4
  8
4
 66
     1
 10
0.0
 20
0.0
 30
0.0
 70
     1
  0
VERTEX
  5
637
  8
4
 10
-220.02985425721269
 20
-400.0
 30
0.0
  0
VERTEX
  5
638
  8
4
 10
-220.02985425721269
 20
-460.0
 30
0.0
  0
VERTEX
  5
639
  8
4
 10
-216.02985425721269
 20
-460.0
 30
0.0
  0
VERTEX
  5
63A
  8
4
 10
-216.02985425721269
 20
-400.0
 30
0.0
  0
SEQEND
  5
63B
  8
4
  0
POLYLINE
  5
2E5
  8
4
 66
     1
 10
0.0
 20
0.0
 30
0.0
 70
     1
  0
VERTEX
  5
63C
  8
4
 10
-260.02985425721272
 20
-400.0
 30
0.0
  0
VERTEX
  5
63D
  8
4
 10
-264.02985425721272
 20
-400.0
 30
0.0
  0
VERTEX
  5
63E
  8
4
 10
-264.02985425721272
 20
-380.0
 30
0.0
  0
VERTEX
  5
63F
  8
4
 10
-216.02985425721269
 20
-380.0
 30
0.0
  0
VERTEX
  5
640
  8
4
 10
-216.02985425721269
 20
-400.0
 30
0.0
  0
VERTEX
  5
641
  8
4
 10
-220.02985425721269
 20
-400.0
 30
0.0
  0
VERTEX
  5
642
  8
4
 10
-220.02985425721269
 20
-384.0
 30
0.0
  0
VERTEX
  5
643
  8
4
 10
-260.02985425721272
 20
-384.0
 30
0.0
  0
VERTEX
  5
644
  8
4
 10
-260.02985425721272
 20
-400.0
 30
0.0
  0
SEQEND
  5
645
  8
4
  0
POLYLINE
  5
2E6
  8
4
 66
     1
 10
0.0
 20
0.0
 30
0.0
 70
     1
  0
VERTEX
  5
646
  8
4
 10
-264.02985425721272
 20
-400.0
 30
0.0
  0
VERTEX
  5
647
  8
4
 10
-264.02985425721272
 20
-460.0
 30
0.0
  0
VERTEX
  5
648
  8
4
 10
-260.02985425721272
 20
-460.0
 30
0.0
  0
VERTEX
  5
649
  8
4
 10
-260.02985425721272
 20
-400.0
 30
0.0
  0
SEQEND
  5
64A
  8
4
  0
LINE
  5
2E7
  8
4
  6
STRICHLINIE
 10
-264.02985425721272
 20
-397.53095737734469
 30
0.0
 11
-216.02985425721269
 21
-397.53095737734469
 31
0.0
  0
POLYLINE
  5
2E8
  8
4
 66
     1
 10
0.0
 20
0.0
 30
0.0
 70
     1
  0
VERTEX
  5
64B
  8
4
 10
0.0
 20
-578.13641453679327
 30
0.0
  0
VERTEX
  5
64C
  8
4
 10
0.0
 20
-618.13641453679327
 30
0.0
  0
VERTEX
  5
64D
  8
4
 10
4.0
 20
-618.13641453679327
 30
0.0
  0
VERTEX
  5
64E
  8
4
 10
4.0
 20
-578.13641453679327
 30
0.0
  0
SEQEND
  5
64F
  8
4
  0
POLYLINE
  5
2E9
  8
4
 66
     1
 10
0.0
 20
0.0
 30
0.0
 70
     1
  0
VERTEX
  5
650
  8
4
 10
0.0
 20
-578.13641453679327
 30
0.0
  0
VERTEX
  5
651
  8
4
 10
0.0
 20
-574.13641453679327
 30
0.0
  0
VERTEX
  5
652
  8
4
 10
19.0
 20
-574.13641453679327
 30
0.0
  0
VERTEX
  5
653
  8
4
 10
19.0
 20
-622.13641453679338
 30
0.0
  0
VERTEX
  5
654
  8
4
 10
0.0
 20
-622.13641453679338
 30
0.0
  0
VERTEX
  5
655
  8
4
 10
0.0
 20
-618.13641453679327
 30
0.0
  0
VERTEX
  5
656
  8
4
 10
15.0
 20
-618.13641453679327
 30
0.0
  0
VERTEX
  5
657
  8
4
 10
15.0
 20
-578.13641453679327
 30
0.0
  0
VERTEX
  5
658
  8
4
 10
0.0
 20
-578.13641453679327
 30
0.0
  0
SEQEND
  5
659
  8
4
  0
POLYLINE
  5
2EA
  8
4
 66
     1
 10
0.0
 20
0.0
 30
0.0
 70
     1
  0
VERTEX
  5
65A
  8
4
 10
-264.02985425721272
 20
-460.0
 30
0.0
  0
VERTEX
  5
65B
  8
4
 10
-264.02985425721272
 20
0.0
 30
0.0
  0
VERTEX
  5
65C
  8
4
 10
-216.02985425721269
 20
0.0
 30
0.0
  0
VERTEX
  5
65D
  8
4
 10
-216.02985425721269
 20
-460.0
 30
0.0
  0
SEQEND
  5
65E
  8
4
  0
POLYLINE
  5
2EB
  8
4
 66
     1
 10
0.0
 20
0.0
 30
0.0
 70
     1
  0
VERTEX
  5
65F
  8
4
 10
0.0
 20
-460.0
 30
0.0
  0
VERTEX
  5
660
  8
4
 10
0.0
 20
0.0
 30
0.0
  0
VERTEX
  5
661
  8
4
 10
19.0
 20
0.0
 30
0.0
  0
VERTEX
  5
662
  8
4
 10
63.374969596054143
 20
-397.53095737734469
 30
0.0
  0
VERTEX
  5
663
  8
4
 10
473.0
 20
-380.0
 30
0.0
  0
VERTEX
  5
664
  8
4
 10
473.0
 20
-391.18836553267818
 30
0.0
 42
-0.3777221549586401
  0
VERTEX
  5
665
  8
4
 10
464.25841483569002
 20
-401.10886915403353
 30
0.0
  0
SEQEND
  5
666
  8
4
  0
POLYLINE
  5
2EC
  8
4
 66
     1
 10
0.0
 20
0.0
 30
0.0
 70
     1
  0
VERTEX
  5
667
  8
4
 10
473.0
 20
-574.13641453679327
 30
0.0
  0
VERTEX
  5
668
  8
4
 10
473.0
 20
-622.13641453679338
 30
0.0
  0
VERTEX
  5
669
  8
4
 10
0.0
 20
-622.13641453679338
 30
0.0
  0
VERTEX
  5
66A
  8
4
 10
0.0
 20
-574.13641453679327
 30
0.0
  0
SEQEND
  5
66B
  8
4
  0
TEXT
  5
2ED
  8
1
 10
44.400787121108813
 20
-484.72267152765738
 30
0.0
 40
10.0
  1
%%c 10mm
  0
POLYLINE
  5
2EE
  8
6
 66
     1
 10
0.0
 20
0.0
 30
0.0
 70
     1
  0
VERTEX
  5
66C
  8
6
 10
-30.0
 20
-439.0
 30
0.0
  0
VERTEX
  5
66D
  8
6
 10
-30.0
 20
-431.0
 30
0.0
  0
VERTEX
  5
66E
  8
6
 10
-29.0
 20
-430.0
 30
0.0
  0
VERTEX
  5
66F
  8
6
 10
0.0
 20
-430.0
 30
0.0
  0
VERTEX
  5
670
  8
6
 10
0.0
 20
-440.0
 30
0.0
  0
VERTEX
  5
671
  8
6
 10
-29.0
 20
-440.0
 30
0.0
  0
SEQEND
  5
672
  8
6
  0
TEXT
  5
2EF
  8
1
 10
94.815610947510777
 20
-332.73939585687071
 30
0.0
 40
35.0
  1
Hebgo BF/410
  0
DIMENSION
  5
2F0
  8
1
  2
*D2
 10
472.99999999999898
 20
-527.57008781020795
 30
0.0
 11
236.49999999999949
 21
-499.68809599574678
 31
0.0
 70
     0
 13
0.0
 23
-460.0
 33
0.0
 14
472.99999999999898
 24
-391.18836553267869
 34
0.0
  0
DIMENSION
  5
2F1
  8
1
  2
*D3
 10
-92.459358980772777
 20
0.0000000000000262
 30
0.0
 11
-120.329413551032
 21
-230.0
 31
0.0
 70
     0
 13
0.0
 23
-460.0
 33
0.0
 14
0.0
 24
0.0
 34
0.0
 50
90.0
  0
LINE
  5
2F2
  8
6
  6
STRICHPUNKT
 10
-11.633989451165681
 20
-215.6605443772105
 30
0.0
 11
6.5177616168357408
 21
-215.6605443772105
 31
0.0
  0
LINE
  5
2F3
  8
6
  6
STRICHPUNKT
 10
-11.633989451165681
 20
-116.2778050328734
 30
0.0
 11
6.5177616168357408
 21
-116.2778050328734
 31
0.0
  0
LINE
  5
2F4
  8
6
  6
STRICHPUNKT
 10
-11.633989451165681
 20
-36.771613557404628
 30
0.0
 11
6.5177616168357408
 21
-36.771613557404628
 31
0.0
  0
LINE
  5
2F5
  8
6
  6
STRICHPUNKT
 10
-239.05534202632131
 20
-59.856280123583019
 30
0.0
 11
-239.05534202632131
 21
-47.68694699122625
 31
0.0
  0
LINE
  5
2F6
  8
6
  6
STRICHPUNKT
 10
-245.1400085924997
 20
-53.771613557404628
 30
0.0
 11
-232.97067546014381
 21
-53.771613557404628
 31
0.0
  0
POLYLINE
  5
2F7
  8
6
 66
     1
 10
0.0
 20
0.0
 30
0.0
 70
     1
  0
VERTEX
  5
673
  8
6
 10
-241.80534202632131
 20
-46.645822386471082
 30
0.0
  0
VERTEX
  5
674
  8
6
 10
-241.80534202632131
 20
-53.771613557404628
 30
0.0
 42
1.0
  0
VERTEX
  5
675
  8
6
 10
-236.30534202632131
 20
-53.771613557404628
 30
0.0
  0
VERTEX
  5
676
  8
6
 10
-236.30534202632131
 20
-46.645822386471082
 30
0.0
 42
7.3178941196602754
  0
SEQEND
  5
677
  8
6
  0
LINE
  5
2F8
  8
6
  6
STRICHPUNKT
 10
-254.0679916312701
 20
-36.771613557404628
 30
0.0
 11
-224.0426924213734
 21
-36.771613557404628
 31
0.0
  0
LINE
  5
2F9
  8
6
  6
STRICHPUNKT
 10
-239.05534202632131
 20
-51.784263162352538
 30
0.0
 11
-239.05534202632131
 21
-21.758963952456721
 31
0.0
  0
POLYLINE
  5
2FA
  8
6
 66
     1
 10
0.0
 20
0.0
 30
0.0
 70
     1
  0
VERTEX
  5
678
  8
6
 10
-241.80534202632131
 20
-225.53475320627601
 30
0.0
  0
VERTEX
  5
679
  8
6
 10
-241.80534202632131
 20
-232.6605443772105
 30
0.0
 42
1.0
  0
VERTEX
  5
67A
  8
6
 10
-236.30534202632131
 20
-232.6605443772105
 30
0.0
  0
VERTEX
  5
67B
  8
6
 10
-236.30534202632131
 20
-225.53475320627601
 30
0.0
 42
7.3178941196602754
  0
SEQEND
  5
67C
  8
6
  0
LINE
  5
2FB
  8
6
  6
STRICHPUNKT
 10
-245.1400085924997
 20
-232.6605443772105
 30
0.0
 11
-232.97067546014381
 21
-232.6605443772105
 31
0.0
  0
LINE
  5
2FC
  8
6
  6
STRICHPUNKT
 10
-239.05534202632131
 20
-238.7452109433888
 30
0.0
 11
-239.05534202632131
 21
-226.57587781103209
 31
0.0
  0
LINE
  5
2FD
  8
6
  6
STRICHPUNKT
 10
-254.0679916312701
 20
-215.6605443772105
 30
0.0
 11
-224.0426924213734
 21
-215.6605443772105
 31
0.0
  0
LINE
  5
2FE
  8
6
  6
STRICHPUNKT
 10
-239.05534202632131
 20
-230.67319398215929
 30
0.0
 11
-239.05534202632131
 21
-200.64789477226159
 31
0.0
  0
LINE
  5
2FF
  8
6
  6
STRICHPUNKT
 10
-254.0679916312701
 20
-116.2778050328734
 30
0.0
 11
-224.0426924213734
 21
-116.2778050328734
 31
0.0
  0
CIRCLE
  5
300
  8
6
 10
-239.05534202632131
 20
-116.2778050328734
 30
0.0
 40
10.25
  0
LINE
  5
301
  8
6
  6
STRICHPUNKT
 10
-239.05534202632131
 20
-131.29045463782219
 30
0.0
 11
-239.05534202632131
 21
-101.26515542792539
 31
0.0
  0
LINE
  5
302
  8
6
  6
STRICHPUNKT
 10
-239.05534202632131
 20
-279.38719976310398
 30
0.0
 11
-239.05534202632131
 21
-267.21786663074721
 31
0.0
  0
CIRCLE
  5
303
  8
6
 10
-239.05534202632131
 20
-273.30253319692559
 30
0.0
 40
3.25
  0
LINE
  5
304
  8
6
  6
STRICHPUNKT
 10
-245.1400085924997
 20
-273.30253319692559
 30
0.0
 11
-232.97067546014381
 21
-273.30253319692559
 31
0.0
  0
LINE
  5
305
  8
6
  6
STRICHPUNKT
 10
-239.05534202632131
 20
-199.8810082876343
 30
0.0
 11
-239.05534202632131
 21
-187.71167515527759
 31
0.0
  0
CIRCLE
  5
306
  8
6
 10
-239.05534202632131
 20
-193.7963417214568
 30
0.0
 40
3.25
  0
LINE
  5
307
  8
6
  6
STRICHPUNKT
 10
-245.1400085924997
 20
-193.7963417214568
 30
0.0
 11
-232.97067546014381
 21
-193.7963417214568
 31
0.0
  0
LINE
  5
308
  8
6
  6
STRICHPUNKT
 10
-239.05534202632131
 20
-100.4982689432981
 30
0.0
 11
-239.05534202632131
 21
-88.328935810941402
 31
0.0
  0
CIRCLE
  5
309
  8
6
 10
-239.05534202632131
 20
-94.413602377119787
 30
0.0
 40
3.25
  0
LINE
  5
30A
  8
6
  6
STRICHPUNKT
 10
-245.1400085924997
 20
-94.413602377119787
 30
0.0
 11
-232.97067546014381
 21
-94.413602377119787
 31
0.0
  0
LINE
  5
30B
  8
6
  6
STRICHPUNKT
 10
-239.05534202632131
 20
-20.9920774678294
 30
0.0
 11
-239.05534202632131
 21
-8.8227443354726347
 31
0.0
  0
CIRCLE
  5
30C
  8
6
 10
-239.05534202632131
 20
-14.90741090165011
 30
0.0
 40
3.25
  0
LINE
  5
30D
  8
6
  6
STRICHPUNKT
 10
-245.1400085924997
 20
-14.90741090165011
 30
0.0
 11
-232.97067546014381
 21
-14.90741090165011
 31
0.0
  0
LINE
  5
30E
  8
6
  6
STRICHPUNKT
 10
13.556455237384389
 20
-15.7008077421533
 30
0.0
 11
31.596162687729699
 21
-13.68709923775895
 31
0.0
  0
LINE
  5
30F
  8
6
  6
STRICHPUNKT
 10
22.43144915659559
 20
-95.206999217622979
 30
0.0
 11
40.471156606939978
 21
-93.193290713228635
 31
0.0
  0
LINE
  5
310
  8
6
  6
STRICHPUNKT
 10
33.525191555609119
 20
-194.58973856195911
 30
0.0
 11
51.564899005953521
 21
-192.57603005756479
 31
0.0
  0
LINE
  5
311
  8
6
  6
STRICHPUNKT
 10
42.400185474819402
 20
-274.09593003742879
 30
0.0
 11
60.439892925164713
 21
-272.08222153303348
 31
0.0
  0
POLYLINE
  5
312
  8
6
 66
     1
 10
0.0
 20
0.0
 30
0.0
 70
     1
  0
VERTEX
  5
67D
  8
6
 10
-264.02985425721272
 20
-460.0
 30
0.0
  0
VERTEX
  5
67E
  8
6
 10
-264.02985425721272
 20
0.0
 30
0.0
  0
VERTEX
  5
67F
  8
6
 10
-216.02985425721269
 20
0.0
 30
0.0
  0
VERTEX
  5
680
  8
6
 10
-216.02985425721269
 20
-460.0
 30
0.0
  0
SEQEND
  5
681
  8
6
  0
LINE
  5
313
  8
6
  6
STRICHLINIE
 10
-264.02985425721272
 20
-397.53095737734651
 30
0.0
 11
-216.02985425721269
 21
-397.53095737734651
 31
0.0
  0
POLYLINE
  5
314
  8
6
 66
     1
 10
0.0
 20
0.0
 30
0.0
 70
     1
  0
VERTEX
  5
682
  8
6
 10
-264.02985425721272
 20
-400.0
 30
0.0
  0
VERTEX
  5
683
  8
6
 10
-264.02985425721272
 20
-460.0
 30
0.0
  0
VERTEX
  5
684
  8
6
 10
-260.02985425721272
 20
-460.0
 30
0.0
  0
VERTEX
  5
685
  8
6
 10
-260.02985425721272
 20
-400.0
 30
0.0
  0
SEQEND
  5
686
  8
6
  0
POLYLINE
  5
315
  8
6
 66
     1
 10
0.0
 20
0.0
 30
0.0
 70
     1
  0
VERTEX
  5
687
  8
6
 10
-220.02985425721269
 20
-400.0
 30
0.0
  0
VERTEX
  5
688
  8
6
 10
-220.02985425721269
 20
-460.0
 30
0.0
  0
VERTEX
  5
689
  8
6
 10
-216.02985425721269
 20
-460.0
 30
0.0
  0
VERTEX
  5
68A
  8
6
 10
-216.02985425721269
 20
-400.0
 30
0.0
  0
SEQEND
  5
68B
  8
6
  0
POLYLINE
  5
316
  8
6
 66
     1
 10
0.0
 20
0.0
 30
0.0
 70
     1
  0
VERTEX
  5
68C
  8
6
 10
-260.02985425721272
 20
-400.0
 30
0.0
  0
VERTEX
  5
68D
  8
6
 10
-264.02985425721272
 20
-400.0
 30
0.0
  0
VERTEX
  5
68E
  8
6
 10
-264.02985425721272
 20
-380.0
 30
0.0
  0
VERTEX
  5
68F
  8
6
 10
-216.02985425721269
 20
-380.0
 30
0.0
  0
VERTEX
  5
690
  8
6
 10
-216.02985425721269
 20
-400.0
 30
0.0
  0
VERTEX
  5
691
  8
6
 10
-220.02985425721269
 20
-400.0
 30
0.0
  0
VERTEX
  5
692
  8
6
 10
-220.02985425721269
 20
-384.0
 30
0.0
  0
VERTEX
  5
693
  8
6
 10
-260.02985425721272
 20
-384.0
 30
0.0
  0
VERTEX
  5
694
  8
6
 10
-260.02985425721272
 20
-400.0
 30
0.0
  0
SEQEND
  5
695
  8
6
  0
LINE
  5
317
  8
6
  6
STRICHPUNKT
 10
-9.3579327810448376
 20
-598.13641453679327
 30
0.0
 11
6.3742718206240161
 21
-598.13641453679327
 31
0.0
  0
CIRCLE
  5
318
  8
6
 10
458.0137183998558
 20
-598.13641453679327
 30
0.0
 40
3.25
  0
LINE
  5
319
  8
6
  6
STRICHPUNKT
 10
458.0137183998558
 20
-604.22108110297256
 30
0.0
 11
458.0137183998558
 21
-592.05174797061591
 31
0.0
  0
LINE
  5
31A
  8
6
  6
STRICHPUNKT
 10
451.92905183367748
 20
-598.13641453679327
 30
0.0
 11
464.09838496603419
 21
-598.13641453679327
 31
0.0
  0
CIRCLE
  5
31B
  8
6
 10
343.11889279874862
 20
-598.13641453679327
 30
0.0
 40
3.25
  0
LINE
  5
31C
  8
6
  6
STRICHPUNKT
 10
343.11889279874862
 20
-604.22108110297256
 30
0.0
 11
343.11889279874862
 21
-592.05174797061591
 31
0.0
  0
LINE
  5
31D
  8
6
  6
STRICHPUNKT
 10
337.03422623257018
 20
-598.13641453679327
 30
0.0
 11
349.203559364927
 21
-598.13641453679327
 31
0.0
  0
CIRCLE
  5
31E
  8
6
 10
253.2012031978829
 20
-598.13641453679327
 30
0.0
 40
3.25
  0
LINE
  5
31F
  8
6
  6
STRICHPUNKT
 10
253.2012031978829
 20
-604.22108110297256
 30
0.0
 11
253.2012031978829
 21
-592.05174797061591
 31
0.0
  0
LINE
  5
320
  8
6
  6
STRICHPUNKT
 10
247.11653663170449
 20
-598.13641453679327
 30
0.0
 11
259.28586976406132
 21
-598.13641453679327
 31
0.0
  0
LINE
  5
321
  8
6
  6
STRICHPUNKT
 10
132.22171103059731
 20
-598.13641453679327
 30
0.0
 11
144.3910441629541
 21
-598.13641453679327
 31
0.0
  0
CIRCLE
  5
322
  8
6
 10
138.30637759677569
 20
-598.13641453679327
 30
0.0
 40
3.25
  0
LINE
  5
323
  8
6
  6
STRICHPUNKT
 10
138.30637759677569
 20
-604.22108110297256
 30
0.0
 11
138.30637759677569
 21
-592.05174797061591
 31
0.0
  0
POLYLINE
  5
324
  8
6
 66
     1
 10
0.0
 20
0.0
 30
0.0
 70
     1
  0
VERTEX
  5
696
  8
6
 10
473.0
 20
-574.13641453679327
 30
0.0
  0
VERTEX
  5
697
  8
6
 10
473.0
 20
-622.13641453679338
 30
0.0
  0
VERTEX
  5
698
  8
6
 10
0.0
 20
-622.13641453679338
 30
0.0
  0
VERTEX
  5
699
  8
6
 10
0.0
 20
-574.13641453679327
 30
0.0
  0
SEQEND
  5
69A
  8
6
  0
LINE
  5
325
  8
6
  6
STRICHPUNKT
 10
458.31951606606708
 20
-387.78658685202748
 30
0.0
 11
457.54337564095113
 21
-369.65143664930918
 31
0.0
  0
LINE
  5
326
  8
6
  6
STRICHPUNKT
 10
343.42469046495989
 20
-392.70380660421051
 30
0.0
 11
342.64855003984479
 21
-374.56865640149221
 31
0.0
  0
LINE
  5
327
  8
6
  6
STRICHPUNKT
 10
253.5070008640941
 20
-396.55206554070082
 30
0.0
 11
252.73086043897811
 21
-378.41691533798252
 31
0.0
  0
LINE
  5
328
  8
6
  6
STRICHPUNKT
 10
138.61217526298691
 20
-401.46928529288368
 30
0.0
 11
137.83603483787189
 21
-383.33413509016458
 31
0.0
  0
LINE
  5
329
  8
6
 10
63.374969596054143
 20
-574.13641453679327
 30
0.0
 11
63.374969596054143
 21
-622.13641453679338
 31
0.0
  0
POLYLINE
  5
32A
  8
6
 66
     1
 10
0.0
 20
0.0
 30
0.0
 70
     1
  0
VERTEX
  5
69B
  8
6
 10
0.0
 20
-578.13641453679327
 30
0.0
  0
VERTEX
  5
69C
  8
6
 10
0.0
 20
-618.13641453679327
 30
0.0
  0
VERTEX
  5
69D
  8
6
 10
4.0
 20
-618.13641453679327
 30
0.0
  0
VERTEX
  5
69E
  8
6
 10
4.0
 20
-578.13641453679327
 30
0.0
  0
SEQEND
  5
69F
  8
6
  0
POLYLINE
  5
32B
  8
6
 66
     1
 10
0.0
 20
0.0
 30
0.0
 70
     1
  0
VERTEX
  5
6A0
  8
6
 10
0.0
 20
-578.13641453679327
 30
0.0
  0
VERTEX
  5
6A1
  8
6
 10
0.0
 20
-574.13641453679327
 30
0.0
  0
VERTEX
  5
6A2
  8
6
 10
19.0
 20
-574.13641453679327
 30
0.0
  0
VERTEX
  5
6A3
  8
6
 10
19.0
 20
-622.13641453679338
 30
0.0
  0
VERTEX
  5
6A4
  8
6
 10
0.0
 20
-622.13641453679338
 30
0.0
  0
VERTEX
  5
6A5
  8
6
 10
0.0
 20
-618.13641453679327
 30
0.0
  0
VERTEX
  5
6A6
  8
6
 10
15.0
 20
-618.13641453679327
 30
0.0
  0
VERTEX
  5
6A7
  8
6
 10
15.0
 20
-578.13641453679327
 30
0.0
  0
VERTEX
  5
6A8
  8
6
 10
0.0
 20
-578.13641453679327
 30
0.0
  0
SEQEND
  5
6A9
  8
6
  0
POLYLINE
  5
32C
  8
6
 66
     1
 10
0.0
 20
0.0
 30
0.0
 70
     1
  0
VERTEX
  5
6AA
  8
6
 10
0.0
 20
-460.0
 30
0.0
  0
VERTEX
  5
6AB
  8
6
 10
0.0
 20
0.0
 30
0.0
  0
VERTEX
  5
6AC
  8
6
 10
19.0
 20
0.0
 30
0.0
  0
VERTEX
  5
6AD
  8
6
 10
63.374969596054143
 20
-397.53095737734651
 30
0.0
  0
VERTEX
  5
6AE
  8
6
 10
473.0
 20
-380.0
 30
0.0
  0
VERTEX
  5
6AF
  8
6
 10
473.0
 20
-391.18836553268011
 30
0.0
 42
-0.3777221549586401
  0
VERTEX
  5
6B0
  8
6
 10
464.25841483569002
 20
-401.10886915403529
 30
0.0
  0
SEQEND
  5
6B1
  8
6
  0
LINE
  5
5AE
  8
0
 10
-265.46000239439479
 20
-14.21975181534139
 30
0.0
 11
-265.46000239439479
 21
-14.319751815341389
 31
0.0
  0
VIEWPORT
  5
22
 67
     1
  8
0
 10
210.0
 20
170.2366863905325
 30
0.0
 40
420.0
 41
340.47337278106511
 68
     1
 69
     1
1001
ACAD
1000
MVIEW
1002
{
1070
    16
1010
0.0
1020
0.0
1030
0.0
1010
0.0
1020
0.0
1030
1.0
1040
0.0
1040
340.47337278106511
1040
210.0
1040
170.2366863905325
1040
50.0
1040
0.0
1040
0.0
1070
     0
1070
   100
1070
     1
1070
     1
1070
     0
1070
     0
1070
     0
1070
     0
1040
0.0
1040
0.0
1040
0.0
1040
5.0
1040
5.0
1040
10.0
1040
10.0
1070
     0
1002
{
1002
}
1002
}
  0
ENDSEC
  0
EOF
