  0
SECTION
  2
HEADER
  9
$ACADVER
  1
AC1009
  9
$INSBASE
 10
0.0
 20
0.0
 30
0.0
  9
$EXTMIN
 10
-83.31722705784091
 20
-233.00754913611939
 30
-0.0000000000000058
  9
$EXTMAX
 10
340.01144758198978
 20
6.237015425622416
 30
0.0000000000000104
  9
$LIMMIN
 10
-150.0
 20
-150.0
  9
$LIMMAX
 10
150.0
 20
150.0
  9
$ORTHOMODE
 70
     0
  9
$REGENMODE
 70
     1
  9
$FILLMODE
 70
     1
  9
$QTEXTMODE
 70
     0
  9
$MIRRTEXT
 70
     0
  9
$DRAGMODE
 70
     2
  9
$LTSCALE
 40
1.0
  9
$OSMODE
 70
   111
  9
$ATTMODE
 70
     1
  9
$TEXTSIZE
 40
3.5
  9
$TRACEWID
 40
1.0
  9
$TEXTSTYLE
  7
BESCHLAG
  9
$CLAYER
  8
0
  9
$CELTYPE
  6
BYLAYER
  9
$CECOLOR
 62
   256
  9
$DIMSCALE
 40
1.0
  9
$DIMASZ
 40
2.0
  9
$DIMEXO
 40
2.0
  9
$DIMDLI
 40
0.0
  9
$DIMRND
 40
0.0
  9
$DIMDLE
 40
1.0
  9
$DIMEXE
 40
1.0
  9
$DIMTP
 40
0.0
  9
$DIMTM
 40
0.0
  9
$DIMTXT
 40
3.5
  9
$DIMCEN
 40
0.0
  9
$DIMTSZ
 40
0.0
  9
$DIMTOL
 70
     0
  9
$DIMLIM
 70
     0
  9
$DIMTIH
 70
     0
  9
$DIMTOH
 70
     0
  9
$DIMSE1
 70
     0
  9
$DIMSE2
 70
     0
  9
$DIMTAD
 70
     1
  9
$DIMZIN
 70
     8
  9
$DIMBLK
  1

  9
$DIMASO
 70
     1
  9
$DIMSHO
 70
     1
  9
$DIMPOST
  1

  9
$DIMAPOST
  1

  9
$DIMALT
 70
     0
  9
$DIMALTD
 70
     2
  9
$DIMALTF
 40
0.039370078740157
  9
$DIMLFAC
 40
1.0
  9
$DIMTOFL
 70
     1
  9
$DIMTVP
 40
0.0
  9
$DIMTIX
 70
     1
  9
$DIMSOXD
 70
     0
  9
$DIMSAH
 70
     1
  9
$DIMBLK1
  1
OBLIQUE
  9
$DIMBLK2
  1
OBLIQUE
  9
$DIMSTYLE
  2
OPO-SSTRICH
  9
$DIMCLRD
 70
   256
  9
$DIMCLRE
 70
   256
  9
$DIMCLRT
 70
   256
  9
$DIMTFAC
 40
0.7114285714285716
  9
$DIMGAP
 40
1.0
  9
$LUNITS
 70
     2
  9
$LUPREC
 70
     1
  9
$SKETCHINC
 40
1.0
  9
$FILLETRAD
 40
0.0
  9
$AUNITS
 70
     0
  9
$AUPREC
 70
     1
  9
$MENU
  1
D:\ACL_CGWG\CGTAB13
  9
$ELEVATION
 40
0.0
  9
$PELEVATION
 40
0.0
  9
$THICKNESS
 40
0.0
  9
$LIMCHECK
 70
     0
  9
$BLIPMODE
 70
     0
  9
$CHAMFERA
 40
1.0
  9
$CHAMFERB
 40
1.0
  9
$SKPOLY
 70
     0
  9
$TDCREATE
 40
2451739.9145755549
  9
$TDUPDATE
 40
2452087.6598670492
  9
$TDINDWG
 40
0.0009880208
  9
$TDUSRTIMER
 40
0.0009880208
  9
$USRTIMER
 70
     1
  9
$ANGBASE
 50
0.0
  9
$ANGDIR
 70
     0
  9
$PDMODE
 70
    35
  9
$PDSIZE
 40
5.0
  9
$PLINEWID
 40
0.0
  9
$COORDS
 70
     1
  9
$SPLFRAME
 70
     0
  9
$SPLINETYPE
 70
     6
  9
$SPLINESEGS
 70
     8
  9
$ATTDIA
 70
     1
  9
$ATTREQ
 70
     1
  9
$HANDLING
 70
-16383
  9
$HANDSEED
  5
413
  9
$SURFTAB1
 70
    12
  9
$SURFTAB2
 70
    12
  9
$SURFTYPE
 70
     6
  9
$SURFU
 70
    12
  9
$SURFV
 70
    12
  9
$UCSNAME
  2

  9
$UCSORG
 10
0.0
 20
0.0
 30
0.0
  9
$UCSXDIR
 10
1.0
 20
0.0
 30
0.0
  9
$UCSYDIR
 10
0.0
 20
1.0
 30
0.0
  9
$PUCSNAME
  2

  9
$PUCSORG
 10
0.0
 20
0.0
 30
0.0
  9
$PUCSXDIR
 10
1.0
 20
0.0
 30
0.0
  9
$PUCSYDIR
 10
0.0
 20
1.0
 30
0.0
  9
$USERI1
 70
     0
  9
$USERI2
 70
     0
  9
$USERI3
 70
     0
  9
$USERI4
 70
     0
  9
$USERI5
 70
     0
  9
$USERR1
 40
0.0
  9
$USERR2
 40
0.0
  9
$USERR3
 40
0.0
  9
$USERR4
 40
0.0
  9
$USERR5
 40
0.0
  9
$WORLDVIEW
 70
     1
  9
$SHADEDGE
 70
     3
  9
$SHADEDIF
 70
    70
  9
$TILEMODE
 70
     1
  9
$MAXACTVP
 70
    48
  9
$PLIMCHECK
 70
     0
  9
$PEXTMIN
 10
1.0000000000000000E+020
 20
1.0000000000000000E+020
 30
1.0000000000000000E+020
  9
$PEXTMAX
 10
-1.0000000000000000E+020
 20
-1.0000000000000000E+020
 30
-1.0000000000000000E+020
  9
$PLIMMIN
 10
0.0
 20
0.0
  9
$PLIMMAX
 10
420.0
 20
297.0
  9
$UNITMODE
 70
     0
  9
$VISRETAIN
 70
     1
  9
$PLINEGEN
 70
     0
  9
$PSLTSCALE
 70
     1
  0
ENDSEC
  0
SECTION
  2
TABLES
  0
TABLE
  2
VPORT
 70
     2
  0
VPORT
  2
*ACTIVE
 70
     0
 10
0.0
 20
0.0
 11
1.0
 21
1.0
 12
128.34711026207441
 22
-113.3852668552485
 13
0.0
 23
0.0
 14
0.5
 24
0.5
 15
10.0
 25
10.0
 16
0.0
 26
0.0
 36
1.0
 17
0.0
 27
0.0
 37
0.0
 40
264.75121870882037
 41
1.6070460704607039
 42
50.0
 43
0.0
 44
0.0
 50
0.0
 51
0.0
 71
     0
 72
   800
 73
     1
 74
     1
 75
     0
 76
     0
 77
     0
 78
     0
  0
ENDTAB
  0
TABLE
  2
LTYPE
 70
     3
  0
LTYPE
  2
CONTINUOUS
 70
     0
  3
_______________________________________________
 72
    65
 73
     2
 40
1.0
 49
1.0
 49
0.0
  0
LTYPE
  2
STRICHLINIE
 70
     0
  3
Strichlinie __ __ __ __ __ __ __ __ __ __ __ __
 72
    65
 73
     2
 40
19.04999999999999
 49
12.699999999999999
 49
-6.3499999999999988
  0
LTYPE
  2
STRICHPUNKT
 70
     0
  3
__ . __ . __ . __ . __ . __ . __ . __ . __ . __
 72
    65
 73
     4
 40
1.0
 49
0.5
 49
-0.25
 49
0.0
 49
-0.25
  0
ENDTAB
  0
TABLE
  2
LAYER
 70
     6
  0
LAYER
  2
0
 70
     0
 62
    30
  6
CONTINUOUS
  0
LAYER
  2
1
 70
     0
 62
     2
  6
CONTINUOUS
  0
LAYER
  2
4
 70
     1
 62
     4
  6
CONTINUOUS
  0
LAYER
  2
5
 70
     0
 62
     1
  6
CONTINUOUS
  0
LAYER
  2
6
 70
     0
 62
     3
  6
CONTINUOUS
  0
LAYER
  2
DEFPOINTS
 70
     0
 62
     7
  6
CONTINUOUS
  0
ENDTAB
  0
TABLE
  2
STYLE
 70
     2
  0
STYLE
  2
STANDARD
 70
     0
 40
0.0
 41
1.0
 50
0.0
 71
     0
 42
2.5
  3
txt
  4

  0
STYLE
  2
BESCHLAG
 70
     0
 40
0.0
 41
1.0
 50
0.0
 71
     0
 42
3.5
  3
txt
  4

  0
ENDTAB
  0
TABLE
  2
VIEW
 70
     0
  0
ENDTAB
  0
TABLE
  2
UCS
 70
     0
  0
ENDTAB
  0
TABLE
  2
APPID
 70
     1
  0
APPID
  2
ACAD
 70
     0
  0
ENDTAB
  0
TABLE
  2
DIMSTYLE
 70
     2
  0
DIMSTYLE
  2
OPO-SSTRICH
 70
     0
  3

  4

  5

  6
OBLIQUE
  7
OBLIQUE
 40
1.0
 41
2.0
 42
2.0
 43
0.0
 44
1.0
 45
0.0
 46
1.0
 47
0.0
 48
0.0
140
3.5
141
0.0
142
0.0
143
0.039370078740157
144
1.0
145
0.0
146
0.7114285714285716
147
1.0
 71
     0
 72
     0
 73
     0
 74
     0
 75
     0
 76
     0
 77
     1
 78
     8
170
     0
171
     2
172
     1
173
     1
174
     1
175
     0
176
   256
177
   256
178
   256
  0
DIMSTYLE
  2
OPO-SSTRICH-10
 70
     0
  3

  4

  5

  6

  7

 40
10.0
 41
0.0
 42
2.0
 43
0.0
 44
1.0
 45
0.0
 46
1.0
 47
0.0
 48
0.0
140
1.8
141
2.0
142
1.0
143
0.039370078740157
144
1.0
145
0.0
146
1.388888888888888
147
1.0
 71
     0
 72
     0
 73
     0
 74
     0
 75
     0
 76
     0
 77
     1
 78
     8
170
     0
171
     2
172
     1
173
     0
174
     1
175
     0
176
   256
177
   256
178
   256
  0
ENDTAB
  0
ENDSEC
  0
SECTION
  2
BLOCKS
  0
BLOCK
  8
0
  2
$MODEL_SPACE
 70
     0
 10
0.0
 20
0.0
 30
0.0
  3
$MODEL_SPACE
  1

  0
ENDBLK
  5
1C
  8
0
  0
BLOCK
 67
     1
  8
0
  2
$PAPER_SPACE
 70
     0
 10
0.0
 20
0.0
 30
0.0
  3
$PAPER_SPACE
  1

  0
ENDBLK
  5
19
 67
     1
  8
0
  0
BLOCK
  8
0
  2
_OBLIQUE
 70
     0
 10
0.0
 20
0.0
 30
0.0
  3
_OBLIQUE
  1

  0
LINE
  5
204
  8
0
 62
     0
 10
-0.5
 20
-0.5
 30
0.0
 11
0.5
 21
0.5
 31
0.0
  0
ENDBLK
  5
206
  8
0
  0
BLOCK
  8
0
  2
NULLPUNKT
 70
     0
 10
0.0
 20
0.0
 30
0.0
  3
NULLPUNKT
  1

  0
SOLID
  5
254
  8
5
 10
0.0
 20
0.0
 30
0.0
 11
2.0
 21
0.0
 31
0.0
 12
0.0
 22
-2.0
 32
0.0
 13
0.0
 23
-2.0
 33
0.0
  0
SOLID
  5
255
  8
5
 10
0.0
 20
0.0
 30
0.0
 11
-2.0
 21
0.0
 31
0.0
 12
0.0
 22
2.0
 32
0.0
 13
0.0
 23
2.0
 33
0.0
  0
POLYLINE
  5
256
  8
5
 66
     1
 10
0.0
 20
0.0
 30
0.0
  0
VERTEX
  5
3BD
  8
5
 10
0.0
 20
2.0
 30
0.0
  0
VERTEX
  5
3BE
  8
5
 10
0.0
 20
-2.0
 30
0.0
  0
SEQEND
  5
3BF
  8
5
  0
POLYLINE
  5
257
  8
5
 66
     1
 10
0.0
 20
0.0
 30
0.0
  0
VERTEX
  5
3C0
  8
5
 10
-2.0
 20
0.0
 30
0.0
  0
VERTEX
  5
3C1
  8
5
 10
2.0
 20
0.0
 30
0.0
  0
SEQEND
  5
3C2
  8
5
  0
CIRCLE
  5
258
  8
5
 10
0.0
 20
0.0
 30
0.0
 40
2.0
  0
ENDBLK
  5
25A
  8
0
  0
BLOCK
  8
0
  2
*D2
 70
     1
 10
0.0
 20
0.0
 30
0.0
  3
*D2
  1

  0
LINE
  5
2F1
  8
1
 10
-0.0000000000000012
 20
-120.0
 30
0.0
 11
-0.0000000000000032
 21
-152.8210130227535
 31
0.0
  0
LINE
  5
2F2
  8
1
 10
330.0
 20
-27.466626286959581
 30
0.0
 11
330.0
 21
-152.8210130227535
 31
0.0
  0
LINE
  5
2F3
  8
1
 10
-10.0
 20
-142.8210130227535
 30
0.0
 11
340.0
 21
-142.8210130227535
 31
0.0
  0
LINE
  5
2F4
  8
1
 10
320.0
 20
-152.8210130227535
 30
0.0
 11
340.0
 21
-132.8210130227535
 31
0.0
  0
LINE
  5
2F5
  8
1
 10
-10.0
 20
-152.8210130227535
 30
0.0
 11
9.9999999999999982
 21
-132.8210130227535
 31
0.0
  0
TEXT
  5
2F6
  8
0
 10
144.09618008185529
 20
-132.4649420814165
 30
0.0
 40
18.0
  1
330
  0
POINT
  5
2F7
  8
DEFPOINTS
 62
     0
 10
0.0
 20
-100.0
 30
0.0
  0
POINT
  5
2F8
  8
DEFPOINTS
 62
     0
 10
330.0
 20
-7.4666262869595812
 30
0.0
  0
POINT
  5
2F9
  8
DEFPOINTS
 62
     0
 10
330.0
 20
-142.8210130227535
 30
0.0
  0
ENDBLK
  5
2F0
  8
0
  0
ENDSEC
  0
SECTION
  2
ENTITIES
  0
INSERT
  5
25B
  8
5
  2
NULLPUNKT
 10
0.0
 20
0.0
 30
0.0
  0
LINE
  5
2B2
  8
6
  6
STRICHLINIE
 10
4.0
 20
-198.0
 30
0.0
 11
330.0
 21
-198.0
 31
0.0
  0
POLYLINE
  5
2B3
  8
6
 66
     1
 10
0.0
 20
0.0
 30
0.0
 70
     1
  0
VERTEX
  5
3C3
  8
6
 10
4.0
 20
0.0
 30
0.0
  0
VERTEX
  5
3C4
  8
6
 10
330.0
 20
0.0
 30
0.0
  0
VERTEX
  5
3C5
  8
6
 10
329.99999999999972
 20
-11.434890398311261
 30
0.0
 42
-0.3923637381198459
  0
VERTEX
  5
3C6
  8
6
 10
324.45060669347112
 20
-17.417945939403801
 30
0.0
  0
VERTEX
  5
3C7
  8
6
 10
40.999999999999091
 20
-35.0
 30
0.0
  0
VERTEX
  5
3C8
  8
6
 10
17.714523562737661
 20
-76.913857587071675
 30
0.0
 42
-0.2723753441445842
  0
VERTEX
  5
3C9
  8
6
 10
12.46957990600845
 20
-80.0
 30
0.0
  0
VERTEX
  5
3CA
  8
6
 10
4.0
 20
-80.0
 30
0.0
  0
SEQEND
  5
3CB
  8
6
  0
LINE
  5
2B4
  8
6
 10
4.0
 20
-3.0
 30
0.0
 11
330.0
 21
-3.0
 31
0.0
  0
DIMENSION
  5
2B5
  8
1
  2
*D2
 10
330.0
 20
-142.8210130227535
 30
0.0
 11
165.0
 21
-123.624560089602
 31
0.0
 70
     0
 13
0.0
 23
-100.0
 33
0.0
 14
330.0
 24
-7.4666262869595812
 34
0.0
  0
POLYLINE
  5
2B6
  8
6
 66
     1
 10
0.0
 20
0.0
 30
0.0
 70
     1
  0
VERTEX
  5
3CC
  8
6
 10
4.0
 20
-216.0
 30
0.0
  0
VERTEX
  5
3CD
  8
6
 10
330.0
 20
-216.0
 30
0.0
  0
VERTEX
  5
3CE
  8
6
 10
330.0
 20
-195.0
 30
0.0
  0
VERTEX
  5
3CF
  8
6
 10
4.0
 20
-195.0
 30
0.0
  0
SEQEND
  5
3D0
  8
6
  0
POLYLINE
  5
2B7
  8
6
 66
     1
 10
0.0
 20
0.0
 30
0.0
 70
     1
  0
VERTEX
  5
3D1
  8
6
 10
0.0
 20
0.0
 30
0.0
  0
VERTEX
  5
3D2
  8
6
 10
0.0
 20
-100.0
 30
0.0
  0
VERTEX
  5
3D3
  8
6
 10
4.0
 20
-100.0
 30
0.0
  0
VERTEX
  5
3D4
  8
6
 10
4.0
 20
0.0
 30
0.0
  0
SEQEND
  5
3D5
  8
6
  0
LINE
  5
2B8
  8
6
  6
STRICHPUNKT
 10
-6.3442814442405497
 20
-225.0
 30
0.0
 11
4.978595971755567
 21
-225.0
 31
0.0
  0
LINE
  5
2B9
  8
6
  6
STRICHPUNKT
 10
-6.3442814442405497
 20
-188.0
 30
0.0
 11
4.978595971755567
 21
-188.0
 31
0.0
  0
LINE
  5
2BA
  8
6
  6
STRICHPUNKT
 10
-6.3442814442405497
 20
-206.49999999999989
 30
0.0
 11
4.978595971755567
 21
-206.49999999999989
 31
0.0
  0
POLYLINE
  5
2BB
  8
6
 66
     1
 10
0.0
 20
0.0
 30
0.0
 70
     1
  0
VERTEX
  5
3D6
  8
6
 10
4.0
 20
-233.0
 30
0.0
  0
VERTEX
  5
3D7
  8
6
 10
0.0
 20
-233.0
 30
0.0
  0
VERTEX
  5
3D8
  8
6
 10
0.0
 20
-180.0
 30
0.0
  0
VERTEX
  5
3D9
  8
6
 10
4.0
 20
-180.0
 30
0.0
  0
SEQEND
  5
3DA
  8
6
  0
LINE
  5
2BC
  8
6
 10
0.0
 20
-25.0
 30
0.0
 11
4.0
 21
-25.0
 31
0.0
  0
LINE
  5
2BD
  8
6
  6
STRICHPUNKT
 10
-6.3442814442405497
 20
-91.0
 30
0.0
 11
4.978595971755567
 21
-91.0
 31
0.0
  0
LINE
  5
2BE
  8
6
  6
STRICHPUNKT
 10
-6.3442814442405497
 20
-13.0
 30
0.0
 11
4.978595971755567
 21
-13.0
 31
0.0
  0
POLYLINE
  5
2BF
  8
6
 66
     1
 10
0.0
 20
0.0
 30
0.0
 70
     1
  0
VERTEX
  5
3DB
  8
6
 10
-69.0
 20
0.0
 30
0.0
  0
VERTEX
  5
3DC
  8
6
 10
-52.0
 20
0.0
 30
0.0
 42
-0.4142135623730951
  0
VERTEX
  5
3DD
  8
6
 10
-48.0
 20
-4.0
 30
0.0
  0
VERTEX
  5
3DE
  8
6
 10
-48.0
 20
-80.0
 30
0.0
  0
VERTEX
  5
3DF
  8
6
 10
-51.0
 20
-80.0
 30
0.0
  0
VERTEX
  5
3E0
  8
6
 10
-51.0
 20
-5.0
 30
0.0
 42
0.4142135623730951
  0
VERTEX
  5
3E1
  8
6
 10
-53.0
 20
-3.0
 30
0.0
  0
VERTEX
  5
3E2
  8
6
 10
-69.0
 20
-3.0
 30
0.0
  0
SEQEND
  5
3E3
  8
6
  0
POLYLINE
  5
2C0
  8
6
 66
     1
 10
0.0
 20
0.0
 30
0.0
 70
     1
  0
VERTEX
  5
3E4
  8
6
 10
-83.0
 20
-1.5
 30
0.0
  0
VERTEX
  5
3E5
  8
6
 10
-83.0
 20
-25.0
 30
0.0
  0
VERTEX
  5
3E6
  8
6
 10
-69.457241616662941
 20
-97.550491339308806
 30
0.0
 42
0.3611388264968063
  0
VERTEX
  5
3E7
  8
6
 10
-66.508180870366232
 20
-100.0
 30
0.0
  0
VERTEX
  5
3E8
  8
6
 10
-46.491819129634671
 20
-100.0000000000018
 30
0.0
 42
0.3611388264968121
  0
VERTEX
  5
3E9
  8
6
 10
-43.542758383338871
 20
-97.550491339310611
 30
0.0
  0
VERTEX
  5
3EA
  8
6
 10
-30.0
 20
-25.0
 30
0.0
  0
VERTEX
  5
3EB
  8
6
 10
-30.0
 20
-1.5
 30
0.0
 42
0.4142135623730951
  0
VERTEX
  5
3EC
  8
6
 10
-31.5
 20
0.0
 30
0.0
  0
VERTEX
  5
3ED
  8
6
 10
-81.5
 20
0.0
 30
0.0
 42
0.4142135623730951
  0
SEQEND
  5
3EE
  8
6
  0
LINE
  5
2C1
  8
6
  6
STRICHPUNKT
 10
-75.0
 20
-7.9767679289925582
 30
0.0
 11
-75.0
 21
-18.023232071009261
 31
0.0
  0
LINE
  5
2C2
  8
6
  6
STRICHPUNKT
 10
-80.023232071008337
 20
-13.0
 30
0.0
 11
-69.976767928992544
 21
-13.0
 31
0.0
  0
CIRCLE
  5
2C3
  8
6
 10
-75.0
 20
-13.0
 30
0.0
 40
3.7000000000000002
  0
LINE
  5
2C4
  8
6
  6
STRICHPUNKT
 10
-38.0
 20
-7.9767679289925582
 30
0.0
 11
-38.0
 21
-18.023232071009261
 31
0.0
  0
CIRCLE
  5
2C5
  8
6
 10
-56.5
 20
-91.0
 30
0.0
 40
3.7000000000000002
  0
LINE
  5
2C6
  8
6
  6
STRICHPUNKT
 10
-61.523232071008351
 20
-91.0
 30
0.0
 11
-51.476767928992558
 21
-91.0
 31
0.0
  0
LINE
  5
2C7
  8
6
  6
STRICHPUNKT
 10
-56.5
 20
-85.976767928992544
 30
0.0
 11
-56.5
 21
-96.023232071009261
 31
0.0
  0
LINE
  5
2C8
  8
6
 10
-51.0
 20
-16.633200310832759
 30
0.0
 11
-48.0
 21
-16.633200310832759
 31
0.0
  0
LINE
  5
2C9
  8
6
  6
STRICHPUNKT
 10
-43.023232071008351
 20
-13.0
 30
0.0
 11
-32.976767928992558
 21
-13.0
 31
0.0
  0
CIRCLE
  5
2CA
  8
6
 10
-38.0
 20
-13.0
 30
0.0
 40
3.7000000000000002
  0
LINE
  5
2CB
  8
6
  6
STRICHPUNKT
 10
-60.0
 20
6.2130173182995341
 30
0.0
 11
-60.0
 21
-4.1098600976965818
 31
0.0
  0
LINE
  5
2CC
  8
6
  6
STRICHPUNKT
 10
45.0
 20
-212.0232320710092
 30
0.0
 11
45.0
 21
-201.9767679289925
 31
0.0
  0
CIRCLE
  5
2CD
  8
6
 10
45.0
 20
-207.0
 30
0.0
 40
2.7999999999999989
  0
LINE
  5
2CE
  8
6
  6
STRICHPUNKT
 10
39.976767928991649
 20
-207.0
 30
0.0
 11
50.023232071007442
 21
-207.0
 31
0.0
  0
LINE
  5
2CF
  8
6
  6
STRICHPUNKT
 10
180.0
 20
-212.0232320710092
 30
0.0
 11
180.0
 21
-201.9767679289925
 31
0.0
  0
CIRCLE
  5
2D0
  8
6
 10
180.0
 20
-207.0
 30
0.0
 40
2.7999999999999989
  0
LINE
  5
2D1
  8
6
  6
STRICHPUNKT
 10
174.9767679289925
 20
-207.0
 30
0.0
 11
185.02323207100741
 21
-207.0
 31
0.0
  0
LINE
  5
2D2
  8
6
  6
STRICHPUNKT
 10
315.0
 20
-212.0232320710092
 30
0.0
 11
315.0
 21
-201.9767679289925
 31
0.0
  0
LINE
  5
2D3
  8
6
  6
STRICHPUNKT
 10
309.9767679289925
 20
-207.0
 30
0.0
 11
320.02323207100739
 21
-207.0
 31
0.0
  0
CIRCLE
  5
2D4
  8
6
 10
315.0
 20
-207.0
 30
0.0
 40
2.7999999999999989
  0
LINE
  5
2D5
  8
6
  6
STRICHPUNKT
 10
45.0
 20
5.3211303313364624
 30
0.0
 11
45.0
 21
-5.0017470846596552
 31
0.0
  0
LINE
  5
2D6
  8
6
  6
STRICHPUNKT
 10
180.0
 20
5.3211303313364624
 30
0.0
 11
180.0
 21
-5.0017470846596552
 31
0.0
  0
LINE
  5
2D7
  8
6
  6
STRICHPUNKT
 10
315.0
 20
5.3211303313364624
 30
0.0
 11
315.0
 21
-5.0017470846596552
 31
0.0
  0
POLYLINE
  5
2D8
  8
4
 66
     1
 10
0.0
 20
0.0
 30
0.0
 70
     1
  0
VERTEX
  5
3EF
  8
4
 10
4.0
 20
-216.0
 30
0.0
  0
VERTEX
  5
3F0
  8
4
 10
330.0
 20
-216.0
 30
0.0
  0
VERTEX
  5
3F1
  8
4
 10
330.0
 20
-195.0
 30
0.0
  0
VERTEX
  5
3F2
  8
4
 10
4.0
 20
-195.0
 30
0.0
  0
SEQEND
  5
3F3
  8
4
  0
LINE
  5
2D9
  8
4
 10
4.0
 20
-3.0
 30
0.0
 11
330.0
 21
-3.0
 31
0.0
  0
POLYLINE
  5
2DA
  8
4
 66
     1
 10
0.0
 20
0.0
 30
0.0
 70
     1
  0
VERTEX
  5
3F4
  8
4
 10
4.0
 20
0.0
 30
0.0
  0
VERTEX
  5
3F5
  8
4
 10
330.0
 20
0.0
 30
0.0
  0
VERTEX
  5
3F6
  8
4
 10
330.0
 20
-17.073724650703539
 30
0.0
  0
VERTEX
  5
3F7
  8
4
 10
40.999999999999538
 20
-35.0
 30
0.0
  0
VERTEX
  5
3F8
  8
4
 10
16.0
 20
-80.0
 30
0.0
  0
VERTEX
  5
3F9
  8
4
 10
4.0
 20
-80.0
 30
0.0
  0
SEQEND
  5
3FA
  8
4
  0
LINE
  5
2DB
  8
4
  6
STRICHLINIE
 10
4.0
 20
-198.0
 30
0.0
 11
330.0
 21
-198.0
 31
0.0
  0
POLYLINE
  5
2DC
  8
4
 66
     1
 10
0.0
 20
0.0
 30
0.0
 70
     1
  0
VERTEX
  5
3FB
  8
4
 10
-83.0
 20
0.0000000000004547
 30
0.0
  0
VERTEX
  5
3FC
  8
4
 10
-83.0
 20
-25.0
 30
0.0
  0
VERTEX
  5
3FD
  8
4
 10
-69.0
 20
-100.0
 30
0.0
  0
VERTEX
  5
3FE
  8
4
 10
-44.0
 20
-100.0
 30
0.0
  0
VERTEX
  5
3FF
  8
4
 10
-30.0
 20
-25.0
 30
0.0
  0
VERTEX
  5
400
  8
4
 10
-30.0
 20
0.0
 30
0.0
  0
SEQEND
  5
401
  8
4
  0
POLYLINE
  5
2DD
  8
4
 66
     1
 10
0.0
 20
0.0
 30
0.0
 70
     1
  0
VERTEX
  5
402
  8
4
 10
-69.0
 20
0.0
 30
0.0
  0
VERTEX
  5
403
  8
4
 10
-48.0
 20
0.0
 30
0.0
  0
VERTEX
  5
404
  8
4
 10
-48.0
 20
-80.0
 30
0.0
  0
VERTEX
  5
405
  8
4
 10
-51.0
 20
-80.0
 30
0.0
  0
VERTEX
  5
406
  8
4
 10
-51.0
 20
-3.0
 30
0.0
  0
VERTEX
  5
407
  8
4
 10
-69.0
 20
-3.0
 30
0.0
  0
SEQEND
  5
408
  8
4
  0
POLYLINE
  5
2DE
  8
4
 66
     1
 10
0.0
 20
0.0
 30
0.0
 70
     1
  0
VERTEX
  5
409
  8
4
 10
0.0
 20
0.0
 30
0.0
  0
VERTEX
  5
40A
  8
4
 10
0.0
 20
-100.0
 30
0.0
  0
VERTEX
  5
40B
  8
4
 10
4.0
 20
-100.0
 30
0.0
  0
VERTEX
  5
40C
  8
4
 10
4.0
 20
0.0
 30
0.0
  0
SEQEND
  5
40D
  8
4
  0
POLYLINE
  5
2DF
  8
4
 66
     1
 10
0.0
 20
0.0
 30
0.0
 70
     1
  0
VERTEX
  5
40E
  8
4
 10
4.0
 20
-233.0
 30
0.0
  0
VERTEX
  5
40F
  8
4
 10
0.0
 20
-233.0
 30
0.0
  0
VERTEX
  5
410
  8
4
 10
0.0
 20
-180.0
 30
0.0
  0
VERTEX
  5
411
  8
4
 10
4.0
 20
-180.0
 30
0.0
  0
SEQEND
  5
412
  8
4
  0
LINE
  5
2E0
  8
4
 10
0.0
 20
-25.0
 30
0.0
 11
4.0
 21
-25.0
 31
0.0
  0
LINE
  5
2E1
  8
4
 10
-51.0
 20
-16.633200310832759
 30
0.0
 11
-48.0
 21
-16.633200310832759
 31
0.0
  0
POINT
  5
2E2
  8
5
 10
-56.5
 20
0.0
 30
0.0
  0
POINT
  5
2E3
  8
5
 10
0.0
 20
-206.49999999999989
 30
0.0
  0
TEXT
  5
2E4
  8
1
 10
59.222051036936129
 20
-19.122833745721231
 30
0.0
 40
8.0
  1
Hebgo FL/330
  0
VIEWPORT
  5
22
 67
     1
  8
0
 10
210.0
 20
170.2366863905325
 30
0.0
 40
420.0
 41
340.47337278106511
 68
     1
 69
     1
1001
ACAD
1000
MVIEW
1002
{
1070
    16
1010
0.0
1020
0.0
1030
0.0
1010
0.0
1020
0.0
1030
1.0
1040
0.0
1040
340.47337278106511
1040
210.0
1040
170.2366863905325
1040
50.0
1040
0.0
1040
0.0
1070
     0
1070
   100
1070
     1
1070
     1
1070
     0
1070
     0
1070
     0
1070
     0
1040
0.0
1040
0.0
1040
0.0
1040
5.0
1040
5.0
1040
10.0
1040
10.0
1070
     0
1002
{
1002
}
1002
}
  0
ENDSEC
  0
EOF
