  0
SECTION
  2
HEADER
  9
$ACADVER
  1
AC1009
  9
$INSBASE
 10
0.0
 20
0.0
 30
0.0
  9
$EXTMIN
 10
-112.6476877336836
 20
-332.02334143995341
 30
-0.0000000000000058
  9
$EXTMAX
 10
590.02289336187266
 20
8.9115670666744791
 30
0.0000000000000104
  9
$LIMMIN
 10
-150.0
 20
-150.0
  9
$LIMMAX
 10
150.0
 20
150.0
  9
$ORTHOMODE
 70
     0
  9
$REGENMODE
 70
     1
  9
$FILLMODE
 70
     1
  9
$QTEXTMODE
 70
     0
  9
$MIRRTEXT
 70
     0
  9
$DRAGMODE
 70
     2
  9
$LTSCALE
 40
1.0
  9
$OSMODE
 70
   111
  9
$ATTMODE
 70
     1
  9
$TEXTSIZE
 40
3.5
  9
$TRACEWID
 40
1.0
  9
$TEXTSTYLE
  7
BESCHLAG
  9
$CLAYER
  8
0
  9
$CELTYPE
  6
BYLAYER
  9
$CECOLOR
 62
   256
  9
$DIMSCALE
 40
1.0
  9
$DIMASZ
 40
2.0
  9
$DIMEXO
 40
2.0
  9
$DIMDLI
 40
0.0
  9
$DIMRND
 40
0.0
  9
$DIMDLE
 40
1.0
  9
$DIMEXE
 40
1.0
  9
$DIMTP
 40
0.0
  9
$DIMTM
 40
0.0
  9
$DIMTXT
 40
3.5
  9
$DIMCEN
 40
0.0
  9
$DIMTSZ
 40
0.0
  9
$DIMTOL
 70
     0
  9
$DIMLIM
 70
     0
  9
$DIMTIH
 70
     0
  9
$DIMTOH
 70
     0
  9
$DIMSE1
 70
     0
  9
$DIMSE2
 70
     0
  9
$DIMTAD
 70
     1
  9
$DIMZIN
 70
     8
  9
$DIMBLK
  1

  9
$DIMASO
 70
     1
  9
$DIMSHO
 70
     1
  9
$DIMPOST
  1

  9
$DIMAPOST
  1

  9
$DIMALT
 70
     0
  9
$DIMALTD
 70
     2
  9
$DIMALTF
 40
0.039370078740157
  9
$DIMLFAC
 40
1.0
  9
$DIMTOFL
 70
     1
  9
$DIMTVP
 40
0.0
  9
$DIMTIX
 70
     1
  9
$DIMSOXD
 70
     0
  9
$DIMSAH
 70
     1
  9
$DIMBLK1
  1
OBLIQUE
  9
$DIMBLK2
  1
OBLIQUE
  9
$DIMSTYLE
  2
OPO-SSTRICH
  9
$DIMCLRD
 70
   256
  9
$DIMCLRE
 70
   256
  9
$DIMCLRT
 70
   256
  9
$DIMTFAC
 40
0.7114285714285716
  9
$DIMGAP
 40
1.0
  9
$LUNITS
 70
     2
  9
$LUPREC
 70
     1
  9
$SKETCHINC
 40
1.0
  9
$FILLETRAD
 40
0.0
  9
$AUNITS
 70
     0
  9
$AUPREC
 70
     1
  9
$MENU
  1
D:\ACL_CGWG\CGTAB13
  9
$ELEVATION
 40
0.0
  9
$PELEVATION
 40
0.0
  9
$THICKNESS
 40
0.0
  9
$LIMCHECK
 70
     0
  9
$BLIPMODE
 70
     0
  9
$CHAMFERA
 40
1.0
  9
$CHAMFERB
 40
1.0
  9
$SKPOLY
 70
     0
  9
$TDCREATE
 40
2451739.9162539691
  9
$TDUPDATE
 40
2452087.6613154281
  9
$TDINDWG
 40
0.0009015509
  9
$TDUSRTIMER
 40
0.0009015509
  9
$USRTIMER
 70
     1
  9
$ANGBASE
 50
0.0
  9
$ANGDIR
 70
     0
  9
$PDMODE
 70
    35
  9
$PDSIZE
 40
5.0
  9
$PLINEWID
 40
0.0
  9
$COORDS
 70
     1
  9
$SPLFRAME
 70
     0
  9
$SPLINETYPE
 70
     6
  9
$SPLINESEGS
 70
     8
  9
$ATTDIA
 70
     1
  9
$ATTREQ
 70
     1
  9
$HANDLING
 70
-16383
  9
$HANDSEED
  5
41B
  9
$SURFTAB1
 70
    12
  9
$SURFTAB2
 70
    12
  9
$SURFTYPE
 70
     6
  9
$SURFU
 70
    12
  9
$SURFV
 70
    12
  9
$UCSNAME
  2

  9
$UCSORG
 10
0.0
 20
0.0
 30
0.0
  9
$UCSXDIR
 10
1.0
 20
0.0
 30
0.0
  9
$UCSYDIR
 10
0.0
 20
1.0
 30
0.0
  9
$PUCSNAME
  2

  9
$PUCSORG
 10
0.0
 20
0.0
 30
0.0
  9
$PUCSXDIR
 10
1.0
 20
0.0
 30
0.0
  9
$PUCSYDIR
 10
0.0
 20
1.0
 30
0.0
  9
$USERI1
 70
     0
  9
$USERI2
 70
     0
  9
$USERI3
 70
     0
  9
$USERI4
 70
     0
  9
$USERI5
 70
     0
  9
$USERR1
 40
0.0
  9
$USERR2
 40
0.0
  9
$USERR3
 40
0.0
  9
$USERR4
 40
0.0
  9
$USERR5
 40
0.0
  9
$WORLDVIEW
 70
     1
  9
$SHADEDGE
 70
     3
  9
$SHADEDIF
 70
    70
  9
$TILEMODE
 70
     1
  9
$MAXACTVP
 70
    48
  9
$PLIMCHECK
 70
     0
  9
$PEXTMIN
 10
1.0000000000000000E+020
 20
1.0000000000000000E+020
 30
1.0000000000000000E+020
  9
$PEXTMAX
 10
-1.0000000000000000E+020
 20
-1.0000000000000000E+020
 30
-1.0000000000000000E+020
  9
$PLIMMIN
 10
0.0
 20
0.0
  9
$PLIMMAX
 10
420.0
 20
297.0
  9
$UNITMODE
 70
     0
  9
$VISRETAIN
 70
     1
  9
$PLINEGEN
 70
     0
  9
$PSLTSCALE
 70
     1
  0
ENDSEC
  0
SECTION
  2
TABLES
  0
TABLE
  2
VPORT
 70
     2
  0
VPORT
  2
*ACTIVE
 70
     0
 10
0.0
 20
0.0
 11
1.0
 21
1.0
 12
238.68760281409459
 22
-161.55588718663941
 13
0.0
 23
0.0
 14
0.5
 24
0.5
 15
10.0
 25
10.0
 16
0.0
 26
0.0
 36
1.0
 17
0.0
 27
0.0
 37
0.0
 40
439.45261410453929
 41
1.6070460704607039
 42
50.0
 43
0.0
 44
0.0
 50
0.0
 51
0.0
 71
     0
 72
   800
 73
     1
 74
     1
 75
     0
 76
     0
 77
     0
 78
     0
  0
ENDTAB
  0
TABLE
  2
LTYPE
 70
     3
  0
LTYPE
  2
CONTINUOUS
 70
     0
  3
_______________________________________________
 72
    65
 73
     2
 40
1.0
 49
1.0
 49
0.0
  0
LTYPE
  2
STRICHLINIE
 70
     0
  3
Strichlinie __ __ __ __ __ __ __ __ __ __ __ __
 72
    65
 73
     2
 40
19.04999999999999
 49
12.699999999999999
 49
-6.3499999999999988
  0
LTYPE
  2
STRICHPUNKT
 70
     0
  3
__ . __ . __ . __ . __ . __ . __ . __ . __ . __
 72
    65
 73
     4
 40
1.0
 49
0.5
 49
-0.25
 49
0.0
 49
-0.25
  0
ENDTAB
  0
TABLE
  2
LAYER
 70
     6
  0
LAYER
  2
0
 70
     0
 62
    30
  6
CONTINUOUS
  0
LAYER
  2
1
 70
     0
 62
     2
  6
CONTINUOUS
  0
LAYER
  2
4
 70
     1
 62
     4
  6
CONTINUOUS
  0
LAYER
  2
5
 70
     0
 62
     1
  6
CONTINUOUS
  0
LAYER
  2
6
 70
     0
 62
     3
  6
CONTINUOUS
  0
LAYER
  2
DEFPOINTS
 70
     0
 62
     7
  6
CONTINUOUS
  0
ENDTAB
  0
TABLE
  2
STYLE
 70
     2
  0
STYLE
  2
STANDARD
 70
     0
 40
0.0
 41
1.0
 50
0.0
 71
     0
 42
2.5
  3
txt
  4

  0
STYLE
  2
BESCHLAG
 70
     0
 40
0.0
 41
1.0
 50
0.0
 71
     0
 42
3.5
  3
txt
  4

  0
ENDTAB
  0
TABLE
  2
VIEW
 70
     0
  0
ENDTAB
  0
TABLE
  2
UCS
 70
     0
  0
ENDTAB
  0
TABLE
  2
APPID
 70
     1
  0
APPID
  2
ACAD
 70
     0
  0
ENDTAB
  0
TABLE
  2
DIMSTYLE
 70
     2
  0
DIMSTYLE
  2
OPO-SSTRICH
 70
     0
  3

  4

  5

  6
OBLIQUE
  7
OBLIQUE
 40
1.0
 41
2.0
 42
2.0
 43
0.0
 44
1.0
 45
0.0
 46
1.0
 47
0.0
 48
0.0
140
3.5
141
0.0
142
0.0
143
0.039370078740157
144
1.0
145
0.0
146
0.7114285714285716
147
1.0
 71
     0
 72
     0
 73
     0
 74
     0
 75
     0
 76
     0
 77
     1
 78
     8
170
     0
171
     2
172
     1
173
     1
174
     1
175
     0
176
   256
177
   256
178
   256
  0
DIMSTYLE
  2
OPO-SSTRICH-10
 70
     0
  3

  4

  5

  6

  7

 40
10.0
 41
0.0
 42
2.0
 43
0.0
 44
1.0
 45
0.0
 46
1.0
 47
0.0
 48
0.0
140
1.8
141
2.0
142
1.0
143
0.039370078740157
144
1.0
145
0.0
146
1.388888888888888
147
1.0
 71
     0
 72
     0
 73
     0
 74
     0
 75
     0
 76
     0
 77
     1
 78
     8
170
     0
171
     2
172
     1
173
     0
174
     1
175
     0
176
   256
177
   256
178
   256
  0
ENDTAB
  0
ENDSEC
  0
SECTION
  2
BLOCKS
  0
BLOCK
  8
0
  2
$MODEL_SPACE
 70
     0
 10
0.0
 20
0.0
 30
0.0
  3
$MODEL_SPACE
  1

  0
ENDBLK
  5
1C
  8
0
  0
BLOCK
 67
     1
  8
0
  2
$PAPER_SPACE
 70
     0
 10
0.0
 20
0.0
 30
0.0
  3
$PAPER_SPACE
  1

  0
ENDBLK
  5
19
 67
     1
  8
0
  0
BLOCK
  8
0
  2
_OBLIQUE
 70
     0
 10
0.0
 20
0.0
 30
0.0
  3
_OBLIQUE
  1

  0
LINE
  5
204
  8
0
 62
     0
 10
-0.5
 20
-0.5
 30
0.0
 11
0.5
 21
0.5
 31
0.0
  0
ENDBLK
  5
206
  8
0
  0
BLOCK
  8
0
  2
NULLPUNKT
 70
     0
 10
0.0
 20
0.0
 30
0.0
  3
NULLPUNKT
  1

  0
SOLID
  5
254
  8
5
 10
0.0
 20
0.0
 30
0.0
 11
2.0
 21
0.0
 31
0.0
 12
0.0
 22
-2.0
 32
0.0
 13
0.0
 23
-2.0
 33
0.0
  0
SOLID
  5
255
  8
5
 10
0.0
 20
0.0
 30
0.0
 11
-2.0
 21
0.0
 31
0.0
 12
0.0
 22
2.0
 32
0.0
 13
0.0
 23
2.0
 33
0.0
  0
POLYLINE
  5
256
  8
5
 66
     1
 10
0.0
 20
0.0
 30
0.0
  0
VERTEX
  5
3C5
  8
5
 10
0.0
 20
2.0
 30
0.0
  0
VERTEX
  5
3C6
  8
5
 10
0.0
 20
-2.0
 30
0.0
  0
SEQEND
  5
3C7
  8
5
  0
POLYLINE
  5
257
  8
5
 66
     1
 10
0.0
 20
0.0
 30
0.0
  0
VERTEX
  5
3C8
  8
5
 10
-2.0
 20
0.0
 30
0.0
  0
VERTEX
  5
3C9
  8
5
 10
2.0
 20
0.0
 30
0.0
  0
SEQEND
  5
3CA
  8
5
  0
CIRCLE
  5
258
  8
5
 10
0.0
 20
0.0
 30
0.0
 40
2.0
  0
ENDBLK
  5
25A
  8
0
  0
BLOCK
  8
0
  2
*D2
 70
     1
 10
0.0
 20
0.0
 30
0.0
  3
*D2
  1

  0
LINE
  5
2F9
  8
1
 10
-0.0000000000000012
 20
-190.0
 30
0.0
 11
-0.0000000000000037
 21
-229.9539720148293
 31
0.0
  0
LINE
  5
2FA
  8
1
 10
580.00000000000045
 20
-27.644066449731319
 30
0.0
 11
580.00000000000045
 21
-229.9539720148293
 31
0.0
  0
LINE
  5
2FB
  8
1
 10
-10.0
 20
-219.9539720148293
 30
0.0
 11
590.00000000000045
 21
-219.9539720148293
 31
0.0
  0
LINE
  5
2FC
  8
1
 10
570.00000000000045
 20
-229.9539720148293
 30
0.0
 11
590.00000000000045
 21
-209.9539720148293
 31
0.0
  0
LINE
  5
2FD
  8
1
 10
-10.0
 20
-229.9539720148293
 30
0.0
 11
9.9999999999999964
 21
-209.9539720148293
 31
0.0
  0
TEXT
  5
2FE
  8
0
 10
269.10231923601651
 20
-209.61017938181431
 30
0.0
 40
18.0
  1
580
  0
POINT
  5
2FF
  8
DEFPOINTS
 62
     0
 10
0.0
 20
-170.0
 30
0.0
  0
POINT
  5
300
  8
DEFPOINTS
 62
     0
 10
580.00000000000045
 20
-7.6440664497313264
 30
0.0
  0
POINT
  5
301
  8
DEFPOINTS
 62
     0
 10
580.00000000000045
 20
-219.9539720148293
 30
0.0
  0
ENDBLK
  5
2F8
  8
0
  0
ENDSEC
  0
SECTION
  2
ENTITIES
  0
INSERT
  5
25B
  8
5
  2
NULLPUNKT
 10
0.0
 20
0.0
 30
0.0
  0
TEXT
  5
2B6
  8
1
 10
91.064624882685848
 20
-31.012488329650971
 30
0.0
 40
10.0
  1
Hebgo FL/580
  0
POINT
  5
2B7
  8
5
 10
0.0000000000002274
 20
-290.99999999999898
 30
0.0
  0
POINT
  5
2B8
  8
5
 10
-70.999999999999773
 20
0.0
 30
0.0
  0
LINE
  5
2B9
  8
4
 10
0.0
 20
-34.0
 30
0.0
 11
6.0
 21
-34.0
 31
0.0
  0
LINE
  5
2BA
  8
4
 10
-62.0
 20
-14.0
 30
0.0
 11
-58.0
 21
-14.0
 31
0.0
  0
POLYLINE
  5
2BB
  8
4
 66
     1
 10
0.0
 20
0.0
 30
0.0
 70
     1
  0
VERTEX
  5
3CB
  8
4
 10
6.0
 20
-332.0
 30
0.0
  0
VERTEX
  5
3CC
  8
4
 10
0.0
 20
-332.0
 30
0.0
  0
VERTEX
  5
3CD
  8
4
 10
0.0
 20
-250.0
 30
0.0
  0
VERTEX
  5
3CE
  8
4
 10
6.0
 20
-250.0
 30
0.0
  0
SEQEND
  5
3CF
  8
4
  0
POLYLINE
  5
2BC
  8
4
 66
     1
 10
0.0
 20
0.0
 30
0.0
 70
     1
  0
VERTEX
  5
3D0
  8
4
 10
-112.0
 20
0.0
 30
0.0
  0
VERTEX
  5
3D1
  8
4
 10
-112.0
 20
-34.0
 30
0.0
  0
VERTEX
  5
3D2
  8
4
 10
-88.0
 20
-170.0
 30
0.0
  0
VERTEX
  5
3D3
  8
4
 10
-54.0
 20
-170.0
 30
0.0
  0
VERTEX
  5
3D4
  8
4
 10
-30.0
 20
-34.0
 30
0.0
  0
VERTEX
  5
3D5
  8
4
 10
-30.0
 20
0.0
 30
0.0
  0
SEQEND
  5
3D6
  8
4
  0
POLYLINE
  5
2BD
  8
4
 66
     1
 10
0.0
 20
0.0
 30
0.0
 70
     1
  0
VERTEX
  5
3D7
  8
4
 10
0.0
 20
0.0
 30
0.0
  0
VERTEX
  5
3D8
  8
4
 10
0.0
 20
-170.0
 30
0.0
  0
VERTEX
  5
3D9
  8
4
 10
6.0
 20
-170.0
 30
0.0
  0
VERTEX
  5
3DA
  8
4
 10
6.0
 20
0.0
 30
0.0
  0
SEQEND
  5
3DB
  8
4
  0
POLYLINE
  5
2BE
  8
4
 66
     1
 10
0.0
 20
0.0
 30
0.0
 70
     1
  0
VERTEX
  5
3DC
  8
4
 10
-88.0
 20
0.0
 30
0.0
  0
VERTEX
  5
3DD
  8
4
 10
-58.0
 20
0.0
 30
0.0
  0
VERTEX
  5
3DE
  8
4
 10
-58.0
 20
-139.0
 30
0.0
  0
VERTEX
  5
3DF
  8
4
 10
-62.0
 20
-139.0
 30
0.0
  0
VERTEX
  5
3E0
  8
4
 10
-62.0
 20
-4.0
 30
0.0
  0
VERTEX
  5
3E1
  8
4
 10
-88.0
 20
-4.0
 30
0.0
  0
SEQEND
  5
3E2
  8
4
  0
POLYLINE
  5
2BF
  8
4
 66
     1
 10
0.0
 20
0.0
 30
0.0
 70
     1
  0
VERTEX
  5
3E3
  8
4
 10
6.0
 20
0.0
 30
0.0
  0
VERTEX
  5
3E4
  8
4
 10
580.0
 20
0.0
 30
0.0
  0
VERTEX
  5
3E5
  8
4
 10
580.0
 20
-21.0
 30
0.0
  0
VERTEX
  5
3E6
  8
4
 10
64.999999999999091
 20
-57.0
 30
0.0
  0
VERTEX
  5
3E7
  8
4
 10
20.0
 20
-139.0
 30
0.0
  0
VERTEX
  5
3E8
  8
4
 10
6.0
 20
-139.0
 30
0.0
  0
SEQEND
  5
3E9
  8
4
  0
LINE
  5
2C0
  8
4
 10
6.0
 20
-4.0
 30
0.0
 11
580.0
 21
-4.0
 31
0.0
  0
POLYLINE
  5
2C1
  8
4
 66
     1
 10
0.0
 20
0.0
 30
0.0
 70
     1
  0
VERTEX
  5
3EA
  8
4
 10
6.0
 20
-308.0
 30
0.0
  0
VERTEX
  5
3EB
  8
4
 10
580.0
 20
-308.0
 30
0.0
  0
VERTEX
  5
3EC
  8
4
 10
580.0
 20
-278.0
 30
0.0
  0
VERTEX
  5
3ED
  8
4
 10
6.0
 20
-278.0
 30
0.0
  0
SEQEND
  5
3EE
  8
4
  0
LINE
  5
2C2
  8
4
  6
STRICHLINIE
 10
6.0
 20
-282.0
 30
0.0
 11
580.0
 21
-282.0
 31
0.0
  0
LINE
  5
2C3
  8
6
  6
STRICHPUNKT
 10
565.00000000000045
 20
-300.02323207100739
 30
0.0
 11
565.00000000000045
 21
-289.9767679289925
 31
0.0
  0
LINE
  5
2C4
  8
6
  6
STRICHPUNKT
 10
559.9767679289921
 20
-295.0
 30
0.0
 11
570.02323207100881
 21
-295.0
 31
0.0
  0
CIRCLE
  5
2C5
  8
6
 10
565.00000000000045
 20
-295.0
 30
0.0
 40
2.7999999999999989
  0
LINE
  5
2C6
  8
6
  6
STRICHPUNKT
 10
394.0000000000004
 20
-300.02323207100739
 30
0.0
 11
394.0000000000004
 21
-289.9767679289925
 31
0.0
  0
LINE
  5
2C7
  8
6
  6
STRICHPUNKT
 10
388.9767679289921
 20
-295.0
 30
0.0
 11
399.02323207100881
 21
-295.0
 31
0.0
  0
CIRCLE
  5
2C8
  8
6
 10
394.0000000000004
 20
-295.0
 30
0.0
 40
2.7999999999999989
  0
LINE
  5
2C9
  8
6
  6
STRICHPUNKT
 10
223.0000000000002
 20
-300.02323207100739
 30
0.0
 11
223.0000000000002
 21
-289.9767679289925
 31
0.0
  0
LINE
  5
2CA
  8
6
  6
STRICHPUNKT
 10
217.97676792899179
 20
-295.0
 30
0.0
 11
228.02323207100849
 21
-295.0
 31
0.0
  0
CIRCLE
  5
2CB
  8
6
 10
223.0000000000002
 20
-295.0
 30
0.0
 40
2.7999999999999989
  0
LINE
  5
2CC
  8
6
  6
STRICHPUNKT
 10
52.000000000000227
 20
-300.02323207100739
 30
0.0
 11
52.000000000000227
 21
-289.9767679289925
 31
0.0
  0
CIRCLE
  5
2CD
  8
6
 10
52.000000000000227
 20
-295.0
 30
0.0
 40
2.7999999999999989
  0
LINE
  5
2CE
  8
6
  6
STRICHPUNKT
 10
46.976767928991869
 20
-295.0
 30
0.0
 11
57.023232071008579
 21
-295.0
 31
0.0
  0
LINE
  5
2CF
  8
6
  6
STRICHPUNKT
 10
223.0000000000002
 20
5.3211303313364624
 30
0.0
 11
223.0000000000002
 21
-6.0017470846596552
 31
0.0
  0
LINE
  5
2D0
  8
6
  6
STRICHLINIE
 10
6.0000000000002274
 20
-282.0
 30
0.0
 11
580.00000000000045
 21
-282.0
 31
0.0
  0
CIRCLE
  5
2D1
  8
6
 10
-100.9999999999997
 20
-15.0
 30
0.0
 40
5.0
  0
LINE
  5
2D2
  8
6
  6
STRICHPUNKT
 10
-100.9999999999997
 20
-7.8124270814241754
 30
0.0
 11
-100.9999999999997
 21
-22.187572918575821
 31
0.0
  0
LINE
  5
2D3
  8
6
  6
STRICHPUNKT
 10
-108.18757291857651
 20
-15.0
 30
0.0
 11
-93.812427081423039
 21
-15.0
 31
0.0
  0
CIRCLE
  5
2D4
  8
6
 10
-40.999999999999773
 20
-15.0
 30
0.0
 40
5.0
  0
LINE
  5
2D5
  8
6
  6
STRICHPUNKT
 10
-40.999999999999773
 20
-7.8124270814241754
 30
0.0
 11
-40.999999999999773
 21
-22.187572918575821
 31
0.0
  0
LINE
  5
2D6
  8
6
  6
STRICHPUNKT
 10
-48.1875729185765
 20
-15.0
 30
0.0
 11
-33.812427081423039
 21
-15.0
 31
0.0
  0
LINE
  5
2D7
  8
6
  6
STRICHPUNKT
 10
394.0000000000004
 20
5.3211303313364624
 30
0.0
 11
394.0000000000004
 21
-6.0017470846596552
 31
0.0
  0
LINE
  5
2D8
  8
6
 10
-61.999999999999773
 20
-14.0
 30
0.0
 11
-57.999999999999773
 21
-14.0
 31
0.0
  0
LINE
  5
2D9
  8
6
  6
STRICHPUNKT
 10
-70.999999999999773
 20
8.8883266718967207
 30
0.0
 11
-70.999999999999773
 21
-5.25195187688223
 31
0.0
  0
POLYLINE
  5
2DA
  8
6
 66
     1
 10
0.0
 20
0.0
 30
0.0
 70
     1
  0
VERTEX
  5
3EF
  8
6
 10
-87.999999999999773
 20
0.0
 30
0.0
  0
VERTEX
  5
3F0
  8
6
 10
-61.999999999999773
 20
0.0000000000002274
 30
0.0
 42
-0.4142135623730951
  0
VERTEX
  5
3F1
  8
6
 10
-57.999999999999773
 20
-3.9999999999997722
 30
0.0
  0
VERTEX
  5
3F2
  8
6
 10
-57.999999999999773
 20
-139.0
 30
0.0
  0
VERTEX
  5
3F3
  8
6
 10
-61.999999999999773
 20
-139.0
 30
0.0
  0
VERTEX
  5
3F4
  8
6
 10
-61.999999999999773
 20
-6.0000000000002274
 30
0.0
 42
0.4142135623730951
  0
VERTEX
  5
3F5
  8
6
 10
-63.999999999999773
 20
-4.0000000000002274
 30
0.0
  0
VERTEX
  5
3F6
  8
6
 10
-87.999999999999773
 20
-4.0
 30
0.0
  0
SEQEND
  5
3F7
  8
6
  0
DIMENSION
  5
2DB
  8
1
  2
*D2
 10
580.00000000000045
 20
-219.9539720148293
 30
0.0
 11
290.00000000000023
 21
-200.76365823583879
 31
0.0
 70
     0
 13
0.0
 23
-170.0
 33
0.0
 14
580.00000000000045
 24
-7.6440664497313264
 34
0.0
  0
LINE
  5
2DC
  8
6
  6
STRICHPUNKT
 10
565.00000000000045
 20
5.3211303313364624
 30
0.0
 11
565.00000000000045
 21
-6.0017470846596552
 31
0.0
  0
LINE
  5
2DD
  8
6
  6
STRICHPUNKT
 10
52.000000000000227
 20
5.3211303313364624
 30
0.0
 11
52.000000000000227
 21
-6.0017470846596552
 31
0.0
  0
LINE
  5
2DE
  8
6
  6
STRICHPUNKT
 10
-6.3442814442403233
 20
-321.0
 30
0.0
 11
6.978595971756703
 21
-321.0
 31
0.0
  0
LINE
  5
2DF
  8
6
  6
STRICHPUNKT
 10
-6.3442814442403233
 20
-291.0
 30
0.0
 11
6.978595971756703
 21
-291.0
 31
0.0
  0
LINE
  5
2E0
  8
6
  6
STRICHPUNKT
 10
-6.3442814442403233
 20
-261.0
 30
0.0
 11
6.978595971756703
 21
-261.0
 31
0.0
  0
POLYLINE
  5
2E1
  8
6
 66
     1
 10
0.0
 20
0.0
 30
0.0
 70
     1
  0
VERTEX
  5
3F8
  8
6
 10
6.0000000000002274
 20
-308.0
 30
0.0
  0
VERTEX
  5
3F9
  8
6
 10
580.00000000000045
 20
-308.0
 30
0.0
  0
VERTEX
  5
3FA
  8
6
 10
580.00000000000045
 20
-278.0
 30
0.0
  0
VERTEX
  5
3FB
  8
6
 10
6.0000000000002274
 20
-278.0
 30
0.0
  0
SEQEND
  5
3FC
  8
6
  0
POLYLINE
  5
2E2
  8
6
 66
     1
 10
0.0
 20
0.0
 30
0.0
 70
     1
  0
VERTEX
  5
3FD
  8
6
 10
6.0000000000002274
 20
-332.0
 30
0.0
  0
VERTEX
  5
3FE
  8
6
 10
0.0000000000002274
 20
-332.0
 30
0.0
  0
VERTEX
  5
3FF
  8
6
 10
0.0000000000002274
 20
-250.0
 30
0.0
  0
VERTEX
  5
400
  8
6
 10
6.0000000000002274
 20
-250.0
 30
0.0
  0
SEQEND
  5
401
  8
6
  0
LINE
  5
2E3
  8
6
 10
6.0000000000002274
 20
-4.0
 30
0.0
 11
580.00000000000045
 21
-4.0
 31
0.0
  0
POLYLINE
  5
2E4
  8
6
 66
     1
 10
0.0
 20
0.0
 30
0.0
 70
     1
  0
VERTEX
  5
402
  8
6
 10
6.0000000000002274
 20
0.0
 30
0.0
  0
VERTEX
  5
403
  8
6
 10
580.00000000000045
 20
0.0
 30
0.0
  0
VERTEX
  5
404
  8
6
 10
580.00000000000045
 20
-15.404776088334749
 30
0.0
 42
-0.3939173439758382
  0
VERTEX
  5
405
  8
6
 10
574.41839649154258
 20
-21.39017034233893
 30
0.0
  0
VERTEX
  5
406
  8
6
 10
64.999999999999318
 20
-57.0
 30
0.0
  0
VERTEX
  5
407
  8
6
 10
21.70858065326615
 20
-135.88658636515939
 30
0.0
 42
-0.2737701509808614
  0
VERTEX
  5
408
  8
6
 10
16.448578832308829
 20
-139.0
 30
0.0
  0
VERTEX
  5
409
  8
6
 10
6.0000000000002274
 20
-139.0
 30
0.0
  0
SEQEND
  5
40A
  8
6
  0
LINE
  5
2E5
  8
6
  6
STRICHPUNKT
 10
-8.2969851464356452
 20
-154.0
 30
0.0
 11
7.0816704904057133
 21
-154.0
 31
0.0
  0
LINE
  5
2E6
  8
6
  6
STRICHPUNKT
 10
-7.7643724779925369
 20
-15.0
 30
0.0
 11
6.752543849850781
 21
-15.0
 31
0.0
  0
POLYLINE
  5
2E7
  8
6
 66
     1
 10
0.0
 20
0.0
 30
0.0
 70
     1
  0
VERTEX
  5
40B
  8
6
 10
0.0000000000002274
 20
0.0
 30
0.0
  0
VERTEX
  5
40C
  8
6
 10
0.0000000000002274
 20
-170.0
 30
0.0
  0
VERTEX
  5
40D
  8
6
 10
6.0000000000002274
 20
-170.0
 30
0.0
  0
VERTEX
  5
40E
  8
6
 10
6.0000000000002274
 20
0.0
 30
0.0
  0
SEQEND
  5
40F
  8
6
  0
LINE
  5
2E8
  8
6
 10
0.0000000000002274
 20
-34.0
 30
0.0
 11
6.0000000000002274
 21
-34.0
 31
0.0
  0
LINE
  5
2E9
  8
6
  6
STRICHPUNKT
 10
-70.999999999999773
 20
-146.81242708142409
 30
0.0
 11
-70.999999999999773
 21
-161.1875729185758
 31
0.0
  0
LINE
  5
2EA
  8
6
  6
STRICHPUNKT
 10
-78.187572918576507
 20
-154.0
 30
0.0
 11
-63.812427081423039
 21
-154.0
 31
0.0
  0
CIRCLE
  5
2EB
  8
6
 10
-70.999999999999773
 20
-154.0
 30
0.0
 40
5.0
  0
POLYLINE
  5
2EC
  8
6
 66
     1
 10
0.0
 20
0.0
 30
0.0
 70
     1
  0
VERTEX
  5
410
  8
6
 10
-111.9999999999997
 20
-3.0
 30
0.0
  0
VERTEX
  5
411
  8
6
 10
-111.9999999999997
 20
-34.0
 30
0.0
  0
VERTEX
  5
412
  8
6
 10
-88.437407764401314
 20
-167.5213560017273
 30
0.0
 42
0.363930803762506
  0
VERTEX
  5
413
  8
6
 10
-85.483057087947373
 20
-170.0
 30
0.0
  0
VERTEX
  5
414
  8
6
 10
-56.516942912052173
 20
-170.0
 30
0.0
 42
0.363930803762506
  0
VERTEX
  5
415
  8
6
 10
-53.562592235598231
 20
-167.5213560017273
 30
0.0
  0
VERTEX
  5
416
  8
6
 10
-29.999999999999769
 20
-34.0
 30
0.0
  0
VERTEX
  5
417
  8
6
 10
-29.999999999999769
 20
-3.0
 30
0.0
 42
0.4142135623730951
  0
VERTEX
  5
418
  8
6
 10
-32.999999999999773
 20
0.0
 30
0.0
  0
VERTEX
  5
419
  8
6
 10
-108.9999999999997
 20
0.0
 30
0.0
 42
0.4142135623730951
  0
SEQEND
  5
41A
  8
6
  0
VIEWPORT
  5
22
 67
     1
  8
0
 10
210.0
 20
170.2366863905325
 30
0.0
 40
420.0
 41
340.47337278106511
 68
     1
 69
     1
1001
ACAD
1000
MVIEW
1002
{
1070
    16
1010
0.0
1020
0.0
1030
0.0
1010
0.0
1020
0.0
1030
1.0
1040
0.0
1040
340.47337278106511
1040
210.0
1040
170.2366863905325
1040
50.0
1040
0.0
1040
0.0
1070
     0
1070
   100
1070
     1
1070
     1
1070
     0
1070
     0
1070
     0
1070
     0
1040
0.0
1040
0.0
1040
0.0
1040
5.0
1040
5.0
1040
10.0
1040
10.0
1070
     0
1002
{
1002
}
1002
}
  0
ENDSEC
  0
EOF
