  0
SECTION
  2
HEADER
  9
$ACADVER
  1
AC1015
  9
$ACADMAINTVER
 70
    13
  9
$DWGCODEPAGE
  3
ANSI_1252
  9
$INSBASE
 10
0.0
 20
0.0
 30
0.0
  9
$EXTMIN
 10
-230.0375266925052
 20
-647.6508507418134
 30
-0.0000000000000058
  9
$EXTMAX
 10
590.0375419670104
 20
10.05997448583684
 30
0.0000000000000104
  9
$LIMMIN
 10
-150.0
 20
-150.0
  9
$LIMMAX
 10
150.0
 20
150.0
  9
$ORTHOMODE
 70
     0
  9
$REGENMODE
 70
     1
  9
$FILLMODE
 70
     1
  9
$QTEXTMODE
 70
     0
  9
$MIRRTEXT
 70
     0
  9
$LTSCALE
 40
2.0
  9
$ATTMODE
 70
     1
  9
$TEXTSIZE
 40
2.5
  9
$TRACEWID
 40
1.0
  9
$TEXTSTYLE
  7
STANDARD
  9
$CLAYER
  8
6
  9
$CELTYPE
  6
BYLAYER
  9
$CECOLOR
 62
   256
  9
$CELTSCALE
 40
1.0
  9
$DISPSILH
 70
     1
  9
$DIMSCALE
 40
1.0
  9
$DIMASZ
 40
2.0
  9
$DIMEXO
 40
2.0
  9
$DIMDLI
 40
0.0
  9
$DIMRND
 40
0.0
  9
$DIMDLE
 40
1.0
  9
$DIMEXE
 40
1.0
  9
$DIMTP
 40
0.0
  9
$DIMTM
 40
0.0
  9
$DIMTXT
 40
3.5
  9
$DIMCEN
 40
0.0
  9
$DIMTSZ
 40
0.0
  9
$DIMTOL
 70
     0
  9
$DIMLIM
 70
     0
  9
$DIMTIH
 70
     0
  9
$DIMTOH
 70
     0
  9
$DIMSE1
 70
     0
  9
$DIMSE2
 70
     0
  9
$DIMTAD
 70
     1
  9
$DIMZIN
 70
     8
  9
$DIMBLK
  1

  9
$DIMASO
 70
     1
  9
$DIMSHO
 70
     1
  9
$DIMPOST
  1

  9
$DIMAPOST
  1

  9
$DIMALT
 70
     0
  9
$DIMALTD
 70
     2
  9
$DIMALTF
 40
0.039370078740157
  9
$DIMLFAC
 40
1.0
  9
$DIMTOFL
 70
     1
  9
$DIMTVP
 40
0.0
  9
$DIMTIX
 70
     1
  9
$DIMSOXD
 70
     0
  9
$DIMSAH
 70
     1
  9
$DIMBLK1
  1
Oblique
  9
$DIMBLK2
  1
Oblique
  9
$DIMSTYLE
  2
OPO-SSTRICH
  9
$DIMCLRD
 70
   256
  9
$DIMCLRE
 70
   256
  9
$DIMCLRT
 70
   256
  9
$DIMTFAC
 40
0.7114285714285716
  9
$DIMGAP
 40
1.0
  9
$DIMJUST
 70
     0
  9
$DIMSD1
 70
     0
  9
$DIMSD2
 70
     0
  9
$DIMTOLJ
 70
     1
  9
$DIMTZIN
 70
     8
  9
$DIMALTZ
 70
     8
  9
$DIMALTTZ
 70
     8
  9
$DIMUPT
 70
     0
  9
$DIMDEC
 70
     1
  9
$DIMTDEC
 70
     1
  9
$DIMALTU
 70
     2
  9
$DIMALTTD
 70
     2
  9
$DIMTXSTY
  7
Beschlag
  9
$DIMAUNIT
 70
     0
  9
$DIMADEC
 70
     1
  9
$DIMALTRND
 40
0.0
  9
$DIMAZIN
 70
     2
  9
$DIMDSEP
 70
    46
  9
$DIMATFIT
 70
     3
  9
$DIMFRAC
 70
     0
  9
$DIMLDRBLK
  1

  9
$DIMLUNIT
 70
     2
  9
$DIMLWD
 70
    -2
  9
$DIMLWE
 70
    -2
  9
$DIMTMOVE
 70
     2
  9
$LUNITS
 70
     2
  9
$LUPREC
 70
     1
  9
$SKETCHINC
 40
1.0
  9
$FILLETRAD
 40
10.0
  9
$AUNITS
 70
     0
  9
$AUPREC
 70
     1
  9
$MENU
  1
D:\ACL_CGWG\CGTAB13
  9
$ELEVATION
 40
0.0
  9
$PELEVATION
 40
0.0
  9
$THICKNESS
 40
0.0
  9
$LIMCHECK
 70
     0
  9
$CHAMFERA
 40
1.0
  9
$CHAMFERB
 40
1.0
  9
$CHAMFERC
 40
1.0
  9
$CHAMFERD
 40
0.7853981633974483
  9
$SKPOLY
 70
     0
  9
$TDCREATE
 40
2451739.873469861
  9
$TDUCREATE
 40
2451739.831803194
  9
$TDUPDATE
 40
2452682.686155960
  9
$TDUUPDATE
 40
2452682.644489294
  9
$TDINDWG
 40
0.1554723148
  9
$TDUSRTIMER
 40
0.1554723148
  9
$USRTIMER
 70
     1
  9
$ANGBASE
 50
0.0
  9
$ANGDIR
 70
     0
  9
$PDMODE
 70
    34
  9
$PDSIZE
 40
1.0
  9
$PLINEWID
 40
0.0
  9
$SPLFRAME
 70
     0
  9
$SPLINETYPE
 70
     6
  9
$SPLINESEGS
 70
     8
  9
$HANDSEED
  5
961
  9
$SURFTAB1
 70
    12
  9
$SURFTAB2
 70
    12
  9
$SURFTYPE
 70
     6
  9
$SURFU
 70
    12
  9
$SURFV
 70
    12
  9
$UCSBASE
  2

  9
$UCSNAME
  2

  9
$UCSORG
 10
0.0
 20
0.0
 30
0.0
  9
$UCSXDIR
 10
1.0
 20
0.0
 30
0.0
  9
$UCSYDIR
 10
0.0
 20
1.0
 30
0.0
  9
$UCSORTHOREF
  2

  9
$UCSORTHOVIEW
 70
     0
  9
$UCSORGTOP
 10
0.0
 20
0.0
 30
0.0
  9
$UCSORGBOTTOM
 10
0.0
 20
0.0
 30
0.0
  9
$UCSORGLEFT
 10
0.0
 20
0.0
 30
0.0
  9
$UCSORGRIGHT
 10
0.0
 20
0.0
 30
0.0
  9
$UCSORGFRONT
 10
0.0
 20
0.0
 30
0.0
  9
$UCSORGBACK
 10
0.0
 20
0.0
 30
0.0
  9
$PUCSBASE
  2

  9
$PUCSNAME
  2

  9
$PUCSORG
 10
0.0
 20
0.0
 30
0.0
  9
$PUCSXDIR
 10
1.0
 20
0.0
 30
0.0
  9
$PUCSYDIR
 10
0.0
 20
1.0
 30
0.0
  9
$PUCSORTHOREF
  2

  9
$PUCSORTHOVIEW
 70
     0
  9
$PUCSORGTOP
 10
0.0
 20
0.0
 30
0.0
  9
$PUCSORGBOTTOM
 10
0.0
 20
0.0
 30
0.0
  9
$PUCSORGLEFT
 10
0.0
 20
0.0
 30
0.0
  9
$PUCSORGRIGHT
 10
0.0
 20
0.0
 30
0.0
  9
$PUCSORGFRONT
 10
0.0
 20
0.0
 30
0.0
  9
$PUCSORGBACK
 10
0.0
 20
0.0
 30
0.0
  9
$USERI1
 70
     0
  9
$USERI2
 70
     0
  9
$USERI3
 70
     0
  9
$USERI4
 70
     0
  9
$USERI5
 70
     0
  9
$USERR1
 40
0.0
  9
$USERR2
 40
0.0
  9
$USERR3
 40
0.0
  9
$USERR4
 40
0.0
  9
$USERR5
 40
0.0
  9
$WORLDVIEW
 70
     1
  9
$SHADEDGE
 70
     3
  9
$SHADEDIF
 70
    70
  9
$TILEMODE
 70
     1
  9
$MAXACTVP
 70
    64
  9
$PINSBASE
 10
0.0
 20
0.0
 30
0.0
  9
$PLIMCHECK
 70
     0
  9
$PEXTMIN
 10
1.000000000000000E+20
 20
1.000000000000000E+20
 30
1.000000000000000E+20
  9
$PEXTMAX
 10
-1.000000000000000E+20
 20
-1.000000000000000E+20
 30
-1.000000000000000E+20
  9
$PLIMMIN
 10
-6.350006103515625
 20
-6.349999904632568
  9
$PLIMMAX
 10
273.0499877929687
 20
209.5499939918517
  9
$UNITMODE
 70
     0
  9
$VISRETAIN
 70
     1
  9
$PLINEGEN
 70
     0
  9
$PSLTSCALE
 70
     1
  9
$TREEDEPTH
 70
  3020
  9
$CMLSTYLE
  2
STANDARD
  9
$CMLJUST
 70
     0
  9
$CMLSCALE
 40
1.0
  9
$PROXYGRAPHICS
 70
     1
  9
$MEASUREMENT
 70
     1
  9
$CELWEIGHT
370
    -1
  9
$ENDCAPS
280
     0
  9
$JOINSTYLE
280
     0
  9
$LWDISPLAY
290
     0
  9
$INSUNITS
 70
     0
  9
$HYPERLINKBASE
  1

  9
$STYLESHEET
  1
Hebgo JPG.ctb
  9
$XEDIT
290
     1
  9
$CEPSNTYPE
380
     0
  9
$PSTYLEMODE
290
     1
  9
$FINGERPRINTGUID
  2
{DEF6964E-5F8B-11D3-8AEE-0008C71A8CF4}
  9
$VERSIONGUID
  2
{4C4E6E2C-7755-4985-A6DD-CD78477C2DD5}
  9
$EXTNAMES
290
     1
  9
$PSVPSCALE
 40
0.0
  9
$OLESTARTUP
290
     0
  0
ENDSEC
  0
SECTION
  2
CLASSES
  0
CLASS
  1
ACDBDICTIONARYWDFLT
  2
AcDbDictionaryWithDefault
  3
AutoCAD 2000
 90
        0
280
     0
281
     0
  0
CLASS
  1
ACDBPLACEHOLDER
  2
AcDbPlaceHolder
  3
AutoCAD 2000
 90
        0
280
     0
281
     0
  0
CLASS
  1
LAYOUT
  2
AcDbLayout
  3
AutoCAD 2000
 90
        0
280
     0
281
     0
  0
CLASS
  1
DICTIONARYVAR
  2
AcDbDictionaryVar
  3
AutoCAD 2000
 90
        0
280
     0
281
     0
  0
CLASS
  1
LONG_TRANSACTION
  2
AcDbLongTransaction
  3
AutoCAD 2000
 90
    32768
280
     0
281
     0
  0
CLASS
  1
LWPOLYLINE
  2
AcDbPolyline
  3
AutoCAD 2000
 90
    32768
280
     0
281
     1
  0
CLASS
  1
HATCH
  2
AcDbHatch
  3
AutoCAD 2000
 90
    32768
280
     0
281
     1
  0
CLASS
  1
XRECORD
  2
AcDbXrecord
  3
AutoCAD 2000
 90
    32768
280
     0
281
     0
  0
CLASS
  1
PLOTSETTINGS
  2
AcDbPlotSettings
  3
AutoCAD 2000
 90
        0
280
     0
281
     0
  0
CLASS
  1
LONG_TRANSACTION
  2
AcDbLongTransaction
  3
AutoCAD 2000
 90
    32768
280
     0
281
     0
  0
CLASS
  1
LWPOLYLINE
  2
AcDbPolyline
  3
AutoCAD 2000
 90
    32768
280
     0
281
     1
  0
CLASS
  1
HATCH
  2
AcDbHatch
  3
AutoCAD 2000
 90
    32768
280
     0
281
     1
  0
CLASS
  1
XRECORD
  2
AcDbXrecord
  3
AutoCAD 2000
 90
    32768
280
     0
281
     0
  0
CLASS
  1
LONG_TRANSACTION
  2
AcDbLongTransaction
  3
AutoCAD 2000
 90
    32768
280
     0
281
     0
  0
CLASS
  1
LWPOLYLINE
  2
AcDbPolyline
  3
AutoCAD 2000
 90
    32768
280
     0
281
     1
  0
CLASS
  1
HATCH
  2
AcDbHatch
  3
AutoCAD 2000
 90
    32768
280
     0
281
     1
  0
CLASS
  1
XRECORD
  2
AcDbXrecord
  3
AutoCAD 2000
 90
    32768
280
     0
281
     0
  0
CLASS
  1
LONG_TRANSACTION
  2
AcDbLongTransaction
  3
AutoCAD 2000
 90
    32768
280
     0
281
     0
  0
CLASS
  1
LWPOLYLINE
  2
AcDbPolyline
  3
AutoCAD 2000
 90
    32768
280
     0
281
     1
  0
CLASS
  1
HATCH
  2
AcDbHatch
  3
AutoCAD 2000
 90
    32768
280
     0
281
     1
  0
CLASS
  1
XRECORD
  2
AcDbXrecord
  3
AutoCAD 2000
 90
    32768
280
     0
281
     0
  0
CLASS
  1
LONG_TRANSACTION
  2
AcDbLongTransaction
  3
AutoCAD 2000
 90
    32768
280
     0
281
     0
  0
CLASS
  1
LWPOLYLINE
  2
AcDbPolyline
  3
AutoCAD 2000
 90
    32768
280
     0
281
     1
  0
CLASS
  1
HATCH
  2
AcDbHatch
  3
AutoCAD 2000
 90
    32768
280
     0
281
     1
  0
CLASS
  1
XRECORD
  2
AcDbXrecord
  3
AutoCAD 2000
 90
    32768
280
     0
281
     0
  0
CLASS
  1
DIMASSOC
  2
AcDbDimAssoc
  3
"AcDbDimAssoc|Product Desc:     AcDim ARX App For Dimension|Company:          Autodesk, Inc.|WEB Address:      www.autodesk.com"
 90
        0
280
     0
281
     0
  0
ENDSEC
  0
SECTION
  2
TABLES
  0
TABLE
  2
VPORT
  5
8
330
0
100
AcDbSymbolTable
 70
     2
  0
VPORT
  5
960
330
8
100
AcDbSymbolTableRecord
100
AcDbViewportTableRecord
  2
*Active
 70
     0
 10
0.0
 20
0.0
 11
1.0
 21
1.0
 12
180.0000076372525
 22
-318.7954381279883
 13
0.0
 23
0.0
 14
1.0
 24
1.0
 15
100.0
 25
100.0
 16
0.0
 26
0.0
 36
1.0
 17
0.0
 27
0.0
 37
0.0
 40
662.9169795170512
 41
1.602377807133421
 42
50.0
 43
0.0
 44
0.0
 50
0.0
 51
0.0
 71
     0
 72
   800
 73
     1
 74
     1
 75
     0
 76
     0
 77
     0
 78
     0
281
     0
 65
     1
110
0.0
120
0.0
130
0.0
111
1.0
121
0.0
131
0.0
112
0.0
122
1.0
132
0.0
 79
     0
146
0.0
  0
ENDTAB
  0
TABLE
  2
LTYPE
  5
5
330
0
100
AcDbSymbolTable
 70
     3
  0
LTYPE
  5
14
330
5
100
AcDbSymbolTableRecord
100
AcDbLinetypeTableRecord
  2
BYBLOCK
 70
     0
  3

 72
    65
 73
     0
 40
0.0
  0
LTYPE
  5
15
330
5
100
AcDbSymbolTableRecord
100
AcDbLinetypeTableRecord
  2
BYLAYER
 70
     0
  3

 72
    65
 73
     0
 40
0.0
  0
LTYPE
  5
16
330
5
100
AcDbSymbolTableRecord
100
AcDbLinetypeTableRecord
  2
CONTINUOUS
 70
     0
  3
_______________________________________________
 72
    65
 73
     2
 40
1.0
 49
1.0
 74
     0
 49
0.0
 74
     0
  0
LTYPE
  5
2EC
330
5
100
AcDbSymbolTableRecord
100
AcDbLinetypeTableRecord
  2
STRICHPUNKT
 70
     0
  3
__ . __ . __ . __ . __ . __ . __ . __ . __ . __
 72
    65
 73
     4
 40
1.0
 49
0.5
 74
     0
 49
-0.25
 74
     0
 49
0.0
 74
     0
 49
-0.25
 74
     0
  0
LTYPE
  5
827
330
5
100
AcDbSymbolTableRecord
100
AcDbLinetypeTableRecord
  2
STRICHLINIE
 70
     0
  3
Strichlinie __ __ __ __ __ __ __ __ __ __ __ __
 72
    65
 73
     2
 40
19.04999999999999
 49
12.7
 74
     0
 49
-6.349999999999999
 74
     0
  0
ENDTAB
  0
TABLE
  2
LAYER
  5
2
330
0
100
AcDbSymbolTable
 70
     5
  0
LAYER
  5
F
330
2
100
AcDbSymbolTableRecord
100
AcDbLayerTableRecord
  2
0
 70
     0
 62
    30
  6
CONTINUOUS
370
    -3
390
F3
  0
LAYER
  5
120
330
2
100
AcDbSymbolTableRecord
100
AcDbLayerTableRecord
  2
1
 70
     0
 62
     2
  6
CONTINUOUS
370
    -3
390
F3
  0
LAYER
  5
124
330
2
100
AcDbSymbolTableRecord
100
AcDbLayerTableRecord
  2
5
 70
     0
 62
     1
  6
CONTINUOUS
370
    -3
390
F3
  0
LAYER
  5
125
330
2
100
AcDbSymbolTableRecord
100
AcDbLayerTableRecord
  2
6
 70
     0
 62
     3
  6
CONTINUOUS
370
    35
390
F3
  0
LAYER
  5
207
330
2
100
AcDbSymbolTableRecord
100
AcDbLayerTableRecord
  2
Defpoints
 70
     0
 62
     7
  6
CONTINUOUS
290
     0
370
    -3
390
F3
  0
ENDTAB
  0
TABLE
  2
STYLE
  5
3
330
0
100
AcDbSymbolTable
 70
     2
  0
STYLE
  5
10
330
3
100
AcDbSymbolTableRecord
100
AcDbTextStyleTableRecord
  2
STANDARD
 70
     0
 40
0.0
 41
1.0
 50
0.0
 71
     0
 42
2.5
  3
ARIAL.TTF
  4

1001
ACAD
1000
Arial
1071
       34
  0
STYLE
  5
12B
330
3
100
AcDbSymbolTableRecord
100
AcDbTextStyleTableRecord
  2
Beschlag
 70
     0
 40
0.0
 41
1.0
 50
0.0
 71
     0
 42
3.5
  3
ARIAL.TTF
  4

1001
ACAD
1000
Arial
1071
       34
  0
ENDTAB
  0
TABLE
  2
VIEW
  5
6
330
0
100
AcDbSymbolTable
 70
     0
  0
ENDTAB
  0
TABLE
  2
UCS
  5
7
330
0
100
AcDbSymbolTable
 70
     0
  0
ENDTAB
  0
TABLE
  2
APPID
  5
9
330
0
100
AcDbSymbolTable
 70
     1
  0
APPID
  5
11
330
9
100
AcDbSymbolTableRecord
100
AcDbRegAppTableRecord
  2
ACAD
 70
     0
  0
ENDTAB
  0
TABLE
  2
DIMSTYLE
  5
A
330
0
100
AcDbSymbolTable
 70
     2
100
AcDbDimStyleTable
 71
     2
340
209
340
67A
  0
DIMSTYLE
105
209
102
{ACAD_REACTORS
330
84C
102
}
330
A
100
AcDbSymbolTableRecord
100
AcDbDimStyleTableRecord
  2
OPO-SSTRICH
 70
     0
 41
2.0
 42
2.0
 43
0.0
 44
1.0
 46
1.0
 73
     0
 74
     0
 77
     1
 78
     8
 79
     2
140
3.5
141
0.0
143
0.039370078740157
146
0.7114285714285716
147
1.0
172
     1
173
     1
174
     1
176
   256
177
   256
178
   256
179
     1
271
     1
272
     1
279
     2
284
     8
285
     8
286
     8
340
12B
343
203
344
203
  0
DIMSTYLE
105
67A
102
{ACAD_REACTORS
330
684
330
63D
102
}
330
A
100
AcDbSymbolTableRecord
100
AcDbDimStyleTableRecord
  2
OPO-SSTRICH-10
 70
     0
 40
10.0
 41
2.0
 42
2.0
 43
0.0
 44
1.0
 46
1.0
 73
     0
 74
     0
 77
     1
 78
     8
140
1.8
141
2.0
143
0.039370078740157
146
1.388888888888888
147
1.0
172
     1
173
     1
174
     1
176
   256
177
   256
178
   256
271
     1
272
     1
279
     2
284
     8
285
     8
286
     8
340
10
343
203
344
203
  0
ENDTAB
  0
TABLE
  2
BLOCK_RECORD
  5
1
330
0
100
AcDbSymbolTable
 70
     5
  0
BLOCK_RECORD
  5
1A
102
{ACAD_XDICTIONARY
360
1F6
102
}
330
1
100
AcDbSymbolTableRecord
100
AcDbBlockTableRecord
  2
*MODEL_SPACE
340
F6
  0
BLOCK_RECORD
  5
17
102
{ACAD_XDICTIONARY
360
1F4
102
}
330
1
100
AcDbSymbolTableRecord
100
AcDbBlockTableRecord
  2
*PAPER_SPACE
340
F7
  0
BLOCK_RECORD
  5
203
330
1
100
AcDbSymbolTableRecord
100
AcDbBlockTableRecord
  2
_Oblique
340
0
102
{BLKREFS
331
8DC
331
8DD
331
8FD
331
8FE
102
}
  0
BLOCK_RECORD
  5
253
330
1
100
AcDbSymbolTableRecord
100
AcDbBlockTableRecord
  2
NullPunkt
340
0
102
{BLKREFS
331
25B
102
}
  0
BLOCK_RECORD
  5
63E
330
1
100
AcDbSymbolTableRecord
100
AcDbBlockTableRecord
  2
*D2
340
0
  0
BLOCK_RECORD
  5
685
330
1
100
AcDbSymbolTableRecord
100
AcDbBlockTableRecord
  2
*D3
340
0
  0
ENDTAB
  0
ENDSEC
  0
SECTION
  2
BLOCKS
  0
BLOCK
  5
1B
330
1A
100
AcDbEntity
  8
0
100
AcDbBlockBegin
  2
*MODEL_SPACE
 70
     0
 10
0.0
 20
0.0
 30
0.0
  3
*MODEL_SPACE
  1

  0
ENDBLK
  5
1C
330
1A
100
AcDbEntity
  8
0
100
AcDbBlockEnd
  0
BLOCK
  5
18
330
17
100
AcDbEntity
 67
     1
  8
0
100
AcDbBlockBegin
  2
*PAPER_SPACE
 70
     0
 10
0.0
 20
0.0
 30
0.0
  3
*PAPER_SPACE
  1

  0
ENDBLK
  5
19
330
17
100
AcDbEntity
 67
     1
  8
0
100
AcDbBlockEnd
  0
BLOCK
  5
205
330
203
100
AcDbEntity
  8
0
100
AcDbBlockBegin
  2
_Oblique
 70
     0
 10
0.0
 20
0.0
 30
0.0
  3
_Oblique
  1

  0
LINE
  5
204
330
203
100
AcDbEntity
  8
0
 62
     0
370
    -2
100
AcDbLine
 10
-0.5
 20
-0.5
 30
0.0
 11
0.5
 21
0.5
 31
0.0
  0
ENDBLK
  5
206
330
203
100
AcDbEntity
  8
0
100
AcDbBlockEnd
  0
BLOCK
  5
259
330
253
100
AcDbEntity
  8
0
100
AcDbBlockBegin
  2
NullPunkt
 70
     0
 10
0.0
 20
0.0
 30
0.0
  3
NullPunkt
  1

  0
SOLID
  5
254
330
253
100
AcDbEntity
  8
5
100
AcDbTrace
 10
0.0
 20
0.0
 30
0.0
 11
2.0
 21
0.0
 31
0.0
 12
0.0
 22
-2.0
 32
0.0
 13
0.0
 23
-2.0
 33
0.0
  0
SOLID
  5
255
330
253
100
AcDbEntity
  8
5
100
AcDbTrace
 10
0.0
 20
0.0
 30
0.0
 11
-2.0
 21
0.0
 31
0.0
 12
0.0
 22
2.0
 32
0.0
 13
0.0
 23
2.0
 33
0.0
  0
LWPOLYLINE
  5
256
330
253
100
AcDbEntity
  8
5
100
AcDbPolyline
 90
        2
 70
     0
 43
0.0
 10
0.0
 20
2.0
 10
0.0
 20
-2.0
  0
LWPOLYLINE
  5
257
330
253
100
AcDbEntity
  8
5
100
AcDbPolyline
 90
        2
 70
     0
 43
0.0
 10
-2.0
 20
0.0
 10
2.0
 20
0.0
  0
CIRCLE
  5
258
330
253
100
AcDbEntity
  8
5
100
AcDbCircle
 10
0.0
 20
0.0
 30
0.0
 40
2.0
  0
ENDBLK
  5
25A
330
253
100
AcDbEntity
  8
0
100
AcDbBlockEnd
  0
BLOCK
  5
648
330
63E
100
AcDbEntity
  8
0
100
AcDbBlockBegin
  2
*D2
 70
     1
 10
0.0
 20
0.0
 30
0.0
  3
*D2
  1

  0
LINE
  5
8D9
330
63E
100
AcDbEntity
  8
1
370
    -2
100
AcDbLine
 10
-20.0
 20
0.0000000000000057
 30
0.0
 11
-64.06185299135618
 21
0.0000000000000181
 31
0.0
  0
LINE
  5
8DA
330
63E
100
AcDbEntity
  8
1
370
    -2
100
AcDbLine
 10
-20.0
 20
-380.0
 30
0.0
 11
-64.06185299135626
 21
-380.0
 31
0.0
  0
LINE
  5
8DB
330
63E
100
AcDbEntity
  8
1
370
    -2
100
AcDbLine
 10
-54.06185299135618
 20
10.00000000000001
 30
0.0
 11
-54.06185299135627
 21
-390.0
 31
0.0
  0
INSERT
  5
8DC
330
63E
100
AcDbEntity
  8
1
370
    -2
100
AcDbBlockReference
  2
_Oblique
 10
-54.06185299135618
 20
0.0000000000000153
 30
0.0
 41
20.0
 42
20.0
 43
20.0
 50
90.0
  0
INSERT
  5
8DD
330
63E
100
AcDbEntity
  8
1
370
    -2
100
AcDbBlockReference
  2
_Oblique
 10
-54.06185299135627
 20
-380.0
 30
0.0
 41
20.0
 42
20.0
 43
20.0
 50
270.0
  0
MTEXT
  5
8DE
330
63E
100
AcDbEntity
  8
1
100
AcDbMText
 10
-73.25830592450763
 20
-190.0
 30
0.0
 40
18.0
 41
0.0
 71
     5
 72
     1
  1
\A1;380
 11
0.0000000000000001
 21
1.0
 31
0.0
 73
     1
 44
1.0
  0
POINT
  5
8DF
330
63E
100
AcDbEntity
  8
Defpoints
 62
     0
100
AcDbPoint
 10
0.0
 20
0.0
 30
0.0
  0
POINT
  5
8E0
330
63E
100
AcDbEntity
  8
Defpoints
 62
     0
100
AcDbPoint
 10
0.0
 20
-380.0
 30
0.0
  0
POINT
  5
8E1
330
63E
100
AcDbEntity
  8
Defpoints
 62
     0
100
AcDbPoint
 10
-54.06185299135627
 20
-380.0
 30
0.0
  0
ENDBLK
  5
649
330
63E
100
AcDbEntity
  8
0
100
AcDbBlockEnd
  0
BLOCK
  5
68F
330
685
100
AcDbEntity
  8
0
100
AcDbBlockBegin
  2
*D3
 70
     1
 10
0.0
 20
0.0
 30
0.0
  3
*D3
  1

  0
LINE
  5
8FA
330
685
100
AcDbEntity
  8
1
370
    -2
100
AcDbLine
 10
-0.0000000000000154
 20
-17.0
 30
0.0
 11
-0.0000000000000285
 21
-229.9539720148293
 31
0.0
  0
LINE
  5
8FB
330
685
100
AcDbEntity
  8
1
370
    -2
100
AcDbLine
 10
580.0000000000004
 20
-27.64406644973132
 30
0.0
 11
580.0000000000004
 21
-229.9539720148293
 31
0.0
  0
LINE
  5
8FC
330
685
100
AcDbEntity
  8
1
370
    -2
100
AcDbLine
 10
-10.00000000000002
 20
-219.9539720148293
 30
0.0
 11
590.0000000000004
 21
-219.9539720148293
 31
0.0
  0
INSERT
  5
8FD
330
685
100
AcDbEntity
  8
1
370
    -2
100
AcDbBlockReference
  2
_Oblique
 10
-0.0000000000000279
 20
-219.9539720148293
 30
0.0
 41
20.0
 42
20.0
 43
20.0
 50
180.0
  0
INSERT
  5
8FE
330
685
100
AcDbEntity
  8
1
370
    -2
100
AcDbBlockReference
  2
_Oblique
 10
580.0000000000004
 20
-219.9539720148293
 30
0.0
 41
20.0
 42
20.0
 43
20.0
  0
MTEXT
  5
8FF
330
685
100
AcDbEntity
  8
1
100
AcDbMText
 10
290.0000000000002
 20
-200.7636582358388
 30
0.0
 40
18.0
 41
0.0
 71
     5
 72
     1
  1
\A1;580
 73
     1
 44
1.0
  0
POINT
  5
900
330
685
100
AcDbEntity
  8
Defpoints
 62
     0
100
AcDbPoint
 10
-0.0000000000000142
 20
3.0
 30
0.0
  0
POINT
  5
901
330
685
100
AcDbEntity
  8
Defpoints
 62
     0
100
AcDbPoint
 10
580.0000000000004
 20
-7.644066449731326
 30
0.0
  0
POINT
  5
902
330
685
100
AcDbEntity
  8
Defpoints
 62
     0
100
AcDbPoint
 10
580.0000000000004
 20
-219.9539720148293
 30
0.0
  0
ENDBLK
  5
690
330
685
100
AcDbEntity
  8
0
100
AcDbBlockEnd
  0
ENDSEC
  0
SECTION
  2
ENTITIES
  0
INSERT
  5
25B
330
1A
100
AcDbEntity
  8
5
100
AcDbBlockReference
  2
NullPunkt
 10
-0.0000000000000142
 20
0.0000000000000124
 30
0.0
 41
3.0
 42
3.0
 43
3.0
  0
LWPOLYLINE
  5
638
102
{ACAD_REACTORS
330
654
102
}
330
1A
100
AcDbEntity
  8
6
100
AcDbPolyline
 90
        3
 70
     0
 43
0.0
 10
0.0
 20
-380.0
 10
0.0
 20
0.0
 10
580.0
 20
0.0
  0
LWPOLYLINE
  5
63A
330
1A
100
AcDbEntity
  8
6
100
AcDbPolyline
 90
        3
 70
     0
 43
0.0
 10
580.0
 20
0.0
 10
580.0
 20
-24.0
 10
56.99999999999999
 20
-72.0
  0
LWPOLYLINE
  5
63C
330
1A
100
AcDbEntity
  8
6
100
AcDbPolyline
 90
        3
 70
     0
 43
0.0
 10
0.0000000000000018
 20
-350.0
 10
21.0
 20
-350.0
 10
65.67625899280574
 20
-4.999999999999937
  0
DIMENSION
  5
63D
102
{ACAD_XDICTIONARY
360
64A
102
}
102
{ACAD_REACTORS
330
654
102
}
330
1A
100
AcDbEntity
  8
1
100
AcDbDimension
  2
*D2
 10
-54.06185299135627
 20
-380.0
 30
0.0
 11
-73.25830592450763
 21
-190.0
 31
0.0
 70
    32
 71
     5
 42
380.0
  3
OPO-SSTRICH-10
100
AcDbAlignedDimension
 13
0.0
 23
0.0
 33
0.0
 14
0.0
 24
-380.0
 34
0.0
 50
90.0
100
AcDbRotatedDimension
  0
LWPOLYLINE
  5
66D
330
1A
100
AcDbEntity
  8
6
100
AcDbPolyline
 90
        4
 70
     1
 43
0.0
 10
0.0
 20
0.0
 10
10.0
 20
0.0
 10
10.0
 20
-70.0
 10
0.0
 20
-70.0
  0
TEXT
  5
682
330
1A
100
AcDbEntity
  8
1
100
AcDbText
 10
91.06462488268585
 20
-31.01248832965097
 30
0.0
 40
10.0
  1
Hebgo FR/580
100
AcDbText
  0
LINE
  5
683
330
1A
100
AcDbEntity
  8
6
  6
STRICHPUNKT
 48
5.0
100
AcDbLine
 10
82.00000000000022
 20
5.321130331336462
 30
0.0
 11
82.00000000000022
 21
-10.00174708465965
 31
0.0
  0
DIMENSION
  5
684
330
1A
100
AcDbEntity
  8
1
100
AcDbDimension
  2
*D3
 10
580.0000000000004
 20
-219.9539720148293
 30
0.0
 11
290.0000000000002
 21
-200.7636582358388
 31
0.0
 70
    32
 71
     5
 42
580.0000000000004
  3
OPO-SSTRICH-10
100
AcDbAlignedDimension
 13
-0.0000000000000142
 23
3.0
 33
0.0
 14
580.0000000000004
 24
-7.644066449731326
 34
0.0
100
AcDbRotatedDimension
  0
LINE
  5
6D3
330
1A
100
AcDbEntity
  8
6
  6
STRICHPUNKT
 48
5.0
100
AcDbLine
 10
565.0000000000002
 20
5.321130331336462
 30
0.0
 11
565.0000000000002
 21
-10.00174708465965
 31
0.0
  0
LWPOLYLINE
  5
71C
330
1A
100
AcDbEntity
  8
6
100
AcDbPolyline
 90
        6
 70
     0
 43
0.0
 10
-143.0
 20
-70.0
 10
-100.0
 20
-70.0
 10
-100.0
 20
0.0
 10
-230.0
 20
0.0
 10
-230.0
 20
-70.0
 10
-187.0
 20
-70.0
  0
LINE
  5
724
330
1A
100
AcDbEntity
  8
6
  6
STRICHPUNKT
 48
5.0
100
AcDbLine
 10
-224.5
 20
-45.0
 30
0.0
 11
-205.5
 21
-45.0
 31
0.0
  0
CIRCLE
  5
725
330
1A
100
AcDbEntity
  8
6
100
AcDbCircle
 10
-215.0
 20
-45.0
 30
0.0
 40
7.5
  0
LINE
  5
726
330
1A
100
AcDbEntity
  8
6
  6
STRICHPUNKT
 48
5.0
100
AcDbLine
 10
-215.0
 20
-35.5
 30
0.0
 11
-215.0
 21
-54.5
 31
0.0
  0
LINE
  5
727
330
1A
100
AcDbEntity
  8
6
  6
STRICHPUNKT
 48
5.0
100
AcDbLine
 10
-115.0
 20
-35.5
 30
0.0
 11
-115.0
 21
-54.5
 31
0.0
  0
CIRCLE
  5
728
330
1A
100
AcDbEntity
  8
6
100
AcDbCircle
 10
-115.0
 20
-45.0
 30
0.0
 40
7.5
  0
LINE
  5
729
330
1A
100
AcDbEntity
  8
6
  6
STRICHPUNKT
 48
5.0
100
AcDbLine
 10
-105.4999999999999
 20
-45.0
 30
0.0
 11
-124.5
 21
-45.0
 31
0.0
  0
LWPOLYLINE
  5
72E
330
1A
100
AcDbEntity
  8
6
100
AcDbPolyline
 90
        6
 70
     1
 43
0.0
 10
-168.0
 20
0.0
 10
-208.0
 20
0.0000000000000049
 10
-208.0
 20
-4.999999999999994
 10
-173.0
 20
-4.999999999999994
 10
-173.0
 20
-72.0
 10
-168.0
 20
-72.0
  0
LWPOLYLINE
  5
753
330
1A
100
AcDbEntity
  8
6
100
AcDbPolyline
 90
        6
 70
     0
 43
0.0
 10
-143.0
 20
-4.999999999999994
 10
-143.0
 20
-370.0
 42
-0.4142135623730951
 10
-153.0
 20
-380.0
 10
-177.0
 20
-380.0
 42
-0.4142135623730951
 10
-187.0
 20
-370.0
 10
-187.0
 20
-5.0
  0
LWPOLYLINE
  5
756
330
1A
100
AcDbEntity
  8
6
100
AcDbPolyline
 90
        3
 70
     0
 43
0.0
 10
0.0
 20
-380.0
 10
4.0
 20
-380.0
 10
4.000000000000001
 20
-350.0
  0
LWPOLYLINE
  5
757
330
1A
100
AcDbEntity
  8
6
100
AcDbPolyline
 90
        2
 70
     0
 43
0.0
 10
-143.0
 20
-350.0
 10
-187.0
 20
-350.0
  0
LINE
  5
761
330
1A
100
AcDbEntity
  8
6
  6
STRICHPUNKT
 48
5.0
100
AcDbLine
 10
-174.5
 20
-365.0
 30
0.0
 11
-155.5
 21
-365.0
 31
0.0
  0
CIRCLE
  5
762
330
1A
100
AcDbEntity
  8
6
100
AcDbCircle
 10
-165.0
 20
-365.0
 30
0.0
 40
7.5
  0
LINE
  5
763
330
1A
100
AcDbEntity
  8
6
  6
STRICHPUNKT
 48
5.0
100
AcDbLine
 10
-165.0
 20
-355.5
 30
0.0
 11
-165.0
 21
-374.5
 31
0.0
  0
LINE
  5
764
330
1A
100
AcDbEntity
  8
6
  6
STRICHPUNKT
 48
5.0
100
AcDbLine
 10
-4.690778363066158
 20
-365.0
 30
0.0
 11
14.30922163693384
 21
-365.0
 31
0.0
  0
LWPOLYLINE
  5
79E
330
1A
100
AcDbEntity
  8
6
100
AcDbPolyline
 90
        6
 70
     1
 43
0.0
 10
-162.0
 20
0.0
 10
-122.0
 20
0.0000000000000049
 10
-122.0
 20
-4.999999999999994
 10
-157.0
 20
-4.999999999999994
 10
-157.0
 20
-72.0
 10
-162.0
 20
-72.0
  0
LWPOLYLINE
  5
7F6
330
1A
100
AcDbEntity
  8
6
100
AcDbPolyline
 90
        4
 70
     1
 43
0.0
 10
0.0
 20
-517.6143473974819
 10
10.0
 20
-517.6143473974819
 10
10.0
 20
-647.6143473974819
 10
0.0
 20
-647.6143473974819
  0
LWPOLYLINE
  5
7F7
330
1A
100
AcDbEntity
  8
6
100
AcDbPolyline
 90
        4
 70
     1
 43
0.0
 10
10.0
 20
-539.6143473974819
 10
579.9999999999998
 20
-539.6143473974819
 10
579.9999999999998
 20
-579.614347397482
 10
10.0
 20
-579.614347397482
  0
LINE
  5
809
330
1A
100
AcDbEntity
  8
6
  6
STRICHPUNKT
 48
5.0
100
AcDbLine
 10
82.00000000000022
 20
-542.114347397482
 30
0.0
 11
82.00000000000022
 21
-561.1143473974819
 31
0.0
  0
LINE
  5
80A
330
1A
100
AcDbEntity
  8
6
  6
STRICHPUNKT
 48
5.0
100
AcDbLine
 10
91.50000000000023
 20
-551.6143473974819
 30
0.0
 11
72.50000000000023
 21
-551.6143473974819
 31
0.0
  0
CIRCLE
  5
80B
330
1A
100
AcDbEntity
  8
6
100
AcDbCircle
 10
82.00000000000022
 20
-551.6143473974819
 30
0.0
 40
3.25
  0
LINE
  5
812
330
1A
100
AcDbEntity
  8
6
  6
STRICHPUNKT
 48
5.0
100
AcDbLine
 10
574.5000000000002
 20
-551.6143473974819
 30
0.0
 11
555.5000000000002
 21
-551.6143473974819
 31
0.0
  0
CIRCLE
  5
813
330
1A
100
AcDbEntity
  8
6
100
AcDbCircle
 10
565.0000000000002
 20
-551.6143473974819
 30
0.0
 40
3.25
  0
LINE
  5
814
330
1A
100
AcDbEntity
  8
6
  6
STRICHPUNKT
 48
5.0
100
AcDbLine
 10
565.0000000000002
 20
-542.114347397482
 30
0.0
 11
565.0000000000002
 21
-561.1143473974819
 31
0.0
  0
LWPOLYLINE
  5
816
330
1A
100
AcDbEntity
  8
6
100
AcDbPolyline
 90
        4
 70
     1
 43
0.0
 10
10.0
 20
-625.614347397482
 10
579.9999999999998
 20
-625.614347397482
 10
579.9999999999998
 20
-585.6143473974819
 10
10.0
 20
-585.6143473974819
  0
LINE
  5
817
330
1A
100
AcDbEntity
  8
6
  6
STRICHPUNKT
 48
5.0
100
AcDbLine
 10
91.50000000000023
 20
-613.6143473974819
 30
0.0
 11
72.50000000000023
 21
-613.6143473974819
 31
0.0
  0
CIRCLE
  5
818
330
1A
100
AcDbEntity
  8
6
100
AcDbCircle
 10
82.00000000000022
 20
-613.6143473974819
 30
0.0
 40
3.25
  0
LINE
  5
819
330
1A
100
AcDbEntity
  8
6
  6
STRICHPUNKT
 48
5.0
100
AcDbLine
 10
82.00000000000022
 20
-623.1143473974819
 30
0.0
 11
82.00000000000022
 21
-604.114347397482
 31
0.0
  0
CIRCLE
  5
820
330
1A
100
AcDbEntity
  8
6
100
AcDbCircle
 10
565.0000000000002
 20
-613.6143473974819
 30
0.0
 40
3.25
  0
LINE
  5
821
330
1A
100
AcDbEntity
  8
6
  6
STRICHPUNKT
 48
5.0
100
AcDbLine
 10
574.5000000000002
 20
-613.6143473974819
 30
0.0
 11
555.5000000000002
 21
-613.6143473974819
 31
0.0
  0
LINE
  5
822
330
1A
100
AcDbEntity
  8
6
  6
STRICHPUNKT
 48
5.0
100
AcDbLine
 10
565.0000000000002
 20
-623.1143473974819
 30
0.0
 11
565.0000000000002
 21
-604.114347397482
 31
0.0
  0
LINE
  5
823
330
1A
100
AcDbEntity
  8
6
  6
STRICHPUNKT
 48
5.0
100
AcDbLine
 10
-4.690778363066158
 20
-582.614347397482
 30
0.0
 11
14.30922163693384
 21
-582.614347397482
 31
0.0
  0
LWPOLYLINE
  5
824
330
1A
100
AcDbEntity
  8
6
  6
STRICHLINIE
100
AcDbPolyline
 90
        2
 70
     0
 43
0.0
 10
10.0
 20
-574.614347397482
 10
579.9999999999998
 20
-574.614347397482
  0
LWPOLYLINE
  5
828
330
1A
100
AcDbEntity
  8
6
  6
STRICHLINIE
100
AcDbPolyline
 90
        2
 70
     0
 43
0.0
 10
10.0
 20
-590.614347397482
 10
579.9999999999998
 20
-590.614347397482
  0
LINE
  5
829
330
1A
100
AcDbEntity
  8
6
  6
STRICHPUNKT
 48
5.0
100
AcDbLine
 10
-4.690778363066158
 20
-532.614347397482
 30
0.0
 11
14.30922163693384
 21
-532.614347397482
 31
0.0
  0
LINE
  5
82A
330
1A
100
AcDbEntity
  8
6
  6
STRICHPUNKT
 48
5.0
100
AcDbLine
 10
-4.690778363066165
 20
-632.614347397482
 30
0.0
 11
14.30922163693383
 21
-632.614347397482
 31
0.0
  0
LEADER
  5
84C
330
1A
100
AcDbEntity
  8
1
100
AcDbLeader
  3
OPO-SSTRICH
 73
     0
 74
     0
 75
     1
 40
7.53956343792633
 41
17.69577080491132
 76
     4
 10
-168.4142879315207
 20
-358.3222280721282
 30
0.0
 10
-178.4823223991675
 20
-338.6308489953341
 30
0.0
 10
-173.1775371334164
 20
-331.326063729583
 30
0.0
 10
-171.1775371334164
 20
-331.326063729583
 30
0.0
340
84D
213
0.0
223
-1.75
233
0.0
1001
ACAD
1000
DSTYLE
1002
{
1070
   147
1040
1.0
1070
    77
1070
     0
1002
}
  0
MTEXT
  5
84D
102
{ACAD_REACTORS
330
84C
102
}
330
1A
100
AcDbEntity
  8
1
100
AcDbMText
 10
-170.1775371334164
 20
-329.5760637295831
 30
0.0
 40
7.0
 41
0.0
 71
     1
 72
     1
  1
\A1;%%c15
  7
Beschlag
 73
     1
 44
1.0
  0
LEADER
  5
870
330
1A
100
AcDbEntity
  8
1
100
AcDbLeader
  3
OPO-SSTRICH
 73
     0
 40
7.53956343792633
 41
20.41268758526603
 76
     3
 10
84.2980970388565
 20
-553.9124444363383
 30
0.0
 10
95.90689872912003
 20
-565.5212461266017
 30
0.0
 10
97.58899403640477
 20
-565.5212461266017
 30
0.0
340
871
213
0.0
223
-1.75
233
0.0
1001
ACAD
1000
DSTYLE
1002
{
1070
   147
1040
1.0
1070
    77
1070
     0
1002
}
  0
MTEXT
  5
871
102
{ACAD_REACTORS
330
870
102
}
330
1A
100
AcDbEntity
  8
1
100
AcDbMText
 10
98.58899403640476
 20
-563.7712461266017
 30
0.0
 40
7.0
 41
0.0
 71
     1
 72
     1
  1
\A1;%%c6.5
  7
Beschlag
 73
     1
 44
1.0
  0
LWPOLYLINE
  5
875
330
1A
100
AcDbEntity
  8
6
100
AcDbPolyline
 90
        2
 70
     0
 43
0.0
 10
580.0
 20
-5.0
 10
10.0
 20
-4.99999999999993
  0
LINE
  5
947
330
1A
100
AcDbEntity
  8
6
  6
STRICHPUNKT
 48
5.0
100
AcDbLine
 10
243.0000000000002
 20
5.321130331336462
 30
0.0
 11
243.0000000000002
 21
-10.00174708465965
 31
0.0
  0
LINE
  5
948
330
1A
100
AcDbEntity
  8
6
  6
STRICHPUNKT
 48
5.0
100
AcDbLine
 10
243.0000000000002
 20
-623.1143473974819
 30
0.0
 11
243.0000000000002
 21
-604.114347397482
 31
0.0
  0
LINE
  5
949
330
1A
100
AcDbEntity
  8
6
  6
STRICHPUNKT
 48
5.0
100
AcDbLine
 10
243.0000000000002
 20
-542.114347397482
 30
0.0
 11
243.0000000000002
 21
-561.1143473974819
 31
0.0
  0
CIRCLE
  5
94A
330
1A
100
AcDbEntity
  8
6
100
AcDbCircle
 10
243.0000000000002
 20
-613.6143473974819
 30
0.0
 40
3.25
  0
LINE
  5
94B
330
1A
100
AcDbEntity
  8
6
  6
STRICHPUNKT
 48
5.0
100
AcDbLine
 10
252.5000000000002
 20
-613.6143473974819
 30
0.0
 11
233.5000000000002
 21
-613.6143473974819
 31
0.0
  0
CIRCLE
  5
94C
330
1A
100
AcDbEntity
  8
6
100
AcDbCircle
 10
243.0000000000002
 20
-551.6143473974819
 30
0.0
 40
3.25
  0
LINE
  5
94D
330
1A
100
AcDbEntity
  8
6
  6
STRICHPUNKT
 48
5.0
100
AcDbLine
 10
252.5000000000002
 20
-551.6143473974819
 30
0.0
 11
233.5000000000002
 21
-551.6143473974819
 31
0.0
  0
LINE
  5
94E
330
1A
100
AcDbEntity
  8
6
  6
STRICHPUNKT
 48
5.0
100
AcDbLine
 10
404.0000000000002
 20
5.321130331336462
 30
0.0
 11
404.0000000000002
 21
-10.00174708465965
 31
0.0
  0
LINE
  5
94F
330
1A
100
AcDbEntity
  8
6
  6
STRICHPUNKT
 48
5.0
100
AcDbLine
 10
404.0000000000002
 20
-623.1143473974819
 30
0.0
 11
404.0000000000002
 21
-604.114347397482
 31
0.0
  0
LINE
  5
950
330
1A
100
AcDbEntity
  8
6
  6
STRICHPUNKT
 48
5.0
100
AcDbLine
 10
404.0000000000002
 20
-542.114347397482
 30
0.0
 11
404.0000000000002
 21
-561.1143473974819
 31
0.0
  0
CIRCLE
  5
951
330
1A
100
AcDbEntity
  8
6
100
AcDbCircle
 10
404.0000000000002
 20
-613.6143473974819
 30
0.0
 40
3.25
  0
LINE
  5
952
330
1A
100
AcDbEntity
  8
6
  6
STRICHPUNKT
 48
5.0
100
AcDbLine
 10
413.5000000000002
 20
-613.6143473974819
 30
0.0
 11
394.5000000000002
 21
-613.6143473974819
 31
0.0
  0
CIRCLE
  5
953
330
1A
100
AcDbEntity
  8
6
100
AcDbCircle
 10
404.0000000000002
 20
-551.6143473974819
 30
0.0
 40
3.25
  0
LINE
  5
954
330
1A
100
AcDbEntity
  8
6
  6
STRICHPUNKT
 48
5.0
100
AcDbLine
 10
413.5000000000002
 20
-551.6143473974819
 30
0.0
 11
394.5000000000002
 21
-551.6143473974819
 31
0.0
  0
LINE
  5
95F
330
1A
100
AcDbEntity
  8
6
  6
STRICHPUNKT
 48
5.0
100
AcDbLine
 10
-4.690778363066115
 20
-44.99999999999999
 30
0.0
 11
14.30922163693388
 21
-44.99999999999999
 31
0.0
  0
VIEWPORT
  5
22
330
17
100
AcDbEntity
 67
     1
  8
0
100
AcDbViewport
 10
133.3499908447265
 20
101.5999970436096
 30
0.0
 40
367.9629757862268
 41
228.4221935424804
 68
     1
 69
     1
 12
133.3499908447265
 22
101.5999970436096
 13
0.0
 23
0.0
 14
10.0
 24
10.0
 15
10.0
 25
10.0
 16
0.0
 26
0.0
 36
1.0
 17
0.0
 27
0.0
 37
0.0
 42
50.0
 43
0.0
 44
0.0
 45
228.4221935424804
 50
0.0
 51
0.0
 72
   100
 90
    32800
  1

281
     0
 71
     1
 74
     0
110
0.0
120
0.0
130
0.0
111
1.0
121
0.0
131
0.0
112
0.0
122
1.0
132
0.0
 79
     0
146
0.0
  0
ENDSEC
  0
SECTION
  2
OBJECTS
  0
DICTIONARY
  5
C
330
0
100
AcDbDictionary
281
     1
  3
ACAD_GROUP
350
D
  3
ACAD_LAYOUT
350
F4
  3
ACAD_MLINESTYLE
350
E
  3
ACAD_PLOTSETTINGS
350
F5
  3
ACAD_PLOTSTYLENAME
350
F2
  3
AcDbVariableDictionary
350
136
  3
AEC_PROPERTY_SET_DEFS
350
5C5
  3
DWGPROPS
350
4C8
  0
DICTIONARY
  5
1F6
330
1A
100
AcDbDictionary
280
     1
281
     1
  3
ACAD_LAYOUTSELFREF
360
4F8
  0
DICTIONARY
  5
1F4
330
17
100
AcDbDictionary
280
     1
281
     1
  3
ACAD_LAYOUTSELFREF
360
4F7
  0
DICTIONARY
  5
64A
330
63D
100
AcDbDictionary
280
     1
281
     1
  3
ACAD_DIMASSOC
360
654
  0
DICTIONARY
  5
D
102
{ACAD_REACTORS
330
C
102
}
330
C
100
AcDbDictionary
281
     1
  0
DICTIONARY
  5
F4
102
{ACAD_REACTORS
330
C
102
}
330
C
100
AcDbDictionary
281
     1
  3
Layout1
350
F7
  3
Model
350
F6
  0
DICTIONARY
  5
E
102
{ACAD_REACTORS
330
C
102
}
330
C
100
AcDbDictionary
281
     1
  3
STANDARD
350
13
  0
DICTIONARY
  5
F5
102
{ACAD_REACTORS
330
C
102
}
330
C
100
AcDbDictionary
281
     1
  3
e Plot 1zu1
350
25C
  3
e Plot angepasst
350
25D
  3
Laser A4
350
25E
  0
ACDBDICTIONARYWDFLT
  5
F2
102
{ACAD_REACTORS
330
C
102
}
330
C
100
AcDbDictionary
281
     1
  3
Normal
350
F3
100
AcDbDictionaryWithDefault
340
F3
  0
DICTIONARY
  5
136
102
{ACAD_REACTORS
330
C
102
}
330
C
100
AcDbDictionary
281
     1
  3
DIMASSOC
350
50E
  3
SORTENTS
350
137
  0
DICTIONARY
  5
5C5
102
{ACAD_REACTORS
330
C
102
}
330
C
100
AcDbDictionary
281
     1
  0
XRECORD
  5
4C8
102
{ACAD_REACTORS
330
C
102
}
330
C
100
AcDbXrecord
280
     1
  1
DWGPROPS COOKIE
  2
Datenaufbau HEBGO
  3
Format 14/2000 mit DWF-Format
  4
robert koch cad-support, ch-2540 grenchen
  6
Anpassung für DWF Format und ^M^JZeichnungsvorschau, ^M^Jrobert koch cad-support, ch-2540 grenchen
  7

  8
robert koch
  9

300
=
301
=
302
=
303
=
304
=
305
=
306
=
307
=
308
=
309
=
 40
0.0111293171296296
 41
2451739.873469861
 42
2452087.623583507
  1

 90
        0
  0
XRECORD
  5
4F8
102
{ACAD_REACTORS
330
1F6
102
}
330
1F6
100
AcDbXrecord
280
     1
340
1A
  0
XRECORD
  5
4F7
102
{ACAD_REACTORS
330
1F4
102
}
330
1F4
100
AcDbXrecord
280
     1
340
17
  0
DIMASSOC
  5
654
102
{ACAD_REACTORS
330
64A
102
}
330
64A
100
AcDbDimAssoc
330
63D
 90
        3
 70
     0
 71
     0
  1
AcDbOsnapPointRef
 72
     1
331
638
 73
     2
 91
        1
 40
1.0
 10
0.0
 20
0.0
 30
0.0
 75
     0
  1
AcDbOsnapPointRef
 72
    13
331
638
 73
     2
 91
        1
 40
0.0
 10
0.0
 20
-380.0
 30
0.0
 75
     0
  0
LAYOUT
  5
F7
102
{ACAD_REACTORS
330
F4
102
}
330
F4
100
AcDbPlotSettings
  1

  2
none_device
  4
Letter_(8.50_x_11.00_Inches)
  6

 40
6.349999904632568
 41
6.349999904632568
 42
6.350006103515625
 43
6.350006103515625
 44
215.8999938964843
 45
279.3999938964843
 46
0.0
 47
0.0
 48
0.0
 49
0.0
140
0.0
141
0.0
142
1.0
143
1.0
 70
   688
 72
     1
 73
     1
 74
     5
  7
Hebgo JPG.ctb
 75
    16
147
1.0
148
0.0
149
0.0
100
AcDbLayout
  1
Layout1
 70
     1
 71
     1
 10
-6.350006103515625
 20
-6.349999904632568
 11
273.0499877929687
 21
209.5499939918517
 12
0.0
 22
0.0
 32
0.0
 14
1.000000000000000E+20
 24
1.000000000000000E+20
 34
1.000000000000000E+20
 15
-1.000000000000000E+20
 25
-1.000000000000000E+20
 35
-1.000000000000000E+20
146
0.0
 13
0.0
 23
0.0
 33
0.0
 16
1.0
 26
0.0
 36
0.0
 17
0.0
 27
1.0
 37
0.0
 76
     0
330
17
331
22
  0
LAYOUT
  5
F6
102
{ACAD_REACTORS
330
F4
102
}
330
F4
100
AcDbPlotSettings
  1

  2
PublishToWeb JPG.pc3
  4
VGA_(640.00_x_480.00_Pixels)
  6

 40
0.0
 41
0.0
 42
1.0
 43
1.0
 44
640.0
 45
480.0
 46
20.88
 47
0.0
 48
0.0
 49
0.0
140
0.0
141
0.0
142
1.0
143
1.373091493168372
 70
 28340
 72
     2
 73
     0
 74
     1
  7
Hebgo JPG.ctb
 75
     0
147
0.7282835885120274
148
230.0375266925052
149
647.6508507418134
100
AcDbLayout
  1
Model
 70
     1
 71
     0
 10
0.0
 20
0.0
 11
12.0
 21
9.0
 12
0.0
 22
0.0
 32
0.0
 14
0.0
 24
0.0
 34
0.0
 15
0.0
 25
0.0
 35
0.0
146
0.0
 13
0.0
 23
0.0
 33
0.0
 16
1.0
 26
0.0
 36
0.0
 17
0.0
 27
1.0
 37
0.0
 76
     0
330
1A
  0
MLINESTYLE
  5
13
102
{ACAD_REACTORS
330
E
102
}
330
E
100
AcDbMlineStyle
  2
STANDARD
 70
     0
  3

 62
     0
 51
90.0
 52
90.0
 71
     2
 49
0.5
 62
   256
  6
BYLAYER
 49
-0.5
 62
   256
  6
BYLAYER
  0
PLOTSETTINGS
  5
25C
102
{ACAD_REACTORS
330
F5
102
}
330
F5
100
AcDbPlotSettings
  1
e Plot 1zu1
  2
DWF ePlot.pc3
  4
UserDefinedMetric (210.00 x 297.00MM)
  6

 40
13.0
 41
13.0
 42
13.0
 43
13.0
 44
210.0
 45
297.0
 46
58.27
 47
107.6999999999999
 48
0.0
 49
0.0
140
0.0
141
0.0
142
1.0
143
1.0
 70
  1716
 72
     1
 73
     0
 74
     1
  7
OPO_DWF.ctb
 75
    16
147
1.0
148
17.16613684218157
149
24.55902015156925
  0
PLOTSETTINGS
  5
25D
102
{ACAD_REACTORS
330
F5
102
}
330
F5
100
AcDbPlotSettings
  1
e Plot angepasst
  2
DWF ePlot.pc3
  4
UserDefinedMetric (210.00 x 297.00MM)
  6

 40
13.0
 41
13.0
 42
13.0
 43
13.0
 44
210.0
 45
297.0
 46
0.0
 47
59.67
 48
0.0
 49
0.0
140
0.0
141
0.0
142
1.0
143
0.3665841129351039
 70
  1716
 72
     1
 73
     0
 74
     1
  7
OPO_DWF.ctb
 75
     0
147
2.727886901571834
148
17.16613684218157
149
24.55902015156925
  0
PLOTSETTINGS
  5
25E
102
{ACAD_REACTORS
330
F5
102
}
330
F5
100
AcDbPlotSettings
  1
Laser A4
  2
4 Xerox XL.pc3
  4
A4
  6

 40
5.111750125885009
 41
5.11176061630249
 42
5.111740112304687
 43
5.11175537109375
 44
209.9733276367187
 45
296.9259948730469
 46
0.0
 47
43.47999999999999
 48
0.0
 49
0.0
140
0.0
141
0.0
142
1.0
143
0.020166824766453
 70
  1716
 72
     1
 73
     0
 74
     1
  7
OPO.ctb
 75
     0
147
49.58638811913882
148
2.014159285479877
149
2.014159285479877
  0
ACDBPLACEHOLDER
  5
F3
102
{ACAD_REACTORS
330
F2
102
}
330
F2
  0
DICTIONARYVAR
  5
50E
102
{ACAD_REACTORS
330
136
102
}
330
136
100
DictionaryVariables
280
     0
  1
2
  0
DICTIONARYVAR
  5
137
102
{ACAD_REACTORS
330
136
102
}
330
136
100
DictionaryVariables
280
     0
  1
96
  0
ENDSEC
  0
EOF
