  0
SECTION
  2
HEADER
  9
$ACADVER
  1
AC1009
  9
$INSBASE
 10
0.0
 20
0.0
 30
0.0
  9
$EXTMIN
 10
-90.627163891912687
 20
-275.35133456424978
 30
-0.0000000000000058
  9
$EXTMAX
 10
210.0000016903625
 20
5.3475767802976861
 30
0.0000000000000104
  9
$LIMMIN
 10
-150.0
 20
-150.0
  9
$LIMMAX
 10
150.0
 20
150.0
  9
$ORTHOMODE
 70
     0
  9
$REGENMODE
 70
     1
  9
$FILLMODE
 70
     1
  9
$QTEXTMODE
 70
     0
  9
$MIRRTEXT
 70
     0
  9
$DRAGMODE
 70
     2
  9
$LTSCALE
 40
1.0
  9
$OSMODE
 70
   111
  9
$ATTMODE
 70
     1
  9
$TEXTSIZE
 40
3.5
  9
$TRACEWID
 40
1.0
  9
$TEXTSTYLE
  7
BESCHLAG
  9
$CLAYER
  8
0
  9
$CELTYPE
  6
BYLAYER
  9
$CECOLOR
 62
   256
  9
$DIMSCALE
 40
1.0
  9
$DIMASZ
 40
2.0
  9
$DIMEXO
 40
2.0
  9
$DIMDLI
 40
0.0
  9
$DIMRND
 40
0.0
  9
$DIMDLE
 40
1.0
  9
$DIMEXE
 40
1.0
  9
$DIMTP
 40
0.0
  9
$DIMTM
 40
0.0
  9
$DIMTXT
 40
3.5
  9
$DIMCEN
 40
0.0
  9
$DIMTSZ
 40
0.0
  9
$DIMTOL
 70
     0
  9
$DIMLIM
 70
     0
  9
$DIMTIH
 70
     0
  9
$DIMTOH
 70
     0
  9
$DIMSE1
 70
     0
  9
$DIMSE2
 70
     0
  9
$DIMTAD
 70
     1
  9
$DIMZIN
 70
     8
  9
$DIMBLK
  1

  9
$DIMASO
 70
     1
  9
$DIMSHO
 70
     1
  9
$DIMPOST
  1

  9
$DIMAPOST
  1

  9
$DIMALT
 70
     0
  9
$DIMALTD
 70
     2
  9
$DIMALTF
 40
0.039370078740157
  9
$DIMLFAC
 40
1.0
  9
$DIMTOFL
 70
     1
  9
$DIMTVP
 40
0.0
  9
$DIMTIX
 70
     1
  9
$DIMSOXD
 70
     0
  9
$DIMSAH
 70
     1
  9
$DIMBLK1
  1
OBLIQUE
  9
$DIMBLK2
  1
OBLIQUE
  9
$DIMSTYLE
  2
OPO-SSTRICH
  9
$DIMCLRD
 70
   256
  9
$DIMCLRE
 70
   256
  9
$DIMCLRT
 70
   256
  9
$DIMTFAC
 40
0.7114285714285716
  9
$DIMGAP
 40
1.0
  9
$LUNITS
 70
     2
  9
$LUPREC
 70
     1
  9
$SKETCHINC
 40
1.0
  9
$FILLETRAD
 40
0.0
  9
$AUNITS
 70
     0
  9
$AUPREC
 70
     1
  9
$MENU
  1
D:\ACL_CGWG\CGTAB13
  9
$ELEVATION
 40
0.0
  9
$PELEVATION
 40
0.0
  9
$THICKNESS
 40
0.0
  9
$LIMCHECK
 70
     0
  9
$BLIPMODE
 70
     0
  9
$CHAMFERA
 40
1.0
  9
$CHAMFERB
 40
1.0
  9
$SKPOLY
 70
     0
  9
$TDCREATE
 40
2451739.9208785412
  9
$TDUPDATE
 40
2452087.6666818168
  9
$TDINDWG
 40
0.0011607755
  9
$TDUSRTIMER
 40
0.0011607755
  9
$USRTIMER
 70
     1
  9
$ANGBASE
 50
0.0
  9
$ANGDIR
 70
     0
  9
$PDMODE
 70
    35
  9
$PDSIZE
 40
5.0
  9
$PLINEWID
 40
0.0
  9
$COORDS
 70
     1
  9
$SPLFRAME
 70
     0
  9
$SPLINETYPE
 70
     6
  9
$SPLINESEGS
 70
     8
  9
$ATTDIA
 70
     1
  9
$ATTREQ
 70
     1
  9
$HANDLING
 70
-16383
  9
$HANDSEED
  5
50D
  9
$SURFTAB1
 70
    12
  9
$SURFTAB2
 70
    12
  9
$SURFTYPE
 70
     6
  9
$SURFU
 70
    12
  9
$SURFV
 70
    12
  9
$UCSNAME
  2

  9
$UCSORG
 10
0.0
 20
0.0
 30
0.0
  9
$UCSXDIR
 10
1.0
 20
0.0
 30
0.0
  9
$UCSYDIR
 10
0.0
 20
1.0
 30
0.0
  9
$PUCSNAME
  2

  9
$PUCSORG
 10
0.0
 20
0.0
 30
0.0
  9
$PUCSXDIR
 10
1.0
 20
0.0
 30
0.0
  9
$PUCSYDIR
 10
0.0
 20
1.0
 30
0.0
  9
$USERI1
 70
     0
  9
$USERI2
 70
     0
  9
$USERI3
 70
     0
  9
$USERI4
 70
     0
  9
$USERI5
 70
     0
  9
$USERR1
 40
0.0
  9
$USERR2
 40
0.0
  9
$USERR3
 40
0.0
  9
$USERR4
 40
0.0
  9
$USERR5
 40
0.0
  9
$WORLDVIEW
 70
     1
  9
$SHADEDGE
 70
     3
  9
$SHADEDIF
 70
    70
  9
$TILEMODE
 70
     1
  9
$MAXACTVP
 70
    48
  9
$PLIMCHECK
 70
     0
  9
$PEXTMIN
 10
1.0000000000000000E+020
 20
1.0000000000000000E+020
 30
1.0000000000000000E+020
  9
$PEXTMAX
 10
-1.0000000000000000E+020
 20
-1.0000000000000000E+020
 30
-1.0000000000000000E+020
  9
$PLIMMIN
 10
0.0
 20
0.0
  9
$PLIMMAX
 10
420.0
 20
297.0
  9
$UNITMODE
 70
     0
  9
$VISRETAIN
 70
     1
  9
$PLINEGEN
 70
     0
  9
$PSLTSCALE
 70
     1
  0
ENDSEC
  0
SECTION
  2
TABLES
  0
TABLE
  2
VPORT
 70
     2
  0
VPORT
  2
*ACTIVE
 70
     0
 10
0.0
 20
0.0
 11
1.0
 21
1.0
 12
59.686418899224932
 22
-135.00187889197599
 13
0.0
 23
0.0
 14
0.5
 24
0.5
 15
10.0
 25
10.0
 16
0.0
 26
0.0
 36
1.0
 17
0.0
 27
0.0
 37
0.0
 40
282.97792821608641
 41
1.6070460704607039
 42
50.0
 43
0.0
 44
0.0
 50
0.0
 51
0.0
 71
     0
 72
   800
 73
     1
 74
     1
 75
     0
 76
     0
 77
     0
 78
     0
  0
ENDTAB
  0
TABLE
  2
LTYPE
 70
     3
  0
LTYPE
  2
CONTINUOUS
 70
     0
  3
_______________________________________________
 72
    65
 73
     2
 40
1.0
 49
1.0
 49
0.0
  0
LTYPE
  2
STRICHLINIE
 70
     0
  3
Strichlinie __ __ __ __ __ __ __ __ __ __ __ __
 72
    65
 73
     2
 40
19.04999999999999
 49
12.699999999999999
 49
-6.3499999999999988
  0
LTYPE
  2
STRICHPUNKT
 70
     0
  3
__ . __ . __ . __ . __ . __ . __ . __ . __ . __
 72
    65
 73
     4
 40
1.0
 49
0.5
 49
-0.25
 49
0.0
 49
-0.25
  0
ENDTAB
  0
TABLE
  2
LAYER
 70
     6
  0
LAYER
  2
0
 70
     0
 62
    30
  6
CONTINUOUS
  0
LAYER
  2
1
 70
     0
 62
     2
  6
CONTINUOUS
  0
LAYER
  2
4
 70
     1
 62
     4
  6
CONTINUOUS
  0
LAYER
  2
5
 70
     0
 62
     1
  6
CONTINUOUS
  0
LAYER
  2
6
 70
     0
 62
     3
  6
CONTINUOUS
  0
LAYER
  2
DEFPOINTS
 70
     0
 62
     7
  6
CONTINUOUS
  0
ENDTAB
  0
TABLE
  2
STYLE
 70
     2
  0
STYLE
  2
STANDARD
 70
     0
 40
0.0
 41
1.0
 50
0.0
 71
     0
 42
2.5
  3
txt
  4

  0
STYLE
  2
BESCHLAG
 70
     0
 40
0.0
 41
1.0
 50
0.0
 71
     0
 42
3.5
  3
txt
  4

  0
ENDTAB
  0
TABLE
  2
VIEW
 70
     0
  0
ENDTAB
  0
TABLE
  2
UCS
 70
     0
  0
ENDTAB
  0
TABLE
  2
APPID
 70
     1
  0
APPID
  2
ACAD
 70
     0
  0
ENDTAB
  0
TABLE
  2
DIMSTYLE
 70
     2
  0
DIMSTYLE
  2
OPO-SSTRICH
 70
     0
  3

  4

  5

  6
OBLIQUE
  7
OBLIQUE
 40
1.0
 41
2.0
 42
2.0
 43
0.0
 44
1.0
 45
0.0
 46
1.0
 47
0.0
 48
0.0
140
3.5
141
0.0
142
0.0
143
0.039370078740157
144
1.0
145
0.0
146
0.7114285714285716
147
1.0
 71
     0
 72
     0
 73
     0
 74
     0
 75
     0
 76
     0
 77
     1
 78
     8
170
     0
171
     2
172
     1
173
     1
174
     1
175
     0
176
   256
177
   256
178
   256
  0
DIMSTYLE
  2
OPO-SSTRICH-10
 70
     0
  3

  4

  5

  6

  7

 40
10.0
 41
0.0
 42
2.0
 43
0.0
 44
1.0
 45
0.0
 46
1.0
 47
0.0
 48
0.0
140
1.8
141
2.0
142
1.0
143
0.039370078740157
144
1.0
145
0.0
146
1.388888888888888
147
1.0
 71
     0
 72
     0
 73
     0
 74
     0
 75
     0
 76
     0
 77
     1
 78
     8
170
     0
171
     2
172
     1
173
     0
174
     1
175
     0
176
   256
177
   256
178
   256
  0
ENDTAB
  0
ENDSEC
  0
SECTION
  2
BLOCKS
  0
BLOCK
  8
0
  2
$MODEL_SPACE
 70
     0
 10
0.0
 20
0.0
 30
0.0
  3
$MODEL_SPACE
  1

  0
ENDBLK
  5
1C
  8
0
  0
BLOCK
 67
     1
  8
0
  2
$PAPER_SPACE
 70
     0
 10
0.0
 20
0.0
 30
0.0
  3
$PAPER_SPACE
  1

  0
ENDBLK
  5
19
 67
     1
  8
0
  0
BLOCK
  8
0
  2
_OBLIQUE
 70
     0
 10
0.0
 20
0.0
 30
0.0
  3
_OBLIQUE
  1

  0
LINE
  5
204
  8
0
 62
     0
 10
-0.5
 20
-0.5
 30
0.0
 11
0.5
 21
0.5
 31
0.0
  0
ENDBLK
  5
206
  8
0
  0
BLOCK
  8
0
  2
NULLPUNKT
 70
     0
 10
0.0
 20
0.0
 30
0.0
  3
NULLPUNKT
  1

  0
SOLID
  5
254
  8
5
 10
0.0
 20
0.0
 30
0.0
 11
2.0
 21
0.0
 31
0.0
 12
0.0
 22
-2.0
 32
0.0
 13
0.0
 23
-2.0
 33
0.0
  0
SOLID
  5
255
  8
5
 10
0.0
 20
0.0
 30
0.0
 11
-2.0
 21
0.0
 31
0.0
 12
0.0
 22
2.0
 32
0.0
 13
0.0
 23
2.0
 33
0.0
  0
POLYLINE
  5
256
  8
5
 66
     1
 10
0.0
 20
0.0
 30
0.0
  0
VERTEX
  5
41A
  8
5
 10
0.0
 20
2.0
 30
0.0
  0
VERTEX
  5
41B
  8
5
 10
0.0
 20
-2.0
 30
0.0
  0
SEQEND
  5
41C
  8
5
  0
POLYLINE
  5
257
  8
5
 66
     1
 10
0.0
 20
0.0
 30
0.0
  0
VERTEX
  5
41D
  8
5
 10
-2.0
 20
0.0
 30
0.0
  0
VERTEX
  5
41E
  8
5
 10
2.0
 20
0.0
 30
0.0
  0
SEQEND
  5
41F
  8
5
  0
CIRCLE
  5
258
  8
5
 10
0.0
 20
0.0
 30
0.0
 40
2.0
  0
ENDBLK
  5
25A
  8
0
  0
BLOCK
  8
0
  2
*D2
 70
     1
 10
0.0
 20
0.0
 30
0.0
  3
*D2
  1

  0
LINE
  5
34E
  8
1
 10
200.0
 20
-25.0
 30
0.0
 11
200.0
 21
-208.50896475293229
 31
0.0
  0
LINE
  5
34F
  8
1
 10
-0.0000000000000012
 20
-102.0
 30
0.0
 11
-0.0000000000000077
 21
-208.50896475293229
 31
0.0
  0
LINE
  5
350
  8
1
 10
210.0
 20
-198.50896475293229
 30
0.0
 11
-10.0
 21
-198.50896475293229
 31
0.0
  0
LINE
  5
351
  8
1
 10
-10.0
 20
-208.50896475293229
 30
0.0
 11
9.9999999999999911
 21
-188.50896475293229
 31
0.0
  0
LINE
  5
352
  8
1
 10
190.0
 20
-208.50896475293229
 30
0.0
 11
210.0
 21
-188.50896475293229
 31
0.0
  0
TEXT
  5
353
  8
0
 10
79.25579809004094
 20
-188.16517211991729
 30
0.0
 40
18.0
  1
200
  0
POINT
  5
354
  8
DEFPOINTS
 62
     0
 10
200.0
 20
-5.0
 30
0.0
  0
POINT
  5
355
  8
DEFPOINTS
 62
     0
 10
0.0
 20
-82.0
 30
0.0
  0
POINT
  5
356
  8
DEFPOINTS
 62
     0
 10
-0.0000000000000071
 20
-198.50896475293229
 30
0.0
  0
ENDBLK
  5
34D
  8
0
  0
ENDSEC
  0
SECTION
  2
ENTITIES
  0
INSERT
  5
25B
  8
5
  2
NULLPUNKT
 10
0.0
 20
0.0
 30
0.0
  0
POLYLINE
  5
2E1
  8
6
 66
     1
 10
0.0
 20
0.0
 30
0.0
  0
VERTEX
  5
420
  8
6
 10
120.27281601893991
 20
-36.363103886361877
 30
0.0
 42
-0.0784911828100752
  0
VERTEX
  5
421
  8
6
 10
129.1045324128572
 20
-40.568916957588947
 30
0.0
  0
VERTEX
  5
422
  8
6
 10
130.80118726979981
 20
-38.094778259696348
 30
0.0
 42
0.0811977583532899
  0
VERTEX
  5
423
  8
6
 10
120.7694155754716
 20
-33.383506547172651
 30
0.0
 42
0.0811977583532899
  0
SEQEND
  5
424
  8
6
  0
POLYLINE
  5
2E2
  8
6
 66
     1
 10
0.0
 20
0.0
 30
0.0
  0
VERTEX
  5
425
  8
6
 10
16.83752462328448
 20
-46.268651509629187
 30
0.0
  0
VERTEX
  5
426
  8
6
 10
103.177752755093
 20
-33.066516530559959
 30
0.0
  0
VERTEX
  5
427
  8
6
 10
104.6995721086341
 20
-42.950817999566418
 30
0.0
  0
VERTEX
  5
428
  8
6
 10
18.245207392537839
 20
-56.152997065275862
 30
0.0
  0
SEQEND
  5
429
  8
6
  0
POLYLINE
  5
2E3
  8
5
  6
STRICHLINIE
 66
     1
 10
0.0
 20
0.0
 30
0.0
  0
VERTEX
  5
42A
  8
5
  6
STRICHLINIE
 10
13.92146017582399
 20
-144.99510550084631
 30
0.0
 42
-0.2159032098541912
  0
VERTEX
  5
42B
  8
5
  6
STRICHLINIE
 10
5.5992271876148152
 20
-169.48689832726259
 30
0.0
  0
VERTEX
  5
42C
  8
5
  6
STRICHLINIE
 10
7.7884877177202716
 20
-171.5380293155996
 30
0.0
 42
0.2136885087016358
  0
VERTEX
  5
42D
  8
5
  6
STRICHLINIE
 10
16.934299974655001
 20
-144.99200007267609
 30
0.0
 42
0.0811977583532899
  0
SEQEND
  5
42E
  8
5
  6
STRICHLINIE
  0
ARC
  5
2E4
  8
6
 10
12.0
 20
-52.0
 30
0.0
 40
7.5000000000002212
 50
311.81031489720328
 51
49.842356114079521
  0
ARC
  5
2E5
  8
6
  6
STRICHLINIE
 10
12.0
 20
-52.0
 30
0.0
 40
7.5
 50
49.834078373410577
 51
311.81031489578788
  0
POLYLINE
  5
2E6
  8
6
 66
     1
 10
0.0
 20
0.0
 30
0.0
  0
VERTEX
  5
42F
  8
6
 10
17.0
 20
-46.409830056250399
 30
0.0
  0
VERTEX
  5
430
  8
6
 10
17.0
 20
-46.243807680737511
 30
0.0
  0
SEQEND
  5
431
  8
6
  0
POLYLINE
  5
2E7
  8
5
  6
STRICHLINIE
 66
     1
 10
0.0
 20
0.0
 30
0.0
  0
VERTEX
  5
432
  8
5
  6
STRICHLINIE
 10
16.934299974641359
 20
-57.648246078138541
 30
0.0
  0
VERTEX
  5
433
  8
5
  6
STRICHLINIE
 10
16.934299974641359
 20
-144.99200007267609
 30
0.0
  0
VERTEX
  5
434
  8
5
  6
STRICHLINIE
 10
6.9335378327787112
 20
-145.00230817086671
 30
0.0
  0
VERTEX
  5
435
  8
5
  6
STRICHLINIE
 10
6.950746162768155
 20
-57.545722287239741
 30
0.0
  0
SEQEND
  5
436
  8
5
  6
STRICHLINIE
  0
POLYLINE
  5
2E8
  8
6
  6
STRICHLINIE
 66
     1
 10
0.0
 20
0.0
 30
0.0
  0
VERTEX
  5
437
  8
6
  6
STRICHLINIE
 10
17.0
 20
-46.409830056250399
 30
0.0
  0
VERTEX
  5
438
  8
6
  6
STRICHLINIE
 10
17.0
 20
-46.243807680737511
 30
0.0
  0
SEQEND
  5
439
  8
6
  6
STRICHLINIE
  0
POINT
  5
2E9
  8
5
 10
0.0
 20
-245.3288269784116
 30
0.0
  0
POINT
  5
2EA
  8
5
 10
-60.0
 20
0.0
 30
0.0
  0
ARC
  5
2EB
  8
6
 10
9.6304238364400572
 20
-79.0
 30
0.0
 40
3.0
 50
270.0
 51
346.60750224624491
  0
ARC
  5
2EC
  8
6
 10
20.0
 20
-30.091861589156899
 30
0.0
 40
3.0
 50
110.2248594311606
 51
180.0
  0
ARC
  5
2ED
  8
6
 10
33.0
 20
-18.908138410844909
 30
0.0
 40
3.0
 50
290.22485943116061
 51
0.0
  0
ARC
  5
2EE
  8
6
 10
33.0
 20
-5.837959396219957
 30
0.0
 40
3.0
 50
0.0
 51
86.820169880131928
  0
ARC
  5
2EF
  8
4
 10
111.375390252786
 20
-66.422352333189338
 30
0.0
 40
31.348406697189979
 50
55.559394512486811
 51
73.511442183346929
  0
ARC
  5
2F0
  8
4
 10
111.375390252786
 20
-66.422352333189338
 30
0.0
 40
34.348406697189972
 50
55.559394512486811
 51
74.127813783910753
  0
LINE
  5
2F1
  8
4
 10
130.80118726980069
 20
-38.094778259694969
 30
0.0
 11
129.1045324128572
 21
-40.568916957588037
 31
0.0
  0
LINE
  5
2F2
  8
4
 10
36.0
 20
-3.0
 30
0.0
 11
36.0
 21
-21.0
 31
0.0
  0
CIRCLE
  5
2F3
  8
4
 10
30.0
 20
-8.0
 30
0.0
 40
2.5
  0
POLYLINE
  5
2F4
  8
4
 66
     1
 10
0.0
 20
0.0
 30
0.0
 70
     1
  0
VERTEX
  5
43A
  8
4
 10
-48.5
 20
-26.0
 30
0.0
  0
VERTEX
  5
43B
  8
4
 10
-48.5
 20
-1.0
 30
0.0
  0
VERTEX
  5
43C
  8
4
 10
-30.0
 20
-1.0
 30
0.0
  0
VERTEX
  5
43D
  8
4
 10
-30.0
 20
-26.0
 30
0.0
  0
SEQEND
  5
43E
  8
4
  0
POLYLINE
  5
2F5
  8
4
 66
     1
 10
0.0
 20
0.0
 30
0.0
 70
     1
  0
VERTEX
  5
43F
  8
4
 10
0.0
 20
-1.0
 30
0.0
  0
VERTEX
  5
440
  8
4
 10
0.0
 20
-26.0
 30
0.0
  0
VERTEX
  5
441
  8
4
 10
4.0
 20
-26.0
 30
0.0
  0
VERTEX
  5
442
  8
4
 10
4.0
 20
-1.222222222222626
 30
0.0
  0
SEQEND
  5
443
  8
4
  0
POLYLINE
  5
2F6
  8
4
 66
     1
 10
0.0
 20
0.0
 30
0.0
 70
     1
  0
VERTEX
  5
444
  8
4
 10
0.0
 20
-26.0
 30
0.0
  0
VERTEX
  5
445
  8
4
 10
0.0
 20
-1.0
 30
0.0
  0
VERTEX
  5
446
  8
4
 10
4.0
 20
-1.222222222222626
 30
0.0
  0
VERTEX
  5
447
  8
4
 10
4.0
 20
-26.0
 30
0.0
  0
SEQEND
  5
448
  8
4
  0
CIRCLE
  5
2F7
  8
4
 10
12.0
 20
-52.0
 30
0.0
 40
2.5
  0
LINE
  5
2F8
  8
4
 10
36.0
 20
-21.0
 30
0.0
 11
17.0
 21
-28.0
 31
0.0
  0
LINE
  5
2F9
  8
4
 10
0.0
 20
-1.0
 30
0.0
 11
36.0
 21
-3.0
 31
0.0
  0
LINE
  5
2FA
  8
4
 10
12.0
 20
-82.0
 30
0.0
 11
0.0
 21
-82.0
 31
0.0
  0
LINE
  5
2FB
  8
4
 10
17.0
 20
-61.0
 30
0.0
 11
12.0
 21
-82.0
 31
0.0
  0
LINE
  5
2FC
  8
4
 10
0.0
 20
-82.0
 30
0.0
 11
0.0
 21
-1.0
 31
0.0
  0
LINE
  5
2FD
  8
4
 10
17.0
 20
-28.0
 30
0.0
 11
17.0
 21
-61.0
 31
0.0
  0
POLYLINE
  5
2FE
  8
4
 66
     1
 10
0.0
 20
0.0
 30
0.0
  0
VERTEX
  5
449
  8
4
 10
23.0
 20
-1.2777777777782831
 30
0.0
  0
VERTEX
  5
44A
  8
4
 10
23.0
 20
0.0
 30
0.0
  0
VERTEX
  5
44B
  8
4
 10
200.0
 20
0.0
 30
0.0
  0
VERTEX
  5
44C
  8
4
 10
200.0
 20
-5.0
 30
0.0
  0
VERTEX
  5
44D
  8
4
 10
180.0
 20
-14.0
 30
0.0
  0
VERTEX
  5
44E
  8
4
 10
124.0
 20
-14.0
 30
0.0
  0
VERTEX
  5
44F
  8
4
 10
120.0
 20
-38.0
 30
0.0
  0
VERTEX
  5
450
  8
4
 10
104.0
 20
-38.0
 30
0.0
  0
VERTEX
  5
451
  8
4
 10
100.0
 20
-14.0
 30
0.0
  0
VERTEX
  5
452
  8
4
 10
36.0
 20
-14.0
 30
0.0
  0
SEQEND
  5
453
  8
4
  0
POLYLINE
  5
2FF
  8
4
 66
     1
 10
0.0
 20
0.0
 30
0.0
 70
     1
  0
VERTEX
  5
454
  8
4
 10
17.0
 20
-46.243807680736609
 30
0.0
  0
VERTEX
  5
455
  8
4
 10
103.177752755093
 20
-33.066516530559959
 30
0.0
  0
VERTEX
  5
456
  8
4
 10
104.6995721086341
 20
-42.950817999565508
 30
0.0
  0
VERTEX
  5
457
  8
4
 10
17.0
 20
-56.343148841003313
 30
0.0
  0
SEQEND
  5
458
  8
4
  0
POLYLINE
  5
300
  8
4
 66
     1
 10
0.0
 20
0.0
 30
0.0
 70
     1
  0
VERTEX
  5
459
  8
4
 10
0.0
 20
-215.32882697841251
 30
0.0
  0
VERTEX
  5
45A
  8
4
 10
4.0
 20
-215.32882697841251
 30
0.0
  0
VERTEX
  5
45B
  8
4
 10
4.0
 20
-233.82882697841251
 30
0.0
  0
VERTEX
  5
45C
  8
4
 10
36.0
 20
-233.82882697841251
 30
0.0
  0
VERTEX
  5
45D
  8
4
 10
36.0
 20
-237.82882697841251
 30
0.0
  0
VERTEX
  5
45E
  8
4
 10
4.0
 20
-237.82882697841251
 30
0.0
  0
VERTEX
  5
45F
  8
4
 10
4.0
 20
-252.82882697841251
 30
0.0
  0
VERTEX
  5
460
  8
4
 10
36.0
 20
-252.82882697841251
 30
0.0
  0
VERTEX
  5
461
  8
4
 10
36.0
 20
-256.82882697841251
 30
0.0
  0
VERTEX
  5
462
  8
4
 10
4.0
 20
-256.82882697841251
 30
0.0
  0
VERTEX
  5
463
  8
4
 10
4.0
 20
-275.32882697841251
 30
0.0
  0
VERTEX
  5
464
  8
4
 10
0.0
 20
-275.32882697841251
 30
0.0
  0
SEQEND
  5
465
  8
4
  0
POLYLINE
  5
301
  8
4
 66
     1
 10
0.0
 20
0.0
 30
0.0
 70
     1
  0
VERTEX
  5
466
  8
4
 10
23.0
 20
-238.32882697841251
 30
0.0
  0
VERTEX
  5
467
  8
4
 10
23.0
 20
-252.32882697841251
 30
0.0
  0
VERTEX
  5
468
  8
4
 10
200.0
 20
-252.32882697841251
 30
0.0
  0
VERTEX
  5
469
  8
4
 10
200.0
 20
-238.32882697841251
 30
0.0
  0
SEQEND
  5
46A
  8
4
  0
POLYLINE
  5
302
  8
4
 66
     1
 10
0.0
 20
0.0
 30
0.0
 70
     1
  0
VERTEX
  5
46B
  8
4
 10
-71.5
 20
-26.0
 30
0.0
  0
VERTEX
  5
46C
  8
4
 10
-71.5
 20
-1.0
 30
0.0
  0
VERTEX
  5
46D
  8
4
 10
-90.0
 20
-1.0
 30
0.0
  0
VERTEX
  5
46E
  8
4
 10
-90.0
 20
-26.0
 30
0.0
  0
SEQEND
  5
46F
  8
4
  0
POLYLINE
  5
303
  8
4
  6
CONTINUOUS
 66
     1
 10
0.0
 20
0.0
 30
0.0
 70
     1
  0
VERTEX
  5
470
  8
4
  6
CONTINUOUS
 10
-71.5
 20
-1.0
 30
0.0
  0
VERTEX
  5
471
  8
4
  6
CONTINUOUS
 10
-67.5
 20
-1.0
 30
0.0
  0
VERTEX
  5
472
  8
4
  6
CONTINUOUS
 10
-67.5
 20
-33.0
 30
0.0
  0
VERTEX
  5
473
  8
4
  6
CONTINUOUS
 10
-64.5
 20
-36.0
 30
0.0
  0
VERTEX
  5
474
  8
4
  6
CONTINUOUS
 10
-64.5
 20
-55.0
 30
0.0
  0
VERTEX
  5
475
  8
4
  6
CONTINUOUS
 10
-67.5
 20
-58.0
 30
0.0
  0
VERTEX
  5
476
  8
4
  6
CONTINUOUS
 10
-67.5
 20
-78.0
 30
0.0
  0
VERTEX
  5
477
  8
4
  6
CONTINUOUS
 10
-52.5
 20
-78.0
 30
0.0
  0
VERTEX
  5
478
  8
4
  6
CONTINUOUS
 10
-52.5
 20
-58.0
 30
0.0
  0
VERTEX
  5
479
  8
4
  6
CONTINUOUS
 10
-55.5
 20
-55.0
 30
0.0
  0
VERTEX
  5
47A
  8
4
  6
CONTINUOUS
 10
-55.5
 20
-36.0
 30
0.0
  0
VERTEX
  5
47B
  8
4
  6
CONTINUOUS
 10
-52.5
 20
-33.0
 30
0.0
  0
VERTEX
  5
47C
  8
4
  6
CONTINUOUS
 10
-52.5
 20
-1.0
 30
0.0
  0
VERTEX
  5
47D
  8
4
  6
CONTINUOUS
 10
-48.5
 20
-1.0
 30
0.0
  0
VERTEX
  5
47E
  8
4
  6
CONTINUOUS
 10
-48.5
 20
-82.0
 30
0.0
  0
VERTEX
  5
47F
  8
4
  6
CONTINUOUS
 10
-71.5
 20
-82.0
 30
0.0
  0
SEQEND
  5
480
  8
4
  6
CONTINUOUS
  0
POLYLINE
  5
304
  8
4
  6
CONTINUOUS
 66
     1
 10
0.0
 20
0.0
 30
0.0
 70
     1
  0
VERTEX
  5
481
  8
4
  6
CONTINUOUS
 10
-71.5
 20
-82.0
 30
0.0
  0
VERTEX
  5
482
  8
4
  6
CONTINUOUS
 10
-71.5
 20
-1.0
 30
0.0
  0
VERTEX
  5
483
  8
4
  6
CONTINUOUS
 10
-48.5
 20
-1.0
 30
0.0
  0
VERTEX
  5
484
  8
4
  6
CONTINUOUS
 10
-48.5
 20
-82.0
 30
0.0
  0
SEQEND
  5
485
  8
4
  6
CONTINUOUS
  0
POLYLINE
  5
305
  8
4
  6
CONTINUOUS
 66
     1
 10
0.0
 20
0.0
 30
0.0
 70
     1
  0
VERTEX
  5
486
  8
4
  6
CONTINUOUS
 10
-65.0
 20
-14.0
 30
0.0
  0
VERTEX
  5
487
  8
4
  6
CONTINUOUS
 10
-65.0
 20
-37.0
 30
0.0
  0
VERTEX
  5
488
  8
4
  6
CONTINUOUS
 10
-55.0
 20
-37.0
 30
0.0
  0
VERTEX
  5
489
  8
4
  6
CONTINUOUS
 10
-55.0
 20
-14.0
 30
0.0
  0
VERTEX
  5
48A
  8
4
  6
CONTINUOUS
 10
-53.0
 20
-14.0
 30
0.0
  0
VERTEX
  5
48B
  8
4
  6
CONTINUOUS
 10
-53.0
 20
-39.0
 30
0.0
  0
VERTEX
  5
48C
  8
4
  6
CONTINUOUS
 10
-67.0
 20
-39.0
 30
0.0
  0
VERTEX
  5
48D
  8
4
  6
CONTINUOUS
 10
-67.0
 20
-14.0
 30
0.0
  0
SEQEND
  5
48E
  8
4
  6
CONTINUOUS
  0
POLYLINE
  5
306
  8
4
  6
CONTINUOUS
 66
     1
 10
0.0
 20
0.0
 30
0.0
 70
     1
  0
VERTEX
  5
48F
  8
4
  6
CONTINUOUS
 10
-64.0
 20
-57.942260172250819
 30
0.0
  0
VERTEX
  5
490
  8
4
  6
CONTINUOUS
 10
-64.0
 20
-34.06651653055814
 30
0.0
  0
VERTEX
  5
491
  8
4
  6
CONTINUOUS
 10
-56.0
 20
-34.06651653055814
 30
0.0
  0
VERTEX
  5
492
  8
4
  6
CONTINUOUS
 10
-56.0
 20
-57.942260172250819
 30
0.0
  0
SEQEND
  5
493
  8
4
  6
CONTINUOUS
  0
POLYLINE
  5
307
  8
4
 66
     1
 10
0.0
 20
0.0
 30
0.0
 70
     1
  0
VERTEX
  5
494
  8
4
 10
-53.0
 20
-14.0
 30
0.0
  0
VERTEX
  5
495
  8
4
 10
-53.0
 20
0.0
 30
0.0
  0
VERTEX
  5
496
  8
4
 10
-67.0
 20
0.0
 30
0.0
  0
VERTEX
  5
497
  8
4
 10
-67.0
 20
-14.0
 30
0.0
  0
VERTEX
  5
498
  8
4
 10
-65.0
 20
-14.0
 30
0.0
  0
VERTEX
  5
499
  8
4
 10
-65.0
 20
-2.0
 30
0.0
  0
VERTEX
  5
49A
  8
4
 10
-55.0
 20
-2.0
 30
0.0
  0
VERTEX
  5
49B
  8
4
 10
-55.0
 20
-14.0
 30
0.0
  0
SEQEND
  5
49C
  8
4
  0
POLYLINE
  5
308
  8
5
  6
STRICHLINIE
 66
     1
 10
0.0
 20
0.0
 30
0.0
  0
VERTEX
  5
49D
  8
5
  6
STRICHLINIE
 10
36.722222222222619
 20
-1.0
 30
0.0
  0
VERTEX
  5
49E
  8
5
  6
STRICHLINIE
 10
38.0
 20
-1.0
 30
0.0
  0
VERTEX
  5
49F
  8
5
  6
STRICHLINIE
 10
38.0
 20
-178.0
 30
0.0
  0
VERTEX
  5
4A0
  8
5
  6
STRICHLINIE
 10
33.0
 20
-178.0
 30
0.0
  0
VERTEX
  5
4A1
  8
5
  6
STRICHLINIE
 10
24.0
 20
-158.0
 30
0.0
  0
VERTEX
  5
4A2
  8
5
  6
STRICHLINIE
 10
24.0
 20
-102.0
 30
0.0
  0
VERTEX
  5
4A3
  8
5
  6
STRICHLINIE
 10
0.0
 20
-98.0
 30
0.0
  0
VERTEX
  5
4A4
  8
5
  6
STRICHLINIE
 10
0.0
 20
-82.0
 30
0.0
  0
VERTEX
  5
4A5
  8
5
  6
STRICHLINIE
 10
24.0
 20
-78.0
 30
0.0
  0
VERTEX
  5
4A6
  8
5
  6
STRICHLINIE
 10
24.0
 20
-14.0
 30
0.0
  0
SEQEND
  5
4A7
  8
5
  6
STRICHLINIE
  0
LINE
  5
309
  8
6
  6
STRICHPUNKT
 10
185.0
 20
5.3211303313364624
 30
0.0
 11
185.0
 21
-6.0017470846596552
 31
0.0
  0
LINE
  5
30A
  8
6
  6
STRICHPUNKT
 10
137.0
 20
5.3211303313364624
 30
0.0
 11
137.0
 21
-6.0017470846596552
 31
0.0
  0
LINE
  5
30B
  8
6
  6
STRICHPUNKT
 10
58.0
 20
5.3211303313364624
 30
0.0
 11
58.0
 21
-6.0017470846596552
 31
0.0
  0
TEXT
  5
30C
  8
1
 10
61.241435899529279
 20
-78.596375696586364
 30
0.0
 40
10.0
  1
Hebgo KL/200
  0
CIRCLE
  5
30D
  8
6
 10
30.0
 20
-8.0
 30
0.0
 40
2.5
  0
LINE
  5
30E
  8
6
  6
STRICHPUNKT
 10
25.607655094105208
 20
-8.0
 30
0.0
 11
34.39234490589569
 21
-8.0
 31
0.0
  0
LINE
  5
30F
  8
6
  6
STRICHPUNKT
 10
30.0
 20
-3.607655094105211
 30
0.0
 11
30.0
 21
-12.3923449058966
 31
0.0
  0
LINE
  5
310
  8
6
  6
STRICHPUNKT
 10
-5.9016008759745091
 20
-13.5
 30
0.0
 11
5.4212765400216076
 21
-13.5
 31
0.0
  0
POLYLINE
  5
311
  8
6
  6
STRICHLINIE
 66
     1
 10
0.0
 20
0.0
 30
0.0
  0
VERTEX
  5
4A8
  8
6
  6
STRICHLINIE
 10
36.0
 20
-14.0
 30
0.0
  0
VERTEX
  5
4A9
  8
6
  6
STRICHLINIE
 10
23.0
 20
-14.0
 30
0.0
  0
VERTEX
  5
4AA
  8
6
  6
STRICHLINIE
 10
23.0
 20
-1.2777777777791921
 30
0.0
  0
SEQEND
  5
4AB
  8
6
  6
STRICHLINIE
  0
LINE
  5
312
  8
6
 10
0.0
 20
-1.0
 30
0.0
 11
33.166410058867768
 21
-2.842578336603764
 31
0.0
  0
POLYLINE
  5
313
  8
6
 66
     1
 10
0.0
 20
0.0
 30
0.0
 70
     1
  0
VERTEX
  5
4AC
  8
6
 10
-53.0
 20
-14.0
 30
0.0
  0
VERTEX
  5
4AD
  8
6
 10
-53.0
 20
0.0
 30
0.0
  0
VERTEX
  5
4AE
  8
6
 10
-67.0
 20
0.0
 30
0.0
  0
VERTEX
  5
4AF
  8
6
 10
-67.0
 20
-14.0
 30
0.0
  0
VERTEX
  5
4B0
  8
6
 10
-65.0
 20
-14.0
 30
0.0
  0
VERTEX
  5
4B1
  8
6
 10
-65.0
 20
-2.0
 30
0.0
  0
VERTEX
  5
4B2
  8
6
 10
-55.0
 20
-2.0
 30
0.0
  0
VERTEX
  5
4B3
  8
6
 10
-55.0
 20
-14.0
 30
0.0
  0
SEQEND
  5
4B4
  8
6
  0
LINE
  5
314
  8
6
  6
STRICHPUNKT
 10
-60.0
 20
5.3211303313364624
 30
0.0
 11
-60.0
 21
-6.0017470846596552
 31
0.0
  0
LINE
  5
315
  8
6
  6
STRICHPUNKT
 10
-46.062590356837973
 20
-13.5
 30
0.0
 11
-33.937409643161118
 21
-13.5
 31
0.0
  0
LINE
  5
316
  8
6
  6
STRICHPUNKT
 10
-86.062590356837958
 20
-13.5
 30
0.0
 11
-73.937409643161118
 21
-13.5
 31
0.0
  0
LINE
  5
317
  8
6
  6
STRICHPUNKT
 10
-72.643093266469805
 20
-8.0
 30
0.0
 11
-47.531300476051911
 21
-8.0
 31
0.0
  0
LINE
  5
318
  8
6
  6
STRICHPUNKT
 10
179.9767679289925
 20
-245.32882697841339
 30
0.0
 11
190.02323207100829
 21
-245.32882697841339
 31
0.0
  0
LINE
  5
319
  8
6
  6
STRICHPUNKT
 10
185.0
 20
-250.3520590494208
 30
0.0
 11
185.0
 21
-240.3055949074041
 31
0.0
  0
CIRCLE
  5
31A
  8
6
 10
185.0
 20
-245.32882697841339
 30
0.0
 40
2.25
  0
LINE
  5
31B
  8
6
  6
STRICHPUNKT
 10
131.9767679289925
 20
-245.32882697841339
 30
0.0
 11
142.02323207100829
 21
-245.32882697841339
 31
0.0
  0
LINE
  5
31C
  8
6
  6
STRICHPUNKT
 10
137.0
 20
-250.3520590494208
 30
0.0
 11
137.0
 21
-240.3055949074041
 31
0.0
  0
CIRCLE
  5
31D
  8
6
 10
137.0
 20
-245.32882697841339
 30
0.0
 40
2.25
  0
LINE
  5
31E
  8
6
  6
STRICHPUNKT
 10
58.0
 20
-250.3520590494208
 30
0.0
 11
58.0
 21
-240.3055949074041
 31
0.0
  0
CIRCLE
  5
31F
  8
6
 10
58.0
 20
-245.32882697841339
 30
0.0
 40
2.25
  0
LINE
  5
320
  8
6
 10
17.0
 20
-61.0
 30
0.0
 11
12.5488424804962
 21
-79.694861581918303
 31
0.0
  0
LINE
  5
321
  8
6
 10
9.6304238364400572
 20
-82.0
 30
0.0
 11
0.0
 21
-82.0
 31
0.0
  0
CIRCLE
  5
322
  8
6
 10
12.0
 20
-52.0
 30
0.0
 40
2.5
  0
LINE
  5
323
  8
6
  6
STRICHPUNKT
 10
7.607655094105211
 20
-52.0
 30
0.0
 11
16.39234490589569
 21
-52.0
 31
0.0
  0
LINE
  5
324
  8
6
  6
STRICHPUNKT
 10
12.0
 20
-47.607655094105212
 30
0.0
 11
12.0
 21
-56.392344905896607
 31
0.0
  0
LINE
  5
325
  8
6
 10
17.0
 20
-30.091861589156899
 30
0.0
 11
17.0
 21
-61.0
 31
0.0
  0
LINE
  5
326
  8
6
  6
STRICHPUNKT
 10
-5.9016008759745091
 20
-69.5
 30
0.0
 11
5.4212765400216076
 21
-69.5
 31
0.0
  0
LINE
  5
327
  8
6
 10
34.037116076482562
 20
-21.723167761296281
 30
0.0
 11
18.962883923518341
 21
-27.276832238705531
 31
0.0
  0
LINE
  5
328
  8
6
  6
STRICHPUNKT
 10
30.0
 20
-257.97192024488322
 30
0.0
 11
30.0
 21
-232.8601274544653
 31
0.0
  0
LINE
  5
329
  8
6
  6
STRICHPUNKT
 10
-5.9016008759745091
 20
-225.32882697841339
 30
0.0
 11
5.4212765400216076
 21
-225.32882697841339
 31
0.0
  0
LINE
  5
32A
  8
6
  6
STRICHPUNKT
 10
-5.9016008759745091
 20
-245.32882697841339
 30
0.0
 11
5.4212765400216076
 21
-245.32882697841339
 31
0.0
  0
LINE
  5
32B
  8
6
  6
STRICHPUNKT
 10
-5.9016008759745091
 20
-265.32882697841342
 30
0.0
 11
5.4212765400216076
 21
-265.32882697841342
 31
0.0
  0
POLYLINE
  5
32C
  8
6
 66
     1
 10
0.0
 20
0.0
 30
0.0
 70
     1
  0
VERTEX
  5
4B5
  8
6
 10
0.0
 20
-215.32882697841339
 30
0.0
  0
VERTEX
  5
4B6
  8
6
 10
4.0
 20
-215.32882697841339
 30
0.0
  0
VERTEX
  5
4B7
  8
6
 10
4.0
 20
-233.82882697841339
 30
0.0
  0
VERTEX
  5
4B8
  8
6
 10
36.0
 20
-233.82882697841339
 30
0.0
  0
VERTEX
  5
4B9
  8
6
 10
36.0
 20
-237.82882697841339
 30
0.0
  0
VERTEX
  5
4BA
  8
6
 10
4.0
 20
-237.82882697841339
 30
0.0
  0
VERTEX
  5
4BB
  8
6
 10
4.0
 20
-252.82882697841339
 30
0.0
  0
VERTEX
  5
4BC
  8
6
 10
36.0
 20
-252.82882697841339
 30
0.0
  0
VERTEX
  5
4BD
  8
6
 10
36.0
 20
-256.82882697841342
 30
0.0
  0
VERTEX
  5
4BE
  8
6
 10
4.0
 20
-256.82882697841342
 30
0.0
  0
VERTEX
  5
4BF
  8
6
 10
4.0
 20
-275.32882697841342
 30
0.0
  0
VERTEX
  5
4C0
  8
6
 10
0.0
 20
-275.32882697841342
 30
0.0
  0
SEQEND
  5
4C1
  8
6
  0
LINE
  5
32D
  8
6
  6
STRICHPUNKT
 10
-60.0
 20
-63.437409643162027
 30
0.0
 11
-60.0
 21
-75.562590356839792
 31
0.0
  0
LINE
  5
32E
  8
6
  6
STRICHPUNKT
 10
-66.062590356837973
 20
-69.5
 30
0.0
 11
-53.937409643161118
 21
-69.5
 31
0.0
  0
CIRCLE
  5
32F
  8
6
 10
-60.0
 20
-69.5
 30
0.0
 40
3.5
  0
POLYLINE
  5
330
  8
6
  6
STRICHPUNKT
 66
     1
 10
0.0
 20
0.0
 30
0.0
 70
     1
  0
VERTEX
  5
4C2
  8
6
  6
STRICHPUNKT
 10
-64.0
 20
-57.942260172250819
 30
0.0
  0
VERTEX
  5
4C3
  8
6
  6
STRICHPUNKT
 10
-64.0
 20
-34.06651653055814
 30
0.0
  0
VERTEX
  5
4C4
  8
6
  6
STRICHPUNKT
 10
-56.0
 20
-34.06651653055814
 30
0.0
  0
VERTEX
  5
4C5
  8
6
  6
STRICHPUNKT
 10
-56.0
 20
-57.942260172250819
 30
0.0
  0
SEQEND
  5
4C6
  8
6
  6
STRICHPUNKT
  0
LINE
  5
331
  8
6
  6
STRICHPUNKT
 10
52.976767928992558
 20
-245.32882697841339
 30
0.0
 11
63.023232071008351
 21
-245.32882697841339
 31
0.0
  0
POLYLINE
  5
332
  8
6
 66
     1
 10
0.0
 20
0.0
 30
0.0
 70
     1
  0
VERTEX
  5
4C7
  8
6
 10
23.0
 20
-238.32882697841339
 30
0.0
  0
VERTEX
  5
4C8
  8
6
 10
23.0
 20
-252.32882697841339
 30
0.0
  0
VERTEX
  5
4C9
  8
6
 10
200.0
 20
-252.32882697841339
 30
0.0
  0
VERTEX
  5
4CA
  8
6
 10
200.0
 20
-238.32882697841339
 30
0.0
  0
SEQEND
  5
4CB
  8
6
  0
LINE
  5
333
  8
6
  6
STRICHPUNKT
 10
-72.643093266469805
 20
-52.0
 30
0.0
 11
-47.531300476051911
 21
-52.0
 31
0.0
  0
LINE
  5
334
  8
6
 10
36.0
 20
-5.837959396219957
 30
0.0
 11
36.0
 21
-18.908138410844909
 31
0.0
  0
POLYLINE
  5
335
  8
6
 66
     1
 10
0.0
 20
0.0
 30
0.0
 70
     1
  0
VERTEX
  5
4CC
  8
6
 10
0.0
 20
-26.0
 30
0.0
  0
VERTEX
  5
4CD
  8
6
 10
0.0
 20
-1.0
 30
0.0
  0
VERTEX
  5
4CE
  8
6
 10
4.0
 20
-1.222222222222626
 30
0.0
  0
VERTEX
  5
4CF
  8
6
 10
4.0
 20
-26.0
 30
0.0
  0
SEQEND
  5
4D0
  8
6
  0
POLYLINE
  5
336
  8
6
 66
     1
 10
0.0
 20
0.0
 30
0.0
 70
     1
  0
VERTEX
  5
4D1
  8
6
 10
0.0
 20
-1.0
 30
0.0
  0
VERTEX
  5
4D2
  8
6
 10
0.0
 20
-26.0
 30
0.0
  0
VERTEX
  5
4D3
  8
6
 10
4.0
 20
-26.0
 30
0.0
  0
VERTEX
  5
4D4
  8
6
 10
4.0
 20
-1.222222222222626
 30
0.0
  0
SEQEND
  5
4D5
  8
6
  0
LINE
  5
337
  8
6
 10
0.0
 20
-82.0
 30
0.0
 11
0.0
 21
-1.0
 31
0.0
  0
POLYLINE
  5
338
  8
6
 66
     1
 10
0.0
 20
0.0
 30
0.0
  0
VERTEX
  5
4D6
  8
6
 10
23.0
 20
-1.2777777777791921
 30
0.0
  0
VERTEX
  5
4D7
  8
6
 10
23.0
 20
0.0
 30
0.0
  0
VERTEX
  5
4D8
  8
6
 10
200.0
 20
0.0
 30
0.0
  0
VERTEX
  5
4D9
  8
6
 10
200.0
 20
-5.0
 30
0.0
  0
VERTEX
  5
4DA
  8
6
 10
180.0
 20
-14.0
 30
0.0
  0
VERTEX
  5
4DB
  8
6
 10
124.0
 20
-14.0
 30
0.0
  0
VERTEX
  5
4DC
  8
6
 10
120.0
 20
-38.0
 30
0.0
  0
VERTEX
  5
4DD
  8
6
 10
104.0
 20
-38.0
 30
0.0
  0
VERTEX
  5
4DE
  8
6
 10
100.0
 20
-14.0
 30
0.0
  0
VERTEX
  5
4DF
  8
6
 10
36.0
 20
-14.0
 30
0.0
  0
SEQEND
  5
4E0
  8
6
  0
LINE
  5
339
  8
6
  6
STRICHPUNKT
 10
-40.0
 20
-7.4374096431620274
 30
0.0
 11
-40.0
 21
-19.562590356839792
 31
0.0
  0
POLYLINE
  5
33A
  8
6
 66
     1
 10
0.0
 20
0.0
 30
0.0
 70
     1
  0
VERTEX
  5
4E1
  8
6
 10
-48.5
 20
-26.0
 30
0.0
  0
VERTEX
  5
4E2
  8
6
 10
-48.5
 20
-1.0
 30
0.0
  0
VERTEX
  5
4E3
  8
6
 10
-33.0
 20
-1.0
 30
0.0
 42
-0.4142135623730951
  0
VERTEX
  5
4E4
  8
6
 10
-30.0
 20
-4.0
 30
0.0
  0
VERTEX
  5
4E5
  8
6
 10
-30.0
 20
-23.0
 30
0.0
 42
-0.4142135623730951
  0
VERTEX
  5
4E6
  8
6
 10
-33.0
 20
-26.0
 30
0.0
  0
SEQEND
  5
4E7
  8
6
  0
CIRCLE
  5
33B
  8
6
 10
-40.0
 20
-13.5
 30
0.0
 40
3.5
  0
POLYLINE
  5
33C
  8
6
  6
STRICHPUNKT
 66
     1
 10
0.0
 20
0.0
 30
0.0
 70
     1
  0
VERTEX
  5
4E8
  8
6
  6
STRICHPUNKT
 10
-65.0
 20
-14.0
 30
0.0
  0
VERTEX
  5
4E9
  8
6
  6
STRICHPUNKT
 10
-65.0
 20
-37.0
 30
0.0
  0
VERTEX
  5
4EA
  8
6
  6
STRICHPUNKT
 10
-55.0
 20
-37.0
 30
0.0
  0
VERTEX
  5
4EB
  8
6
  6
STRICHPUNKT
 10
-55.0
 20
-14.0
 30
0.0
  0
VERTEX
  5
4EC
  8
6
  6
STRICHPUNKT
 10
-53.0
 20
-14.0
 30
0.0
  0
VERTEX
  5
4ED
  8
6
  6
STRICHPUNKT
 10
-53.0
 20
-39.0
 30
0.0
  0
VERTEX
  5
4EE
  8
6
  6
STRICHPUNKT
 10
-67.0
 20
-39.0
 30
0.0
  0
VERTEX
  5
4EF
  8
6
  6
STRICHPUNKT
 10
-67.0
 20
-14.0
 30
0.0
  0
SEQEND
  5
4F0
  8
6
  6
STRICHPUNKT
  0
CIRCLE
  5
33D
  8
6
 10
-80.0
 20
-13.5
 30
0.0
 40
3.5
  0
LINE
  5
33E
  8
6
  6
STRICHPUNKT
 10
-80.0
 20
-7.4374096431620274
 30
0.0
 11
-80.0
 21
-19.562590356839792
 31
0.0
  0
POLYLINE
  5
33F
  8
6
 66
     1
 10
0.0
 20
0.0
 30
0.0
 70
     1
  0
VERTEX
  5
4F1
  8
6
 10
-71.5
 20
-26.0
 30
0.0
  0
VERTEX
  5
4F2
  8
6
 10
-71.5
 20
-1.0
 30
0.0
  0
VERTEX
  5
4F3
  8
6
 10
-87.0
 20
-1.0
 30
0.0
 42
0.4142135623730951
  0
VERTEX
  5
4F4
  8
6
 10
-90.0
 20
-4.0
 30
0.0
  0
VERTEX
  5
4F5
  8
6
 10
-90.0
 20
-23.0
 30
0.0
 42
0.4142135623730951
  0
VERTEX
  5
4F6
  8
6
 10
-87.0
 20
-26.0
 30
0.0
  0
SEQEND
  5
4F7
  8
6
  0
POLYLINE
  5
340
  8
6
 66
     1
 10
0.0
 20
0.0
 30
0.0
 70
     1
  0
VERTEX
  5
4F8
  8
6
 10
-71.5
 20
-1.0
 30
0.0
  0
VERTEX
  5
4F9
  8
6
 10
-67.5
 20
-1.0
 30
0.0
  0
VERTEX
  5
4FA
  8
6
 10
-67.5
 20
-33.0
 30
0.0
  0
VERTEX
  5
4FB
  8
6
 10
-64.5
 20
-36.0
 30
0.0
  0
VERTEX
  5
4FC
  8
6
 10
-64.5
 20
-55.0
 30
0.0
  0
VERTEX
  5
4FD
  8
6
 10
-67.5
 20
-58.0
 30
0.0
  0
VERTEX
  5
4FE
  8
6
 10
-67.5
 20
-76.0
 30
0.0
 42
0.4142135623730951
  0
VERTEX
  5
4FF
  8
6
 10
-65.5
 20
-78.0
 30
0.0
  0
VERTEX
  5
500
  8
6
 10
-54.5
 20
-78.0
 30
0.0
 42
0.4142135623730951
  0
VERTEX
  5
501
  8
6
 10
-52.5
 20
-76.0
 30
0.0
  0
VERTEX
  5
502
  8
6
 10
-52.5
 20
-58.0
 30
0.0
  0
VERTEX
  5
503
  8
6
 10
-55.5
 20
-55.0
 30
0.0
  0
VERTEX
  5
504
  8
6
 10
-55.5
 20
-36.0
 30
0.0
  0
VERTEX
  5
505
  8
6
 10
-52.5
 20
-33.0
 30
0.0
  0
VERTEX
  5
506
  8
6
 10
-52.5
 20
-1.0
 30
0.0
  0
VERTEX
  5
507
  8
6
 10
-48.5
 20
-1.0
 30
0.0
  0
VERTEX
  5
508
  8
6
 10
-48.5
 20
-79.0
 30
0.0
 42
-0.4142135623730951
  0
VERTEX
  5
509
  8
6
 10
-51.5
 20
-82.0
 30
0.0
  0
VERTEX
  5
50A
  8
6
 10
-68.5
 20
-82.0
 30
0.0
 42
-0.4142135623730951
  0
VERTEX
  5
50B
  8
6
 10
-71.5
 20
-79.0
 30
0.0
  0
SEQEND
  5
50C
  8
6
  0
DIMENSION
  5
341
  8
1
  2
*D2
 10
-0.0000000000000071
 20
-198.50896475293229
 30
0.0
 11
100.0
 21
-179.3186509739418
 31
0.0
 70
     0
 13
200.0
 23
-5.0
 33
0.0
 14
0.0
 24
-82.0
 34
0.0
  0
VIEWPORT
  5
22
 67
     1
  8
0
 10
210.0
 20
170.2366863905325
 30
0.0
 40
420.0
 41
340.47337278106511
 68
     1
 69
     1
1001
ACAD
1000
MVIEW
1002
{
1070
    16
1010
0.0
1020
0.0
1030
0.0
1010
0.0
1020
0.0
1030
1.0
1040
0.0
1040
340.47337278106511
1040
210.0
1040
170.2366863905325
1040
50.0
1040
0.0
1040
0.0
1070
     0
1070
   100
1070
     1
1070
     1
1070
     0
1070
     0
1070
     0
1070
     0
1040
0.0
1040
0.0
1040
0.0
1040
5.0
1040
5.0
1040
10.0
1040
10.0
1070
     0
1002
{
1002
}
1002
}
  0
ENDSEC
  0
EOF
