  0
SECTION
  2
HEADER
  9
$ACADVER
  1
AC1009
  9
$INSBASE
 10
0.0
 20
0.0
 30
0.0
  9
$EXTMIN
 10
-112.6658180930219
 20
-593.7994895164552
 30
-0.0000000000000058
  9
$EXTMAX
 10
490.02289275651651
 20
7.0127128597700903
 30
0.0000000000000104
  9
$LIMMIN
 10
-150.0
 20
-150.0
  9
$LIMMAX
 10
150.0
 20
150.0
  9
$ORTHOMODE
 70
     0
  9
$REGENMODE
 70
     1
  9
$FILLMODE
 70
     1
  9
$QTEXTMODE
 70
     0
  9
$MIRRTEXT
 70
     0
  9
$DRAGMODE
 70
     2
  9
$LTSCALE
 40
1.0
  9
$OSMODE
 70
   111
  9
$ATTMODE
 70
     1
  9
$TEXTSIZE
 40
3.5
  9
$TRACEWID
 40
1.0
  9
$TEXTSTYLE
  7
BESCHLAG
  9
$CLAYER
  8
0
  9
$CELTYPE
  6
BYLAYER
  9
$CECOLOR
 62
   256
  9
$DIMSCALE
 40
1.0
  9
$DIMASZ
 40
2.0
  9
$DIMEXO
 40
2.0
  9
$DIMDLI
 40
0.0
  9
$DIMRND
 40
0.0
  9
$DIMDLE
 40
1.0
  9
$DIMEXE
 40
1.0
  9
$DIMTP
 40
0.0
  9
$DIMTM
 40
0.0
  9
$DIMTXT
 40
3.5
  9
$DIMCEN
 40
0.0
  9
$DIMTSZ
 40
0.0
  9
$DIMTOL
 70
     0
  9
$DIMLIM
 70
     0
  9
$DIMTIH
 70
     0
  9
$DIMTOH
 70
     0
  9
$DIMSE1
 70
     0
  9
$DIMSE2
 70
     0
  9
$DIMTAD
 70
     1
  9
$DIMZIN
 70
     8
  9
$DIMBLK
  1

  9
$DIMASO
 70
     1
  9
$DIMSHO
 70
     1
  9
$DIMPOST
  1

  9
$DIMAPOST
  1

  9
$DIMALT
 70
     0
  9
$DIMALTD
 70
     2
  9
$DIMALTF
 40
0.039370078740157
  9
$DIMLFAC
 40
1.0
  9
$DIMTOFL
 70
     1
  9
$DIMTVP
 40
0.0
  9
$DIMTIX
 70
     1
  9
$DIMSOXD
 70
     0
  9
$DIMSAH
 70
     1
  9
$DIMBLK1
  1
OBLIQUE
  9
$DIMBLK2
  1
OBLIQUE
  9
$DIMSTYLE
  2
OPO-SSTRICH
  9
$DIMCLRD
 70
   256
  9
$DIMCLRE
 70
   256
  9
$DIMCLRT
 70
   256
  9
$DIMTFAC
 40
0.7114285714285716
  9
$DIMGAP
 40
1.0
  9
$LUNITS
 70
     2
  9
$LUPREC
 70
     1
  9
$SKETCHINC
 40
1.0
  9
$FILLETRAD
 40
0.0
  9
$AUNITS
 70
     0
  9
$AUPREC
 70
     1
  9
$MENU
  1
D:\ACL_CGWG\CGTAB13
  9
$ELEVATION
 40
0.0
  9
$PELEVATION
 40
0.0
  9
$THICKNESS
 40
0.0
  9
$LIMCHECK
 70
     0
  9
$BLIPMODE
 70
     0
  9
$CHAMFERA
 40
1.0
  9
$CHAMFERB
 40
1.0
  9
$SKPOLY
 70
     0
  9
$TDCREATE
 40
2451739.92551522
  9
$TDUPDATE
 40
2452087.6687144912
  9
$TDINDWG
 40
0.0009313542
  9
$TDUSRTIMER
 40
0.0009311806
  9
$USRTIMER
 70
     1
  9
$ANGBASE
 50
0.0
  9
$ANGDIR
 70
     0
  9
$PDMODE
 70
    35
  9
$PDSIZE
 40
5.0
  9
$PLINEWID
 40
0.0
  9
$COORDS
 70
     1
  9
$SPLFRAME
 70
     0
  9
$SPLINETYPE
 70
     6
  9
$SPLINESEGS
 70
     8
  9
$ATTDIA
 70
     1
  9
$ATTREQ
 70
     1
  9
$HANDLING
 70
-16383
  9
$HANDSEED
  5
50F
  9
$SURFTAB1
 70
    12
  9
$SURFTAB2
 70
    12
  9
$SURFTYPE
 70
     6
  9
$SURFU
 70
    12
  9
$SURFV
 70
    12
  9
$UCSNAME
  2

  9
$UCSORG
 10
0.0
 20
0.0
 30
0.0
  9
$UCSXDIR
 10
1.0
 20
0.0
 30
0.0
  9
$UCSYDIR
 10
0.0
 20
1.0
 30
0.0
  9
$PUCSNAME
  2

  9
$PUCSORG
 10
0.0
 20
0.0
 30
0.0
  9
$PUCSXDIR
 10
1.0
 20
0.0
 30
0.0
  9
$PUCSYDIR
 10
0.0
 20
1.0
 30
0.0
  9
$USERI1
 70
     0
  9
$USERI2
 70
     0
  9
$USERI3
 70
     0
  9
$USERI4
 70
     0
  9
$USERI5
 70
     0
  9
$USERR1
 40
0.0
  9
$USERR2
 40
0.0
  9
$USERR3
 40
0.0
  9
$USERR4
 40
0.0
  9
$USERR5
 40
0.0
  9
$WORLDVIEW
 70
     1
  9
$SHADEDGE
 70
     3
  9
$SHADEDIF
 70
    70
  9
$TILEMODE
 70
     1
  9
$MAXACTVP
 70
    48
  9
$PLIMCHECK
 70
     0
  9
$PEXTMIN
 10
1.0000000000000000E+020
 20
1.0000000000000000E+020
 30
1.0000000000000000E+020
  9
$PEXTMAX
 10
-1.0000000000000000E+020
 20
-1.0000000000000000E+020
 30
-1.0000000000000000E+020
  9
$PLIMMIN
 10
0.0
 20
0.0
  9
$PLIMMAX
 10
420.0
 20
297.0
  9
$UNITMODE
 70
     0
  9
$VISRETAIN
 70
     1
  9
$PLINEGEN
 70
     0
  9
$PSLTSCALE
 70
     1
  0
ENDSEC
  0
SECTION
  2
TABLES
  0
TABLE
  2
VPORT
 70
     2
  0
VPORT
  2
*ACTIVE
 70
     0
 10
0.0
 20
0.0
 11
1.0
 21
1.0
 12
188.67853733174721
 22
-293.3933883283425
 13
0.0
 23
0.0
 14
0.5
 24
0.5
 15
10.0
 25
10.0
 16
0.0
 26
0.0
 36
1.0
 17
0.0
 27
0.0
 37
0.0
 40
605.69024461473327
 41
1.6070460704607039
 42
50.0
 43
0.0
 44
0.0
 50
0.0
 51
0.0
 71
     0
 72
   800
 73
     1
 74
     1
 75
     0
 76
     0
 77
     0
 78
     0
  0
ENDTAB
  0
TABLE
  2
LTYPE
 70
     3
  0
LTYPE
  2
CONTINUOUS
 70
     0
  3
_______________________________________________
 72
    65
 73
     2
 40
1.0
 49
1.0
 49
0.0
  0
LTYPE
  2
STRICHLINIE
 70
     0
  3
Strichlinie __ __ __ __ __ __ __ __ __ __ __ __
 72
    65
 73
     2
 40
19.04999999999999
 49
12.699999999999999
 49
-6.3499999999999988
  0
LTYPE
  2
STRICHPUNKT
 70
     0
  3
__ . __ . __ . __ . __ . __ . __ . __ . __ . __
 72
    65
 73
     4
 40
1.0
 49
0.5
 49
-0.25
 49
0.0
 49
-0.25
  0
ENDTAB
  0
TABLE
  2
LAYER
 70
     6
  0
LAYER
  2
0
 70
     0
 62
    30
  6
CONTINUOUS
  0
LAYER
  2
1
 70
     0
 62
     2
  6
CONTINUOUS
  0
LAYER
  2
4
 70
     1
 62
     4
  6
CONTINUOUS
  0
LAYER
  2
5
 70
     0
 62
     1
  6
CONTINUOUS
  0
LAYER
  2
6
 70
     0
 62
     3
  6
CONTINUOUS
  0
LAYER
  2
DEFPOINTS
 70
     0
 62
     7
  6
CONTINUOUS
  0
ENDTAB
  0
TABLE
  2
STYLE
 70
     2
  0
STYLE
  2
STANDARD
 70
     0
 40
0.0
 41
1.0
 50
0.0
 71
     0
 42
2.5
  3
txt
  4

  0
STYLE
  2
BESCHLAG
 70
     0
 40
0.0
 41
1.0
 50
0.0
 71
     0
 42
3.5
  3
txt
  4

  0
ENDTAB
  0
TABLE
  2
VIEW
 70
     0
  0
ENDTAB
  0
TABLE
  2
UCS
 70
     0
  0
ENDTAB
  0
TABLE
  2
APPID
 70
     1
  0
APPID
  2
ACAD
 70
     0
  0
ENDTAB
  0
TABLE
  2
DIMSTYLE
 70
     2
  0
DIMSTYLE
  2
OPO-SSTRICH
 70
     0
  3

  4

  5

  6
OBLIQUE
  7
OBLIQUE
 40
1.0
 41
2.0
 42
2.0
 43
0.0
 44
1.0
 45
0.0
 46
1.0
 47
0.0
 48
0.0
140
3.5
141
0.0
142
0.0
143
0.039370078740157
144
1.0
145
0.0
146
0.7114285714285716
147
1.0
 71
     0
 72
     0
 73
     0
 74
     0
 75
     0
 76
     0
 77
     1
 78
     8
170
     0
171
     2
172
     1
173
     1
174
     1
175
     0
176
   256
177
   256
178
   256
  0
DIMSTYLE
  2
OPO-SSTRICH-10
 70
     0
  3

  4

  5

  6

  7

 40
10.0
 41
0.0
 42
2.0
 43
0.0
 44
1.0
 45
0.0
 46
1.0
 47
0.0
 48
0.0
140
1.8
141
2.0
142
1.0
143
0.039370078740157
144
1.0
145
0.0
146
1.388888888888888
147
1.0
 71
     0
 72
     0
 73
     0
 74
     0
 75
     0
 76
     0
 77
     1
 78
     8
170
     0
171
     2
172
     1
173
     0
174
     1
175
     0
176
   256
177
   256
178
   256
  0
ENDTAB
  0
ENDSEC
  0
SECTION
  2
BLOCKS
  0
BLOCK
  8
0
  2
$MODEL_SPACE
 70
     0
 10
0.0
 20
0.0
 30
0.0
  3
$MODEL_SPACE
  1

  0
ENDBLK
  5
1C
  8
0
  0
BLOCK
 67
     1
  8
0
  2
$PAPER_SPACE
 70
     0
 10
0.0
 20
0.0
 30
0.0
  3
$PAPER_SPACE
  1

  0
ENDBLK
  5
19
 67
     1
  8
0
  0
BLOCK
  8
0
  2
_OBLIQUE
 70
     0
 10
0.0
 20
0.0
 30
0.0
  3
_OBLIQUE
  1

  0
LINE
  5
204
  8
0
 62
     0
 10
-0.5
 20
-0.5
 30
0.0
 11
0.5
 21
0.5
 31
0.0
  0
ENDBLK
  5
206
  8
0
  0
BLOCK
  8
0
  2
NULLPUNKT
 70
     0
 10
0.0
 20
0.0
 30
0.0
  3
NULLPUNKT
  1

  0
SOLID
  5
254
  8
5
 10
0.0
 20
0.0
 30
0.0
 11
2.0
 21
0.0
 31
0.0
 12
0.0
 22
-2.0
 32
0.0
 13
0.0
 23
-2.0
 33
0.0
  0
SOLID
  5
255
  8
5
 10
0.0
 20
0.0
 30
0.0
 11
-2.0
 21
0.0
 31
0.0
 12
0.0
 22
2.0
 32
0.0
 13
0.0
 23
2.0
 33
0.0
  0
POLYLINE
  5
256
  8
5
 66
     1
 10
0.0
 20
0.0
 30
0.0
  0
VERTEX
  5
3FE
  8
5
 10
0.0
 20
2.0
 30
0.0
  0
VERTEX
  5
3FF
  8
5
 10
0.0
 20
-2.0
 30
0.0
  0
SEQEND
  5
400
  8
5
  0
POLYLINE
  5
257
  8
5
 66
     1
 10
0.0
 20
0.0
 30
0.0
  0
VERTEX
  5
401
  8
5
 10
-2.0
 20
0.0
 30
0.0
  0
VERTEX
  5
402
  8
5
 10
2.0
 20
0.0
 30
0.0
  0
SEQEND
  5
403
  8
5
  0
CIRCLE
  5
258
  8
5
 10
0.0
 20
0.0
 30
0.0
 40
2.0
  0
ENDBLK
  5
25A
  8
0
  0
BLOCK
  8
0
  2
*D2
 70
     1
 10
0.0
 20
0.0
 30
0.0
  3
*D2
  1

  0
LINE
  5
333
  8
1
 10
480.0
 20
-27.0
 30
0.0
 11
479.99999999999989
 21
-487.71851999643633
 31
0.0
  0
LINE
  5
334
  8
1
 10
-0.0000000000000012
 20
-174.99999999999901
 30
0.0
 11
-0.0000000000000204
 21
-487.71851999643633
 31
0.0
  0
LINE
  5
335
  8
1
 10
489.99999999999989
 20
-477.71851999643621
 30
0.0
 11
-10.000000000000011
 21
-477.71851999643621
 31
0.0
  0
LINE
  5
336
  8
1
 10
-10.000000000000011
 20
-487.71851999643633
 30
0.0
 11
9.9999999999999805
 21
-467.71851999643621
 31
0.0
  0
LINE
  5
337
  8
1
 10
469.99999999999989
 20
-487.71851999643633
 30
0.0
 11
489.99999999999989
 21
-467.71851999643621
 31
0.0
  0
TEXT
  5
338
  8
0
 10
219.46452933151431
 20
-467.37472736342119
 30
0.0
 40
18.0
  1
480
  0
POINT
  5
339
  8
DEFPOINTS
 62
     0
 10
480.0
 20
-7.0
 30
0.0
  0
POINT
  5
33A
  8
DEFPOINTS
 62
     0
 10
0.0
 20
-154.99999999999901
 30
0.0
  0
POINT
  5
33B
  8
DEFPOINTS
 62
     0
 10
-0.0000000000000198
 20
-477.71851999643621
 30
0.0
  0
ENDBLK
  5
332
  8
0
  0
ENDSEC
  0
SECTION
  2
ENTITIES
  0
INSERT
  5
25B
  8
5
  2
NULLPUNKT
 10
0.0
 20
0.0
 30
0.0
  0
POLYLINE
  5
2D3
  8
6
 66
     1
 10
0.0
 20
0.0
 30
0.0
  0
VERTEX
  5
404
  8
6
 10
30.14716058910107
 20
-100.99249003707151
 30
0.0
  0
VERTEX
  5
405
  8
6
 10
307.04544066646662
 20
-45.104569437055943
 30
0.0
  0
VERTEX
  5
406
  8
6
 10
308.76224411722058
 20
-54.950817999565508
 30
0.0
  0
VERTEX
  5
407
  8
6
 10
27.478116531597149
 20
-111.7607022690708
 30
0.0
  0
SEQEND
  5
408
  8
6
  0
POLYLINE
  5
2D4
  8
6
 66
     1
 10
0.0
 20
0.0
 30
0.0
  0
VERTEX
  5
409
  8
6
 10
330.27281601893992
 20
-48.363103886360022
 30
0.0
 42
-0.0784911828100752
  0
VERTEX
  5
40A
  8
6
 10
339.10453241285632
 20
-52.568916957588037
 30
0.0
  0
VERTEX
  5
40B
  8
6
 10
340.8011872697997
 20
-50.094778259694522
 30
0.0
 42
0.0811977583532899
  0
VERTEX
  5
40C
  8
6
 10
330.76941557547161
 20
-45.383506547170782
 30
0.0
 42
0.0811977583532899
  0
SEQEND
  5
40D
  8
6
  0
POLYLINE
  5
2D5
  8
5
  6
STRICHLINIE
 66
     1
 10
0.0
 20
0.0
 30
0.0
  0
VERTEX
  5
40E
  8
5
  6
STRICHLINIE
 10
20.980720678528989
 20
-400.700035820545
 30
0.0
 42
-0.2673067296772007
  0
VERTEX
  5
40F
  8
5
  6
STRICHLINIE
 10
12.39970429374352
 20
-430.78341565610339
 30
0.0
  0
VERTEX
  5
410
  8
5
  6
STRICHLINIE
 10
14.489260803110479
 20
-432.93603118010282
 30
0.0
 42
0.2608364371468524
  0
VERTEX
  5
411
  8
5
  6
STRICHLINIE
 10
24.082893250110821
 20
-400.78236864275249
 30
0.0
 42
0.0811977583532899
  0
SEQEND
  5
412
  8
5
  6
STRICHLINIE
  0
POLYLINE
  5
2D6
  8
5
  6
STRICHLINIE
 66
     1
 10
0.0
 20
0.0
 30
0.0
  0
VERTEX
  5
413
  8
5
  6
STRICHLINIE
 10
26.059265162400148
 20
-118.3527570598291
 30
0.0
  0
VERTEX
  5
414
  8
5
  6
STRICHLINIE
 10
26.059265162400148
 20
-400.83482229370719
 30
0.0
  0
VERTEX
  5
415
  8
5
  6
STRICHLINIE
 10
16.067983539695881
 20
-400.56964993643601
 30
0.0
  0
VERTEX
  5
416
  8
5
  6
STRICHLINIE
 10
16.031966183826619
 20
-113.60602491565049
 30
0.0
  0
SEQEND
  5
417
  8
5
  6
STRICHLINIE
  0
POLYLINE
  5
2D7
  8
6
  6
STRICHLINIE
 66
     1
 10
0.0
 20
0.0
 30
0.0
  0
VERTEX
  5
418
  8
6
  6
STRICHLINIE
 10
25.426194694642611
 20
-101.9453488521974
 30
0.0
  0
VERTEX
  5
419
  8
6
  6
STRICHLINIE
 10
30.14716058910107
 20
-100.99249003707151
 30
0.0
  0
SEQEND
  5
41A
  8
6
  6
STRICHLINIE
  0
CIRCLE
  5
2D8
  8
6
  6
STRICHLINIE
 10
21.0
 20
-107.99999999999901
 30
0.0
 40
7.5
  0
POLYLINE
  5
2D9
  8
4
 66
     1
 10
0.0
 20
0.0
 30
0.0
 70
     1
  0
VERTEX
  5
41B
  8
4
 10
0.0
 20
-2.9999999999990901
 30
0.0
  0
VERTEX
  5
41C
  8
4
 10
0.0
 20
-32.999999999999091
 30
0.0
  0
VERTEX
  5
41D
  8
4
 10
5.0
 20
-32.999999999999091
 30
0.0
  0
VERTEX
  5
41E
  8
4
 10
5.0
 20
-2.9999999999990901
 30
0.0
  0
SEQEND
  5
41F
  8
4
  0
POLYLINE
  5
2DA
  8
4
 66
     1
 10
0.0
 20
0.0
 30
0.0
 70
     1
  0
VERTEX
  5
420
  8
4
 10
-56.0
 20
-32.999999999999091
 30
0.0
  0
VERTEX
  5
421
  8
4
 10
-56.0
 20
-2.9999999999990901
 30
0.0
  0
VERTEX
  5
422
  8
4
 10
-30.0
 20
-2.9999999999990901
 30
0.0
  0
VERTEX
  5
423
  8
4
 10
-30.0
 20
-32.999999999999091
 30
0.0
  0
SEQEND
  5
424
  8
4
  0
POLYLINE
  5
2DB
  8
4
 66
     1
 10
0.0
 20
0.0
 30
0.0
 70
     1
  0
VERTEX
  5
425
  8
4
 10
-60.5
 20
-15.0
 30
0.0
  0
VERTEX
  5
426
  8
4
 10
-60.5
 20
0.0
 30
0.0
  0
VERTEX
  5
427
  8
4
 10
-81.5
 20
0.0
 30
0.0
  0
VERTEX
  5
428
  8
4
 10
-81.5
 20
-15.0
 30
0.0
  0
VERTEX
  5
429
  8
4
 10
-78.5
 20
-15.0
 30
0.0
  0
VERTEX
  5
42A
  8
4
 10
-78.5
 20
-3.0
 30
0.0
  0
VERTEX
  5
42B
  8
4
 10
-63.5
 20
-3.0
 30
0.0
  0
VERTEX
  5
42C
  8
4
 10
-63.5
 20
-15.0
 30
0.0
  0
SEQEND
  5
42D
  8
4
  0
POLYLINE
  5
2DC
  8
4
 66
     1
 10
0.0
 20
0.0
 30
0.0
  0
VERTEX
  5
42E
  8
4
 10
-86.0
 20
-2.9999999999990901
 30
0.0
  0
VERTEX
  5
42F
  8
4
 10
-82.0
 20
-2.9999999999990901
 30
0.0
  0
SEQEND
  5
430
  8
4
  0
POLYLINE
  5
2DD
  8
4
 66
     1
 10
0.0
 20
0.0
 30
0.0
 70
     1
  0
VERTEX
  5
431
  8
4
 10
-86.0
 20
-32.999999999999091
 30
0.0
  0
VERTEX
  5
432
  8
4
 10
-86.0
 20
-2.9999999999990901
 30
0.0
  0
VERTEX
  5
433
  8
4
 10
-112.0
 20
-2.9999999999990901
 30
0.0
  0
VERTEX
  5
434
  8
4
 10
-112.0
 20
-32.999999999999091
 30
0.0
  0
SEQEND
  5
435
  8
4
  0
LINE
  5
2DE
  8
4
 10
340.8011872697989
 20
-50.094778259694969
 30
0.0
 11
339.10453241285632
 21
-52.568916957588037
 31
0.0
  0
ARC
  5
2DF
  8
4
 10
321.37539025278602
 20
-78.422352333189338
 30
0.0
 40
31.348406697189979
 50
55.55939451249003
 51
73.51144218334565
  0
POLYLINE
  5
2E0
  8
4
 66
     1
 10
0.0
 20
0.0
 30
0.0
 70
     1
  0
VERTEX
  5
436
  8
4
 10
0.0
 20
-149.99999999999901
 30
0.0
  0
VERTEX
  5
437
  8
4
 10
0.0
 20
-154.99999999999901
 30
0.0
  0
VERTEX
  5
438
  8
4
 10
16.0
 20
-154.99999999999901
 30
0.0
  0
VERTEX
  5
439
  8
4
 10
16.0
 20
-150.99999999999901
 30
0.0
  0
VERTEX
  5
43A
  8
4
 10
4.0
 20
-150.99999999999901
 30
0.0
  0
VERTEX
  5
43B
  8
4
 10
4.0
 20
-149.99999999999901
 30
0.0
  0
SEQEND
  5
43C
  8
4
  0
POLYLINE
  5
2E1
  8
4
  6
STRICHPUNKT
 66
     1
 10
0.0
 20
0.0
 30
0.0
 70
     1
  0
VERTEX
  5
43D
  8
4
  6
STRICHPUNKT
 10
-63.5
 20
-48.104569437055027
 30
0.0
  0
VERTEX
  5
43E
  8
4
  6
STRICHPUNKT
 10
-78.5
 20
-48.104569437055027
 30
0.0
  0
VERTEX
  5
43F
  8
4
  6
STRICHPUNKT
 10
-78.5
 20
-114.6609146218961
 30
0.0
  0
VERTEX
  5
440
  8
4
  6
STRICHPUNKT
 10
-63.5
 20
-114.6609146218961
 30
0.0
  0
SEQEND
  5
441
  8
4
  6
STRICHPUNKT
  0
POLYLINE
  5
2E2
  8
4
 66
     1
 10
0.0
 20
0.0
 30
0.0
 70
     1
  0
VERTEX
  5
442
  8
4
 10
-79.0
 20
-154.99999999999901
 30
0.0
  0
VERTEX
  5
443
  8
4
 10
-79.0
 20
-150.99999999999901
 30
0.0
  0
VERTEX
  5
444
  8
4
 10
-63.0
 20
-150.99999999999901
 30
0.0
  0
VERTEX
  5
445
  8
4
 10
-63.0
 20
-154.99999999999901
 30
0.0
  0
SEQEND
  5
446
  8
4
  0
POLYLINE
  5
2E3
  8
4
 66
     1
 10
0.0
 20
0.0
 30
0.0
 70
     1
  0
VERTEX
  5
447
  8
4
 10
0.0
 20
-511.77892028847958
 30
0.0
  0
VERTEX
  5
448
  8
4
 10
4.0
 20
-511.77892028847958
 30
0.0
  0
VERTEX
  5
449
  8
4
 10
4.0
 20
-537.77892028847964
 30
0.0
  0
VERTEX
  5
44A
  8
4
 10
47.0
 20
-537.77892028847964
 30
0.0
  0
VERTEX
  5
44B
  8
4
 10
47.0
 20
-541.77892028847964
 30
0.0
  0
VERTEX
  5
44C
  8
4
 10
4.0
 20
-541.77892028847964
 30
0.0
  0
VERTEX
  5
44D
  8
4
 10
4.0
 20
-563.77892028847964
 30
0.0
  0
VERTEX
  5
44E
  8
4
 10
47.0
 20
-563.77892028847964
 30
0.0
  0
VERTEX
  5
44F
  8
4
 10
47.0
 20
-567.77892028847964
 30
0.0
  0
VERTEX
  5
450
  8
4
 10
4.0
 20
-567.77892028847964
 30
0.0
  0
VERTEX
  5
451
  8
4
 10
4.0
 20
-593.77892028847964
 30
0.0
  0
VERTEX
  5
452
  8
4
 10
0.0
 20
-593.77892028847964
 30
0.0
  0
SEQEND
  5
453
  8
4
  0
POLYLINE
  5
2E4
  8
4
 66
     1
 10
0.0
 20
0.0
 30
0.0
 70
     1
  0
VERTEX
  5
454
  8
4
 10
23.0
 20
-545.27892028847964
 30
0.0
  0
VERTEX
  5
455
  8
4
 10
23.0
 20
-560.27892028847964
 30
0.0
  0
VERTEX
  5
456
  8
4
 10
480.0
 20
-560.27892028847964
 30
0.0
  0
VERTEX
  5
457
  8
4
 10
480.0
 20
-545.27892028847964
 30
0.0
  0
SEQEND
  5
458
  8
4
  0
LINE
  5
2E5
  8
4
 10
0.0
 20
-154.99999999999901
 30
0.0
 11
0.0
 21
-2.9999999999990901
 31
0.0
  0
POLYLINE
  5
2E6
  8
4
 66
     1
 10
0.0
 20
0.0
 30
0.0
  0
VERTEX
  5
459
  8
4
 10
23.0
 20
-2.9999999999990901
 30
0.0
  0
VERTEX
  5
45A
  8
4
 10
23.0
 20
0.0
 30
0.0
  0
VERTEX
  5
45B
  8
4
 10
23.0
 20
0.0
 30
0.0
  0
VERTEX
  5
45C
  8
4
 10
480.0
 20
0.0
 30
0.0
  0
VERTEX
  5
45D
  8
4
 10
480.0
 20
-7.0
 30
0.0
  0
VERTEX
  5
45E
  8
4
 10
456.0
 20
-15.0
 30
0.0
  0
VERTEX
  5
45F
  8
4
 10
336.0
 20
-15.0
 30
0.0
  0
VERTEX
  5
460
  8
4
 10
330.0
 20
-50.0
 30
0.0
  0
VERTEX
  5
461
  8
4
 10
308.06267200858741
 20
-50.0
 30
0.0
  0
VERTEX
  5
462
  8
4
 10
302.0
 20
-15.0
 30
0.0
  0
VERTEX
  5
463
  8
4
 10
47.0
 20
-15.0
 30
0.0
  0
SEQEND
  5
464
  8
4
  0
ARC
  5
2E7
  8
4
 10
321.37539025278602
 20
-78.422352333189338
 30
0.0
 40
34.348406697189972
 50
55.55939451249003
 51
74.127813783910426
  0
POLYLINE
  5
2E8
  8
4
 66
     1
 10
0.0
 20
0.0
 30
0.0
 70
     1
  0
VERTEX
  5
465
  8
4
 10
30.14716058910107
 20
-100.99249003707151
 30
0.0
  0
VERTEX
  5
466
  8
4
 10
307.04544066646662
 20
-45.104569437055943
 30
0.0
  0
VERTEX
  5
467
  8
4
 10
308.76224411722058
 20
-54.950817999565508
 30
0.0
  0
VERTEX
  5
468
  8
4
 10
27.478116531597149
 20
-111.7607022690708
 30
0.0
  0
SEQEND
  5
469
  8
4
  0
POLYLINE
  5
2E9
  8
4
 66
     1
 10
0.0
 20
0.0
 30
0.0
 70
     1
  0
VERTEX
  5
46A
  8
4
 10
-86.0
 20
-2.9999999999990901
 30
0.0
  0
VERTEX
  5
46B
  8
4
 10
-86.0
 20
-149.99999999999901
 30
0.0
  0
VERTEX
  5
46C
  8
4
 10
-82.0
 20
-149.99999999999901
 30
0.0
  0
VERTEX
  5
46D
  8
4
 10
-82.0
 20
-2.9999999999990901
 30
0.0
  0
SEQEND
  5
46E
  8
4
  0
POLYLINE
  5
2EA
  8
4
 66
     1
 10
0.0
 20
0.0
 30
0.0
 70
     1
  0
VERTEX
  5
46F
  8
4
 10
-56.0
 20
-2.9999999999990901
 30
0.0
  0
VERTEX
  5
470
  8
4
 10
-56.0
 20
-149.99999999999901
 30
0.0
  0
VERTEX
  5
471
  8
4
 10
-60.0
 20
-149.99999999999901
 30
0.0
  0
VERTEX
  5
472
  8
4
 10
-60.0
 20
-2.9999999999990901
 30
0.0
  0
SEQEND
  5
473
  8
4
  0
POLYLINE
  5
2EB
  8
4
 66
     1
 10
0.0
 20
0.0
 30
0.0
 70
     1
  0
VERTEX
  5
474
  8
4
 10
-56.0
 20
-149.99999999999901
 30
0.0
  0
VERTEX
  5
475
  8
4
 10
-56.0
 20
-2.9999999999990901
 30
0.0
  0
VERTEX
  5
476
  8
4
 10
-86.0
 20
-2.9999999999990901
 30
0.0
  0
VERTEX
  5
477
  8
4
 10
-86.0
 20
-149.99999999999901
 30
0.0
  0
VERTEX
  5
478
  8
4
 10
-79.0
 20
-149.99999999999901
 30
0.0
  0
VERTEX
  5
479
  8
4
 10
-79.0
 20
-154.99999999999901
 30
0.0
  0
VERTEX
  5
47A
  8
4
 10
-63.0
 20
-154.99999999999901
 30
0.0
  0
VERTEX
  5
47B
  8
4
 10
-63.0
 20
-149.99999999999901
 30
0.0
  0
SEQEND
  5
47C
  8
4
  0
POLYLINE
  5
2EC
  8
4
 66
     1
 10
0.0
 20
0.0
 30
0.0
 70
     1
  0
VERTEX
  5
47D
  8
4
 10
0.0
 20
-149.99999999999901
 30
0.0
  0
VERTEX
  5
47E
  8
4
 10
18.0
 20
-149.99999999999901
 30
0.0
  0
VERTEX
  5
47F
  8
4
 10
47.0
 20
-32.999999999999091
 30
0.0
  0
VERTEX
  5
480
  8
4
 10
47.0
 20
-2.9999999999990901
 30
0.0
  0
VERTEX
  5
481
  8
4
 10
0.0
 20
-2.9999999999990901
 30
0.0
  0
SEQEND
  5
482
  8
4
  0
POLYLINE
  5
2ED
  8
4
  6
STRICHPUNKT
 66
     1
 10
0.0
 20
0.0
 30
0.0
 70
     1
  0
VERTEX
  5
483
  8
4
  6
STRICHPUNKT
 10
-60.5
 20
-15.0
 30
0.0
  0
VERTEX
  5
484
  8
4
  6
STRICHPUNKT
 10
-60.5
 20
-52.999999999999091
 30
0.0
  0
VERTEX
  5
485
  8
4
  6
STRICHPUNKT
 10
-81.5
 20
-52.999999999999091
 30
0.0
  0
VERTEX
  5
486
  8
4
  6
STRICHPUNKT
 10
-81.5
 20
-15.0
 30
0.0
  0
VERTEX
  5
487
  8
4
  6
STRICHPUNKT
 10
-78.5
 20
-15.0
 30
0.0
  0
VERTEX
  5
488
  8
4
  6
STRICHPUNKT
 10
-78.5
 20
-49.999999999999091
 30
0.0
  0
VERTEX
  5
489
  8
4
  6
STRICHPUNKT
 10
-63.5
 20
-49.999999999999091
 30
0.0
  0
VERTEX
  5
48A
  8
4
  6
STRICHPUNKT
 10
-63.5
 20
-15.0
 30
0.0
  0
SEQEND
  5
48B
  8
4
  6
STRICHPUNKT
  0
POLYLINE
  5
2EE
  8
5
  6
STRICHLINIE
 66
     1
 10
0.0
 20
0.0
 30
0.0
 70
     1
  0
VERTEX
  5
48C
  8
5
  6
STRICHLINIE
 10
34.999999999999091
 20
7.0000000000009086
 30
0.0
  0
VERTEX
  5
48D
  8
5
  6
STRICHLINIE
 10
48.722222222221717
 20
7.0000000000009086
 30
0.0
  0
VERTEX
  5
48E
  8
5
  6
STRICHLINIE
 10
50.0
 20
7.0000000000009086
 30
0.0
  0
VERTEX
  5
48F
  8
5
  6
STRICHLINIE
 10
50.0
 20
-449.99999999999909
 30
0.0
  0
VERTEX
  5
490
  8
5
  6
STRICHLINIE
 10
43.0
 20
-449.99999999999909
 30
0.0
  0
VERTEX
  5
491
  8
5
  6
STRICHLINIE
 10
35.0
 20
-425.99999999999898
 30
0.0
  0
VERTEX
  5
492
  8
5
  6
STRICHLINIE
 10
35.0
 20
-305.99999999999909
 30
0.0
  0
VERTEX
  5
493
  8
5
  6
STRICHLINIE
 10
0.0
 20
-299.99999999999909
 30
0.0
  0
VERTEX
  5
494
  8
5
  6
STRICHLINIE
 10
0.0
 20
-278.06267200858741
 30
0.0
  0
VERTEX
  5
495
  8
5
  6
STRICHLINIE
 10
35.0
 20
-271.99999999999898
 30
0.0
  0
VERTEX
  5
496
  8
5
  6
STRICHLINIE
 10
35.0
 20
-5.9999999999990896
 30
0.0
  0
SEQEND
  5
497
  8
5
  6
STRICHLINIE
  0
POLYLINE
  5
2EF
  8
6
  6
STRICHPUNKT
 66
     1
 10
0.0
 20
0.0
 30
0.0
 70
     1
  0
VERTEX
  5
498
  8
6
  6
STRICHPUNKT
 10
-60.5
 20
-15.0
 30
0.0
  0
VERTEX
  5
499
  8
6
  6
STRICHPUNKT
 10
-60.5
 20
-52.999999999999091
 30
0.0
  0
VERTEX
  5
49A
  8
6
  6
STRICHPUNKT
 10
-81.5
 20
-52.999999999999091
 30
0.0
  0
VERTEX
  5
49B
  8
6
  6
STRICHPUNKT
 10
-81.5
 20
-15.0
 30
0.0
  0
VERTEX
  5
49C
  8
6
  6
STRICHPUNKT
 10
-78.5
 20
-15.0
 30
0.0
  0
VERTEX
  5
49D
  8
6
  6
STRICHPUNKT
 10
-78.5
 20
-49.999999999999091
 30
0.0
  0
VERTEX
  5
49E
  8
6
  6
STRICHPUNKT
 10
-63.5
 20
-49.999999999999091
 30
0.0
  0
VERTEX
  5
49F
  8
6
  6
STRICHPUNKT
 10
-63.5
 20
-15.0
 30
0.0
  0
SEQEND
  5
4A0
  8
6
  6
STRICHPUNKT
  0
POLYLINE
  5
2F0
  8
6
  6
STRICHPUNKT
 66
     1
 10
0.0
 20
0.0
 30
0.0
 70
     1
  0
VERTEX
  5
4A1
  8
6
  6
STRICHPUNKT
 10
-63.5
 20
-48.104569437055027
 30
0.0
  0
VERTEX
  5
4A2
  8
6
  6
STRICHPUNKT
 10
-78.5
 20
-48.104569437055027
 30
0.0
  0
VERTEX
  5
4A3
  8
6
  6
STRICHPUNKT
 10
-78.5
 20
-114.6609146218961
 30
0.0
  0
VERTEX
  5
4A4
  8
6
  6
STRICHPUNKT
 10
-63.5
 20
-114.6609146218961
 30
0.0
  0
SEQEND
  5
4A5
  8
6
  6
STRICHPUNKT
  0
LINE
  5
2F1
  8
6
  6
STRICHPUNKT
 10
454.97676792899159
 20
-552.77892028847964
 30
0.0
 11
465.02323207100739
 21
-552.77892028847964
 31
0.0
  0
LINE
  5
2F2
  8
6
  6
STRICHPUNKT
 10
460.0
 20
-557.80215235948799
 30
0.0
 11
460.0
 21
-547.7556882174722
 31
0.0
  0
CIRCLE
  5
2F3
  8
6
 10
460.0
 20
-552.77892028847964
 30
0.0
 40
2.7999999999999989
  0
LINE
  5
2F4
  8
6
  6
STRICHPUNKT
 10
62.976767928991649
 20
-552.77892028847964
 30
0.0
 11
73.023232071007442
 21
-552.77892028847964
 31
0.0
  0
LINE
  5
2F5
  8
6
  6
STRICHPUNKT
 10
68.0
 20
-557.80215235948799
 30
0.0
 11
68.0
 21
-547.7556882174722
 31
0.0
  0
CIRCLE
  5
2F6
  8
6
 10
68.0
 20
-552.77892028847964
 30
0.0
 40
2.7999999999999989
  0
LINE
  5
2F7
  8
6
  6
STRICHPUNKT
 10
40.0
 20
-5.607655094103392
 30
0.0
 11
40.0
 21
-14.392344905894779
 31
0.0
  0
CIRCLE
  5
2F8
  8
6
 10
40.0
 20
-9.9999999999990905
 30
0.0
 40
3.0
  0
LINE
  5
2F9
  8
6
  6
STRICHPUNKT
 10
35.655966188232917
 20
-9.9999999999990905
 30
0.0
 11
44.34403381176525
 21
-9.9999999999990905
 31
0.0
  0
LINE
  5
2FA
  8
6
  6
STRICHPUNKT
 10
16.65596618823292
 20
-107.99999999999901
 30
0.0
 11
25.344033811765261
 21
-107.99999999999901
 31
0.0
  0
CIRCLE
  5
2FB
  8
6
 10
21.0
 20
-107.99999999999901
 30
0.0
 40
3.0
  0
LINE
  5
2FC
  8
6
  6
STRICHPUNKT
 10
21.0
 20
-103.60765509410329
 30
0.0
 11
21.0
 21
-112.3923449058947
 31
0.0
  0
POLYLINE
  5
2FD
  8
6
 66
     1
 10
0.0
 20
0.0
 30
0.0
 70
     1
  0
VERTEX
  5
4A6
  8
6
 10
0.0
 20
-149.99999999999901
 30
0.0
  0
VERTEX
  5
4A7
  8
6
 10
0.0
 20
-154.99999999999901
 30
0.0
  0
VERTEX
  5
4A8
  8
6
 10
14.5
 20
-154.99999999999901
 30
0.0
 42
0.4142135623730951
  0
VERTEX
  5
4A9
  8
6
 10
16.0
 20
-153.49999999999909
 30
0.0
  0
VERTEX
  5
4AA
  8
6
 10
16.0
 20
-152.49999999999909
 30
0.0
 42
0.4142135623730951
  0
VERTEX
  5
4AB
  8
6
 10
14.5
 20
-150.99999999999901
 30
0.0
  0
VERTEX
  5
4AC
  8
6
 10
4.0
 20
-150.99999999999901
 30
0.0
  0
VERTEX
  5
4AD
  8
6
 10
4.0
 20
-149.99999999999901
 30
0.0
  0
SEQEND
  5
4AE
  8
6
  0
POLYLINE
  5
2FE
  8
6
 66
     1
 10
0.0
 20
0.0
 30
0.0
 70
     1
  0
VERTEX
  5
4AF
  8
6
 10
0.0
 20
-149.99999999999901
 30
0.0
  0
VERTEX
  5
4B0
  8
6
 10
16.435205989017959
 20
-149.99999999999901
 30
0.0
 42
0.3447134235425218
  0
VERTEX
  5
4B1
  8
6
 10
18.376463058276379
 20
-148.48116628212301
 30
0.0
  0
VERTEX
  5
4B2
  8
6
 10
47.0
 20
-32.999999999999091
 30
0.0
  0
VERTEX
  5
4B3
  8
6
 10
47.0
 20
-5.9999999999990896
 30
0.0
 42
0.4142135623730951
  0
VERTEX
  5
4B4
  8
6
 10
44.0
 20
-2.9999999999990901
 30
0.0
  0
VERTEX
  5
4B5
  8
6
 10
0.0
 20
-2.9999999999990901
 30
0.0
  0
SEQEND
  5
4B6
  8
6
  0
POLYLINE
  5
2FF
  8
6
 66
     1
 10
0.0
 20
0.0
 30
0.0
 70
     1
  0
VERTEX
  5
4B7
  8
6
 10
-56.0
 20
-149.99999999999901
 30
0.0
  0
VERTEX
  5
4B8
  8
6
 10
-56.0
 20
-2.9999999999990901
 30
0.0
  0
VERTEX
  5
4B9
  8
6
 10
-86.0
 20
-2.9999999999990901
 30
0.0
  0
VERTEX
  5
4BA
  8
6
 10
-86.0
 20
-149.99999999999901
 30
0.0
  0
VERTEX
  5
4BB
  8
6
 10
-79.0
 20
-149.99999999999901
 30
0.0
  0
VERTEX
  5
4BC
  8
6
 10
-79.0
 20
-154.99999999999901
 30
0.0
  0
VERTEX
  5
4BD
  8
6
 10
-63.0
 20
-154.99999999999901
 30
0.0
  0
VERTEX
  5
4BE
  8
6
 10
-63.0
 20
-149.99999999999901
 30
0.0
  0
SEQEND
  5
4BF
  8
6
  0
POLYLINE
  5
300
  8
6
 66
     1
 10
0.0
 20
0.0
 30
0.0
 70
     1
  0
VERTEX
  5
4C0
  8
6
 10
-56.0
 20
-2.9999999999990901
 30
0.0
  0
VERTEX
  5
4C1
  8
6
 10
-56.0
 20
-149.99999999999901
 30
0.0
  0
VERTEX
  5
4C2
  8
6
 10
-60.0
 20
-149.99999999999901
 30
0.0
  0
VERTEX
  5
4C3
  8
6
 10
-60.0
 20
-2.9999999999990901
 30
0.0
  0
SEQEND
  5
4C4
  8
6
  0
POLYLINE
  5
301
  8
6
 66
     1
 10
0.0
 20
0.0
 30
0.0
 70
     1
  0
VERTEX
  5
4C5
  8
6
 10
-86.0
 20
-2.9999999999990901
 30
0.0
  0
VERTEX
  5
4C6
  8
6
 10
-86.0
 20
-149.99999999999901
 30
0.0
  0
VERTEX
  5
4C7
  8
6
 10
-82.0
 20
-149.99999999999901
 30
0.0
  0
VERTEX
  5
4C8
  8
6
 10
-82.0
 20
-2.9999999999990901
 30
0.0
  0
SEQEND
  5
4C9
  8
6
  0
POLYLINE
  5
302
  8
6
 66
     1
 10
0.0
 20
0.0
 30
0.0
 70
     1
  0
VERTEX
  5
4CA
  8
6
 10
-79.0
 20
-154.99999999999901
 30
0.0
  0
VERTEX
  5
4CB
  8
6
 10
-79.0
 20
-150.99999999999901
 30
0.0
  0
VERTEX
  5
4CC
  8
6
 10
-63.0
 20
-150.99999999999901
 30
0.0
  0
VERTEX
  5
4CD
  8
6
 10
-63.0
 20
-154.99999999999901
 30
0.0
  0
SEQEND
  5
4CE
  8
6
  0
POLYLINE
  5
303
  8
6
 66
     1
 10
0.0
 20
0.0
 30
0.0
  0
VERTEX
  5
4CF
  8
6
 10
-86.0
 20
-2.9999999999990901
 30
0.0
  0
VERTEX
  5
4D0
  8
6
 10
-82.0
 20
-2.9999999999990901
 30
0.0
  0
SEQEND
  5
4D1
  8
6
  0
LINE
  5
304
  8
6
  6
STRICHPUNKT
 10
-77.062590356838882
 20
-138.99999999999909
 30
0.0
 11
-64.937409643162013
 21
-138.99999999999909
 31
0.0
  0
CIRCLE
  5
305
  8
6
 10
-71.0
 20
-138.99999999999909
 30
0.0
 40
4.5
  0
LINE
  5
306
  8
6
  6
STRICHPUNKT
 10
-71.0
 20
-132.93740964316021
 30
0.0
 11
-71.0
 21
-145.06259035683701
 31
0.0
  0
LINE
  5
307
  8
6
  6
STRICHPUNKT
 10
-47.062590356838882
 20
-17.999999999999091
 30
0.0
 11
-34.93740964316202
 21
-17.999999999999091
 31
0.0
  0
CIRCLE
  5
308
  8
6
 10
-41.0
 20
-17.999999999999091
 30
0.0
 40
4.5
  0
LINE
  5
309
  8
6
  6
STRICHPUNKT
 10
-41.0
 20
-11.937409643160199
 30
0.0
 11
-41.0
 21
-24.06259035683706
 31
0.0
  0
LINE
  5
30A
  8
6
  6
STRICHPUNKT
 10
-107.0625903568388
 20
-17.999999999999091
 30
0.0
 11
-94.937409643162013
 21
-17.999999999999091
 31
0.0
  0
CIRCLE
  5
30B
  8
6
 10
-101.0
 20
-17.999999999999091
 30
0.0
 40
4.5
  0
LINE
  5
30C
  8
6
  6
STRICHPUNKT
 10
-101.0
 20
-11.937409643160199
 30
0.0
 11
-101.0
 21
-24.06259035683706
 31
0.0
  0
LINE
  5
30D
  8
6
  6
STRICHPUNKT
 10
260.0
 20
5.321130331337371
 30
0.0
 11
260.0
 21
-6.0017470846596552
 31
0.0
  0
TEXT
  5
30E
  8
1
 10
184.03541867053349
 20
-132.9599462702997
 30
0.0
 40
12.0
  1
Hebgo KL/480
  0
DIMENSION
  5
30F
  8
1
  2
*D2
 10
-0.0000000000000198
 20
-477.71851999643621
 30
0.0
 11
239.99999999999989
 21
-458.5282062174457
 31
0.0
 70
     0
 13
480.0
 23
-7.0
 33
0.0
 14
0.0
 24
-154.99999999999901
 34
0.0
  0
CIRCLE
  5
310
  8
6
 10
260.0
 20
-552.77892028847964
 30
0.0
 40
2.7999999999999989
  0
LINE
  5
311
  8
6
  6
STRICHPUNKT
 10
260.0
 20
-557.80215235948799
 30
0.0
 11
260.0
 21
-547.7556882174722
 31
0.0
  0
LINE
  5
312
  8
6
  6
STRICHPUNKT
 10
254.97676792899071
 20
-552.77892028847964
 30
0.0
 11
265.02323207100739
 21
-552.77892028847964
 31
0.0
  0
LINE
  5
313
  8
6
  6
STRICHPUNKT
 10
-5.9016008759754177
 20
-582.77892028847964
 30
0.0
 11
5.421276540020699
 21
-582.77892028847964
 31
0.0
  0
LINE
  5
314
  8
6
  6
STRICHPUNKT
 10
-5.9016008759754177
 20
-552.77892028847964
 30
0.0
 11
5.421276540020699
 21
-552.77892028847964
 31
0.0
  0
LINE
  5
315
  8
6
  6
STRICHPUNKT
 10
-5.9016008759754177
 20
-522.77892028847964
 30
0.0
 11
5.421276540020699
 21
-522.77892028847964
 31
0.0
  0
LINE
  5
316
  8
6
  6
STRICHPUNKT
 10
40.0
 20
-568.92201355494944
 30
0.0
 11
40.0
 21
-536.81022076453155
 31
0.0
  0
POLYLINE
  5
317
  8
6
 66
     1
 10
0.0
 20
0.0
 30
0.0
 70
     1
  0
VERTEX
  5
4D2
  8
6
 10
0.0
 20
-511.77892028847958
 30
0.0
  0
VERTEX
  5
4D3
  8
6
 10
4.0
 20
-511.77892028847958
 30
0.0
  0
VERTEX
  5
4D4
  8
6
 10
4.0
 20
-537.77892028847964
 30
0.0
  0
VERTEX
  5
4D5
  8
6
 10
47.0
 20
-537.77892028847964
 30
0.0
  0
VERTEX
  5
4D6
  8
6
 10
47.0
 20
-541.77892028847964
 30
0.0
  0
VERTEX
  5
4D7
  8
6
 10
4.0
 20
-541.77892028847964
 30
0.0
  0
VERTEX
  5
4D8
  8
6
 10
4.0
 20
-563.77892028847964
 30
0.0
  0
VERTEX
  5
4D9
  8
6
 10
47.0
 20
-563.77892028847964
 30
0.0
  0
VERTEX
  5
4DA
  8
6
 10
47.0
 20
-567.77892028847964
 30
0.0
  0
VERTEX
  5
4DB
  8
6
 10
4.0
 20
-567.77892028847964
 30
0.0
  0
VERTEX
  5
4DC
  8
6
 10
4.0
 20
-593.77892028847964
 30
0.0
  0
VERTEX
  5
4DD
  8
6
 10
0.0
 20
-593.77892028847964
 30
0.0
  0
SEQEND
  5
4DE
  8
6
  0
POLYLINE
  5
318
  8
6
 66
     1
 10
0.0
 20
0.0
 30
0.0
 70
     1
  0
VERTEX
  5
4DF
  8
6
 10
23.0
 20
-545.27892028847964
 30
0.0
  0
VERTEX
  5
4E0
  8
6
 10
23.0
 20
-560.27892028847964
 30
0.0
  0
VERTEX
  5
4E1
  8
6
 10
480.0
 20
-560.27892028847964
 30
0.0
  0
VERTEX
  5
4E2
  8
6
 10
480.0
 20
-545.27892028847964
 30
0.0
  0
SEQEND
  5
4E3
  8
6
  0
LINE
  5
319
  8
6
  6
STRICHPUNKT
 10
-87.143093266469805
 20
-107.99999999999901
 30
0.0
 11
-55.03130047605282
 21
-107.99999999999901
 31
0.0
  0
LINE
  5
31A
  8
6
  6
STRICHPUNKT
 10
-87.143093266469805
 20
-9.9999999999990905
 30
0.0
 11
-55.03130047605282
 21
-9.9999999999990905
 31
0.0
  0
LINE
  5
31B
  8
6
  6
STRICHPUNKT
 10
-71.0
 20
5.321130331337371
 30
0.0
 11
-71.0
 21
-6.0017470846587448
 31
0.0
  0
POLYLINE
  5
31C
  8
6
 66
     1
 10
0.0
 20
0.0
 30
0.0
 70
     1
  0
VERTEX
  5
4E4
  8
6
 10
-60.5
 20
-15.0
 30
0.0
  0
VERTEX
  5
4E5
  8
6
 10
-60.5
 20
0.0
 30
0.0
  0
VERTEX
  5
4E6
  8
6
 10
-81.5
 20
0.0
 30
0.0
  0
VERTEX
  5
4E7
  8
6
 10
-81.5
 20
-15.0
 30
0.0
  0
VERTEX
  5
4E8
  8
6
 10
-78.5
 20
-15.0
 30
0.0
  0
VERTEX
  5
4E9
  8
6
 10
-78.5
 20
-3.0
 30
0.0
  0
VERTEX
  5
4EA
  8
6
 10
-63.5
 20
-3.0
 30
0.0
  0
VERTEX
  5
4EB
  8
6
 10
-63.5
 20
-15.0
 30
0.0
  0
SEQEND
  5
4EC
  8
6
  0
LINE
  5
31D
  8
6
  6
STRICHPUNKT
 10
-5.9016008759754177
 20
-138.99999999999909
 30
0.0
 11
5.421276540020699
 21
-138.99999999999909
 31
0.0
  0
LINE
  5
31E
  8
6
  6
STRICHPUNKT
 10
-5.9016008759754177
 20
-17.999999999999091
 30
0.0
 11
5.421276540020699
 21
-17.999999999999091
 31
0.0
  0
LINE
  5
31F
  8
6
  6
STRICHPUNKT
 10
68.0
 20
5.321130331337371
 30
0.0
 11
68.0
 21
-6.0017470846596552
 31
0.0
  0
LINE
  5
320
  8
6
  6
STRICHPUNKT
 10
460.0
 20
5.321130331337371
 30
0.0
 11
460.0
 21
-6.0017470846596552
 31
0.0
  0
POLYLINE
  5
321
  8
6
  6
STRICHLINIE
 66
     1
 10
0.0
 20
0.0
 30
0.0
  0
VERTEX
  5
4ED
  8
6
  6
STRICHLINIE
 10
47.0
 20
-15.0
 30
0.0
  0
VERTEX
  5
4EE
  8
6
  6
STRICHLINIE
 10
23.0
 20
-15.0
 30
0.0
  0
VERTEX
  5
4EF
  8
6
  6
STRICHLINIE
 10
23.0
 20
0.0
 30
0.0
  0
SEQEND
  5
4F0
  8
6
  6
STRICHLINIE
  0
POLYLINE
  5
322
  8
6
 66
     1
 10
0.0
 20
0.0
 30
0.0
  0
VERTEX
  5
4F1
  8
6
 10
23.0
 20
0.0
 30
0.0
  0
VERTEX
  5
4F2
  8
6
 10
23.0
 20
0.0
 30
0.0
  0
VERTEX
  5
4F3
  8
6
 10
480.0
 20
0.0
 30
0.0
  0
VERTEX
  5
4F4
  8
6
 10
480.0
 20
-7.0
 30
0.0
  0
VERTEX
  5
4F5
  8
6
 10
456.0
 20
-15.0
 30
0.0
  0
VERTEX
  5
4F6
  8
6
 10
336.0
 20
-15.0
 30
0.0
  0
VERTEX
  5
4F7
  8
6
 10
330.0
 20
-50.0
 30
0.0
  0
VERTEX
  5
4F8
  8
6
 10
308.06267200858741
 20
-50.0
 30
0.0
  0
VERTEX
  5
4F9
  8
6
 10
302.0
 20
-15.0
 30
0.0
  0
VERTEX
  5
4FA
  8
6
 10
47.0
 20
-15.0
 30
0.0
  0
SEQEND
  5
4FB
  8
6
  0
LINE
  5
323
  8
6
 10
0.0
 20
-154.99999999999901
 30
0.0
 11
0.0
 21
-2.9999999999990901
 31
0.0
  0
POLYLINE
  5
324
  8
6
 66
     1
 10
0.0
 20
0.0
 30
0.0
 70
     1
  0
VERTEX
  5
4FC
  8
6
 10
0.0
 20
-2.9999999999990901
 30
0.0
  0
VERTEX
  5
4FD
  8
6
 10
0.0
 20
-32.999999999999091
 30
0.0
  0
VERTEX
  5
4FE
  8
6
 10
5.0
 20
-32.999999999999091
 30
0.0
  0
VERTEX
  5
4FF
  8
6
 10
5.0
 20
-2.9999999999990901
 30
0.0
  0
SEQEND
  5
500
  8
6
  0
POLYLINE
  5
325
  8
6
 66
     1
 10
0.0
 20
0.0
 30
0.0
 70
     1
  0
VERTEX
  5
501
  8
6
 10
-86.0
 20
-32.999999999999091
 30
0.0
  0
VERTEX
  5
502
  8
6
 10
-86.0
 20
-2.9999999999990901
 30
0.0
  0
VERTEX
  5
503
  8
6
 10
-109.0
 20
-2.9999999999990901
 30
0.0
 42
0.4142135623730951
  0
VERTEX
  5
504
  8
6
 10
-112.0
 20
-5.9999999999990896
 30
0.0
  0
VERTEX
  5
505
  8
6
 10
-112.0
 20
-29.999999999999091
 30
0.0
 42
0.4142135623730951
  0
VERTEX
  5
506
  8
6
 10
-109.0
 20
-32.999999999999091
 30
0.0
  0
SEQEND
  5
507
  8
6
  0
POLYLINE
  5
326
  8
6
 66
     1
 10
0.0
 20
0.0
 30
0.0
 70
     1
  0
VERTEX
  5
508
  8
6
 10
-56.0
 20
-32.999999999999091
 30
0.0
  0
VERTEX
  5
509
  8
6
 10
-56.0
 20
-2.9999999999990901
 30
0.0
  0
VERTEX
  5
50A
  8
6
 10
-33.0
 20
-2.9999999999990901
 30
0.0
 42
-0.4142135623730951
  0
VERTEX
  5
50B
  8
6
 10
-30.0
 20
-5.9999999999990896
 30
0.0
  0
VERTEX
  5
50C
  8
6
 10
-30.0
 20
-29.999999999999091
 30
0.0
 42
-0.4142135623730951
  0
VERTEX
  5
50D
  8
6
 10
-33.0
 20
-32.999999999999091
 30
0.0
  0
SEQEND
  5
50E
  8
6
  0
VIEWPORT
  5
22
 67
     1
  8
0
 10
210.0
 20
170.2366863905325
 30
0.0
 40
420.0
 41
340.47337278106511
 68
     1
 69
     1
1001
ACAD
1000
MVIEW
1002
{
1070
    16
1010
0.0
1020
0.0
1030
0.0
1010
0.0
1020
0.0
1030
1.0
1040
0.0
1040
340.47337278106511
1040
210.0
1040
170.2366863905325
1040
50.0
1040
0.0
1040
0.0
1070
     0
1070
   100
1070
     1
1070
     1
1070
     0
1070
     0
1070
     0
1070
     0
1040
0.0
1040
0.0
1040
0.0
1040
5.0
1040
5.0
1040
10.0
1040
10.0
1070
     0
1002
{
1002
}
1002
}
  0
ENDSEC
  0
EOF
