  0
SECTION
  2
HEADER
  9
$ACADVER
  1
AC1009
  9
$INSBASE
 10
0.0
 20
0.0
 30
0.0
  9
$EXTMIN
 10
-169.54130918049731
 20
-512.9343036150583
 30
-0.0000000000000058
  9
$EXTMAX
 10
390.0231905583766
 20
5.3213513295379471
 30
0.0000000000000104
  9
$LIMMIN
 10
-150.0
 20
-150.0
  9
$LIMMAX
 10
150.0
 20
150.0
  9
$ORTHOMODE
 70
     0
  9
$REGENMODE
 70
     1
  9
$FILLMODE
 70
     1
  9
$QTEXTMODE
 70
     0
  9
$MIRRTEXT
 70
     0
  9
$DRAGMODE
 70
     2
  9
$LTSCALE
 40
1.0
  9
$OSMODE
 70
   111
  9
$ATTMODE
 70
     1
  9
$TEXTSIZE
 40
3.5
  9
$TRACEWID
 40
1.0
  9
$TEXTSTYLE
  7
BESCHLAG
  9
$CLAYER
  8
0
  9
$CELTYPE
  6
BYLAYER
  9
$CECOLOR
 62
   256
  9
$DIMSCALE
 40
1.0
  9
$DIMASZ
 40
2.0
  9
$DIMEXO
 40
2.0
  9
$DIMDLI
 40
0.0
  9
$DIMRND
 40
0.0
  9
$DIMDLE
 40
1.0
  9
$DIMEXE
 40
1.0
  9
$DIMTP
 40
0.0
  9
$DIMTM
 40
0.0
  9
$DIMTXT
 40
3.5
  9
$DIMCEN
 40
0.0
  9
$DIMTSZ
 40
0.0
  9
$DIMTOL
 70
     0
  9
$DIMLIM
 70
     0
  9
$DIMTIH
 70
     0
  9
$DIMTOH
 70
     0
  9
$DIMSE1
 70
     0
  9
$DIMSE2
 70
     0
  9
$DIMTAD
 70
     1
  9
$DIMZIN
 70
     8
  9
$DIMBLK
  1

  9
$DIMASO
 70
     1
  9
$DIMSHO
 70
     1
  9
$DIMPOST
  1

  9
$DIMAPOST
  1

  9
$DIMALT
 70
     0
  9
$DIMALTD
 70
     2
  9
$DIMALTF
 40
0.039370078740157
  9
$DIMLFAC
 40
1.0
  9
$DIMTOFL
 70
     1
  9
$DIMTVP
 40
0.0
  9
$DIMTIX
 70
     1
  9
$DIMSOXD
 70
     0
  9
$DIMSAH
 70
     1
  9
$DIMBLK1
  1
OBLIQUE
  9
$DIMBLK2
  1
OBLIQUE
  9
$DIMSTYLE
  2
OPO-SSTRICH
  9
$DIMCLRD
 70
   256
  9
$DIMCLRE
 70
   256
  9
$DIMCLRT
 70
   256
  9
$DIMTFAC
 40
0.7114285714285716
  9
$DIMGAP
 40
1.0
  9
$LUNITS
 70
     2
  9
$LUPREC
 70
     1
  9
$SKETCHINC
 40
1.0
  9
$FILLETRAD
 40
0.0
  9
$AUNITS
 70
     0
  9
$AUPREC
 70
     1
  9
$MENU
  1
D:\ACL_CGWG\CGTAB13
  9
$ELEVATION
 40
0.0
  9
$PELEVATION
 40
0.0
  9
$THICKNESS
 40
0.0
  9
$LIMCHECK
 70
     0
  9
$BLIPMODE
 70
     0
  9
$CHAMFERA
 40
1.0
  9
$CHAMFERB
 40
1.0
  9
$SKPOLY
 70
     0
  9
$TDCREATE
 40
2451739.9274005322
  9
$TDUPDATE
 40
2452087.669894537
  9
$TDINDWG
 40
0.0009265741
  9
$TDUSRTIMER
 40
0.0009265741
  9
$USRTIMER
 70
     1
  9
$ANGBASE
 50
0.0
  9
$ANGDIR
 70
     0
  9
$PDMODE
 70
    35
  9
$PDSIZE
 40
5.0
  9
$PLINEWID
 40
0.0
  9
$COORDS
 70
     1
  9
$SPLFRAME
 70
     0
  9
$SPLINETYPE
 70
     6
  9
$SPLINESEGS
 70
     8
  9
$ATTDIA
 70
     1
  9
$ATTREQ
 70
     1
  9
$HANDLING
 70
-16383
  9
$HANDSEED
  5
4CF
  9
$SURFTAB1
 70
    12
  9
$SURFTAB2
 70
    12
  9
$SURFTYPE
 70
     6
  9
$SURFU
 70
    12
  9
$SURFV
 70
    12
  9
$UCSNAME
  2

  9
$UCSORG
 10
0.0
 20
0.0
 30
0.0
  9
$UCSXDIR
 10
1.0
 20
0.0
 30
0.0
  9
$UCSYDIR
 10
0.0
 20
1.0
 30
0.0
  9
$PUCSNAME
  2

  9
$PUCSORG
 10
0.0
 20
0.0
 30
0.0
  9
$PUCSXDIR
 10
1.0
 20
0.0
 30
0.0
  9
$PUCSYDIR
 10
0.0
 20
1.0
 30
0.0
  9
$USERI1
 70
     0
  9
$USERI2
 70
     0
  9
$USERI3
 70
     0
  9
$USERI4
 70
     0
  9
$USERI5
 70
     0
  9
$USERR1
 40
0.0
  9
$USERR2
 40
0.0
  9
$USERR3
 40
0.0
  9
$USERR4
 40
0.0
  9
$USERR5
 40
0.0
  9
$WORLDVIEW
 70
     1
  9
$SHADEDGE
 70
     3
  9
$SHADEDIF
 70
    70
  9
$TILEMODE
 70
     1
  9
$MAXACTVP
 70
    48
  9
$PLIMCHECK
 70
     0
  9
$PEXTMIN
 10
1.0000000000000000E+020
 20
1.0000000000000000E+020
 30
1.0000000000000000E+020
  9
$PEXTMAX
 10
-1.0000000000000000E+020
 20
-1.0000000000000000E+020
 30
-1.0000000000000000E+020
  9
$PLIMMIN
 10
0.0
 20
0.0
  9
$PLIMMAX
 10
420.0
 20
297.0
  9
$UNITMODE
 70
     0
  9
$VISRETAIN
 70
     1
  9
$PLINEGEN
 70
     0
  9
$PSLTSCALE
 70
     1
  0
ENDSEC
  0
SECTION
  2
TABLES
  0
TABLE
  2
VPORT
 70
     2
  0
VPORT
  2
*ACTIVE
 70
     0
 10
0.0
 20
0.0
 11
1.0
 21
1.0
 12
110.2409406889396
 22
-253.80647614276009
 13
0.0
 23
0.0
 14
0.5
 24
0.5
 15
10.0
 25
10.0
 16
0.0
 26
0.0
 36
1.0
 17
0.0
 27
0.0
 37
0.0
 40
522.46341398338848
 41
1.6070460704607039
 42
50.0
 43
0.0
 44
0.0
 50
0.0
 51
0.0
 71
     0
 72
   800
 73
     1
 74
     1
 75
     0
 76
     0
 77
     0
 78
     0
  0
ENDTAB
  0
TABLE
  2
LTYPE
 70
     3
  0
LTYPE
  2
CONTINUOUS
 70
     0
  3
_______________________________________________
 72
    65
 73
     2
 40
1.0
 49
1.0
 49
0.0
  0
LTYPE
  2
STRICHLINIE
 70
     0
  3
Strichlinie __ __ __ __ __ __ __ __ __ __ __ __
 72
    65
 73
     2
 40
19.04999999999999
 49
12.699999999999999
 49
-6.3499999999999988
  0
LTYPE
  2
STRICHPUNKT
 70
     0
  3
__ . __ . __ . __ . __ . __ . __ . __ . __ . __
 72
    65
 73
     4
 40
1.0
 49
0.5
 49
-0.25
 49
0.0
 49
-0.25
  0
ENDTAB
  0
TABLE
  2
LAYER
 70
     6
  0
LAYER
  2
0
 70
     0
 62
    30
  6
CONTINUOUS
  0
LAYER
  2
1
 70
     0
 62
     2
  6
CONTINUOUS
  0
LAYER
  2
4
 70
     1
 62
     4
  6
CONTINUOUS
  0
LAYER
  2
5
 70
     0
 62
     1
  6
CONTINUOUS
  0
LAYER
  2
6
 70
     0
 62
     3
  6
CONTINUOUS
  0
LAYER
  2
DEFPOINTS
 70
     0
 62
     7
  6
CONTINUOUS
  0
ENDTAB
  0
TABLE
  2
STYLE
 70
     2
  0
STYLE
  2
STANDARD
 70
     0
 40
0.0
 41
1.0
 50
0.0
 71
     0
 42
2.5
  3
txt
  4

  0
STYLE
  2
BESCHLAG
 70
     0
 40
0.0
 41
1.0
 50
0.0
 71
     0
 42
3.5
  3
txt
  4

  0
ENDTAB
  0
TABLE
  2
VIEW
 70
     0
  0
ENDTAB
  0
TABLE
  2
UCS
 70
     0
  0
ENDTAB
  0
TABLE
  2
APPID
 70
     1
  0
APPID
  2
ACAD
 70
     0
  0
ENDTAB
  0
TABLE
  2
DIMSTYLE
 70
     2
  0
DIMSTYLE
  2
OPO-SSTRICH
 70
     0
  3

  4

  5

  6
OBLIQUE
  7
OBLIQUE
 40
1.0
 41
2.0
 42
2.0
 43
0.0
 44
1.0
 45
0.0
 46
1.0
 47
0.0
 48
0.0
140
3.5
141
0.0
142
0.0
143
0.039370078740157
144
1.0
145
0.0
146
0.7114285714285716
147
1.0
 71
     0
 72
     0
 73
     0
 74
     0
 75
     0
 76
     0
 77
     1
 78
     8
170
     0
171
     2
172
     1
173
     1
174
     1
175
     0
176
   256
177
   256
178
   256
  0
DIMSTYLE
  2
OPO-SSTRICH-10
 70
     0
  3

  4

  5

  6

  7

 40
10.0
 41
0.0
 42
2.0
 43
0.0
 44
1.0
 45
0.0
 46
1.0
 47
0.0
 48
0.0
140
1.8
141
2.0
142
1.0
143
0.039370078740157
144
1.0
145
0.0
146
1.388888888888888
147
1.0
 71
     0
 72
     0
 73
     0
 74
     0
 75
     0
 76
     0
 77
     1
 78
     8
170
     0
171
     2
172
     1
173
     0
174
     1
175
     0
176
   256
177
   256
178
   256
  0
ENDTAB
  0
ENDSEC
  0
SECTION
  2
BLOCKS
  0
BLOCK
  8
0
  2
$MODEL_SPACE
 70
     0
 10
0.0
 20
0.0
 30
0.0
  3
$MODEL_SPACE
  1

  0
ENDBLK
  5
1C
  8
0
  0
BLOCK
 67
     1
  8
0
  2
$PAPER_SPACE
 70
     0
 10
0.0
 20
0.0
 30
0.0
  3
$PAPER_SPACE
  1

  0
ENDBLK
  5
19
 67
     1
  8
0
  0
BLOCK
  8
0
  2
_OBLIQUE
 70
     0
 10
0.0
 20
0.0
 30
0.0
  3
_OBLIQUE
  1

  0
LINE
  5
204
  8
0
 62
     0
 10
-0.5
 20
-0.5
 30
0.0
 11
0.5
 21
0.5
 31
0.0
  0
ENDBLK
  5
206
  8
0
  0
BLOCK
  8
0
  2
NULLPUNKT
 70
     0
 10
0.0
 20
0.0
 30
0.0
  3
NULLPUNKT
  1

  0
SOLID
  5
254
  8
5
 10
0.0
 20
0.0
 30
0.0
 11
2.0
 21
0.0
 31
0.0
 12
0.0
 22
-2.0
 32
0.0
 13
0.0
 23
-2.0
 33
0.0
  0
SOLID
  5
255
  8
5
 10
0.0
 20
0.0
 30
0.0
 11
-2.0
 21
0.0
 31
0.0
 12
0.0
 22
2.0
 32
0.0
 13
0.0
 23
2.0
 33
0.0
  0
POLYLINE
  5
256
  8
5
 66
     1
 10
0.0
 20
0.0
 30
0.0
  0
VERTEX
  5
3E1
  8
5
 10
0.0
 20
2.0
 30
0.0
  0
VERTEX
  5
3E2
  8
5
 10
0.0
 20
-2.0
 30
0.0
  0
SEQEND
  5
3E3
  8
5
  0
POLYLINE
  5
257
  8
5
 66
     1
 10
0.0
 20
0.0
 30
0.0
  0
VERTEX
  5
3E4
  8
5
 10
-2.0
 20
0.0
 30
0.0
  0
VERTEX
  5
3E5
  8
5
 10
2.0
 20
0.0
 30
0.0
  0
SEQEND
  5
3E6
  8
5
  0
CIRCLE
  5
258
  8
5
 10
0.0
 20
0.0
 30
0.0
 40
2.0
  0
ENDBLK
  5
25A
  8
0
  0
BLOCK
  8
0
  2
*D2
 70
     1
 10
0.0
 20
0.0
 30
0.0
  3
*D2
  1

  0
LINE
  5
315
  8
1
 10
380.0
 20
-42.0
 30
0.0
 11
380.0
 21
-378.7283112703148
 31
0.0
  0
LINE
  5
316
  8
1
 10
-0.0000000000000012
 20
-42.0
 30
0.0
 11
-0.0000000000000218
 21
-378.7283112703148
 31
0.0
  0
LINE
  5
317
  8
1
 10
390.0
 20
-368.7283112703148
 30
0.0
 11
-10.00000000000002
 21
-368.7283112703148
 31
0.0
  0
LINE
  5
318
  8
1
 10
-10.00000000000002
 20
-378.7283112703148
 30
0.0
 11
9.9999999999999787
 21
-358.7283112703148
 31
0.0
  0
LINE
  5
319
  8
1
 10
370.0
 20
-378.7283112703148
 30
0.0
 11
390.0
 21
-358.7283112703148
 31
0.0
  0
TEXT
  5
31A
  8
0
 10
169.09618008185529
 20
-358.37224032897791
 30
0.0
 40
18.0
  1
380
  0
POINT
  5
31B
  8
DEFPOINTS
 62
     0
 10
380.0
 20
-22.0
 30
0.0
  0
POINT
  5
31C
  8
DEFPOINTS
 62
     0
 10
0.0
 20
-22.0
 30
0.0
  0
POINT
  5
31D
  8
DEFPOINTS
 62
     0
 10
-0.0000000000000212
 20
-368.7283112703148
 30
0.0
  0
ENDBLK
  5
314
  8
0
  0
ENDSEC
  0
SECTION
  2
ENTITIES
  0
INSERT
  5
25B
  8
5
  2
NULLPUNKT
 10
0.0
 20
0.0
 30
0.0
  0
POLYLINE
  5
2C4
  8
6
 66
     1
 10
0.0
 20
0.0
 30
0.0
  0
VERTEX
  5
3E7
  8
6
 10
28.12562428527303
 20
-96.890706709297774
 30
0.0
  0
VERTEX
  5
3E8
  8
6
 10
220.26793876306871
 20
-54.27973174109183
 30
0.0
  0
VERTEX
  5
3E9
  8
6
 10
223.73206123692941
 20
-69.90022646712714
 30
0.0
  0
VERTEX
  5
3EA
  8
6
 10
31.589746759133611
 20
-112.51120143533301
 30
0.0
  0
SEQEND
  5
3EB
  8
6
  0
POLYLINE
  5
2C5
  8
6
 66
     1
 10
0.0
 20
0.0
 30
0.0
  0
VERTEX
  5
3EC
  8
6
 10
254.27330096720291
 20
-54.723994473124087
 30
0.0
 42
-0.0528391839100589
  0
VERTEX
  5
3ED
  8
6
 10
271.32157567597272
 20
-59.59043068373375
 30
0.0
  0
VERTEX
  5
3EE
  8
6
 10
269.05936920004928
 20
-62.889282280924363
 30
0.0
 42
0.0478282084168341
  0
VERTEX
  5
3EF
  8
6
 10
253.5667520873557
 20
-58.683469209696788
 30
0.0
 42
0.0784911828100752
  0
SEQEND
  5
3F0
  8
6
  0
POLYLINE
  5
2C6
  8
5
  6
STRICHLINIE
 66
     1
 10
0.0
 20
0.0
 30
0.0
  0
VERTEX
  5
3F1
  8
5
  6
STRICHLINIE
 10
31.999999999999769
 20
-111.99999999993901
 30
0.0
  0
VERTEX
  5
3F2
  8
5
  6
STRICHLINIE
 10
31.999999999999542
 20
-308.81047787300662
 30
0.0
  0
VERTEX
  5
3F3
  8
5
  6
STRICHLINIE
 10
15.99999999999943
 20
-308.81047787300707
 30
0.0
  0
VERTEX
  5
3F4
  8
5
  6
STRICHLINIE
 10
15.99999999999965
 20
-111.99999999993901
 30
0.0
  0
SEQEND
  5
3F5
  8
5
  6
STRICHLINIE
  0
CIRCLE
  5
2C7
  8
6
  6
STRICHLINIE
 10
24.0
 20
-106.0
 30
0.0
 40
10.0
  0
LINE
  5
2C8
  8
6
  6
STRICHPUNKT
 10
-5.9016008759756451
 20
-22.0
 30
0.0
 11
12.17804393915298
 21
-22.0
 31
0.0
  0
POLYLINE
  5
2C9
  8
4
 66
     1
 10
0.0
 20
0.0
 30
0.0
  0
VERTEX
  5
3F6
  8
4
 10
254.27330096720291
 20
-54.723994473124542
 30
0.0
 42
-0.0528391839100589
  0
VERTEX
  5
3F7
  8
4
 10
271.32157567597369
 20
-59.59043068373375
 30
0.0
  0
VERTEX
  5
3F8
  8
4
 10
269.05936920004928
 20
-62.889282280924817
 30
0.0
 42
0.0478282084168341
  0
VERTEX
  5
3F9
  8
4
 10
253.56675208735669
 20
-58.683469209696341
 30
0.0
 42
0.0784911828100752
  0
SEQEND
  5
3FA
  8
4
  0
POLYLINE
  5
2CA
  8
4
 66
     1
 10
0.0
 20
0.0
 30
0.0
 70
     1
  0
VERTEX
  5
3FB
  8
4
 10
0.0
 20
-42.0
 30
0.0
  0
VERTEX
  5
3FC
  8
4
 10
0.0
 20
-2.0
 30
0.0
  0
VERTEX
  5
3FD
  8
4
 10
9.0
 20
-2.3333333333339392
 30
0.0
  0
VERTEX
  5
3FE
  8
4
 10
9.0
 20
-42.0
 30
0.0
  0
SEQEND
  5
3FF
  8
4
  0
POLYLINE
  5
2CB
  8
4
 66
     1
 10
0.0
 20
0.0
 30
0.0
 70
     1
  0
VERTEX
  5
400
  8
4
 10
35.0
 20
-95.36619165232878
 30
0.0
  0
VERTEX
  5
401
  8
4
 10
220.26793876306959
 20
-54.279731741091382
 30
0.0
  0
VERTEX
  5
402
  8
4
 10
223.73206123693029
 20
-69.90022646712714
 30
0.0
  0
VERTEX
  5
403
  8
4
 10
35.0
 20
-111.75491713701641
 30
0.0
  0
SEQEND
  5
404
  8
4
  0
POLYLINE
  5
2CC
  8
4
 66
     1
 10
0.0
 20
0.0
 30
0.0
 70
     1
  0
VERTEX
  5
405
  8
4
 10
-88.905024785201931
 20
-42.0
 30
0.0
  0
VERTEX
  5
406
  8
4
 10
-88.905024785201931
 20
-2.0
 30
0.0
  0
VERTEX
  5
407
  8
4
 10
-53.905024785201931
 20
-2.0
 30
0.0
  0
VERTEX
  5
408
  8
4
 10
-53.905024785201931
 20
-42.0
 30
0.0
  0
SEQEND
  5
409
  8
4
  0
POLYLINE
  5
2CD
  8
4
 66
     1
 10
0.0
 20
0.0
 30
0.0
 70
     1
  0
VERTEX
  5
40A
  8
4
 10
-124.9050247852019
 20
-22.0
 30
0.0
  0
VERTEX
  5
40B
  8
4
 10
-124.9050247852019
 20
0.0
 30
0.0
  0
VERTEX
  5
40C
  8
4
 10
-97.905024785201945
 20
0.0
 30
0.0
  0
VERTEX
  5
40D
  8
4
 10
-97.905024785201945
 20
-22.0
 30
0.0
  0
VERTEX
  5
40E
  8
4
 10
-101.9050247852019
 20
-22.0
 30
0.0
  0
VERTEX
  5
40F
  8
4
 10
-101.9050247852019
 20
-4.0
 30
0.0
  0
VERTEX
  5
410
  8
4
 10
-120.9050247852019
 20
-4.0
 30
0.0
  0
VERTEX
  5
411
  8
4
 10
-120.9050247852019
 20
-22.0
 30
0.0
  0
SEQEND
  5
412
  8
4
  0
POLYLINE
  5
2CE
  8
4
  6
STRICHPUNKT
 66
     1
 10
0.0
 20
0.0
 30
0.0
 70
     1
  0
VERTEX
  5
413
  8
4
  6
STRICHPUNKT
 10
-97.905024785201945
 20
-22.0
 30
0.0
  0
VERTEX
  5
414
  8
4
  6
STRICHPUNKT
 10
-97.905024785201945
 20
-62.0
 30
0.0
  0
VERTEX
  5
415
  8
4
  6
STRICHPUNKT
 10
-124.9050247852019
 20
-62.0
 30
0.0
  0
VERTEX
  5
416
  8
4
  6
STRICHPUNKT
 10
-124.9050247852019
 20
-22.0
 30
0.0
  0
VERTEX
  5
417
  8
4
  6
STRICHPUNKT
 10
-120.9050247852019
 20
-22.0
 30
0.0
  0
VERTEX
  5
418
  8
4
  6
STRICHPUNKT
 10
-120.9050247852019
 20
-58.0
 30
0.0
  0
VERTEX
  5
419
  8
4
  6
STRICHPUNKT
 10
-101.9050247852019
 20
-58.0
 30
0.0
  0
VERTEX
  5
41A
  8
4
  6
STRICHPUNKT
 10
-101.9050247852019
 20
-22.0
 30
0.0
  0
SEQEND
  5
41B
  8
4
  6
STRICHPUNKT
  0
POLYLINE
  5
2CF
  8
4
 66
     1
 10
0.0
 20
0.0
 30
0.0
 70
     1
  0
VERTEX
  5
41C
  8
4
 10
-133.9050247852019
 20
-42.0
 30
0.0
  0
VERTEX
  5
41D
  8
4
 10
-133.9050247852019
 20
-2.0
 30
0.0
  0
VERTEX
  5
41E
  8
4
 10
-168.9050247852019
 20
-2.0
 30
0.0
  0
VERTEX
  5
41F
  8
4
 10
-168.9050247852019
 20
-42.0
 30
0.0
  0
SEQEND
  5
420
  8
4
  0
POLYLINE
  5
2D0
  8
4
  6
STRICHPUNKT
 66
     1
 10
0.0
 20
0.0
 30
0.0
 70
     1
  0
VERTEX
  5
421
  8
4
  6
STRICHPUNKT
 10
-103.4050247852019
 20
-54.279731741091382
 30
0.0
  0
VERTEX
  5
422
  8
4
  6
STRICHPUNKT
 10
-119.4050247852019
 20
-54.279731741091382
 30
0.0
  0
VERTEX
  5
423
  8
4
  6
STRICHPUNKT
 10
-119.4050247852019
 20
-116.1993126770312
 30
0.0
  0
VERTEX
  5
424
  8
4
  6
STRICHPUNKT
 10
-103.4050247852019
 20
-116.1993126770312
 30
0.0
  0
SEQEND
  5
425
  8
4
  6
STRICHPUNKT
  0
POLYLINE
  5
2D1
  8
4
 66
     1
 10
0.0
 20
0.0
 30
0.0
 70
     1
  0
VERTEX
  5
426
  8
4
 10
0.0
 20
-397.9138811768625
 30
0.0
  0
VERTEX
  5
427
  8
4
 10
9.0
 20
-397.9138811768625
 30
0.0
  0
VERTEX
  5
428
  8
4
 10
9.0
 20
-432.91388117686262
 30
0.0
  0
VERTEX
  5
429
  8
4
 10
57.0
 20
-432.91388117686262
 30
0.0
  0
VERTEX
  5
42A
  8
4
 10
57.0
 20
-439.9138811768625
 30
0.0
  0
VERTEX
  5
42B
  8
4
 10
9.0
 20
-439.9138811768625
 30
0.0
  0
VERTEX
  5
42C
  8
4
 10
9.0
 20
-470.9138811768625
 30
0.0
  0
VERTEX
  5
42D
  8
4
 10
57.0
 20
-470.9138811768625
 30
0.0
  0
VERTEX
  5
42E
  8
4
 10
57.0
 20
-477.9138811768625
 30
0.0
  0
VERTEX
  5
42F
  8
4
 10
9.0
 20
-477.9138811768625
 30
0.0
  0
VERTEX
  5
430
  8
4
 10
9.0
 20
-512.91388117686245
 30
0.0
  0
VERTEX
  5
431
  8
4
 10
0.0
 20
-512.91388117686245
 30
0.0
  0
SEQEND
  5
432
  8
4
  0
POLYLINE
  5
2D2
  8
4
 66
     1
 10
0.0
 20
0.0
 30
0.0
 70
     1
  0
VERTEX
  5
433
  8
4
 10
57.0
 20
-4.0
 30
0.0
  0
VERTEX
  5
434
  8
4
 10
57.0
 20
-29.0
 30
0.0
  0
VERTEX
  5
435
  8
4
 10
35.0
 20
-42.0
 30
0.0
  0
VERTEX
  5
436
  8
4
 10
35.0
 20
-144.0
 30
0.0
  0
VERTEX
  5
437
  8
4
 10
20.0
 20
-182.0
 30
0.0
  0
VERTEX
  5
438
  8
4
 10
0.0
 20
-182.0
 30
0.0
  0
VERTEX
  5
439
  8
4
 10
0.0
 20
-2.0
 30
0.0
  0
SEQEND
  5
43A
  8
4
  0
POLYLINE
  5
2D3
  8
4
 66
     1
 10
0.0
 20
0.0
 30
0.0
 70
     1
  0
VERTEX
  5
43B
  8
4
 10
-126.9050247852019
 20
-2.0
 30
0.0
  0
VERTEX
  5
43C
  8
4
 10
-133.9050247852019
 20
-2.0
 30
0.0
  0
VERTEX
  5
43D
  8
4
 10
-133.9050247852019
 20
-179.0
 30
0.0
 42
0.4142135623730951
  0
VERTEX
  5
43E
  8
4
 10
-130.9050247852019
 20
-182.0
 30
0.0
  0
VERTEX
  5
43F
  8
4
 10
-91.905024785201917
 20
-182.0
 30
0.0
 42
0.4142135623730951
  0
VERTEX
  5
440
  8
4
 10
-88.905024785201931
 20
-179.0
 30
0.0
  0
VERTEX
  5
441
  8
4
 10
-88.905024785201931
 20
-2.0
 30
0.0
  0
VERTEX
  5
442
  8
4
 10
-95.905024785201931
 20
-2.0
 30
0.0
  0
VERTEX
  5
443
  8
4
 10
-95.905024785201931
 20
-173.0
 30
0.0
 42
-0.4142135623730951
  0
VERTEX
  5
444
  8
4
 10
-97.905024785201945
 20
-175.0
 30
0.0
  0
VERTEX
  5
445
  8
4
 10
-124.9050247852019
 20
-175.0
 30
0.0
 42
-0.4142135623730951
  0
VERTEX
  5
446
  8
4
 10
-126.9050247852019
 20
-173.0
 30
0.0
  0
SEQEND
  5
447
  8
4
  0
POLYLINE
  5
2D4
  8
4
 66
     1
 10
0.0
 20
0.0
 30
0.0
  0
VERTEX
  5
448
  8
4
 10
32.0
 20
-3.1228070175438911
 30
0.0
  0
VERTEX
  5
449
  8
4
 10
32.0
 20
0.0
 30
0.0
  0
VERTEX
  5
44A
  8
4
 10
32.0
 20
0.0
 30
0.0
  0
VERTEX
  5
44B
  8
4
 10
380.0
 20
0.0
 30
0.0
  0
VERTEX
  5
44C
  8
4
 10
380.0
 20
-12.0
 30
0.0
 42
-0.4142135623730951
  0
VERTEX
  5
44D
  8
4
 10
370.0
 20
-22.0
 30
0.0
  0
VERTEX
  5
44E
  8
4
 10
260.0
 20
-22.0
 30
0.0
  0
VERTEX
  5
44F
  8
4
 10
253.0
 20
-62.0
 30
0.0
  0
VERTEX
  5
450
  8
4
 10
222.0
 20
-62.0
 30
0.0
  0
VERTEX
  5
451
  8
4
 10
215.0
 20
-22.0
 30
0.0
  0
VERTEX
  5
452
  8
4
 10
57.0
 20
-22.0
 30
0.0
  0
SEQEND
  5
453
  8
4
  0
POLYLINE
  5
2D5
  8
4
 66
     1
 10
0.0
 20
0.0
 30
0.0
 70
     1
  0
VERTEX
  5
454
  8
4
 10
34.511378421787413
 20
-441.9138811768625
 30
0.0
  0
VERTEX
  5
455
  8
4
 10
34.511378421787413
 20
-468.9138811768625
 30
0.0
  0
VERTEX
  5
456
  8
4
 10
380.0
 20
-468.9138811768625
 30
0.0
  0
VERTEX
  5
457
  8
4
 10
380.0
 20
-441.9138811768625
 30
0.0
  0
SEQEND
  5
458
  8
4
  0
LINE
  5
2D6
  8
6
  6
STRICHPUNKT
 10
360.0
 20
5.3211303313369172
 30
0.0
 11
360.0
 21
-6.0017470846591996
 31
0.0
  0
LINE
  5
2D7
  8
6
  6
STRICHPUNKT
 10
205.0
 20
5.3211303313369172
 30
0.0
 11
205.0
 21
-6.0017470846591996
 31
0.0
  0
TEXT
  5
2D8
  8
1
 10
135.8409084585999
 20
-147.7895350128064
 30
0.0
 40
12.0
  1
Hebgo KS/380
  0
POLYLINE
  5
2D9
  8
5
  6
STRICHLINIE
 66
     1
 10
0.0
 20
0.0
 30
0.0
  0
VERTEX
  5
459
  8
5
  6
STRICHLINIE
 10
30.536294892894261
 20
-308.81047787300662
 30
0.0
 42
-0.1548592218446501
  0
VERTEX
  5
45A
  8
5
  6
STRICHLINIE
 10
15.761762760787059
 20
-357.50336253449581
 30
0.0
  0
VERTEX
  5
45B
  8
5
  6
STRICHLINIE
 10
13.030941905654
 20
-354.58058689186322
 30
0.0
 42
0.1450059179430335
  0
VERTEX
  5
45C
  8
5
  6
STRICHLINIE
 10
26.734120251250829
 20
-308.81047787300707
 30
0.0
 42
0.0784911828100752
  0
SEQEND
  5
45D
  8
5
  6
STRICHLINIE
  0
LINE
  5
2DA
  8
6
  6
STRICHPUNKT
 10
80.0
 20
5.3211303313369172
 30
0.0
 11
80.0
 21
-6.0017470846591996
 31
0.0
  0
LINE
  5
2DB
  8
6
  6
STRICHPUNKT
 10
46.0
 20
-7.2447664722658374
 30
0.0
 11
46.0
 21
-20.755233527734159
 31
0.0
  0
CIRCLE
  5
2DC
  8
6
 10
24.0
 20
-106.0
 30
0.0
 40
5.0
  0
LINE
  5
2DD
  8
6
  6
STRICHPUNKT
 10
24.0
 20
-99.244766472265823
 30
0.0
 11
24.0
 21
-112.75523352773411
 31
0.0
  0
LINE
  5
2DE
  8
6
  6
STRICHPUNKT
 10
17.24476647226583
 20
-106.0
 30
0.0
 11
30.755233527734159
 21
-106.0
 31
0.0
  0
LINE
  5
2DF
  8
6
  6
STRICHPUNKT
 10
-5.9016008759754177
 20
-152.0
 30
0.0
 11
12.178043939153209
 21
-152.0
 31
0.0
  0
POLYLINE
  5
2E0
  8
6
 66
     1
 10
0.0
 20
0.0
 30
0.0
 70
     1
  0
VERTEX
  5
45E
  8
6
 10
0.0
 20
-42.0
 30
0.0
  0
VERTEX
  5
45F
  8
6
 10
0.0
 20
-2.0
 30
0.0
  0
VERTEX
  5
460
  8
6
 10
9.0
 20
-2.333333333333484
 30
0.0
  0
VERTEX
  5
461
  8
6
 10
9.0
 20
-42.0
 30
0.0
  0
SEQEND
  5
462
  8
6
  0
CIRCLE
  5
2E1
  8
6
 10
46.0
 20
-14.0
 30
0.0
 40
5.0
  0
LINE
  5
2E2
  8
6
  6
STRICHPUNKT
 10
39.24476647226583
 20
-14.0
 30
0.0
 11
52.755233527734163
 21
-14.0
 31
0.0
  0
POLYLINE
  5
2E3
  8
6
  6
STRICHLINIE
 66
     1
 10
0.0
 20
0.0
 30
0.0
  0
VERTEX
  5
463
  8
6
  6
STRICHLINIE
 10
57.0
 20
-22.0
 30
0.0
  0
VERTEX
  5
464
  8
6
  6
STRICHLINIE
 10
32.0
 20
-22.0
 30
0.0
  0
VERTEX
  5
465
  8
6
  6
STRICHLINIE
 10
32.0
 20
0.0
 30
0.0
  0
SEQEND
  5
466
  8
6
  6
STRICHLINIE
  0
LINE
  5
2E4
  8
6
  6
STRICHPUNKT
 10
-111.4050247852028
 20
5.3211303313369172
 30
0.0
 11
-111.4050247852028
 21
-6.0017470846591996
 31
0.0
  0
LINE
  5
2E5
  8
6
  6
STRICHPUNKT
 10
-76.149970121792649
 20
-22.0
 30
0.0
 11
-61.660079448611206
 21
-22.0
 31
0.0
  0
CIRCLE
  5
2E6
  8
6
 10
-68.905024785202841
 20
-22.0
 30
0.0
 40
5.5
  0
LINE
  5
2E7
  8
6
  6
STRICHPUNKT
 10
-68.905024785202841
 20
-14.755054663409281
 30
0.0
 11
-68.905024785202841
 21
-29.244945336591169
 31
0.0
  0
CIRCLE
  5
2E8
  8
6
 10
-153.90502478520281
 20
-22.0
 30
0.0
 40
5.5
  0
LINE
  5
2E9
  8
6
  6
STRICHPUNKT
 10
-153.90502478520281
 20
-14.755054663409281
 30
0.0
 11
-153.90502478520281
 21
-29.244945336591169
 31
0.0
  0
POLYLINE
  5
2EA
  8
6
  6
STRICHPUNKT
 66
     1
 10
0.0
 20
0.0
 30
0.0
 70
     1
  0
VERTEX
  5
467
  8
6
  6
STRICHPUNKT
 10
-103.4050247852028
 20
-54.27973174109183
 30
0.0
  0
VERTEX
  5
468
  8
6
  6
STRICHPUNKT
 10
-119.4050247852028
 20
-54.27973174109183
 30
0.0
  0
VERTEX
  5
469
  8
6
  6
STRICHPUNKT
 10
-119.4050247852028
 20
-116.1993126770312
 30
0.0
  0
VERTEX
  5
46A
  8
6
  6
STRICHPUNKT
 10
-103.4050247852028
 20
-116.1993126770312
 30
0.0
  0
SEQEND
  5
46B
  8
6
  6
STRICHPUNKT
  0
LINE
  5
2EB
  8
6
  6
STRICHPUNKT
 10
-136.91478249402459
 20
-14.0
 30
0.0
 11
-85.895267076379241
 21
-14.0
 31
0.0
  0
POLYLINE
  5
2EC
  8
6
  6
STRICHPUNKT
 66
     1
 10
0.0
 20
0.0
 30
0.0
 70
     1
  0
VERTEX
  5
46C
  8
6
  6
STRICHPUNKT
 10
-97.905024785202841
 20
-22.0
 30
0.0
  0
VERTEX
  5
46D
  8
6
  6
STRICHPUNKT
 10
-97.905024785202841
 20
-62.000000000000448
 30
0.0
  0
VERTEX
  5
46E
  8
6
  6
STRICHPUNKT
 10
-124.9050247852028
 20
-62.000000000000448
 30
0.0
  0
VERTEX
  5
46F
  8
6
  6
STRICHPUNKT
 10
-124.9050247852028
 20
-22.0
 30
0.0
  0
VERTEX
  5
470
  8
6
  6
STRICHPUNKT
 10
-120.9050247852028
 20
-22.0
 30
0.0
  0
VERTEX
  5
471
  8
6
  6
STRICHPUNKT
 10
-120.9050247852028
 20
-58.000000000000462
 30
0.0
  0
VERTEX
  5
472
  8
6
  6
STRICHPUNKT
 10
-101.9050247852028
 20
-58.000000000000462
 30
0.0
  0
VERTEX
  5
473
  8
6
  6
STRICHPUNKT
 10
-101.9050247852028
 20
-22.0
 30
0.0
  0
SEQEND
  5
474
  8
6
  6
STRICHPUNKT
  0
LINE
  5
2ED
  8
6
  6
STRICHPUNKT
 10
-136.91478249402459
 20
-106.0
 30
0.0
 11
-85.895267076379241
 21
-106.0
 31
0.0
  0
POLYLINE
  5
2EE
  8
6
 66
     1
 10
0.0
 20
0.0
 30
0.0
 70
     1
  0
VERTEX
  5
475
  8
6
 10
-124.9050247852028
 20
-22.0
 30
0.0
  0
VERTEX
  5
476
  8
6
 10
-124.9050247852028
 20
0.0
 30
0.0
  0
VERTEX
  5
477
  8
6
 10
-97.905024785202841
 20
0.0
 30
0.0
  0
VERTEX
  5
478
  8
6
 10
-97.905024785202841
 20
-22.0
 30
0.0
  0
VERTEX
  5
479
  8
6
 10
-101.9050247852028
 20
-22.0
 30
0.0
  0
VERTEX
  5
47A
  8
6
 10
-101.9050247852028
 20
-4.0
 30
0.0
  0
VERTEX
  5
47B
  8
6
 10
-120.9050247852028
 20
-4.0
 30
0.0
  0
VERTEX
  5
47C
  8
6
 10
-120.9050247852028
 20
-22.0
 30
0.0
  0
SEQEND
  5
47D
  8
6
  0
POLYLINE
  5
2EF
  8
6
 66
     1
 10
0.0
 20
0.0
 30
0.0
 70
     1
  0
VERTEX
  5
47E
  8
6
 10
-133.90502478520281
 20
-42.0
 30
0.0
  0
VERTEX
  5
47F
  8
6
 10
-133.90502478520281
 20
-2.0
 30
0.0
  0
VERTEX
  5
480
  8
6
 10
-165.90502478520281
 20
-2.0
 30
0.0
 42
0.4142135623730951
  0
VERTEX
  5
481
  8
6
 10
-168.90502478520281
 20
-5.0
 30
0.0
  0
VERTEX
  5
482
  8
6
 10
-168.90502478520281
 20
-39.0
 30
0.0
 42
0.4142135623730951
  0
VERTEX
  5
483
  8
6
 10
-165.90502478520281
 20
-42.0
 30
0.0
  0
SEQEND
  5
484
  8
6
  0
LINE
  5
2F0
  8
6
  6
STRICHPUNKT
 10
-161.14997012179259
 20
-22.0
 30
0.0
 11
-146.66007944861121
 21
-22.0
 31
0.0
  0
POLYLINE
  5
2F1
  8
6
 66
     1
 10
0.0
 20
0.0
 30
0.0
 70
     1
  0
VERTEX
  5
485
  8
6
 10
-88.905024785202841
 20
-42.0
 30
0.0
  0
VERTEX
  5
486
  8
6
 10
-88.905024785202841
 20
-2.0
 30
0.0
  0
VERTEX
  5
487
  8
6
 10
-56.905024785202841
 20
-2.0
 30
0.0
 42
-0.4142135623730951
  0
VERTEX
  5
488
  8
6
 10
-53.905024785202841
 20
-5.0
 30
0.0
  0
VERTEX
  5
489
  8
6
 10
-53.905024785202841
 20
-39.0
 30
0.0
 42
-0.4142135623730951
  0
VERTEX
  5
48A
  8
6
 10
-56.905024785202841
 20
-42.0
 30
0.0
  0
SEQEND
  5
48B
  8
6
  0
LINE
  5
2F2
  8
6
  6
STRICHPUNKT
 10
360.0
 20
-460.43711324787
 30
0.0
 11
360.0
 21
-450.39064910585421
 31
0.0
  0
LINE
  5
2F3
  8
6
  6
STRICHPUNKT
 10
205.0
 20
-460.43711324787
 30
0.0
 11
205.0
 21
-450.39064910585421
 31
0.0
  0
LINE
  5
2F4
  8
6
  6
STRICHPUNKT
 10
199.9767679289925
 20
-455.41388117686211
 30
0.0
 11
210.02323207100741
 21
-455.41388117686211
 31
0.0
  0
CIRCLE
  5
2F5
  8
6
 10
205.0
 20
-455.41388117686211
 30
0.0
 40
2.7999999999999989
  0
LINE
  5
2F6
  8
6
  6
STRICHPUNKT
 10
-5.9016008759754177
 20
-412.91388117686211
 30
0.0
 11
10.42127654002069
 21
-412.91388117686211
 31
0.0
  0
LINE
  5
2F7
  8
6
  6
STRICHPUNKT
 10
74.976767928992544
 20
-455.41388117686211
 30
0.0
 11
85.023232071007442
 21
-455.41388117686211
 31
0.0
  0
CIRCLE
  5
2F8
  8
6
 10
80.0
 20
-455.41388117686211
 30
0.0
 40
2.7999999999999989
  0
LINE
  5
2F9
  8
6
  6
STRICHPUNKT
 10
80.0
 20
-460.43711324787
 30
0.0
 11
80.0
 21
-450.39064910585421
 31
0.0
  0
LINE
  5
2FA
  8
6
  6
STRICHPUNKT
 10
-5.9016008759754177
 20
-497.91388117686211
 30
0.0
 11
10.42127654002069
 21
-497.91388117686211
 31
0.0
  0
LINE
  5
2FB
  8
6
  6
STRICHPUNKT
 10
-5.9016008759754177
 20
-455.41388117686211
 30
0.0
 11
10.42127654002069
 21
-455.41388117686211
 31
0.0
  0
POLYLINE
  5
2FC
  8
6
 66
     1
 10
0.0
 20
0.0
 30
0.0
 70
     1
  0
VERTEX
  5
48C
  8
6
 10
0.0
 20
-397.91388117686211
 30
0.0
  0
VERTEX
  5
48D
  8
6
 10
9.0
 20
-397.91388117686211
 30
0.0
  0
VERTEX
  5
48E
  8
6
 10
9.0
 20
-432.91388117686211
 30
0.0
  0
VERTEX
  5
48F
  8
6
 10
57.0
 20
-432.91388117686211
 30
0.0
  0
VERTEX
  5
490
  8
6
 10
57.0
 20
-439.91388117686199
 30
0.0
  0
VERTEX
  5
491
  8
6
 10
9.0
 20
-439.91388117686199
 30
0.0
  0
VERTEX
  5
492
  8
6
 10
9.0
 20
-470.91388117686211
 30
0.0
  0
VERTEX
  5
493
  8
6
 10
57.0
 20
-470.91388117686211
 30
0.0
  0
VERTEX
  5
494
  8
6
 10
57.0
 20
-477.91388117686199
 30
0.0
  0
VERTEX
  5
495
  8
6
 10
9.0
 20
-477.91388117686199
 30
0.0
  0
VERTEX
  5
496
  8
6
 10
9.0
 20
-512.91388117686211
 30
0.0
  0
VERTEX
  5
497
  8
6
 10
0.0
 20
-512.91388117686211
 30
0.0
  0
SEQEND
  5
498
  8
6
  0
LINE
  5
2FD
  8
6
  6
STRICHPUNKT
 10
46.0
 20
-482.56406918150958
 30
0.0
 11
46.0
 21
-428.263693172214
 31
0.0
  0
LINE
  5
2FE
  8
6
  6
STRICHPUNKT
 10
-111.4050247852028
 20
-144.7550546634092
 30
0.0
 11
-111.4050247852028
 21
-159.24494533659069
 31
0.0
  0
LINE
  5
2FF
  8
6
  6
STRICHPUNKT
 10
-118.64997012179261
 20
-152.0
 30
0.0
 11
-104.1600794486112
 21
-152.0
 31
0.0
  0
CIRCLE
  5
300
  8
6
 10
-111.4050247852028
 20
-152.0
 30
0.0
 40
5.5
  0
POLYLINE
  5
301
  8
6
 66
     1
 10
0.0
 20
0.0
 30
0.0
 70
     1
  0
VERTEX
  5
499
  8
6
 10
-126.9050247852028
 20
-2.0
 30
0.0
  0
VERTEX
  5
49A
  8
6
 10
-133.90502478520281
 20
-2.0
 30
0.0
  0
VERTEX
  5
49B
  8
6
 10
-133.90502478520281
 20
-179.0
 30
0.0
 42
0.4142135623730951
  0
VERTEX
  5
49C
  8
6
 10
-130.90502478520281
 20
-182.0
 30
0.0
  0
VERTEX
  5
49D
  8
6
 10
-91.905024785202855
 20
-182.0
 30
0.0
 42
0.4142135623730951
  0
VERTEX
  5
49E
  8
6
 10
-88.905024785202841
 20
-179.0
 30
0.0
  0
VERTEX
  5
49F
  8
6
 10
-88.905024785202841
 20
-2.0
 30
0.0
  0
VERTEX
  5
4A0
  8
6
 10
-95.905024785202826
 20
-2.0
 30
0.0
  0
VERTEX
  5
4A1
  8
6
 10
-95.905024785202826
 20
-173.0
 30
0.0
 42
-0.4142135623730951
  0
VERTEX
  5
4A2
  8
6
 10
-97.905024785202841
 20
-175.0
 30
0.0
  0
VERTEX
  5
4A3
  8
6
 10
-124.9050247852028
 20
-175.0
 30
0.0
 42
-0.4142135623730951
  0
VERTEX
  5
4A4
  8
6
 10
-126.9050247852028
 20
-173.0
 30
0.0
  0
SEQEND
  5
4A5
  8
6
  0
POLYLINE
  5
302
  8
6
 66
     1
 10
0.0
 20
0.0
 30
0.0
 70
     1
  0
VERTEX
  5
4A6
  8
6
 10
57.0
 20
-6.896582996126198
 30
0.0
  0
VERTEX
  5
4A7
  8
6
 10
57.0
 20
-27.28810936204172
 30
0.0
 42
-0.2652422099785531
  0
VERTEX
  5
4A8
  8
6
 10
55.526187936379749
 20
-29.870888946684769
 30
0.0
  0
VERTEX
  5
4A9
  8
6
 10
36.473812063619327
 20
-41.129111053315221
 30
0.0
 42
0.2652422099785526
  0
VERTEX
  5
4AA
  8
6
 10
35.0
 20
-43.71189063795827
 30
0.0
  0
VERTEX
  5
4AB
  8
6
 10
35.0
 20
-143.4293207136738
 30
0.0
 42
-0.0942679950976753
  0
VERTEX
  5
4AC
  8
6
 10
34.790465663993011
 20
-144.53082031788199
 30
0.0
  0
VERTEX
  5
4AD
  8
6
 10
20.749408050969571
 20
-180.1014996042081
 30
0.0
 42
-0.307922107474563
  0
VERTEX
  5
4AE
  8
6
 10
17.95894238697565
 20
-182.0
 30
0.0
  0
VERTEX
  5
4AF
  8
6
 10
0.0
 20
-182.0
 30
0.0
  0
VERTEX
  5
4B0
  8
6
 10
0.0
 20
-2.0
 30
0.0
  0
VERTEX
  5
4B1
  8
6
 10
54.105198420398672
 20
-3.8984280147510608
 30
0.0
 42
-0.403977735511994
  0
SEQEND
  5
4B2
  8
6
  0
POLYLINE
  5
303
  8
5
  6
STRICHLINIE
 66
     1
 10
0.0
 20
0.0
 30
0.0
 70
     1
  0
VERTEX
  5
4B3
  8
5
  6
STRICHLINIE
 10
60.0
 20
0.0
 30
0.0
  0
VERTEX
  5
4B4
  8
5
  6
STRICHLINIE
 10
60.0
 20
0.0
 30
0.0
  0
VERTEX
  5
4B5
  8
5
  6
STRICHLINIE
 10
60.0
 20
-348.0
 30
0.0
  0
VERTEX
  5
4B6
  8
5
  6
STRICHLINIE
 10
48.0
 20
-348.0
 30
0.0
 42
-0.4142135623730951
  0
VERTEX
  5
4B7
  8
5
  6
STRICHLINIE
 10
38.0
 20
-338.0
 30
0.0
  0
VERTEX
  5
4B8
  8
5
  6
STRICHLINIE
 10
38.0
 20
-228.0
 30
0.0
  0
VERTEX
  5
4B9
  8
5
  6
STRICHLINIE
 10
-2.0
 20
-221.0
 30
0.0
  0
VERTEX
  5
4BA
  8
5
  6
STRICHLINIE
 10
-2.0
 20
-190.0
 30
0.0
  0
VERTEX
  5
4BB
  8
5
  6
STRICHLINIE
 10
38.0
 20
-183.0
 30
0.0
  0
VERTEX
  5
4BC
  8
5
  6
STRICHLINIE
 10
38.0
 20
-25.0
 30
0.0
  0
VERTEX
  5
4BD
  8
5
  6
STRICHLINIE
 10
38.0
 20
0.0
 30
0.0
  0
SEQEND
  5
4BE
  8
5
  6
STRICHLINIE
  0
POLYLINE
  5
304
  8
6
 66
     1
 10
0.0
 20
0.0
 30
0.0
 70
     1
  0
VERTEX
  5
4BF
  8
6
 10
34.511378421786503
 20
-441.91388117686211
 30
0.0
  0
VERTEX
  5
4C0
  8
6
 10
34.511378421786503
 20
-468.91388117686211
 30
0.0
  0
VERTEX
  5
4C1
  8
6
 10
380.0
 20
-468.91388117686211
 30
0.0
  0
VERTEX
  5
4C2
  8
6
 10
380.0
 20
-441.91388117686211
 30
0.0
  0
SEQEND
  5
4C3
  8
6
  0
LINE
  5
305
  8
6
  6
STRICHPUNKT
 10
354.9767679289925
 20
-455.41388117686211
 30
0.0
 11
365.02323207100739
 21
-455.41388117686211
 31
0.0
  0
CIRCLE
  5
306
  8
6
 10
360.0
 20
-455.41388117686211
 30
0.0
 40
2.7999999999999989
  0
DIMENSION
  5
307
  8
1
  2
*D2
 10
-0.0000000000000212
 20
-368.7283112703148
 30
0.0
 11
190.0
 21
-349.53185833716338
 31
0.0
 70
     0
 13
380.0
 23
-22.0
 33
0.0
 14
0.0
 24
-22.0
 34
0.0
  0
POLYLINE
  5
308
  8
6
 66
     1
 10
0.0
 20
0.0
 30
0.0
  0
VERTEX
  5
4C4
  8
6
 10
32.0
 20
0.0
 30
0.0
  0
VERTEX
  5
4C5
  8
6
 10
32.0
 20
0.0
 30
0.0
  0
VERTEX
  5
4C6
  8
6
 10
380.0
 20
0.0
 30
0.0
  0
VERTEX
  5
4C7
  8
6
 10
380.0
 20
-12.0
 30
0.0
 42
-0.4142135623730951
  0
VERTEX
  5
4C8
  8
6
 10
370.0
 20
-22.0
 30
0.0
  0
VERTEX
  5
4C9
  8
6
 10
260.0
 20
-22.0
 30
0.0
  0
VERTEX
  5
4CA
  8
6
 10
253.0
 20
-62.0
 30
0.0
  0
VERTEX
  5
4CB
  8
6
 10
222.0
 20
-62.0
 30
0.0
  0
VERTEX
  5
4CC
  8
6
 10
215.0
 20
-22.0
 30
0.0
  0
VERTEX
  5
4CD
  8
6
 10
57.0
 20
-22.0
 30
0.0
  0
SEQEND
  5
4CE
  8
6
  0
VIEWPORT
  5
22
 67
     1
  8
0
 10
210.0
 20
170.2366863905325
 30
0.0
 40
420.0
 41
340.47337278106511
 68
     1
 69
     1
1001
ACAD
1000
MVIEW
1002
{
1070
    16
1010
0.0
1020
0.0
1030
0.0
1010
0.0
1020
0.0
1030
1.0
1040
0.0
1040
340.47337278106511
1040
210.0
1040
170.2366863905325
1040
50.0
1040
0.0
1040
0.0
1070
     0
1070
   100
1070
     1
1070
     1
1070
     0
1070
     0
1070
     0
1070
     0
1040
0.0
1040
0.0
1040
0.0
1040
5.0
1040
5.0
1040
10.0
1040
10.0
1070
     0
1002
{
1002
}
1002
}
  0
ENDSEC
  0
EOF
