  0
SECTION
  2
HEADER
  9
$ACADVER
  1
AC1009
  9
$INSBASE
 10
0.0
 20
0.0
 30
0.0
  9
$EXTMIN
 10
-169.52634512876151
 20
-581.31134525647212
 30
0.0
  9
$EXTMAX
 10
430.0
 20
5.3211303313369172
 30
0.0
  9
$LIMMIN
 10
-150.0
 20
-150.0
  9
$LIMMAX
 10
150.0
 20
150.0
  9
$ORTHOMODE
 70
     0
  9
$REGENMODE
 70
     1
  9
$FILLMODE
 70
     1
  9
$QTEXTMODE
 70
     0
  9
$MIRRTEXT
 70
     0
  9
$DRAGMODE
 70
     2
  9
$LTSCALE
 40
1.0
  9
$OSMODE
 70
   111
  9
$ATTMODE
 70
     1
  9
$TEXTSIZE
 40
3.5
  9
$TRACEWID
 40
1.0
  9
$TEXTSTYLE
  7
BESCHLAG
  9
$CLAYER
  8
0
  9
$CELTYPE
  6
BYLAYER
  9
$CECOLOR
 62
   256
  9
$DIMSCALE
 40
1.0
  9
$DIMASZ
 40
2.0
  9
$DIMEXO
 40
2.0
  9
$DIMDLI
 40
0.0
  9
$DIMRND
 40
0.0
  9
$DIMDLE
 40
1.0
  9
$DIMEXE
 40
1.0
  9
$DIMTP
 40
0.0
  9
$DIMTM
 40
0.0
  9
$DIMTXT
 40
3.5
  9
$DIMCEN
 40
0.0
  9
$DIMTSZ
 40
0.0
  9
$DIMTOL
 70
     0
  9
$DIMLIM
 70
     0
  9
$DIMTIH
 70
     0
  9
$DIMTOH
 70
     0
  9
$DIMSE1
 70
     0
  9
$DIMSE2
 70
     0
  9
$DIMTAD
 70
     1
  9
$DIMZIN
 70
     8
  9
$DIMBLK
  1

  9
$DIMASO
 70
     1
  9
$DIMSHO
 70
     1
  9
$DIMPOST
  1

  9
$DIMAPOST
  1

  9
$DIMALT
 70
     0
  9
$DIMALTD
 70
     2
  9
$DIMALTF
 40
0.039370078740157
  9
$DIMLFAC
 40
1.0
  9
$DIMTOFL
 70
     1
  9
$DIMTVP
 40
0.0
  9
$DIMTIX
 70
     1
  9
$DIMSOXD
 70
     0
  9
$DIMSAH
 70
     1
  9
$DIMBLK1
  1
OBLIQUE
  9
$DIMBLK2
  1
OBLIQUE
  9
$DIMSTYLE
  2
OPO-SSTRICH
  9
$DIMCLRD
 70
   256
  9
$DIMCLRE
 70
   256
  9
$DIMCLRT
 70
   256
  9
$DIMTFAC
 40
0.7114285714285716
  9
$DIMGAP
 40
1.0
  9
$LUNITS
 70
     2
  9
$LUPREC
 70
     1
  9
$SKETCHINC
 40
1.0
  9
$FILLETRAD
 40
0.0
  9
$AUNITS
 70
     0
  9
$AUPREC
 70
     1
  9
$MENU
  1
D:\ACL_CGWG\CGTAB13
  9
$ELEVATION
 40
0.0
  9
$PELEVATION
 40
0.0
  9
$THICKNESS
 40
0.0
  9
$LIMCHECK
 70
     0
  9
$BLIPMODE
 70
     0
  9
$CHAMFERA
 40
1.0
  9
$CHAMFERB
 40
1.0
  9
$SKPOLY
 70
     0
  9
$TDCREATE
 40
2451739.9278649418
  9
$TDUPDATE
 40
2452087.670312847
  9
$TDINDWG
 40
0.0009019213
  9
$TDUSRTIMER
 40
0.0009019213
  9
$USRTIMER
 70
     1
  9
$ANGBASE
 50
0.0
  9
$ANGDIR
 70
     0
  9
$PDMODE
 70
    35
  9
$PDSIZE
 40
5.0
  9
$PLINEWID
 40
0.0
  9
$COORDS
 70
     1
  9
$SPLFRAME
 70
     0
  9
$SPLINETYPE
 70
     6
  9
$SPLINESEGS
 70
     8
  9
$ATTDIA
 70
     1
  9
$ATTREQ
 70
     1
  9
$HANDLING
 70
-16383
  9
$HANDSEED
  5
4C8
  9
$SURFTAB1
 70
    12
  9
$SURFTAB2
 70
    12
  9
$SURFTYPE
 70
     6
  9
$SURFU
 70
    12
  9
$SURFV
 70
    12
  9
$UCSNAME
  2

  9
$UCSORG
 10
0.0
 20
0.0
 30
0.0
  9
$UCSXDIR
 10
1.0
 20
0.0
 30
0.0
  9
$UCSYDIR
 10
0.0
 20
1.0
 30
0.0
  9
$PUCSNAME
  2

  9
$PUCSORG
 10
0.0
 20
0.0
 30
0.0
  9
$PUCSXDIR
 10
1.0
 20
0.0
 30
0.0
  9
$PUCSYDIR
 10
0.0
 20
1.0
 30
0.0
  9
$USERI1
 70
     0
  9
$USERI2
 70
     0
  9
$USERI3
 70
     0
  9
$USERI4
 70
     0
  9
$USERI5
 70
     0
  9
$USERR1
 40
0.0
  9
$USERR2
 40
0.0
  9
$USERR3
 40
0.0
  9
$USERR4
 40
0.0
  9
$USERR5
 40
0.0
  9
$WORLDVIEW
 70
     1
  9
$SHADEDGE
 70
     3
  9
$SHADEDIF
 70
    70
  9
$TILEMODE
 70
     1
  9
$MAXACTVP
 70
    48
  9
$PLIMCHECK
 70
     0
  9
$PEXTMIN
 10
1.0000000000000000E+020
 20
1.0000000000000000E+020
 30
1.0000000000000000E+020
  9
$PEXTMAX
 10
-1.0000000000000000E+020
 20
-1.0000000000000000E+020
 30
-1.0000000000000000E+020
  9
$PLIMMIN
 10
0.0
 20
0.0
  9
$PLIMMAX
 10
420.0
 20
297.0
  9
$UNITMODE
 70
     0
  9
$VISRETAIN
 70
     1
  9
$PLINEGEN
 70
     0
  9
$PSLTSCALE
 70
     1
  0
ENDSEC
  0
SECTION
  2
TABLES
  0
TABLE
  2
VPORT
 70
     2
  0
VPORT
  2
*ACTIVE
 70
     0
 10
0.0
 20
0.0
 11
1.0
 21
1.0
 12
130.2337682904203
 22
-277.60218758481818
 13
0.0
 23
0.0
 14
0.5
 24
0.5
 15
10.0
 25
10.0
 16
0.0
 26
0.0
 36
1.0
 17
0.0
 27
0.0
 37
0.0
 40
613.03928697053061
 41
1.6070460704607039
 42
50.0
 43
0.0
 44
0.0
 50
0.0
 51
0.0
 71
     0
 72
   800
 73
     1
 74
     1
 75
     0
 76
     0
 77
     0
 78
     0
  0
ENDTAB
  0
TABLE
  2
LTYPE
 70
     3
  0
LTYPE
  2
CONTINUOUS
 70
     0
  3
_______________________________________________
 72
    65
 73
     2
 40
1.0
 49
1.0
 49
0.0
  0
LTYPE
  2
STRICHLINIE
 70
     0
  3
Strichlinie __ __ __ __ __ __ __ __ __ __ __ __
 72
    65
 73
     2
 40
19.04999999999999
 49
12.699999999999999
 49
-6.3499999999999988
  0
LTYPE
  2
STRICHPUNKT
 70
     0
  3
__ . __ . __ . __ . __ . __ . __ . __ . __ . __
 72
    65
 73
     4
 40
1.0
 49
0.5
 49
-0.25
 49
0.0
 49
-0.25
  0
ENDTAB
  0
TABLE
  2
LAYER
 70
     6
  0
LAYER
  2
0
 70
     0
 62
    30
  6
CONTINUOUS
  0
LAYER
  2
1
 70
     0
 62
     2
  6
CONTINUOUS
  0
LAYER
  2
4
 70
     1
 62
     4
  6
CONTINUOUS
  0
LAYER
  2
5
 70
     0
 62
     1
  6
CONTINUOUS
  0
LAYER
  2
6
 70
     0
 62
     3
  6
CONTINUOUS
  0
LAYER
  2
DEFPOINTS
 70
     0
 62
     7
  6
CONTINUOUS
  0
ENDTAB
  0
TABLE
  2
STYLE
 70
     2
  0
STYLE
  2
STANDARD
 70
     0
 40
0.0
 41
1.0
 50
0.0
 71
     0
 42
2.5
  3
txt
  4

  0
STYLE
  2
BESCHLAG
 70
     0
 40
0.0
 41
1.0
 50
0.0
 71
     0
 42
3.5
  3
txt
  4

  0
ENDTAB
  0
TABLE
  2
VIEW
 70
     0
  0
ENDTAB
  0
TABLE
  2
UCS
 70
     0
  0
ENDTAB
  0
TABLE
  2
APPID
 70
     1
  0
APPID
  2
ACAD
 70
     0
  0
ENDTAB
  0
TABLE
  2
DIMSTYLE
 70
     2
  0
DIMSTYLE
  2
OPO-SSTRICH
 70
     0
  3

  4

  5

  6
OBLIQUE
  7
OBLIQUE
 40
1.0
 41
2.0
 42
2.0
 43
0.0
 44
1.0
 45
0.0
 46
1.0
 47
0.0
 48
0.0
140
3.5
141
0.0
142
0.0
143
0.039370078740157
144
1.0
145
0.0
146
0.7114285714285716
147
1.0
 71
     0
 72
     0
 73
     0
 74
     0
 75
     0
 76
     0
 77
     1
 78
     8
170
     0
171
     2
172
     1
173
     1
174
     1
175
     0
176
   256
177
   256
178
   256
  0
DIMSTYLE
  2
OPO-SSTRICH-10
 70
     0
  3

  4

  5

  6

  7

 40
10.0
 41
0.0
 42
2.0
 43
0.0
 44
1.0
 45
0.0
 46
1.0
 47
0.0
 48
0.0
140
1.8
141
2.0
142
1.0
143
0.039370078740157
144
1.0
145
0.0
146
1.388888888888888
147
1.0
 71
     0
 72
     0
 73
     0
 74
     0
 75
     0
 76
     0
 77
     1
 78
     8
170
     0
171
     2
172
     1
173
     0
174
     1
175
     0
176
   256
177
   256
178
   256
  0
ENDTAB
  0
ENDSEC
  0
SECTION
  2
BLOCKS
  0
BLOCK
  8
0
  2
$MODEL_SPACE
 70
     0
 10
0.0
 20
0.0
 30
0.0
  3
$MODEL_SPACE
  1

  0
ENDBLK
  5
1C
  8
0
  0
BLOCK
 67
     1
  8
0
  2
$PAPER_SPACE
 70
     0
 10
0.0
 20
0.0
 30
0.0
  3
$PAPER_SPACE
  1

  0
ENDBLK
  5
19
 67
     1
  8
0
  0
BLOCK
  8
0
  2
_OBLIQUE
 70
     0
 10
0.0
 20
0.0
 30
0.0
  3
_OBLIQUE
  1

  0
LINE
  5
204
  8
0
 62
     0
 10
-0.5
 20
-0.5
 30
0.0
 11
0.5
 21
0.5
 31
0.0
  0
ENDBLK
  5
206
  8
0
  0
BLOCK
  8
0
  2
NULLPUNKT
 70
     0
 10
0.0
 20
0.0
 30
0.0
  3
NULLPUNKT
  1

  0
SOLID
  5
254
  8
5
 10
0.0
 20
0.0
 30
0.0
 11
2.0
 21
0.0
 31
0.0
 12
0.0
 22
-2.0
 32
0.0
 13
0.0
 23
-2.0
 33
0.0
  0
SOLID
  5
255
  8
5
 10
0.0
 20
0.0
 30
0.0
 11
-2.0
 21
0.0
 31
0.0
 12
0.0
 22
2.0
 32
0.0
 13
0.0
 23
2.0
 33
0.0
  0
POLYLINE
  5
256
  8
5
 66
     1
 10
0.0
 20
0.0
 30
0.0
  0
VERTEX
  5
3DF
  8
5
 10
0.0
 20
2.0
 30
0.0
  0
VERTEX
  5
3E0
  8
5
 10
0.0
 20
-2.0
 30
0.0
  0
SEQEND
  5
3E1
  8
5
  0
POLYLINE
  5
257
  8
5
 66
     1
 10
0.0
 20
0.0
 30
0.0
  0
VERTEX
  5
3E2
  8
5
 10
-2.0
 20
0.0
 30
0.0
  0
VERTEX
  5
3E3
  8
5
 10
2.0
 20
0.0
 30
0.0
  0
SEQEND
  5
3E4
  8
5
  0
CIRCLE
  5
258
  8
5
 10
0.0
 20
0.0
 30
0.0
 40
2.0
  0
ENDBLK
  5
25A
  8
0
  0
BLOCK
  8
0
  2
*D2
 70
     1
 10
0.0
 20
0.0
 30
0.0
  3
*D2
  1

  0
LINE
  5
313
  8
1
 10
420.0
 20
-32.0
 30
0.0
 11
420.0
 21
-427.02499309394761
 31
0.0
  0
LINE
  5
314
  8
1
 10
-0.0000000000000012
 20
-202.0
 30
0.0
 11
-0.000000000000015
 21
-427.02499309394761
 31
0.0
  0
LINE
  5
315
  8
1
 10
430.0
 20
-417.0249930939475
 30
0.0
 11
-10.000000000000011
 21
-417.0249930939475
 31
0.0
  0
LINE
  5
316
  8
1
 10
-10.000000000000011
 20
-427.02499309394761
 30
0.0
 11
9.9999999999999858
 21
-407.02499309394761
 31
0.0
  0
LINE
  5
317
  8
1
 10
410.0
 20
-427.02499309394761
 30
0.0
 11
430.0
 21
-407.02499309394761
 31
0.0
  0
TEXT
  5
318
  8
0
 10
189.46452933151431
 20
-406.68120046093247
 30
0.0
 40
18.0
  1
420
  0
POINT
  5
319
  8
DEFPOINTS
 62
     0
 10
420.0
 20
-12.0
 30
0.0
  0
POINT
  5
31A
  8
DEFPOINTS
 62
     0
 10
0.0
 20
-182.0
 30
0.0
  0
POINT
  5
31B
  8
DEFPOINTS
 62
     0
 10
-0.0000000000000144
 20
-417.0249930939475
 30
0.0
  0
ENDBLK
  5
312
  8
0
  0
ENDSEC
  0
SECTION
  2
ENTITIES
  0
INSERT
  5
25B
  8
5
  2
NULLPUNKT
 10
0.0
 20
0.0
 30
0.0
  0
POLYLINE
  5
2C3
  8
6
 66
     1
 10
0.0
 20
0.0
 30
0.0
  0
VERTEX
  5
3E5
  8
6
 10
27.892743057742791
 20
-96.788781215981999
 30
0.0
  0
VERTEX
  5
3E6
  8
6
 10
240.26793876306871
 20
-54.27973174109183
 30
0.0
  0
VERTEX
  5
3E7
  8
6
 10
243.73206123692941
 20
-69.90022646712714
 30
0.0
  0
VERTEX
  5
3E8
  8
6
 10
31.663787098345889
 20
-112.4238903564642
 30
0.0
  0
SEQEND
  5
3E9
  8
6
  0
POLYLINE
  5
2C4
  8
6
 66
     1
 10
0.0
 20
0.0
 30
0.0
  0
VERTEX
  5
3EA
  8
6
 10
274.27330096720277
 20
-54.723994473124087
 30
0.0
 42
-0.0528391839100589
  0
VERTEX
  5
3EB
  8
6
 10
291.32157567597272
 20
-59.59043068373375
 30
0.0
  0
VERTEX
  5
3EC
  8
6
 10
289.05936920004928
 20
-62.889282280924363
 30
0.0
 42
0.0478282084168341
  0
VERTEX
  5
3ED
  8
6
 10
273.56675208735572
 20
-58.683469209696788
 30
0.0
 42
0.0784911828100752
  0
SEQEND
  5
3EE
  8
6
  0
POLYLINE
  5
2C5
  8
5
  6
STRICHLINIE
 66
     1
 10
0.0
 20
0.0
 30
0.0
  0
VERTEX
  5
3EF
  8
5
  6
STRICHLINIE
 10
32.268047400828429
 20
-111.6248904147805
 30
0.0
  0
VERTEX
  5
3F0
  8
5
  6
STRICHLINIE
 10
32.268047400827982
 20
-328.2126163784983
 30
0.0
  0
VERTEX
  5
3F1
  8
5
  6
STRICHLINIE
 10
16.27147066653697
 20
-328.54357375331301
 30
0.0
  0
VERTEX
  5
3F2
  8
5
  6
STRICHLINIE
 10
16.19690188327899
 20
-112.2539315459543
 30
0.0
  0
SEQEND
  5
3F3
  8
5
  6
STRICHLINIE
  0
CIRCLE
  5
2C6
  8
6
  6
STRICHLINIE
 10
24.0
 20
-106.0
 30
0.0
 40
10.0
  0
LINE
  5
2C7
  8
6
  6
STRICHPUNKT
 10
-5.9016008759745091
 20
-152.0
 30
0.0
 11
12.17804393915412
 21
-152.0
 31
0.0
  0
POLYLINE
  5
2C8
  8
4
 66
     1
 10
0.0
 20
0.0
 30
0.0
  0
VERTEX
  5
3F4
  8
4
 10
57.0
 20
-22.0
 30
0.0
  0
VERTEX
  5
3F5
  8
4
 10
235.0
 20
-22.0
 30
0.0
  0
VERTEX
  5
3F6
  8
4
 10
242.0
 20
-62.0
 30
0.0
  0
VERTEX
  5
3F7
  8
4
 10
273.0
 20
-62.0
 30
0.0
  0
VERTEX
  5
3F8
  8
4
 10
280.0
 20
-22.0
 30
0.0
  0
VERTEX
  5
3F9
  8
4
 10
410.0
 20
-22.0
 30
0.0
 42
0.4142135623730951
  0
VERTEX
  5
3FA
  8
4
 10
420.0
 20
-12.0
 30
0.0
  0
VERTEX
  5
3FB
  8
4
 10
420.0
 20
0.0
 30
0.0
  0
VERTEX
  5
3FC
  8
4
 10
32.0
 20
0.0
 30
0.0
  0
VERTEX
  5
3FD
  8
4
 10
32.0
 20
0.0
 30
0.0
  0
VERTEX
  5
3FE
  8
4
 10
32.0
 20
-3.1228070175438911
 30
0.0
  0
SEQEND
  5
3FF
  8
4
  0
POLYLINE
  5
2C9
  8
4
 66
     1
 10
0.0
 20
0.0
 30
0.0
  0
VERTEX
  5
400
  8
4
 10
274.27330096720277
 20
-54.723994473123639
 30
0.0
 42
-0.0528391839100589
  0
VERTEX
  5
401
  8
4
 10
291.32157567597272
 20
-59.59043068373375
 30
0.0
  0
VERTEX
  5
402
  8
4
 10
289.05936920004928
 20
-62.889282280923908
 30
0.0
 42
0.0478282084168341
  0
VERTEX
  5
403
  8
4
 10
273.56675208735572
 20
-58.683469209696341
 30
0.0
 42
0.0784911828100752
  0
SEQEND
  5
404
  8
4
  0
POLYLINE
  5
2CA
  8
4
 66
     1
 10
0.0
 20
0.0
 30
0.0
 70
     1
  0
VERTEX
  5
405
  8
4
 10
35.0
 20
-95.36619165232878
 30
0.0
  0
VERTEX
  5
406
  8
4
 10
240.26793876306871
 20
-54.279731741091382
 30
0.0
  0
VERTEX
  5
407
  8
4
 10
243.73206123692941
 20
-69.90022646712714
 30
0.0
  0
VERTEX
  5
408
  8
4
 10
35.0
 20
-111.75491713701641
 30
0.0
  0
SEQEND
  5
409
  8
4
  0
POLYLINE
  5
2CB
  8
4
 66
     1
 10
0.0
 20
0.0
 30
0.0
 70
     1
  0
VERTEX
  5
40A
  8
4
 10
57.0
 20
-4.0
 30
0.0
  0
VERTEX
  5
40B
  8
4
 10
57.0
 20
-29.0
 30
0.0
  0
VERTEX
  5
40C
  8
4
 10
35.0
 20
-42.0
 30
0.0
  0
VERTEX
  5
40D
  8
4
 10
35.0
 20
-144.0
 30
0.0
  0
VERTEX
  5
40E
  8
4
 10
20.0
 20
-182.0
 30
0.0
  0
VERTEX
  5
40F
  8
4
 10
0.0
 20
-182.0
 30
0.0
  0
VERTEX
  5
410
  8
4
 10
0.0
 20
-2.0
 30
0.0
  0
SEQEND
  5
411
  8
4
  0
POLYLINE
  5
2CC
  8
4
 66
     1
 10
0.0
 20
0.0
 30
0.0
 70
     1
  0
VERTEX
  5
412
  8
4
 10
0.0
 20
-466.31134525647212
 30
0.0
  0
VERTEX
  5
413
  8
4
 10
9.0
 20
-466.31134525647212
 30
0.0
  0
VERTEX
  5
414
  8
4
 10
9.0
 20
-501.31134525647212
 30
0.0
  0
VERTEX
  5
415
  8
4
 10
57.0
 20
-501.31134525647212
 30
0.0
  0
VERTEX
  5
416
  8
4
 10
57.0
 20
-508.31134525647212
 30
0.0
  0
VERTEX
  5
417
  8
4
 10
9.0
 20
-508.31134525647212
 30
0.0
  0
VERTEX
  5
418
  8
4
 10
9.0
 20
-539.31134525647212
 30
0.0
  0
VERTEX
  5
419
  8
4
 10
57.0
 20
-539.31134525647212
 30
0.0
  0
VERTEX
  5
41A
  8
4
 10
57.0
 20
-546.31134525647212
 30
0.0
  0
VERTEX
  5
41B
  8
4
 10
9.0
 20
-546.31134525647212
 30
0.0
  0
VERTEX
  5
41C
  8
4
 10
9.0
 20
-581.31134525647212
 30
0.0
  0
VERTEX
  5
41D
  8
4
 10
0.0
 20
-581.31134525647212
 30
0.0
  0
SEQEND
  5
41E
  8
4
  0
POLYLINE
  5
2CD
  8
4
 66
     1
 10
0.0
 20
0.0
 30
0.0
 70
     1
  0
VERTEX
  5
41F
  8
4
 10
34.511378421787413
 20
-510.31134525647212
 30
0.0
  0
VERTEX
  5
420
  8
4
 10
34.511378421787413
 20
-537.31134525647212
 30
0.0
  0
VERTEX
  5
421
  8
4
 10
420.0
 20
-537.31134525647212
 30
0.0
  0
VERTEX
  5
422
  8
4
 10
420.0
 20
-510.31134525647212
 30
0.0
  0
SEQEND
  5
423
  8
4
  0
POLYLINE
  5
2CE
  8
4
  6
STRICHPUNKT
 66
     1
 10
0.0
 20
0.0
 30
0.0
 70
     1
  0
VERTEX
  5
424
  8
4
  6
STRICHPUNKT
 10
-103.4050247852019
 20
-54.279731741091382
 30
0.0
  0
VERTEX
  5
425
  8
4
  6
STRICHPUNKT
 10
-119.4050247852019
 20
-54.279731741091382
 30
0.0
  0
VERTEX
  5
426
  8
4
  6
STRICHPUNKT
 10
-119.4050247852019
 20
-116.1993126770312
 30
0.0
  0
VERTEX
  5
427
  8
4
  6
STRICHPUNKT
 10
-103.4050247852019
 20
-116.1993126770312
 30
0.0
  0
SEQEND
  5
428
  8
4
  6
STRICHPUNKT
  0
POLYLINE
  5
2CF
  8
4
  6
STRICHPUNKT
 66
     1
 10
0.0
 20
0.0
 30
0.0
 70
     1
  0
VERTEX
  5
429
  8
4
  6
STRICHPUNKT
 10
-97.905024785201945
 20
-22.0
 30
0.0
  0
VERTEX
  5
42A
  8
4
  6
STRICHPUNKT
 10
-97.905024785201945
 20
-62.0
 30
0.0
  0
VERTEX
  5
42B
  8
4
  6
STRICHPUNKT
 10
-124.9050247852019
 20
-62.0
 30
0.0
  0
VERTEX
  5
42C
  8
4
  6
STRICHPUNKT
 10
-124.9050247852019
 20
-22.0
 30
0.0
  0
VERTEX
  5
42D
  8
4
  6
STRICHPUNKT
 10
-120.9050247852019
 20
-22.0
 30
0.0
  0
VERTEX
  5
42E
  8
4
  6
STRICHPUNKT
 10
-120.9050247852019
 20
-58.0
 30
0.0
  0
VERTEX
  5
42F
  8
4
  6
STRICHPUNKT
 10
-101.9050247852019
 20
-58.0
 30
0.0
  0
VERTEX
  5
430
  8
4
  6
STRICHPUNKT
 10
-101.9050247852019
 20
-22.0
 30
0.0
  0
SEQEND
  5
431
  8
4
  6
STRICHPUNKT
  0
POLYLINE
  5
2D0
  8
4
 66
     1
 10
0.0
 20
0.0
 30
0.0
 70
     1
  0
VERTEX
  5
432
  8
4
 10
-126.9050247852019
 20
-2.0
 30
0.0
  0
VERTEX
  5
433
  8
4
 10
-133.9050247852019
 20
-2.0
 30
0.0
  0
VERTEX
  5
434
  8
4
 10
-133.9050247852019
 20
-179.0
 30
0.0
 42
0.4142135623730951
  0
VERTEX
  5
435
  8
4
 10
-130.9050247852019
 20
-182.0
 30
0.0
  0
VERTEX
  5
436
  8
4
 10
-91.905024785201917
 20
-182.0
 30
0.0
 42
0.4142135623730951
  0
VERTEX
  5
437
  8
4
 10
-88.905024785201931
 20
-179.0
 30
0.0
  0
VERTEX
  5
438
  8
4
 10
-88.905024785201931
 20
-2.0
 30
0.0
  0
VERTEX
  5
439
  8
4
 10
-95.905024785201931
 20
-2.0
 30
0.0
  0
VERTEX
  5
43A
  8
4
 10
-95.905024785201931
 20
-173.0
 30
0.0
 42
-0.4142135623730951
  0
VERTEX
  5
43B
  8
4
 10
-97.905024785201945
 20
-175.0
 30
0.0
  0
VERTEX
  5
43C
  8
4
 10
-124.9050247852019
 20
-175.0
 30
0.0
 42
-0.4142135623730951
  0
VERTEX
  5
43D
  8
4
 10
-126.9050247852019
 20
-173.0
 30
0.0
  0
SEQEND
  5
43E
  8
4
  0
POLYLINE
  5
2D1
  8
4
 66
     1
 10
0.0
 20
0.0
 30
0.0
 70
     1
  0
VERTEX
  5
43F
  8
4
 10
-88.905024785201931
 20
-42.0
 30
0.0
  0
VERTEX
  5
440
  8
4
 10
-88.905024785201931
 20
-2.0
 30
0.0
  0
VERTEX
  5
441
  8
4
 10
-53.905024785201931
 20
-2.0
 30
0.0
  0
VERTEX
  5
442
  8
4
 10
-53.905024785201931
 20
-42.0
 30
0.0
  0
SEQEND
  5
443
  8
4
  0
POLYLINE
  5
2D2
  8
4
 66
     1
 10
0.0
 20
0.0
 30
0.0
 70
     1
  0
VERTEX
  5
444
  8
4
 10
-133.9050247852019
 20
-42.0
 30
0.0
  0
VERTEX
  5
445
  8
4
 10
-133.9050247852019
 20
-2.0
 30
0.0
  0
VERTEX
  5
446
  8
4
 10
-168.9050247852019
 20
-2.0
 30
0.0
  0
VERTEX
  5
447
  8
4
 10
-168.9050247852019
 20
-42.0
 30
0.0
  0
SEQEND
  5
448
  8
4
  0
POLYLINE
  5
2D3
  8
4
 66
     1
 10
0.0
 20
0.0
 30
0.0
 70
     1
  0
VERTEX
  5
449
  8
4
 10
-124.9050247852019
 20
-22.0
 30
0.0
  0
VERTEX
  5
44A
  8
4
 10
-124.9050247852019
 20
0.0
 30
0.0
  0
VERTEX
  5
44B
  8
4
 10
-97.905024785201945
 20
0.0
 30
0.0
  0
VERTEX
  5
44C
  8
4
 10
-97.905024785201945
 20
-22.0
 30
0.0
  0
VERTEX
  5
44D
  8
4
 10
-101.9050247852019
 20
-22.0
 30
0.0
  0
VERTEX
  5
44E
  8
4
 10
-101.9050247852019
 20
-4.0
 30
0.0
  0
VERTEX
  5
44F
  8
4
 10
-120.9050247852019
 20
-4.0
 30
0.0
  0
VERTEX
  5
450
  8
4
 10
-120.9050247852019
 20
-22.0
 30
0.0
  0
SEQEND
  5
451
  8
4
  0
LINE
  5
2D4
  8
6
  6
STRICHPUNKT
 10
400.0
 20
5.3211303313369172
 30
0.0
 11
400.0
 21
-6.0017470846591996
 31
0.0
  0
CIRCLE
  5
2D5
  8
6
 10
400.0
 20
-523.81134525647212
 30
0.0
 40
2.7999999999999989
  0
LINE
  5
2D6
  8
6
  6
STRICHPUNKT
 10
394.9767679289925
 20
-523.81134525647212
 30
0.0
 11
405.02323207100739
 21
-523.81134525647212
 31
0.0
  0
LINE
  5
2D7
  8
6
  6
STRICHPUNKT
 10
400.0
 20
-528.83457732748036
 30
0.0
 11
400.0
 21
-518.78811318546468
 31
0.0
  0
POLYLINE
  5
2D8
  8
5
  6
STRICHLINIE
 66
     1
 10
0.0
 20
0.0
 30
0.0
  0
VERTEX
  5
452
  8
5
  6
STRICHLINIE
 10
30.804655459442749
 20
-328.24289287848291
 30
0.0
 42
-0.1548592218446504
  0
VERTEX
  5
453
  8
5
  6
STRICHLINIE
 10
17.04048872914268
 20
-377.23096827035982
 30
0.0
  0
VERTEX
  5
454
  8
5
  6
STRICHLINIE
 10
14.2497950097304
 20
-374.3653045489109
 30
0.0
 42
0.1450059179430345
  0
VERTEX
  5
455
  8
5
  6
STRICHLINIE
 10
27.003294308678051
 20
-328.321540237107
 30
0.0
 42
0.0784911828100752
  0
SEQEND
  5
456
  8
5
  6
STRICHLINIE
  0
TEXT
  5
2D9
  8
1
 10
145.8328530534352
 20
-156.886135624763
 30
0.0
 40
12.0
  1
Hebgo KS/420
  0
LINE
  5
2DA
  8
6
  6
STRICHPUNKT
 10
225.0
 20
5.3211303313369172
 30
0.0
 11
225.0
 21
-6.0017470846591996
 31
0.0
  0
LINE
  5
2DB
  8
6
  6
STRICHPUNKT
 10
80.0
 20
5.3211303313369172
 30
0.0
 11
80.0
 21
-6.0017470846591996
 31
0.0
  0
LINE
  5
2DC
  8
6
  6
STRICHPUNKT
 10
46.0
 20
-7.2447664722658374
 30
0.0
 11
46.0
 21
-20.755233527734159
 31
0.0
  0
CIRCLE
  5
2DD
  8
6
 10
24.0
 20
-106.0
 30
0.0
 40
5.0
  0
LINE
  5
2DE
  8
6
  6
STRICHPUNKT
 10
24.0
 20
-99.244766472265823
 30
0.0
 11
24.0
 21
-112.75523352773411
 31
0.0
  0
LINE
  5
2DF
  8
6
  6
STRICHPUNKT
 10
17.24476647226583
 20
-106.0
 30
0.0
 11
30.755233527734159
 21
-106.0
 31
0.0
  0
LINE
  5
2E0
  8
6
  6
STRICHPUNKT
 10
-5.9016008759745091
 20
-22.0
 30
0.0
 11
12.17804393915412
 21
-22.0
 31
0.0
  0
POLYLINE
  5
2E1
  8
6
 66
     1
 10
0.0
 20
0.0
 30
0.0
 70
     1
  0
VERTEX
  5
457
  8
6
 10
0.0
 20
-42.0
 30
0.0
  0
VERTEX
  5
458
  8
6
 10
0.0
 20
-2.0
 30
0.0
  0
VERTEX
  5
459
  8
6
 10
9.0
 20
-2.333333333333484
 30
0.0
  0
VERTEX
  5
45A
  8
6
 10
9.0
 20
-42.0
 30
0.0
  0
SEQEND
  5
45B
  8
6
  0
CIRCLE
  5
2E2
  8
6
 10
46.0
 20
-14.0
 30
0.0
 40
5.0
  0
LINE
  5
2E3
  8
6
  6
STRICHPUNKT
 10
39.24476647226583
 20
-14.0
 30
0.0
 11
52.755233527734163
 21
-14.0
 31
0.0
  0
POLYLINE
  5
2E4
  8
6
  6
STRICHLINIE
 66
     1
 10
0.0
 20
0.0
 30
0.0
  0
VERTEX
  5
45C
  8
6
  6
STRICHLINIE
 10
57.0
 20
-22.0
 30
0.0
  0
VERTEX
  5
45D
  8
6
  6
STRICHLINIE
 10
32.0
 20
-22.0
 30
0.0
  0
VERTEX
  5
45E
  8
6
  6
STRICHLINIE
 10
32.0
 20
0.0
 30
0.0
  0
SEQEND
  5
45F
  8
6
  6
STRICHLINIE
  0
LINE
  5
2E5
  8
6
  6
STRICHPUNKT
 10
-111.4050247852019
 20
5.3211303313369172
 30
0.0
 11
-111.4050247852019
 21
-6.0017470846591996
 31
0.0
  0
LINE
  5
2E6
  8
6
  6
STRICHPUNKT
 10
-76.149970121792649
 20
-22.0
 30
0.0
 11
-61.660079448610297
 21
-22.0
 31
0.0
  0
CIRCLE
  5
2E7
  8
6
 10
-68.905024785201931
 20
-22.0
 30
0.0
 40
5.5
  0
LINE
  5
2E8
  8
6
  6
STRICHPUNKT
 10
-68.905024785201931
 20
-14.755054663409281
 30
0.0
 11
-68.905024785201931
 21
-29.244945336591169
 31
0.0
  0
CIRCLE
  5
2E9
  8
6
 10
-153.9050247852019
 20
-22.0
 30
0.0
 40
5.5
  0
LINE
  5
2EA
  8
6
  6
STRICHPUNKT
 10
-153.9050247852019
 20
-14.755054663409281
 30
0.0
 11
-153.9050247852019
 21
-29.244945336591169
 31
0.0
  0
POLYLINE
  5
2EB
  8
6
  6
STRICHPUNKT
 66
     1
 10
0.0
 20
0.0
 30
0.0
 70
     1
  0
VERTEX
  5
460
  8
6
  6
STRICHPUNKT
 10
-103.4050247852019
 20
-54.27973174109183
 30
0.0
  0
VERTEX
  5
461
  8
6
  6
STRICHPUNKT
 10
-119.4050247852019
 20
-54.27973174109183
 30
0.0
  0
VERTEX
  5
462
  8
6
  6
STRICHPUNKT
 10
-119.4050247852019
 20
-116.1993126770312
 30
0.0
  0
VERTEX
  5
463
  8
6
  6
STRICHPUNKT
 10
-103.4050247852019
 20
-116.1993126770312
 30
0.0
  0
SEQEND
  5
464
  8
6
  6
STRICHPUNKT
  0
LINE
  5
2EC
  8
6
  6
STRICHPUNKT
 10
-136.91478249402459
 20
-14.0
 30
0.0
 11
-85.895267076379241
 21
-14.0
 31
0.0
  0
POLYLINE
  5
2ED
  8
6
  6
STRICHPUNKT
 66
     1
 10
0.0
 20
0.0
 30
0.0
 70
     1
  0
VERTEX
  5
465
  8
6
  6
STRICHPUNKT
 10
-97.905024785201945
 20
-22.0
 30
0.0
  0
VERTEX
  5
466
  8
6
  6
STRICHPUNKT
 10
-97.905024785201945
 20
-62.000000000000448
 30
0.0
  0
VERTEX
  5
467
  8
6
  6
STRICHPUNKT
 10
-124.9050247852019
 20
-62.000000000000448
 30
0.0
  0
VERTEX
  5
468
  8
6
  6
STRICHPUNKT
 10
-124.9050247852019
 20
-22.0
 30
0.0
  0
VERTEX
  5
469
  8
6
  6
STRICHPUNKT
 10
-120.9050247852019
 20
-22.0
 30
0.0
  0
VERTEX
  5
46A
  8
6
  6
STRICHPUNKT
 10
-120.9050247852019
 20
-58.000000000000462
 30
0.0
  0
VERTEX
  5
46B
  8
6
  6
STRICHPUNKT
 10
-101.9050247852019
 20
-58.000000000000462
 30
0.0
  0
VERTEX
  5
46C
  8
6
  6
STRICHPUNKT
 10
-101.9050247852019
 20
-22.0
 30
0.0
  0
SEQEND
  5
46D
  8
6
  6
STRICHPUNKT
  0
LINE
  5
2EE
  8
6
  6
STRICHPUNKT
 10
-136.91478249402459
 20
-106.0
 30
0.0
 11
-85.895267076379241
 21
-106.0
 31
0.0
  0
POLYLINE
  5
2EF
  8
6
 66
     1
 10
0.0
 20
0.0
 30
0.0
 70
     1
  0
VERTEX
  5
46E
  8
6
 10
-124.9050247852019
 20
-22.0
 30
0.0
  0
VERTEX
  5
46F
  8
6
 10
-124.9050247852019
 20
0.0
 30
0.0
  0
VERTEX
  5
470
  8
6
 10
-97.905024785201945
 20
0.0
 30
0.0
  0
VERTEX
  5
471
  8
6
 10
-97.905024785201945
 20
-22.0
 30
0.0
  0
VERTEX
  5
472
  8
6
 10
-101.9050247852019
 20
-22.0
 30
0.0
  0
VERTEX
  5
473
  8
6
 10
-101.9050247852019
 20
-4.0
 30
0.0
  0
VERTEX
  5
474
  8
6
 10
-120.9050247852019
 20
-4.0
 30
0.0
  0
VERTEX
  5
475
  8
6
 10
-120.9050247852019
 20
-22.0
 30
0.0
  0
SEQEND
  5
476
  8
6
  0
POLYLINE
  5
2F0
  8
6
 66
     1
 10
0.0
 20
0.0
 30
0.0
 70
     1
  0
VERTEX
  5
477
  8
6
 10
-133.9050247852019
 20
-42.0
 30
0.0
  0
VERTEX
  5
478
  8
6
 10
-133.9050247852019
 20
-2.0
 30
0.0
  0
VERTEX
  5
479
  8
6
 10
-165.9050247852019
 20
-2.0
 30
0.0
 42
0.4142135623730951
  0
VERTEX
  5
47A
  8
6
 10
-168.9050247852019
 20
-5.0
 30
0.0
  0
VERTEX
  5
47B
  8
6
 10
-168.9050247852019
 20
-39.0
 30
0.0
 42
0.4142135623730951
  0
VERTEX
  5
47C
  8
6
 10
-165.9050247852019
 20
-42.0
 30
0.0
  0
SEQEND
  5
47D
  8
6
  0
LINE
  5
2F1
  8
6
  6
STRICHPUNKT
 10
-161.14997012179259
 20
-22.0
 30
0.0
 11
-146.6600794486103
 21
-22.0
 31
0.0
  0
POLYLINE
  5
2F2
  8
6
 66
     1
 10
0.0
 20
0.0
 30
0.0
 70
     1
  0
VERTEX
  5
47E
  8
6
 10
-88.905024785201931
 20
-42.0
 30
0.0
  0
VERTEX
  5
47F
  8
6
 10
-88.905024785201931
 20
-2.0
 30
0.0
  0
VERTEX
  5
480
  8
6
 10
-56.905024785201931
 20
-2.0
 30
0.0
 42
-0.4142135623730951
  0
VERTEX
  5
481
  8
6
 10
-53.905024785201931
 20
-5.0
 30
0.0
  0
VERTEX
  5
482
  8
6
 10
-53.905024785201931
 20
-39.0
 30
0.0
 42
-0.4142135623730951
  0
VERTEX
  5
483
  8
6
 10
-56.905024785201931
 20
-42.0
 30
0.0
  0
SEQEND
  5
484
  8
6
  0
LINE
  5
2F3
  8
6
  6
STRICHPUNKT
 10
225.0
 20
-528.83457732748036
 30
0.0
 11
225.0
 21
-518.78811318546468
 31
0.0
  0
LINE
  5
2F4
  8
6
  6
STRICHPUNKT
 10
219.9767679289925
 20
-523.81134525647212
 30
0.0
 11
230.02323207100741
 21
-523.81134525647212
 31
0.0
  0
CIRCLE
  5
2F5
  8
6
 10
225.0
 20
-523.81134525647212
 30
0.0
 40
2.7999999999999989
  0
LINE
  5
2F6
  8
6
  6
STRICHPUNKT
 10
-5.9016008759754177
 20
-481.31134525647212
 30
0.0
 11
10.4212765400216
 21
-481.31134525647212
 31
0.0
  0
LINE
  5
2F7
  8
6
  6
STRICHPUNKT
 10
74.976767928992544
 20
-523.81134525647212
 30
0.0
 11
85.023232071007442
 21
-523.81134525647212
 31
0.0
  0
CIRCLE
  5
2F8
  8
6
 10
80.0
 20
-523.81134525647212
 30
0.0
 40
2.7999999999999989
  0
LINE
  5
2F9
  8
6
  6
STRICHPUNKT
 10
80.0
 20
-528.83457732748036
 30
0.0
 11
80.0
 21
-518.78811318546468
 31
0.0
  0
LINE
  5
2FA
  8
6
  6
STRICHPUNKT
 10
-5.9016008759754177
 20
-566.31134525647212
 30
0.0
 11
10.4212765400216
 21
-566.31134525647212
 31
0.0
  0
LINE
  5
2FB
  8
6
  6
STRICHPUNKT
 10
-5.9016008759754177
 20
-523.81134525647212
 30
0.0
 11
10.4212765400216
 21
-523.81134525647212
 31
0.0
  0
POLYLINE
  5
2FC
  8
6
 66
     1
 10
0.0
 20
0.0
 30
0.0
 70
     1
  0
VERTEX
  5
485
  8
6
 10
0.0
 20
-466.31134525647212
 30
0.0
  0
VERTEX
  5
486
  8
6
 10
9.0
 20
-466.31134525647212
 30
0.0
  0
VERTEX
  5
487
  8
6
 10
9.0
 20
-501.31134525647212
 30
0.0
  0
VERTEX
  5
488
  8
6
 10
57.0
 20
-501.31134525647212
 30
0.0
  0
VERTEX
  5
489
  8
6
 10
57.0
 20
-508.31134525647212
 30
0.0
  0
VERTEX
  5
48A
  8
6
 10
9.0
 20
-508.31134525647212
 30
0.0
  0
VERTEX
  5
48B
  8
6
 10
9.0
 20
-539.31134525647212
 30
0.0
  0
VERTEX
  5
48C
  8
6
 10
57.0
 20
-539.31134525647212
 30
0.0
  0
VERTEX
  5
48D
  8
6
 10
57.0
 20
-546.31134525647212
 30
0.0
  0
VERTEX
  5
48E
  8
6
 10
9.0
 20
-546.31134525647212
 30
0.0
  0
VERTEX
  5
48F
  8
6
 10
9.0
 20
-581.31134525647212
 30
0.0
  0
VERTEX
  5
490
  8
6
 10
0.0
 20
-581.31134525647212
 30
0.0
  0
SEQEND
  5
491
  8
6
  0
LINE
  5
2FD
  8
6
  6
STRICHPUNKT
 10
46.0
 20
-550.96153326112005
 30
0.0
 11
46.0
 21
-496.66115725182499
 31
0.0
  0
LINE
  5
2FE
  8
6
  6
STRICHPUNKT
 10
-111.4050247852019
 20
-144.7550546634092
 30
0.0
 11
-111.4050247852019
 21
-159.24494533659069
 31
0.0
  0
LINE
  5
2FF
  8
6
  6
STRICHPUNKT
 10
-118.64997012179261
 20
-152.0
 30
0.0
 11
-104.1600794486102
 21
-152.0
 31
0.0
  0
CIRCLE
  5
300
  8
6
 10
-111.4050247852019
 20
-152.0
 30
0.0
 40
5.5
  0
POLYLINE
  5
301
  8
6
 66
     1
 10
0.0
 20
0.0
 30
0.0
 70
     1
  0
VERTEX
  5
492
  8
6
 10
-126.9050247852019
 20
-2.0
 30
0.0
  0
VERTEX
  5
493
  8
6
 10
-133.9050247852019
 20
-2.0
 30
0.0
  0
VERTEX
  5
494
  8
6
 10
-133.9050247852019
 20
-179.0
 30
0.0
 42
0.4142135623730951
  0
VERTEX
  5
495
  8
6
 10
-130.9050247852019
 20
-182.0
 30
0.0
  0
VERTEX
  5
496
  8
6
 10
-91.905024785201917
 20
-182.0
 30
0.0
 42
0.4142135623730951
  0
VERTEX
  5
497
  8
6
 10
-88.905024785201931
 20
-179.0
 30
0.0
  0
VERTEX
  5
498
  8
6
 10
-88.905024785201931
 20
-2.0
 30
0.0
  0
VERTEX
  5
499
  8
6
 10
-95.905024785201931
 20
-2.0
 30
0.0
  0
VERTEX
  5
49A
  8
6
 10
-95.905024785201931
 20
-173.0
 30
0.0
 42
-0.4142135623730951
  0
VERTEX
  5
49B
  8
6
 10
-97.905024785201945
 20
-175.0
 30
0.0
  0
VERTEX
  5
49C
  8
6
 10
-124.9050247852019
 20
-175.0
 30
0.0
 42
-0.4142135623730951
  0
VERTEX
  5
49D
  8
6
 10
-126.9050247852019
 20
-173.0
 30
0.0
  0
SEQEND
  5
49E
  8
6
  0
POLYLINE
  5
302
  8
6
 66
     1
 10
0.0
 20
0.0
 30
0.0
 70
     1
  0
VERTEX
  5
49F
  8
6
 10
57.0
 20
-6.8965829961257441
 30
0.0
  0
VERTEX
  5
4A0
  8
6
 10
57.0
 20
-27.28810936204172
 30
0.0
 42
-0.2652422099785531
  0
VERTEX
  5
4A1
  8
6
 10
55.526187936379749
 20
-29.87088894668431
 30
0.0
  0
VERTEX
  5
4A2
  8
6
 10
36.473812063620237
 20
-41.129111053315221
 30
0.0
 42
0.2652422099785544
  0
VERTEX
  5
4A3
  8
6
 10
35.0
 20
-43.71189063795827
 30
0.0
  0
VERTEX
  5
4A4
  8
6
 10
35.0
 20
-143.42932071367329
 30
0.0
 42
-0.0942679950976753
  0
VERTEX
  5
4A5
  8
6
 10
34.790465663993928
 20
-144.53082031788151
 30
0.0
  0
VERTEX
  5
4A6
  8
6
 10
20.74940805097048
 20
-180.10149960420759
 30
0.0
 42
-0.307922107474563
  0
VERTEX
  5
4A7
  8
6
 10
17.958942386976549
 20
-182.0
 30
0.0
  0
VERTEX
  5
4A8
  8
6
 10
0.0
 20
-182.0
 30
0.0
  0
VERTEX
  5
4A9
  8
6
 10
0.0
 20
-2.0
 30
0.0
  0
VERTEX
  5
4AA
  8
6
 10
54.105198420399567
 20
-3.8984280147506061
 30
0.0
 42
-0.403977735511994
  0
SEQEND
  5
4AB
  8
6
  0
POLYLINE
  5
303
  8
5
  6
STRICHLINIE
 66
     1
 10
0.0
 20
0.0
 30
0.0
 70
     1
  0
VERTEX
  5
4AC
  8
5
  6
STRICHLINIE
 10
60.0
 20
0.0
 30
0.0
  0
VERTEX
  5
4AD
  8
5
  6
STRICHLINIE
 10
60.0
 20
0.0
 30
0.0
  0
VERTEX
  5
4AE
  8
5
  6
STRICHLINIE
 10
60.0
 20
-388.0
 30
0.0
  0
VERTEX
  5
4AF
  8
5
  6
STRICHLINIE
 10
48.0
 20
-388.0
 30
0.0
 42
-0.4142135623730951
  0
VERTEX
  5
4B0
  8
5
  6
STRICHLINIE
 10
38.0
 20
-378.0
 30
0.0
  0
VERTEX
  5
4B1
  8
5
  6
STRICHLINIE
 10
38.0
 20
-248.0
 30
0.0
  0
VERTEX
  5
4B2
  8
5
  6
STRICHLINIE
 10
-2.0
 20
-241.0
 30
0.0
  0
VERTEX
  5
4B3
  8
5
  6
STRICHLINIE
 10
-2.0
 20
-210.0
 30
0.0
  0
VERTEX
  5
4B4
  8
5
  6
STRICHLINIE
 10
38.0
 20
-203.0
 30
0.0
  0
VERTEX
  5
4B5
  8
5
  6
STRICHLINIE
 10
38.0
 20
-25.0
 30
0.0
  0
VERTEX
  5
4B6
  8
5
  6
STRICHLINIE
 10
38.0
 20
0.0
 30
0.0
  0
SEQEND
  5
4B7
  8
5
  6
STRICHLINIE
  0
DIMENSION
  5
304
  8
1
  2
*D2
 10
-0.0000000000000144
 20
-417.0249930939475
 30
0.0
 11
210.0
 21
-397.8346793149571
 31
0.0
 70
     0
 13
420.0
 23
-12.0
 33
0.0
 14
0.0
 24
-182.0
 34
0.0
  0
POLYLINE
  5
305
  8
6
 66
     1
 10
0.0
 20
0.0
 30
0.0
 70
     1
  0
VERTEX
  5
4B8
  8
6
 10
34.511378421787413
 20
-510.31134525647212
 30
0.0
  0
VERTEX
  5
4B9
  8
6
 10
34.511378421787413
 20
-537.31134525647212
 30
0.0
  0
VERTEX
  5
4BA
  8
6
 10
420.0
 20
-537.31134525647212
 30
0.0
  0
VERTEX
  5
4BB
  8
6
 10
420.0
 20
-510.31134525647212
 30
0.0
  0
SEQEND
  5
4BC
  8
6
  0
POLYLINE
  5
306
  8
6
 66
     1
 10
0.0
 20
0.0
 30
0.0
  0
VERTEX
  5
4BD
  8
6
 10
32.0
 20
0.0
 30
0.0
  0
VERTEX
  5
4BE
  8
6
 10
32.0
 20
0.0
 30
0.0
  0
VERTEX
  5
4BF
  8
6
 10
420.0
 20
0.0
 30
0.0
  0
VERTEX
  5
4C0
  8
6
 10
420.0
 20
-12.0
 30
0.0
 42
-0.4142135623730951
  0
VERTEX
  5
4C1
  8
6
 10
410.0
 20
-22.0
 30
0.0
  0
VERTEX
  5
4C2
  8
6
 10
280.0
 20
-22.0
 30
0.0
  0
VERTEX
  5
4C3
  8
6
 10
273.0
 20
-62.0
 30
0.0
  0
VERTEX
  5
4C4
  8
6
 10
242.0
 20
-62.0
 30
0.0
  0
VERTEX
  5
4C5
  8
6
 10
235.0
 20
-22.0
 30
0.0
  0
VERTEX
  5
4C6
  8
6
 10
57.0
 20
-22.0
 30
0.0
  0
SEQEND
  5
4C7
  8
6
  0
VIEWPORT
  5
22
 67
     1
  8
0
 10
210.0
 20
170.2366863905325
 30
0.0
 40
420.0
 41
340.47337278106511
 68
     1
 69
     1
1001
ACAD
1000
MVIEW
1002
{
1070
    16
1010
0.0
1020
0.0
1030
0.0
1010
0.0
1020
0.0
1030
1.0
1040
0.0
1040
340.47337278106511
1040
210.0
1040
170.2366863905325
1040
50.0
1040
0.0
1040
0.0
1070
     0
1070
   100
1070
     1
1070
     1
1070
     0
1070
     0
1070
     0
1070
     0
1040
0.0
1040
0.0
1040
0.0
1040
5.0
1040
5.0
1040
10.0
1040
10.0
1070
     0
1002
{
1002
}
1002
}
  0
ENDSEC
  0
EOF
