  0
SECTION
  2
HEADER
  9
$ACADVER
  1
AC1009
  9
$INSBASE
 10
0.0
 20
0.0
 30
0.0
  9
$EXTMIN
 10
-169.53413735347041
 20
-941.3573053268974
 30
-0.0000000000000058
  9
$EXTMAX
 10
790.04391484040696
 20
5.3249697081746481
 30
0.0000000000000104
  9
$LIMMIN
 10
-150.0
 20
-150.0
  9
$LIMMAX
 10
150.0
 20
150.0
  9
$ORTHOMODE
 70
     0
  9
$REGENMODE
 70
     1
  9
$FILLMODE
 70
     1
  9
$QTEXTMODE
 70
     0
  9
$MIRRTEXT
 70
     0
  9
$DRAGMODE
 70
     2
  9
$LTSCALE
 40
1.0
  9
$OSMODE
 70
   111
  9
$ATTMODE
 70
     1
  9
$TEXTSIZE
 40
3.5
  9
$TRACEWID
 40
1.0
  9
$TEXTSTYLE
  7
BESCHLAG
  9
$CLAYER
  8
0
  9
$CELTYPE
  6
BYLAYER
  9
$CECOLOR
 62
   256
  9
$DIMSCALE
 40
1.0
  9
$DIMASZ
 40
2.0
  9
$DIMEXO
 40
2.0
  9
$DIMDLI
 40
0.0
  9
$DIMRND
 40
0.0
  9
$DIMDLE
 40
1.0
  9
$DIMEXE
 40
1.0
  9
$DIMTP
 40
0.0
  9
$DIMTM
 40
0.0
  9
$DIMTXT
 40
3.5
  9
$DIMCEN
 40
0.0
  9
$DIMTSZ
 40
0.0
  9
$DIMTOL
 70
     0
  9
$DIMLIM
 70
     0
  9
$DIMTIH
 70
     0
  9
$DIMTOH
 70
     0
  9
$DIMSE1
 70
     0
  9
$DIMSE2
 70
     0
  9
$DIMTAD
 70
     1
  9
$DIMZIN
 70
     8
  9
$DIMBLK
  1

  9
$DIMASO
 70
     1
  9
$DIMSHO
 70
     1
  9
$DIMPOST
  1

  9
$DIMAPOST
  1

  9
$DIMALT
 70
     0
  9
$DIMALTD
 70
     2
  9
$DIMALTF
 40
0.039370078740157
  9
$DIMLFAC
 40
1.0
  9
$DIMTOFL
 70
     1
  9
$DIMTVP
 40
0.0
  9
$DIMTIX
 70
     1
  9
$DIMSOXD
 70
     0
  9
$DIMSAH
 70
     1
  9
$DIMBLK1
  1
OBLIQUE
  9
$DIMBLK2
  1
OBLIQUE
  9
$DIMSTYLE
  2
OPO-SSTRICH
  9
$DIMCLRD
 70
   256
  9
$DIMCLRE
 70
   256
  9
$DIMCLRT
 70
   256
  9
$DIMTFAC
 40
0.7114285714285716
  9
$DIMGAP
 40
1.0
  9
$LUNITS
 70
     2
  9
$LUPREC
 70
     1
  9
$SKETCHINC
 40
1.0
  9
$FILLETRAD
 40
0.0
  9
$AUNITS
 70
     0
  9
$AUPREC
 70
     1
  9
$MENU
  1
D:\ACL_CGWG\CGTAB13
  9
$ELEVATION
 40
0.0
  9
$PELEVATION
 40
0.0
  9
$THICKNESS
 40
0.0
  9
$LIMCHECK
 70
     0
  9
$BLIPMODE
 70
     0
  9
$CHAMFERA
 40
1.0
  9
$CHAMFERB
 40
1.0
  9
$SKPOLY
 70
     0
  9
$TDCREATE
 40
2451739.9299178929
  9
$TDUPDATE
 40
2452087.6717937961
  9
$TDINDWG
 40
0.0009811458
  9
$TDUSRTIMER
 40
0.0009811458
  9
$USRTIMER
 70
     1
  9
$ANGBASE
 50
0.0
  9
$ANGDIR
 70
     0
  9
$PDMODE
 70
    35
  9
$PDSIZE
 40
5.0
  9
$PLINEWID
 40
0.0
  9
$COORDS
 70
     1
  9
$SPLFRAME
 70
     0
  9
$SPLINETYPE
 70
     6
  9
$SPLINESEGS
 70
     8
  9
$ATTDIA
 70
     1
  9
$ATTREQ
 70
     1
  9
$HANDLING
 70
-16383
  9
$HANDSEED
  5
50E
  9
$SURFTAB1
 70
    12
  9
$SURFTAB2
 70
    12
  9
$SURFTYPE
 70
     6
  9
$SURFU
 70
    12
  9
$SURFV
 70
    12
  9
$UCSNAME
  2

  9
$UCSORG
 10
0.0
 20
0.0
 30
0.0
  9
$UCSXDIR
 10
1.0
 20
0.0
 30
0.0
  9
$UCSYDIR
 10
0.0
 20
1.0
 30
0.0
  9
$PUCSNAME
  2

  9
$PUCSORG
 10
0.0
 20
0.0
 30
0.0
  9
$PUCSXDIR
 10
1.0
 20
0.0
 30
0.0
  9
$PUCSYDIR
 10
0.0
 20
1.0
 30
0.0
  9
$USERI1
 70
     0
  9
$USERI2
 70
     0
  9
$USERI3
 70
     0
  9
$USERI4
 70
     0
  9
$USERI5
 70
     0
  9
$USERR1
 40
0.0
  9
$USERR2
 40
0.0
  9
$USERR3
 40
0.0
  9
$USERR4
 40
0.0
  9
$USERR5
 40
0.0
  9
$WORLDVIEW
 70
     1
  9
$SHADEDGE
 70
     3
  9
$SHADEDIF
 70
    70
  9
$TILEMODE
 70
     1
  9
$MAXACTVP
 70
    48
  9
$PLIMCHECK
 70
     0
  9
$PEXTMIN
 10
1.0000000000000000E+020
 20
1.0000000000000000E+020
 30
1.0000000000000000E+020
  9
$PEXTMAX
 10
-1.0000000000000000E+020
 20
-1.0000000000000000E+020
 30
-1.0000000000000000E+020
  9
$PLIMMIN
 10
0.0
 20
0.0
  9
$PLIMMAX
 10
420.0
 20
297.0
  9
$UNITMODE
 70
     0
  9
$VISRETAIN
 70
     1
  9
$PLINEGEN
 70
     0
  9
$PSLTSCALE
 70
     1
  0
ENDSEC
  0
SECTION
  2
TABLES
  0
TABLE
  2
VPORT
 70
     2
  0
VPORT
  2
*ACTIVE
 70
     0
 10
0.0
 20
0.0
 11
1.0
 21
1.0
 12
310.25488874346831
 22
-468.01616780936138
 13
0.0
 23
0.0
 14
0.5
 24
0.5
 15
10.0
 25
10.0
 16
0.0
 26
0.0
 36
1.0
 17
0.0
 27
0.0
 37
0.0
 40
954.36846400694003
 41
1.6070460704607039
 42
50.0
 43
0.0
 44
0.0
 50
0.0
 51
0.0
 71
     0
 72
   800
 73
     1
 74
     1
 75
     0
 76
     0
 77
     0
 78
     0
  0
ENDTAB
  0
TABLE
  2
LTYPE
 70
     3
  0
LTYPE
  2
CONTINUOUS
 70
     0
  3
_______________________________________________
 72
    65
 73
     2
 40
1.0
 49
1.0
 49
0.0
  0
LTYPE
  2
STRICHLINIE
 70
     0
  3
Strichlinie __ __ __ __ __ __ __ __ __ __ __ __
 72
    65
 73
     2
 40
19.04999999999999
 49
12.699999999999999
 49
-6.3499999999999988
  0
LTYPE
  2
STRICHPUNKT
 70
     0
  3
__ . __ . __ . __ . __ . __ . __ . __ . __ . __
 72
    65
 73
     4
 40
1.0
 49
0.5
 49
-0.25
 49
0.0
 49
-0.25
  0
ENDTAB
  0
TABLE
  2
LAYER
 70
     6
  0
LAYER
  2
0
 70
     0
 62
    30
  6
CONTINUOUS
  0
LAYER
  2
1
 70
     0
 62
     2
  6
CONTINUOUS
  0
LAYER
  2
4
 70
     1
 62
     4
  6
CONTINUOUS
  0
LAYER
  2
5
 70
     0
 62
     1
  6
CONTINUOUS
  0
LAYER
  2
6
 70
     0
 62
     3
  6
CONTINUOUS
  0
LAYER
  2
DEFPOINTS
 70
     0
 62
     7
  6
CONTINUOUS
  0
ENDTAB
  0
TABLE
  2
STYLE
 70
     2
  0
STYLE
  2
STANDARD
 70
     0
 40
0.0
 41
1.0
 50
0.0
 71
     0
 42
2.5
  3
txt
  4

  0
STYLE
  2
BESCHLAG
 70
     0
 40
0.0
 41
1.0
 50
0.0
 71
     0
 42
3.5
  3
txt
  4

  0
ENDTAB
  0
TABLE
  2
VIEW
 70
     0
  0
ENDTAB
  0
TABLE
  2
UCS
 70
     0
  0
ENDTAB
  0
TABLE
  2
APPID
 70
     1
  0
APPID
  2
ACAD
 70
     0
  0
ENDTAB
  0
TABLE
  2
DIMSTYLE
 70
     2
  0
DIMSTYLE
  2
OPO-SSTRICH
 70
     0
  3

  4

  5

  6
OBLIQUE
  7
OBLIQUE
 40
1.0
 41
2.0
 42
2.0
 43
0.0
 44
1.0
 45
0.0
 46
1.0
 47
0.0
 48
0.0
140
3.5
141
0.0
142
0.0
143
0.039370078740157
144
1.0
145
0.0
146
0.7114285714285716
147
1.0
 71
     0
 72
     0
 73
     0
 74
     0
 75
     0
 76
     0
 77
     1
 78
     8
170
     0
171
     2
172
     1
173
     1
174
     1
175
     0
176
   256
177
   256
178
   256
  0
DIMSTYLE
  2
OPO-SSTRICH-10
 70
     0
  3

  4

  5

  6

  7

 40
10.0
 41
0.0
 42
2.0
 43
0.0
 44
1.0
 45
0.0
 46
1.0
 47
0.0
 48
0.0
140
1.8
141
2.0
142
1.0
143
0.039370078740157
144
1.0
145
0.0
146
1.388888888888888
147
1.0
 71
     0
 72
     0
 73
     0
 74
     0
 75
     0
 76
     0
 77
     1
 78
     8
170
     0
171
     2
172
     1
173
     0
174
     1
175
     0
176
   256
177
   256
178
   256
  0
ENDTAB
  0
ENDSEC
  0
SECTION
  2
BLOCKS
  0
BLOCK
  8
0
  2
$MODEL_SPACE
 70
     0
 10
0.0
 20
0.0
 30
0.0
  3
$MODEL_SPACE
  1

  0
ENDBLK
  5
1C
  8
0
  0
BLOCK
 67
     1
  8
0
  2
$PAPER_SPACE
 70
     0
 10
0.0
 20
0.0
 30
0.0
  3
$PAPER_SPACE
  1

  0
ENDBLK
  5
19
 67
     1
  8
0
  0
BLOCK
  8
0
  2
_OBLIQUE
 70
     0
 10
0.0
 20
0.0
 30
0.0
  3
_OBLIQUE
  1

  0
LINE
  5
204
  8
0
 62
     0
 10
-0.5
 20
-0.5
 30
0.0
 11
0.5
 21
0.5
 31
0.0
  0
ENDBLK
  5
206
  8
0
  0
BLOCK
  8
0
  2
NULLPUNKT
 70
     0
 10
0.0
 20
0.0
 30
0.0
  3
NULLPUNKT
  1

  0
SOLID
  5
254
  8
5
 10
0.0
 20
0.0
 30
0.0
 11
2.0
 21
0.0
 31
0.0
 12
0.0
 22
-2.0
 32
0.0
 13
0.0
 23
-2.0
 33
0.0
  0
SOLID
  5
255
  8
5
 10
0.0
 20
0.0
 30
0.0
 11
-2.0
 21
0.0
 31
0.0
 12
0.0
 22
2.0
 32
0.0
 13
0.0
 23
2.0
 33
0.0
  0
POLYLINE
  5
256
  8
5
 66
     1
 10
0.0
 20
0.0
 30
0.0
  0
VERTEX
  5
420
  8
5
 10
0.0
 20
2.0
 30
0.0
  0
VERTEX
  5
421
  8
5
 10
0.0
 20
-2.0
 30
0.0
  0
SEQEND
  5
422
  8
5
  0
POLYLINE
  5
257
  8
5
 66
     1
 10
0.0
 20
0.0
 30
0.0
  0
VERTEX
  5
423
  8
5
 10
-2.0
 20
0.0
 30
0.0
  0
VERTEX
  5
424
  8
5
 10
2.0
 20
0.0
 30
0.0
  0
SEQEND
  5
425
  8
5
  0
CIRCLE
  5
258
  8
5
 10
0.0
 20
0.0
 30
0.0
 40
2.0
  0
ENDBLK
  5
25A
  8
0
  0
BLOCK
  8
0
  2
*D2
 70
     1
 10
0.0
 20
0.0
 30
0.0
  3
*D2
  1

  0
LINE
  5
315
  8
1
 10
780.0
 20
-42.0
 30
0.0
 11
780.0
 21
-773.55073313366745
 31
0.0
  0
LINE
  5
316
  8
1
 10
-0.0000000000000012
 20
-42.0
 30
0.0
 11
-0.000000000000046
 21
-773.55073313366745
 31
0.0
  0
LINE
  5
317
  8
1
 10
790.0
 20
-763.55073313366745
 30
0.0
 11
-10.000000000000041
 21
-763.55073313366745
 31
0.0
  0
LINE
  5
318
  8
1
 10
-10.000000000000041
 20
-773.55073313366745
 30
0.0
 11
9.9999999999999538
 21
-753.55073313366745
 31
0.0
  0
LINE
  5
319
  8
1
 10
770.0
 20
-773.55073313366745
 30
0.0
 11
790.0
 21
-753.55073313366745
 31
0.0
  0
TEXT
  5
31A
  8
0
 10
369.02864938608451
 20
-753.20694050065254
 30
0.0
 40
18.0
  1
780
  0
POINT
  5
31B
  8
DEFPOINTS
 62
     0
 10
780.0
 20
-22.0
 30
0.0
  0
POINT
  5
31C
  8
DEFPOINTS
 62
     0
 10
0.0
 20
-22.0
 30
0.0
  0
POINT
  5
31D
  8
DEFPOINTS
 62
     0
 10
-0.0000000000000454
 20
-763.55073313366745
 30
0.0
  0
ENDBLK
  5
314
  8
0
  0
ENDSEC
  0
SECTION
  2
ENTITIES
  0
INSERT
  5
25B
  8
5
  2
NULLPUNKT
 10
0.0
 20
0.0
 30
0.0
  0
POLYLINE
  5
2C4
  8
6
 66
     1
 10
0.0
 20
0.0
 30
0.0
  0
VERTEX
  5
426
  8
6
 10
27.630348123270771
 20
-143.6822442346774
 30
0.0
  0
VERTEX
  5
427
  8
6
 10
528.26793876307056
 20
-54.279731741093201
 30
0.0
  0
VERTEX
  5
428
  8
6
 10
531.73206123693296
 20
-69.90022646712714
 30
0.0
  0
VERTEX
  5
429
  8
6
 10
31.734046946979561
 20
-159.33912595081159
 30
0.0
  0
SEQEND
  5
42A
  8
6
  0
POLYLINE
  5
2C5
  8
6
 66
     1
 10
0.0
 20
0.0
 30
0.0
  0
VERTEX
  5
42B
  8
6
 10
562.2733009672047
 20
-54.723994473124542
 30
0.0
 42
-0.0528391839100589
  0
VERTEX
  5
42C
  8
6
 10
579.3215756759746
 20
-59.590430683734667
 30
0.0
  0
VERTEX
  5
42D
  8
6
 10
577.05936920005115
 20
-62.889282280924817
 30
0.0
 42
0.0478282084168341
  0
VERTEX
  5
42E
  8
6
 10
561.5667520873576
 20
-58.68346920969816
 30
0.0
 42
0.0784911828100752
  0
SEQEND
  5
42F
  8
6
  0
POLYLINE
  5
2C6
  8
5
  6
STRICHLINIE
 66
     1
 10
0.0
 20
0.0
 30
0.0
  0
VERTEX
  5
430
  8
5
  6
STRICHLINIE
 10
32.534444814529252
 20
-158.2118376515491
 30
0.0
  0
VERTEX
  5
431
  8
5
  6
STRICHLINIE
 10
32.53444481452879
 20
-666.76941197503584
 30
0.0
  0
VERTEX
  5
432
  8
5
  6
STRICHLINIE
 10
16.548234978195062
 20
-667.43356185923494
 30
0.0
  0
VERTEX
  5
433
  8
5
  6
STRICHLINIE
 10
16.399979536789029
 20
-159.4992067944558
 30
0.0
  0
SEQEND
  5
434
  8
5
  6
STRICHLINIE
  0
CIRCLE
  5
2C7
  8
6
  6
STRICHLINIE
 10
24.0
 20
-153.0
 30
0.0
 40
10.0
  0
LINE
  5
2C8
  8
6
  6
STRICHPUNKT
 10
-5.9016008759717797
 20
-192.0
 30
0.0
 11
12.17804393915503
 21
-192.0
 31
0.0
  0
POLYLINE
  5
2C9
  8
4
 66
     1
 10
0.0
 20
0.0
 30
0.0
 70
     1
  0
VERTEX
  5
435
  8
4
 10
-53.905024785201022
 20
-42.0
 30
0.0
  0
VERTEX
  5
436
  8
4
 10
-53.905024785201022
 20
-2.0
 30
0.0
  0
VERTEX
  5
437
  8
4
 10
-88.905024785201036
 20
-2.0
 30
0.0
  0
VERTEX
  5
438
  8
4
 10
-88.905024785201036
 20
-42.0
 30
0.0
  0
SEQEND
  5
439
  8
4
  0
POLYLINE
  5
2CA
  8
4
 66
     1
 10
0.0
 20
0.0
 30
0.0
 70
     1
  0
VERTEX
  5
43A
  8
4
 10
0.0
 20
-42.0
 30
0.0
  0
VERTEX
  5
43B
  8
4
 10
0.0
 20
-2.0
 30
0.0
  0
VERTEX
  5
43C
  8
4
 10
9.0
 20
-2.3333333333339392
 30
0.0
  0
VERTEX
  5
43D
  8
4
 10
9.0
 20
-42.0
 30
0.0
  0
SEQEND
  5
43E
  8
4
  0
POLYLINE
  5
2CB
  8
4
 66
     1
 10
0.0
 20
0.0
 30
0.0
 70
     1
  0
VERTEX
  5
43F
  8
4
 10
-133.90502478520099
 20
-42.0
 30
0.0
  0
VERTEX
  5
440
  8
4
 10
-133.90502478520099
 20
-2.0
 30
0.0
  0
VERTEX
  5
441
  8
4
 10
-168.90502478520099
 20
-2.0
 30
0.0
  0
VERTEX
  5
442
  8
4
 10
-168.90502478520099
 20
-42.0
 30
0.0
  0
SEQEND
  5
443
  8
4
  0
POLYLINE
  5
2CC
  8
4
 66
     1
 10
0.0
 20
0.0
 30
0.0
 70
     1
  0
VERTEX
  5
444
  8
4
 10
-124.90502478520099
 20
-22.0
 30
0.0
  0
VERTEX
  5
445
  8
4
 10
-124.90502478520099
 20
0.0
 30
0.0
  0
VERTEX
  5
446
  8
4
 10
-97.905024785201036
 20
0.0
 30
0.0
  0
VERTEX
  5
447
  8
4
 10
-97.905024785201036
 20
-22.0
 30
0.0
  0
VERTEX
  5
448
  8
4
 10
-101.90502478520099
 20
-22.0
 30
0.0
  0
VERTEX
  5
449
  8
4
 10
-101.90502478520099
 20
-4.0
 30
0.0
  0
VERTEX
  5
44A
  8
4
 10
-120.90502478520099
 20
-4.0
 30
0.0
  0
VERTEX
  5
44B
  8
4
 10
-120.90502478520099
 20
-22.0
 30
0.0
  0
SEQEND
  5
44C
  8
4
  0
POLYLINE
  5
2CD
  8
4
 66
     1
 10
0.0
 20
0.0
 30
0.0
  0
VERTEX
  5
44D
  8
4
 10
562.2733009672047
 20
-54.723994473124542
 30
0.0
 42
-0.0528391839100589
  0
VERTEX
  5
44E
  8
4
 10
579.3215756759746
 20
-59.590430683734667
 30
0.0
  0
VERTEX
  5
44F
  8
4
 10
577.05936920005115
 20
-62.889282280924817
 30
0.0
 42
0.0478282084168341
  0
VERTEX
  5
450
  8
4
 10
561.5667520873576
 20
-58.68346920969816
 30
0.0
 42
0.0784911828100752
  0
SEQEND
  5
451
  8
4
  0
POLYLINE
  5
2CE
  8
4
 66
     1
 10
0.0
 20
0.0
 30
0.0
 70
     1
  0
VERTEX
  5
452
  8
4
 10
35.0
 20
-142.36619165232869
 30
0.0
  0
VERTEX
  5
453
  8
4
 10
528.26793876307056
 20
-54.279731741093201
 30
0.0
  0
VERTEX
  5
454
  8
4
 10
531.73206123693296
 20
-69.90022646712714
 30
0.0
  0
VERTEX
  5
455
  8
4
 10
35.0
 20
-158.7549171370174
 30
0.0
  0
SEQEND
  5
456
  8
4
  0
POLYLINE
  5
2CF
  8
4
 66
     1
 10
0.0
 20
0.0
 30
0.0
 70
     1
  0
VERTEX
  5
457
  8
4
 10
34.511378421790141
 20
-870.30736092895847
 30
0.0
  0
VERTEX
  5
458
  8
4
 10
34.511378421790141
 20
-897.30736092895847
 30
0.0
  0
VERTEX
  5
459
  8
4
 10
780.0
 20
-897.30736092895847
 30
0.0
  0
VERTEX
  5
45A
  8
4
 10
780.0
 20
-870.30736092895847
 30
0.0
  0
SEQEND
  5
45B
  8
4
  0
POLYLINE
  5
2D0
  8
4
 66
     1
 10
0.0
 20
0.0
 30
0.0
 70
     1
  0
VERTEX
  5
45C
  8
4
 10
0.0
 20
-826.30736092895859
 30
0.0
  0
VERTEX
  5
45D
  8
4
 10
9.0
 20
-826.30736092895859
 30
0.0
  0
VERTEX
  5
45E
  8
4
 10
9.0
 20
-861.30736092895847
 30
0.0
  0
VERTEX
  5
45F
  8
4
 10
57.0
 20
-861.30736092895847
 30
0.0
  0
VERTEX
  5
460
  8
4
 10
57.0
 20
-868.30736092895859
 30
0.0
  0
VERTEX
  5
461
  8
4
 10
9.0
 20
-868.30736092895859
 30
0.0
  0
VERTEX
  5
462
  8
4
 10
9.0
 20
-899.30736092895859
 30
0.0
  0
VERTEX
  5
463
  8
4
 10
57.0
 20
-899.30736092895859
 30
0.0
  0
VERTEX
  5
464
  8
4
 10
57.0
 20
-906.30736092895859
 30
0.0
  0
VERTEX
  5
465
  8
4
 10
9.0
 20
-906.30736092895859
 30
0.0
  0
VERTEX
  5
466
  8
4
 10
9.0
 20
-941.30736092895859
 30
0.0
  0
VERTEX
  5
467
  8
4
 10
0.0
 20
-941.30736092895859
 30
0.0
  0
SEQEND
  5
468
  8
4
  0
POLYLINE
  5
2D1
  8
4
  6
STRICHPUNKT
 66
     1
 10
0.0
 20
0.0
 30
0.0
 70
     1
  0
VERTEX
  5
469
  8
4
  6
STRICHPUNKT
 10
-103.40502478520099
 20
-54.279731741093201
 30
0.0
  0
VERTEX
  5
46A
  8
4
  6
STRICHPUNKT
 10
-119.40502478520099
 20
-54.279731741093201
 30
0.0
  0
VERTEX
  5
46B
  8
4
  6
STRICHPUNKT
 10
-119.40502478520099
 20
-147.19931267703211
 30
0.0
  0
VERTEX
  5
46C
  8
4
  6
STRICHPUNKT
 10
-103.40502478520099
 20
-147.19931267703211
 30
0.0
  0
SEQEND
  5
46D
  8
4
  6
STRICHPUNKT
  0
POLYLINE
  5
2D2
  8
4
 66
     1
 10
0.0
 20
0.0
 30
0.0
  0
VERTEX
  5
46E
  8
4
 10
32.0
 20
-3.1228070175438911
 30
0.0
  0
VERTEX
  5
46F
  8
4
 10
32.0
 20
0.0
 30
0.0
  0
VERTEX
  5
470
  8
4
 10
32.0
 20
0.0
 30
0.0
  0
VERTEX
  5
471
  8
4
 10
780.0
 20
0.0
 30
0.0
  0
VERTEX
  5
472
  8
4
 10
780.0
 20
-12.0
 30
0.0
 42
-0.4142135623730951
  0
VERTEX
  5
473
  8
4
 10
770.0
 20
-22.0
 30
0.0
  0
VERTEX
  5
474
  8
4
 10
568.0
 20
-22.0
 30
0.0
  0
VERTEX
  5
475
  8
4
 10
561.0
 20
-62.0
 30
0.0
  0
VERTEX
  5
476
  8
4
 10
530.0
 20
-62.0
 30
0.0
  0
VERTEX
  5
477
  8
4
 10
523.0
 20
-22.0
 30
0.0
  0
VERTEX
  5
478
  8
4
 10
57.0
 20
-22.0
 30
0.0
  0
SEQEND
  5
479
  8
4
  0
POLYLINE
  5
2D3
  8
4
 66
     1
 10
0.0
 20
0.0
 30
0.0
 70
     1
  0
VERTEX
  5
47A
  8
4
 10
57.0
 20
-4.0
 30
0.0
  0
VERTEX
  5
47B
  8
4
 10
57.0
 20
-29.0
 30
0.0
  0
VERTEX
  5
47C
  8
4
 10
35.0
 20
-42.0
 30
0.0
  0
VERTEX
  5
47D
  8
4
 10
35.0
 20
-184.0
 30
0.0
  0
VERTEX
  5
47E
  8
4
 10
20.0
 20
-222.0
 30
0.0
  0
VERTEX
  5
47F
  8
4
 10
0.0
 20
-222.0
 30
0.0
  0
VERTEX
  5
480
  8
4
 10
0.0
 20
-2.0
 30
0.0
  0
SEQEND
  5
481
  8
4
  0
POLYLINE
  5
2D4
  8
4
 66
     1
 10
0.0
 20
0.0
 30
0.0
 70
     1
  0
VERTEX
  5
482
  8
4
 10
-126.90502478520099
 20
-2.0
 30
0.0
  0
VERTEX
  5
483
  8
4
 10
-133.90502478520099
 20
-2.0
 30
0.0
  0
VERTEX
  5
484
  8
4
 10
-133.90502478520099
 20
-219.0
 30
0.0
 42
0.4142135623730951
  0
VERTEX
  5
485
  8
4
 10
-130.90502478520099
 20
-222.0
 30
0.0
  0
VERTEX
  5
486
  8
4
 10
-91.905024785201022
 20
-222.0
 30
0.0
 42
0.4142135623730951
  0
VERTEX
  5
487
  8
4
 10
-88.905024785201036
 20
-219.0
 30
0.0
  0
VERTEX
  5
488
  8
4
 10
-88.905024785201036
 20
-2.0
 30
0.0
  0
VERTEX
  5
489
  8
4
 10
-95.905024785201022
 20
-2.0
 30
0.0
  0
VERTEX
  5
48A
  8
4
 10
-95.905024785201022
 20
-213.0
 30
0.0
 42
-0.4142135623730951
  0
VERTEX
  5
48B
  8
4
 10
-97.905024785201036
 20
-215.0
 30
0.0
  0
VERTEX
  5
48C
  8
4
 10
-124.90502478520099
 20
-215.0
 30
0.0
 42
-0.4142135623730951
  0
VERTEX
  5
48D
  8
4
 10
-126.90502478520099
 20
-213.0
 30
0.0
  0
SEQEND
  5
48E
  8
4
  0
POLYLINE
  5
2D5
  8
4
  6
STRICHPUNKT
 66
     1
 10
0.0
 20
0.0
 30
0.0
 70
     1
  0
VERTEX
  5
48F
  8
4
  6
STRICHPUNKT
 10
-97.905024785201036
 20
-22.0
 30
0.0
  0
VERTEX
  5
490
  8
4
  6
STRICHPUNKT
 10
-97.905024785201036
 20
-62.0
 30
0.0
  0
VERTEX
  5
491
  8
4
  6
STRICHPUNKT
 10
-124.90502478520099
 20
-62.0
 30
0.0
  0
VERTEX
  5
492
  8
4
  6
STRICHPUNKT
 10
-124.90502478520099
 20
-22.0
 30
0.0
  0
VERTEX
  5
493
  8
4
  6
STRICHPUNKT
 10
-120.90502478520099
 20
-22.0
 30
0.0
  0
VERTEX
  5
494
  8
4
  6
STRICHPUNKT
 10
-120.90502478520099
 20
-58.0
 30
0.0
  0
VERTEX
  5
495
  8
4
  6
STRICHPUNKT
 10
-101.90502478520099
 20
-58.0
 30
0.0
  0
VERTEX
  5
496
  8
4
  6
STRICHPUNKT
 10
-101.90502478520099
 20
-22.0
 30
0.0
  0
SEQEND
  5
497
  8
4
  6
STRICHPUNKT
  0
LINE
  5
2D6
  8
6
  6
STRICHPUNKT
 10
758.0
 20
5.3211303313364624
 30
0.0
 11
758.0
 21
-6.0017470846596552
 31
0.0
  0
LINE
  5
2D7
  8
6
  6
STRICHPUNKT
 10
760.0
 20
-888.83059299996603
 30
0.0
 11
760.0
 21
-878.78412885795115
 31
0.0
  0
LINE
  5
2D8
  8
6
  6
STRICHPUNKT
 10
754.97676792899426
 20
-883.80736092895847
 30
0.0
 11
765.02323207100926
 21
-883.80736092895847
 31
0.0
  0
CIRCLE
  5
2D9
  8
6
 10
760.0
 20
-883.80736092895847
 30
0.0
 40
2.7999999999999989
  0
POLYLINE
  5
2DA
  8
5
  6
STRICHLINIE
 66
     1
 10
0.0
 20
0.0
 30
0.0
  0
VERTEX
  5
498
  8
5
  6
STRICHLINIE
 10
31.072001253246071
 20
-666.83016944862175
 30
0.0
 42
-0.1548592218446614
  0
VERTEX
  5
499
  8
5
  6
STRICHLINIE
 10
18.331413928960501
 20
-716.09436791984717
 30
0.0
  0
VERTEX
  5
49A
  8
5
  6
STRICHLINIE
 10
15.481624158949669
 20
-713.2874660215374
 30
0.0
 42
0.1450059179430467
  0
VERTEX
  5
49B
  8
5
  6
STRICHLINIE
 10
27.27310364976983
 20
-666.98799531411885
 30
0.0
 42
0.0784911828100752
  0
SEQEND
  5
49C
  8
5
  6
STRICHLINIE
  0
TEXT
  5
2DB
  8
1
 10
304.84177187920739
 20
-195.86563091932831
 30
0.0
 40
18.0
  1
Hebgo KS/780
  0
LINE
  5
2DC
  8
6
  6
STRICHPUNKT
 10
471.0
 20
5.3211303313364624
 30
0.0
 11
471.0
 21
-6.0017470846596552
 31
0.0
  0
LINE
  5
2DD
  8
6
  6
STRICHPUNKT
 10
80.0
 20
5.3211303313364624
 30
0.0
 11
80.0
 21
-6.0017470846596552
 31
0.0
  0
POLYLINE
  5
2DE
  8
6
  6
STRICHLINIE
 66
     1
 10
0.0
 20
0.0
 30
0.0
  0
VERTEX
  5
49D
  8
6
  6
STRICHLINIE
 10
57.0
 20
-22.0
 30
0.0
  0
VERTEX
  5
49E
  8
6
  6
STRICHLINIE
 10
32.0
 20
-22.0
 30
0.0
  0
VERTEX
  5
49F
  8
6
  6
STRICHLINIE
 10
32.0
 20
0.0
 30
0.0
  0
SEQEND
  5
4A0
  8
6
  6
STRICHLINIE
  0
LINE
  5
2DF
  8
6
  6
STRICHPUNKT
 10
39.244766472267649
 20
-14.0
 30
0.0
 11
52.755233527735982
 21
-14.0
 31
0.0
  0
CIRCLE
  5
2E0
  8
6
 10
46.0
 20
-14.0
 30
0.0
 40
5.0
  0
LINE
  5
2E1
  8
6
  6
STRICHPUNKT
 10
46.0
 20
-7.2447664722658374
 30
0.0
 11
46.0
 21
-20.755233527734159
 31
0.0
  0
LINE
  5
2E2
  8
6
  6
STRICHPUNKT
 10
-5.9016008759717797
 20
-22.0
 30
0.0
 11
12.17804393915503
 21
-22.0
 31
0.0
  0
POLYLINE
  5
2E3
  8
6
 66
     1
 10
0.0
 20
0.0
 30
0.0
 70
     1
  0
VERTEX
  5
4A1
  8
6
 10
0.0
 20
-42.0
 30
0.0
  0
VERTEX
  5
4A2
  8
6
 10
0.0
 20
-2.0
 30
0.0
  0
VERTEX
  5
4A3
  8
6
 10
9.0
 20
-2.3333333333339392
 30
0.0
  0
VERTEX
  5
4A4
  8
6
 10
9.0
 20
-42.0
 30
0.0
  0
SEQEND
  5
4A5
  8
6
  0
LINE
  5
2E4
  8
6
  6
STRICHPUNKT
 10
-68.905024785199203
 20
-14.75505466341019
 30
0.0
 11
-68.905024785199203
 21
-29.24494533659162
 31
0.0
  0
CIRCLE
  5
2E5
  8
6
 10
-68.905024785199203
 20
-22.0
 30
0.0
 40
5.5
  0
LINE
  5
2E6
  8
6
  6
STRICHPUNKT
 10
-76.14997012179083
 20
-22.0
 30
0.0
 11
-61.660079448607583
 21
-22.0
 31
0.0
  0
POLYLINE
  5
2E7
  8
6
  6
STRICHPUNKT
 66
     1
 10
0.0
 20
0.0
 30
0.0
 70
     1
  0
VERTEX
  5
4A6
  8
6
  6
STRICHPUNKT
 10
-97.905024785201036
 20
-22.0
 30
0.0
  0
VERTEX
  5
4A7
  8
6
  6
STRICHPUNKT
 10
-97.905024785201036
 20
-62.0
 30
0.0
  0
VERTEX
  5
4A8
  8
6
  6
STRICHPUNKT
 10
-124.90502478520099
 20
-62.0
 30
0.0
  0
VERTEX
  5
4A9
  8
6
  6
STRICHPUNKT
 10
-124.90502478520099
 20
-22.0
 30
0.0
  0
VERTEX
  5
4AA
  8
6
  6
STRICHPUNKT
 10
-120.90502478520099
 20
-22.0
 30
0.0
  0
VERTEX
  5
4AB
  8
6
  6
STRICHPUNKT
 10
-120.90502478520099
 20
-58.0
 30
0.0
  0
VERTEX
  5
4AC
  8
6
  6
STRICHPUNKT
 10
-101.90502478520099
 20
-58.0
 30
0.0
  0
VERTEX
  5
4AD
  8
6
  6
STRICHPUNKT
 10
-101.90502478520099
 20
-22.0
 30
0.0
  0
SEQEND
  5
4AE
  8
6
  6
STRICHPUNKT
  0
POLYLINE
  5
2E8
  8
6
 66
     1
 10
0.0
 20
0.0
 30
0.0
 70
     1
  0
VERTEX
  5
4AF
  8
6
 10
-124.90502478520099
 20
-22.0
 30
0.0
  0
VERTEX
  5
4B0
  8
6
 10
-124.90502478520099
 20
0.0
 30
0.0
  0
VERTEX
  5
4B1
  8
6
 10
-97.905024785201036
 20
0.0
 30
0.0
  0
VERTEX
  5
4B2
  8
6
 10
-97.905024785201036
 20
-22.0
 30
0.0
  0
VERTEX
  5
4B3
  8
6
 10
-101.90502478520099
 20
-22.0
 30
0.0
  0
VERTEX
  5
4B4
  8
6
 10
-101.90502478520099
 20
-4.0
 30
0.0
  0
VERTEX
  5
4B5
  8
6
 10
-120.90502478520099
 20
-4.0
 30
0.0
  0
VERTEX
  5
4B6
  8
6
 10
-120.90502478520099
 20
-22.0
 30
0.0
  0
SEQEND
  5
4B7
  8
6
  0
LINE
  5
2E9
  8
6
  6
STRICHPUNKT
 10
-111.40502478520099
 20
5.3211303313364624
 30
0.0
 11
-111.40502478520099
 21
-6.0017470846596552
 31
0.0
  0
LINE
  5
2EA
  8
6
  6
STRICHPUNKT
 10
-161.1499701217908
 20
-22.0
 30
0.0
 11
-146.66007944860931
 21
-22.0
 31
0.0
  0
POLYLINE
  5
2EB
  8
6
 66
     1
 10
0.0
 20
0.0
 30
0.0
 70
     1
  0
VERTEX
  5
4B8
  8
6
 10
-133.90502478520099
 20
-42.0
 30
0.0
  0
VERTEX
  5
4B9
  8
6
 10
-133.90502478520099
 20
-2.0
 30
0.0
  0
VERTEX
  5
4BA
  8
6
 10
-165.90502478520099
 20
-2.0
 30
0.0
 42
0.4142135623730951
  0
VERTEX
  5
4BB
  8
6
 10
-168.90502478520099
 20
-5.0
 30
0.0
  0
VERTEX
  5
4BC
  8
6
 10
-168.90502478520099
 20
-39.0
 30
0.0
 42
0.4142135623730951
  0
VERTEX
  5
4BD
  8
6
 10
-165.90502478520099
 20
-42.0
 30
0.0
  0
SEQEND
  5
4BE
  8
6
  0
CIRCLE
  5
2EC
  8
6
 10
-153.90502478520099
 20
-22.0
 30
0.0
 40
5.5
  0
LINE
  5
2ED
  8
6
  6
STRICHPUNKT
 10
-153.90502478520099
 20
-14.75505466341019
 30
0.0
 11
-153.90502478520099
 21
-29.24494533659162
 31
0.0
  0
LINE
  5
2EE
  8
6
  6
STRICHPUNKT
 10
-136.9147824940228
 20
-14.0
 30
0.0
 11
-85.895267076379241
 21
-14.0
 31
0.0
  0
POLYLINE
  5
2EF
  8
6
 66
     1
 10
0.0
 20
0.0
 30
0.0
 70
     1
  0
VERTEX
  5
4BF
  8
6
 10
-88.905024785201036
 20
-42.0
 30
0.0
  0
VERTEX
  5
4C0
  8
6
 10
-88.905024785201036
 20
-2.0
 30
0.0
  0
VERTEX
  5
4C1
  8
6
 10
-56.905024785199203
 20
-2.0
 30
0.0
 42
-0.4142135623730951
  0
VERTEX
  5
4C2
  8
6
 10
-53.905024785199203
 20
-5.0
 30
0.0
  0
VERTEX
  5
4C3
  8
6
 10
-53.905024785199203
 20
-39.0
 30
0.0
 42
-0.4142135623730951
  0
VERTEX
  5
4C4
  8
6
 10
-56.905024785199203
 20
-42.0
 30
0.0
  0
SEQEND
  5
4C5
  8
6
  0
LINE
  5
2F0
  8
6
  6
STRICHPUNKT
 10
24.0
 20
-146.24476647226581
 30
0.0
 11
24.0
 21
-159.75523352773411
 31
0.0
  0
LINE
  5
2F1
  8
6
  6
STRICHPUNKT
 10
471.0
 20
-888.83059299996603
 30
0.0
 11
471.0
 21
-878.78412885795115
 31
0.0
  0
CIRCLE
  5
2F2
  8
6
 10
471.0
 20
-883.80736092895847
 30
0.0
 40
2.7999999999999989
  0
LINE
  5
2F3
  8
6
  6
STRICHPUNKT
 10
465.97676792899432
 20
-883.80736092895847
 30
0.0
 11
476.0232320710092
 21
-883.80736092895847
 31
0.0
  0
LINE
  5
2F4
  8
6
  6
STRICHPUNKT
 10
80.0
 20
-888.83059299996603
 30
0.0
 11
80.0
 21
-878.78412885795115
 31
0.0
  0
CIRCLE
  5
2F5
  8
6
 10
80.0
 20
-883.80736092895847
 30
0.0
 40
2.7999999999999989
  0
LINE
  5
2F6
  8
6
  6
STRICHPUNKT
 10
74.976767928994363
 20
-883.80736092895847
 30
0.0
 11
85.023232071009275
 21
-883.80736092895847
 31
0.0
  0
LINE
  5
2F7
  8
6
  6
STRICHPUNKT
 10
46.0
 20
-910.95754893360572
 30
0.0
 11
46.0
 21
-856.65717292430952
 31
0.0
  0
LINE
  5
2F8
  8
6
  6
STRICHPUNKT
 10
-118.6499701217908
 20
-192.0
 30
0.0
 11
-104.1600794486093
 21
-192.0
 31
0.0
  0
LINE
  5
2F9
  8
6
  6
STRICHPUNKT
 10
-136.9147824940228
 20
-137.0
 30
0.0
 11
-85.895267076379241
 21
-137.0
 31
0.0
  0
LINE
  5
2FA
  8
6
  6
STRICHPUNKT
 10
-111.40502478520099
 20
-184.75505466341011
 30
0.0
 11
-111.40502478520099
 21
-199.2449453365916
 31
0.0
  0
CIRCLE
  5
2FB
  8
6
 10
-111.40502478520099
 20
-192.0
 30
0.0
 40
5.5
  0
LINE
  5
2FC
  8
6
  6
STRICHPUNKT
 10
-5.9016008759754177
 20
-841.30736092895859
 30
0.0
 11
10.421276540022509
 21
-841.30736092895859
 31
0.0
  0
LINE
  5
2FD
  8
6
  6
STRICHPUNKT
 10
-5.9016008759754177
 20
-883.80736092895847
 30
0.0
 11
10.421276540022509
 21
-883.80736092895847
 31
0.0
  0
LINE
  5
2FE
  8
6
  6
STRICHPUNKT
 10
-5.9016008759754177
 20
-926.30736092895859
 30
0.0
 11
10.421276540022509
 21
-926.30736092895859
 31
0.0
  0
POLYLINE
  5
2FF
  8
6
 66
     1
 10
0.0
 20
0.0
 30
0.0
 70
     1
  0
VERTEX
  5
4C6
  8
6
 10
0.0
 20
-826.30736092895859
 30
0.0
  0
VERTEX
  5
4C7
  8
6
 10
9.0
 20
-826.30736092895859
 30
0.0
  0
VERTEX
  5
4C8
  8
6
 10
9.0
 20
-861.30736092895847
 30
0.0
  0
VERTEX
  5
4C9
  8
6
 10
57.0
 20
-861.30736092895847
 30
0.0
  0
VERTEX
  5
4CA
  8
6
 10
57.0
 20
-868.30736092895859
 30
0.0
  0
VERTEX
  5
4CB
  8
6
 10
9.0
 20
-868.30736092895859
 30
0.0
  0
VERTEX
  5
4CC
  8
6
 10
9.0
 20
-899.30736092895859
 30
0.0
  0
VERTEX
  5
4CD
  8
6
 10
57.0
 20
-899.30736092895859
 30
0.0
  0
VERTEX
  5
4CE
  8
6
 10
57.0
 20
-906.30736092895859
 30
0.0
  0
VERTEX
  5
4CF
  8
6
 10
9.0
 20
-906.30736092895859
 30
0.0
  0
VERTEX
  5
4D0
  8
6
 10
9.0
 20
-941.30736092895859
 30
0.0
  0
VERTEX
  5
4D1
  8
6
 10
0.0
 20
-941.30736092895859
 30
0.0
  0
SEQEND
  5
4D2
  8
6
  0
CIRCLE
  5
300
  8
6
 10
24.0
 20
-153.0
 30
0.0
 40
5.0
  0
LINE
  5
301
  8
6
  6
STRICHPUNKT
 10
17.244766472267649
 20
-153.0
 30
0.0
 11
30.755233527735982
 21
-153.0
 31
0.0
  0
POLYLINE
  5
302
  8
6
 66
     1
 10
0.0
 20
0.0
 30
0.0
 70
     1
  0
VERTEX
  5
4D3
  8
6
 10
-126.90502478520099
 20
-2.0
 30
0.0
  0
VERTEX
  5
4D4
  8
6
 10
-133.90502478520099
 20
-2.0
 30
0.0
  0
VERTEX
  5
4D5
  8
6
 10
-133.90502478520099
 20
-219.0
 30
0.0
 42
0.4142135623730951
  0
VERTEX
  5
4D6
  8
6
 10
-130.90502478520099
 20
-222.0
 30
0.0
  0
VERTEX
  5
4D7
  8
6
 10
-91.905024785201022
 20
-222.0
 30
0.0
 42
0.4142135623730951
  0
VERTEX
  5
4D8
  8
6
 10
-88.905024785201036
 20
-219.0
 30
0.0
  0
VERTEX
  5
4D9
  8
6
 10
-88.905024785201036
 20
-2.0
 30
0.0
  0
VERTEX
  5
4DA
  8
6
 10
-95.905024785201022
 20
-2.0
 30
0.0
  0
VERTEX
  5
4DB
  8
6
 10
-95.905024785201022
 20
-213.0
 30
0.0
 42
-0.4142135623730951
  0
VERTEX
  5
4DC
  8
6
 10
-97.905024785201036
 20
-215.0
 30
0.0
  0
VERTEX
  5
4DD
  8
6
 10
-124.90502478520099
 20
-215.0
 30
0.0
 42
-0.4142135623730951
  0
VERTEX
  5
4DE
  8
6
 10
-126.90502478520099
 20
-213.0
 30
0.0
  0
SEQEND
  5
4DF
  8
6
  0
POLYLINE
  5
303
  8
6
  6
STRICHPUNKT
 66
     1
 10
0.0
 20
0.0
 30
0.0
 70
     1
  0
VERTEX
  5
4E0
  8
6
  6
STRICHPUNKT
 10
-103.40502478520099
 20
-54.279731741093201
 30
0.0
  0
VERTEX
  5
4E1
  8
6
  6
STRICHPUNKT
 10
-119.40502478520099
 20
-54.279731741093201
 30
0.0
  0
VERTEX
  5
4E2
  8
6
  6
STRICHPUNKT
 10
-119.40502478520099
 20
-147.19931267703211
 30
0.0
  0
VERTEX
  5
4E3
  8
6
  6
STRICHPUNKT
 10
-103.40502478520099
 20
-147.19931267703211
 30
0.0
  0
SEQEND
  5
4E4
  8
6
  6
STRICHPUNKT
  0
POLYLINE
  5
304
  8
5
  6
STRICHLINIE
 66
     1
 10
0.0
 20
0.0
 30
0.0
 70
     1
  0
VERTEX
  5
4E5
  8
5
  6
STRICHLINIE
 10
60.0
 20
0.0
 30
0.0
  0
VERTEX
  5
4E6
  8
5
  6
STRICHLINIE
 10
60.0
 20
0.0
 30
0.0
  0
VERTEX
  5
4E7
  8
5
  6
STRICHLINIE
 10
60.0
 20
-748.0
 30
0.0
  0
VERTEX
  5
4E8
  8
5
  6
STRICHLINIE
 10
48.0
 20
-748.0
 30
0.0
 42
-0.4142135623730951
  0
VERTEX
  5
4E9
  8
5
  6
STRICHLINIE
 10
38.0
 20
-738.0
 30
0.0
  0
VERTEX
  5
4EA
  8
5
  6
STRICHLINIE
 10
38.0
 20
-536.0
 30
0.0
  0
VERTEX
  5
4EB
  8
5
  6
STRICHLINIE
 10
-2.0
 20
-529.0
 30
0.0
  0
VERTEX
  5
4EC
  8
5
  6
STRICHLINIE
 10
-2.0
 20
-498.0
 30
0.0
  0
VERTEX
  5
4ED
  8
5
  6
STRICHLINIE
 10
38.0
 20
-491.0
 30
0.0
  0
VERTEX
  5
4EE
  8
5
  6
STRICHLINIE
 10
38.0
 20
-25.0
 30
0.0
  0
VERTEX
  5
4EF
  8
5
  6
STRICHLINIE
 10
38.0
 20
0.0
 30
0.0
  0
SEQEND
  5
4F0
  8
5
  6
STRICHLINIE
  0
POLYLINE
  5
305
  8
6
 66
     1
 10
0.0
 20
0.0
 30
0.0
 70
     1
  0
VERTEX
  5
4F1
  8
6
 10
57.000000000001819
 20
-6.8965829961252894
 30
0.0
  0
VERTEX
  5
4F2
  8
6
 10
57.0
 20
-27.28810936204172
 30
0.0
 42
-0.2652422099785531
  0
VERTEX
  5
4F3
  8
6
 10
55.526187936380673
 20
-29.87088894668431
 30
0.0
  0
VERTEX
  5
4F4
  8
6
 10
36.473812063621153
 20
-41.129111053314773
 30
0.0
 42
0.2652422099785528
  0
VERTEX
  5
4F5
  8
6
 10
35.0
 20
-43.71189063795827
 30
0.0
  0
VERTEX
  5
4F6
  8
6
 10
35.0
 20
-183.42932071367341
 30
0.0
 42
-0.0942679950976746
  0
VERTEX
  5
4F7
  8
6
 10
34.790465663994837
 20
-184.53082031788099
 30
0.0
  0
VERTEX
  5
4F8
  8
6
 10
20.74940805097139
 20
-220.10149960420759
 30
0.0
 42
-0.3079221074745635
  0
VERTEX
  5
4F9
  8
6
 10
17.958942386976549
 20
-222.0
 30
0.0
  0
VERTEX
  5
4FA
  8
6
 10
0.0
 20
-222.0
 30
0.0
  0
VERTEX
  5
4FB
  8
6
 10
0.0
 20
-2.0
 30
0.0
  0
VERTEX
  5
4FC
  8
6
 10
54.105198420400491
 20
-3.8984280147506061
 30
0.0
 42
-0.403977735511994
  0
SEQEND
  5
4FD
  8
6
  0
DIMENSION
  5
306
  8
1
  2
*D2
 10
-0.0000000000000454
 20
-763.55073313366745
 30
0.0
 11
390.0
 21
-744.36041935467711
 31
0.0
 70
     0
 13
780.0
 23
-22.0
 33
0.0
 14
0.0
 24
-22.0
 34
0.0
  0
POLYLINE
  5
307
  8
6
 66
     1
 10
0.0
 20
0.0
 30
0.0
  0
VERTEX
  5
4FE
  8
6
 10
32.0
 20
0.0
 30
0.0
  0
VERTEX
  5
4FF
  8
6
 10
32.0
 20
0.0
 30
0.0
  0
VERTEX
  5
500
  8
6
 10
780.0
 20
0.0
 30
0.0
  0
VERTEX
  5
501
  8
6
 10
780.0
 20
-12.0
 30
0.0
 42
-0.4142135623730951
  0
VERTEX
  5
502
  8
6
 10
770.0
 20
-22.0
 30
0.0
  0
VERTEX
  5
503
  8
6
 10
568.0
 20
-22.0
 30
0.0
  0
VERTEX
  5
504
  8
6
 10
561.0
 20
-62.0
 30
0.0
  0
VERTEX
  5
505
  8
6
 10
530.0
 20
-62.0
 30
0.0
  0
VERTEX
  5
506
  8
6
 10
523.0
 20
-22.0
 30
0.0
  0
VERTEX
  5
507
  8
6
 10
57.0
 20
-22.0
 30
0.0
  0
SEQEND
  5
508
  8
6
  0
POLYLINE
  5
308
  8
6
 66
     1
 10
0.0
 20
0.0
 30
0.0
 70
     1
  0
VERTEX
  5
509
  8
6
 10
34.511378421790141
 20
-870.30736092895847
 30
0.0
  0
VERTEX
  5
50A
  8
6
 10
34.511378421790141
 20
-897.30736092895847
 30
0.0
  0
VERTEX
  5
50B
  8
6
 10
780.0
 20
-897.30736092895847
 30
0.0
  0
VERTEX
  5
50C
  8
6
 10
780.0
 20
-870.30736092895847
 30
0.0
  0
SEQEND
  5
50D
  8
6
  0
VIEWPORT
  5
22
 67
     1
  8
0
 10
210.0
 20
170.2366863905325
 30
0.0
 40
420.0
 41
340.47337278106511
 68
     1
 69
     1
1001
ACAD
1000
MVIEW
1002
{
1070
    16
1010
0.0
1020
0.0
1030
0.0
1010
0.0
1020
0.0
1030
1.0
1040
0.0
1040
340.47337278106511
1040
210.0
1040
170.2366863905325
1040
50.0
1040
0.0
1040
0.0
1070
     0
1070
   100
1070
     1
1070
     1
1070
     0
1070
     0
1070
     0
1070
     0
1040
0.0
1040
0.0
1040
0.0
1040
5.0
1040
5.0
1040
10.0
1040
10.0
1070
     0
1002
{
1002
}
1002
}
  0
ENDSEC
  0
EOF
